osu file format v14

[General]
AudioFilename: audio.mp3
AudioLeadIn: 0
PreviewTime: 49063
Countdown: 0
SampleSet: Soft
StackLeniency: 0.7
Mode: 3
LetterboxInBreaks: 0
SpecialStyle: 0
WidescreenStoryboard: 1

[Editor]
DistanceSpacing: 1.6
BeatDivisor: 4
GridSize: 4
TimelineZoom: 1

[Metadata]
Title:The Asterisk War (TV Size)
TitleUnicode:The Asterisk War (TV Size)
Artist:Shiena Nishizawa
ArtistUnicode:西沢幸奏
Creator:PnX
Version:Normal
Source:学戦都市アスタリスク 2
Tags:Gakusen Toshi Asterisk The Academy City on the Water 2nd second season J-Pop
BeatmapID:942440
BeatmapSetID:437695

[Difficulty]
HPDrainRate:7.5
CircleSize:4
OverallDifficulty:7.5
ApproachRate:5
SliderMultiplier:1.4
SliderTickRate:1

[Events]
//Background and Video events
0,0,"bg.jpg",0,0
Video,-20,"op.avi"
//Break Periods
//Storyboard Layer 0 (Background)
//Storyboard Layer 1 (Fail)
//Storyboard Layer 2 (Pass)
//Storyboard Layer 3 (Foreground)
//Storyboard Sound Samples

[TimingPoints]
1651,419.58041958042,4,2,0,30,1,0
1651,-133.333333333333,4,2,0,30,0,0
8364,-90.9090909090909,4,2,0,30,0,0
21790,-100,4,2,0,30,0,0
35217,-133.333333333333,4,2,0,30,0,0
41930,-100,4,2,0,30,0,0
48644,-200,4,2,0,30,0,0
49483,-133.333333333333,4,2,0,30,0,0
50322,-90.9090909090909,4,2,0,30,0,1
77175,-100,4,2,0,30,0,0

[HitObjects]
192,192,1651,128,0,2070:0:0:0:0:
64,192,3329,128,0,3748:0:0:0:0:
448,192,4168,128,0,4588:0:0:0:0:
320,192,5007,128,0,6685:0:0:0:0:
64,192,6685,128,0,7525:0:0:0:0:
448,192,7525,1,0,0:0:0:0:
320,192,7944,1,0,0:0:0:0:
64,192,8364,1,0,0:0:0:0:
320,192,8469,1,0,0:0:0:0:
448,192,8678,1,0,0:0:0:0:
192,192,8783,1,0,0:0:0:0:
64,192,8993,1,0,0:0:0:0:
448,192,9098,1,0,0:0:0:0:
320,192,9308,1,0,0:0:0:0:
64,192,9413,1,0,0:0:0:0:
448,192,9518,1,0,0:0:0:0:
192,192,9623,1,0,0:0:0:0:
448,192,10042,1,0,0:0:0:0:
64,192,10147,1,0,0:0:0:0:
192,192,10357,1,0,0:0:0:0:
448,192,10462,1,0,0:0:0:0:
320,192,10671,1,0,0:0:0:0:
64,192,10776,1,0,0:0:0:0:
448,192,10986,1,0,0:0:0:0:
192,192,11091,1,0,0:0:0:0:
320,192,11196,1,0,0:0:0:0:
64,192,11301,1,0,0:0:0:0:
192,192,11720,1,0,0:0:0:0:
448,192,11825,1,0,0:0:0:0:
320,192,12035,1,0,0:0:0:0:
64,192,12140,1,0,0:0:0:0:
448,192,12350,1,0,0:0:0:0:
192,192,12455,1,0,0:0:0:0:
320,192,12664,1,0,0:0:0:0:
448,192,12769,1,0,0:0:0:0:
64,192,12874,1,0,0:0:0:0:
192,192,12979,1,0,0:0:0:0:
320,192,13399,1,0,0:0:0:0:
64,192,13504,1,0,0:0:0:0:
448,192,13713,1,0,0:0:0:0:
192,192,13818,1,0,0:0:0:0:
320,192,14028,1,0,0:0:0:0:
64,192,14133,1,0,0:0:0:0:
448,192,14238,128,0,14657:0:0:0:0:
64,192,14657,128,0,15077:0:0:0:0:
448,192,15077,1,0,0:0:0:0:
320,192,15182,1,0,0:0:0:0:
64,192,15392,1,0,0:0:0:0:
192,192,15497,1,0,0:0:0:0:
448,192,15706,1,0,0:0:0:0:
192,192,15811,1,0,0:0:0:0:
64,192,16021,1,0,0:0:0:0:
320,192,16126,1,0,0:0:0:0:
192,192,16231,1,0,0:0:0:0:
448,192,16336,1,0,0:0:0:0:
64,192,16755,1,0,0:0:0:0:
448,192,16860,1,0,0:0:0:0:
192,192,17070,1,0,0:0:0:0:
320,192,17175,1,0,0:0:0:0:
448,192,17385,1,0,0:0:0:0:
64,192,17490,1,0,0:0:0:0:
320,192,17699,1,0,0:0:0:0:
448,192,17804,1,0,0:0:0:0:
64,192,17909,1,0,0:0:0:0:
192,192,18014,1,0,0:0:0:0:
64,192,18434,1,0,0:0:0:0:
448,192,18748,1,0,0:0:0:0:
192,192,18853,1,0,0:0:0:0:
320,192,19063,1,0,0:0:0:0:
64,192,19168,1,0,0:0:0:0:
448,192,19378,1,0,0:0:0:0:
320,192,19483,1,0,0:0:0:0:
64,192,19588,1,0,0:0:0:0:
192,192,19692,1,0,0:0:0:0:
320,192,19902,1,0,0:0:0:0:
448,192,20112,1,0,0:0:0:0:
192,192,20217,1,0,0:0:0:0:
320,192,20427,1,0,0:0:0:0:
64,192,20532,1,0,0:0:0:0:
448,192,20741,1,0,0:0:0:0:
192,192,20846,1,0,0:0:0:0:
64,192,20951,1,0,0:0:0:0:
320,192,21056,1,0,0:0:0:0:
192,192,21161,1,0,0:0:0:0:
448,192,21266,1,0,0:0:0:0:
320,192,21371,1,0,0:0:0:0:
64,192,21476,1,0,0:0:0:0:
448,192,21581,1,0,0:0:0:0:
320,192,21685,1,0,0:0:0:0:
192,192,21790,1,0,0:0:0:0:
64,192,21790,128,0,22210:0:0:0:0:
448,192,22210,1,0,0:0:0:0:
192,192,22420,1,0,0:0:0:0:
64,192,22525,1,0,0:0:0:0:
320,192,22734,1,0,0:0:0:0:
448,192,22839,1,0,0:0:0:0:
192,192,23049,128,0,23469:0:0:0:0:
320,192,23049,1,0,0:0:0:0:
448,192,23469,1,0,0:0:0:0:
64,192,23469,128,0,23888:0:0:0:0:
192,192,23888,1,0,0:0:0:0:
448,192,24098,1,0,0:0:0:0:
320,192,24203,1,0,0:0:0:0:
64,192,24413,1,0,0:0:0:0:
448,192,24518,1,0,0:0:0:0:
192,192,24727,128,0,25147:0:0:0:0:
320,192,24727,1,0,0:0:0:0:
64,192,25147,1,0,0:0:0:0:
448,192,25147,128,0,25567:0:0:0:0:
320,192,25567,1,0,0:0:0:0:
64,192,25776,1,0,0:0:0:0:
192,192,25881,1,0,0:0:0:0:
448,192,26091,1,0,0:0:0:0:
64,192,26196,1,0,0:0:0:0:
320,192,26406,1,0,0:0:0:0:
448,192,26406,128,0,26825:0:0:0:0:
192,192,26825,128,0,27245:0:0:0:0:
64,192,26825,1,0,0:0:0:0:
320,192,27245,1,0,0:0:0:0:
448,192,27664,128,0,28084:0:0:0:0:
64,192,28084,128,0,28504:0:0:0:0:
320,192,28504,1,0,0:0:0:0:
448,192,28504,128,0,28923:0:0:0:0:
64,192,28923,1,0,0:0:0:0:
320,192,29133,1,0,0:0:0:0:
448,192,29238,1,0,0:0:0:0:
192,192,29448,1,0,0:0:0:0:
64,192,29553,1,0,0:0:0:0:
320,192,29762,128,0,30182:0:0:0:0:
192,192,29762,1,0,0:0:0:0:
64,192,30182,1,0,0:0:0:0:
448,192,30182,128,0,30602:0:0:0:0:
320,192,30602,1,0,0:0:0:0:
64,192,30811,1,0,0:0:0:0:
192,192,30916,1,0,0:0:0:0:
448,192,31126,1,0,0:0:0:0:
320,192,31231,1,0,0:0:0:0:
320,192,31441,128,0,31860:0:0:0:0:
64,192,31441,1,0,0:0:0:0:
448,192,31860,1,0,0:0:0:0:
64,192,31860,128,0,32280:0:0:0:0:
320,192,32280,1,0,0:0:0:0:
448,192,32490,1,0,0:0:0:0:
192,192,32595,1,0,0:0:0:0:
64,192,32804,1,0,0:0:0:0:
320,192,32909,1,0,0:0:0:0:
192,192,33119,1,0,0:0:0:0:
64,192,33119,128,0,33539:0:0:0:0:
320,192,33539,128,0,33958:0:0:0:0:
448,192,33539,1,0,0:0:0:0:
64,192,33958,1,0,0:0:0:0:
192,192,34168,1,0,0:0:0:0:
320,192,34273,1,0,0:0:0:0:
448,192,34378,128,0,34797:0:0:0:0:
64,192,34797,128,0,35217:0:0:0:0:
320,192,35217,1,0,0:0:0:0:
320,192,35532,1,0,0:0:0:0:
64,192,35846,1,0,0:0:0:0:
448,192,36895,1,0,0:0:0:0:
448,192,37210,1,0,0:0:0:0:
192,192,37525,1,0,0:0:0:0:
64,192,38574,1,0,0:0:0:0:
64,192,38888,1,0,0:0:0:0:
320,192,39203,1,0,0:0:0:0:
192,192,40252,1,0,0:0:0:0:
192,192,40567,1,0,0:0:0:0:
448,192,40881,1,0,0:0:0:0:
64,192,41930,128,0,43609:0:0:0:0:
448,192,43609,128,0,45287:0:0:0:0:
192,192,45287,128,0,46965:0:0:0:0:
320,192,46965,128,0,48644:0:0:0:0:
64,192,49483,128,0,49902:0:0:0:0:
448,192,49902,128,0,50322:0:0:0:0:
64,192,50322,1,0,0:0:0:0:
320,192,50322,1,0,0:0:0:0:
192,192,50427,1,0,0:0:0:0:
448,192,50637,1,0,0:0:0:0:
320,192,50741,1,0,0:0:0:0:
64,192,50951,1,0,0:0:0:0:
320,192,51056,1,0,0:0:0:0:
448,192,51266,1,0,0:0:0:0:
192,192,51371,1,0,0:0:0:0:
64,192,51476,1,0,0:0:0:0:
320,192,51581,1,0,0:0:0:0:
64,192,52000,1,0,0:0:0:0:
448,192,52105,1,0,0:0:0:0:
320,192,52315,1,0,0:0:0:0:
64,192,52420,1,0,0:0:0:0:
448,192,52630,1,0,0:0:0:0:
192,192,52734,1,0,0:0:0:0:
64,192,52944,1,0,0:0:0:0:
448,192,53049,1,0,0:0:0:0:
320,192,53154,1,0,0:0:0:0:
192,192,53259,1,0,0:0:0:0:
64,192,53678,1,0,0:0:0:0:
448,192,53783,1,0,0:0:0:0:
192,192,53993,1,0,0:0:0:0:
320,192,54098,1,0,0:0:0:0:
448,192,54308,1,0,0:0:0:0:
64,192,54413,1,0,0:0:0:0:
320,192,54623,1,0,0:0:0:0:
448,192,54727,1,0,0:0:0:0:
64,192,54832,1,0,0:0:0:0:
192,192,54937,1,0,0:0:0:0:
320,192,55357,1,0,0:0:0:0:
64,192,55462,1,0,0:0:0:0:
192,192,55671,1,0,0:0:0:0:
448,192,55776,1,0,0:0:0:0:
64,192,55986,1,0,0:0:0:0:
320,192,56091,1,0,0:0:0:0:
448,192,56301,1,0,0:0:0:0:
64,192,56406,1,0,0:0:0:0:
320,192,56511,1,0,0:0:0:0:
448,192,56616,1,0,0:0:0:0:
192,192,56720,1,0,0:0:0:0:
320,192,56825,1,0,0:0:0:0:
64,192,56930,1,0,0:0:0:0:
192,192,57035,1,0,0:0:0:0:
448,192,57140,1,0,0:0:0:0:
64,192,57350,1,0,0:0:0:0:
192,192,57455,1,0,0:0:0:0:
320,192,57664,1,0,0:0:0:0:
64,192,57769,1,0,0:0:0:0:
448,192,57979,1,0,0:0:0:0:
192,192,58084,1,0,0:0:0:0:
64,192,58189,1,0,0:0:0:0:
448,192,58294,1,0,0:0:0:0:
320,192,58713,1,0,0:0:0:0:
64,192,58818,1,0,0:0:0:0:
320,192,59028,1,0,0:0:0:0:
448,192,59133,1,0,0:0:0:0:
192,192,59343,1,0,0:0:0:0:
64,192,59448,1,0,0:0:0:0:
448,192,59657,1,0,0:0:0:0:
64,192,59762,1,0,0:0:0:0:
320,192,59867,1,0,0:0:0:0:
192,192,59972,1,0,0:0:0:0:
448,192,60287,1,0,0:0:0:0:
64,192,60392,1,0,0:0:0:0:
320,192,60706,1,0,0:0:0:0:
192,192,60811,1,0,0:0:0:0:
64,192,61021,1,0,0:0:0:0:
320,192,61126,1,0,0:0:0:0:
448,192,61231,1,0,0:0:0:0:
192,192,61336,1,0,0:0:0:0:
64,192,61546,1,0,0:0:0:0:
448,192,61651,1,0,0:0:0:0:
192,192,61860,1,0,0:0:0:0:
320,192,62070,1,0,0:0:0:0:
448,192,62385,1,0,0:0:0:0:
192,192,62490,1,0,0:0:0:0:
448,192,62699,1,0,0:0:0:0:
64,192,62804,1,0,0:0:0:0:
320,192,62909,1,0,0:0:0:0:
448,192,63014,1,0,0:0:0:0:
192,192,63119,1,0,0:0:0:0:
320,192,63224,1,0,0:0:0:0:
64,192,63329,1,0,0:0:0:0:
192,192,63434,1,0,0:0:0:0:
448,192,63539,1,0,0:0:0:0:
320,192,63644,1,0,0:0:0:0:
64,192,63748,1,0,0:0:0:0:
448,192,63748,1,0,0:0:0:0:
192,192,63853,1,0,0:0:0:0:
320,192,64063,1,0,0:0:0:0:
64,192,64168,1,0,0:0:0:0:
192,192,64378,1,0,0:0:0:0:
448,192,64483,1,0,0:0:0:0:
64,192,64692,1,0,0:0:0:0:
192,192,64797,1,0,0:0:0:0:
448,192,64902,1,0,0:0:0:0:
320,192,65007,1,0,0:0:0:0:
448,192,65427,1,0,0:0:0:0:
192,192,65532,1,0,0:0:0:0:
320,192,65741,1,0,0:0:0:0:
64,192,65846,1,0,0:0:0:0:
320,192,66056,1,0,0:0:0:0:
192,192,66161,1,0,0:0:0:0:
448,192,66371,1,0,0:0:0:0:
192,192,66476,1,0,0:0:0:0:
320,192,66581,1,0,0:0:0:0:
64,192,66685,1,0,0:0:0:0:
448,192,66895,1,0,0:0:0:0:
64,192,67000,1,0,0:0:0:0:
320,192,67105,1,0,0:0:0:0:
192,192,67210,1,0,0:0:0:0:
64,192,67420,1,0,0:0:0:0:
448,192,67525,1,0,0:0:0:0:
320,192,67734,1,0,0:0:0:0:
64,192,67839,1,0,0:0:0:0:
192,192,68049,1,0,0:0:0:0:
64,192,68154,1,0,0:0:0:0:
320,192,68259,1,0,0:0:0:0:
448,192,68364,1,0,0:0:0:0:
64,192,68678,1,0,0:0:0:0:
448,192,68783,1,0,0:0:0:0:
192,192,69098,1,0,0:0:0:0:
320,192,69203,1,0,0:0:0:0:
64,192,69518,1,0,0:0:0:0:
192,192,69623,1,0,0:0:0:0:
448,192,69727,1,0,0:0:0:0:
320,192,69937,1,0,0:0:0:0:
192,192,70042,1,0,0:0:0:0:
448,192,70147,1,0,0:0:0:0:
64,192,70252,1,0,0:0:0:0:
192,192,70357,1,0,0:0:0:0:
448,192,70462,1,0,0:0:0:0:
64,192,70776,1,0,0:0:0:0:
448,192,70881,1,0,0:0:0:0:
320,192,71091,1,0,0:0:0:0:
192,192,71196,1,0,0:0:0:0:
448,192,71406,1,0,0:0:0:0:
320,192,71511,1,0,0:0:0:0:
64,192,71616,1,0,0:0:0:0:
192,192,71720,1,0,0:0:0:0:
64,192,72140,1,0,0:0:0:0:
448,192,72245,1,0,0:0:0:0:
320,192,72455,1,0,0:0:0:0:
192,192,72560,1,0,0:0:0:0:
448,192,72769,1,0,0:0:0:0:
64,192,72874,1,0,0:0:0:0:
192,192,72979,1,0,0:0:0:0:
448,192,73084,1,0,0:0:0:0:
320,192,73189,1,0,0:0:0:0:
64,192,73294,1,0,0:0:0:0:
192,192,73399,1,0,0:0:0:0:
320,192,73504,1,0,0:0:0:0:
448,192,73609,1,0,0:0:0:0:
192,192,73713,1,0,0:0:0:0:
64,192,73818,1,0,0:0:0:0:
320,192,74028,1,0,0:0:0:0:
192,192,74238,1,0,0:0:0:0:
448,192,74343,1,0,0:0:0:0:
64,192,74553,1,0,0:0:0:0:
448,192,74762,1,0,0:0:0:0:
320,192,74972,1,0,0:0:0:0:
64,192,75077,1,0,0:0:0:0:
448,192,75182,1,0,0:0:0:0:
192,192,75287,1,0,0:0:0:0:
320,192,75392,1,0,0:0:0:0:
64,192,75497,1,0,0:0:0:0:
448,192,75602,1,0,0:0:0:0:
192,192,75706,1,0,0:0:0:0:
448,192,75916,1,0,0:0:0:0:
64,192,76021,1,0,0:0:0:0:
192,192,76231,1,0,0:0:0:0:
448,192,76336,1,0,0:0:0:0:
320,192,76441,1,0,0:0:0:0:
64,192,76546,1,0,0:0:0:0:
192,192,76651,1,0,0:0:0:0:
448,192,76860,1,0,0:0:0:0:
64,192,76965,1,0,0:0:0:0:
320,192,77175,1,0,0:0:0:0:
192,192,77175,1,0,0:0:0:0:
448,192,77490,1,0,0:0:0:0:
64,192,77595,1,0,0:0:0:0:
320,192,77804,1,0,0:0:0:0:
192,192,77909,1,0,0:0:0:0:
64,192,78119,1,0,0:0:0:0:
320,192,78224,1,0,0:0:0:0:
448,192,78329,1,0,0:0:0:0:
192,192,78434,1,0,0:0:0:0:
320,192,78644,1,0,0:0:0:0:
64,192,78853,1,0,0:0:0:0:
448,192,79168,1,0,0:0:0:0:
192,192,79273,1,0,0:0:0:0:
64,192,79483,1,0,0:0:0:0:
448,192,79588,1,0,0:0:0:0:
320,192,79797,1,0,0:0:0:0:
192,192,79902,1,0,0:0:0:0:
448,192,80007,1,0,0:0:0:0:
64,192,80112,1,0,0:0:0:0:
320,192,80532,1,0,0:0:0:0:
192,192,80846,1,0,0:0:0:0:
448,192,80951,1,0,0:0:0:0:
64,192,81161,1,0,0:0:0:0:
320,192,81266,1,0,0:0:0:0:
192,192,81371,1,0,0:0:0:0:
448,192,81476,1,0,0:0:0:0:
64,192,81581,1,0,0:0:0:0:
320,192,81685,1,0,0:0:0:0:
448,192,81790,1,0,0:0:0:0:
192,192,82000,1,0,0:0:0:0:
64,192,82210,1,0,0:0:0:0:
320,192,82350,1,0,0:0:0:0:
192,192,82490,1,0,0:0:0:0:
448,192,82630,1,0,0:0:0:0:
320,192,82769,1,0,0:0:0:0:
64,192,82909,1,0,0:0:0:0:
192,192,83049,1,0,0:0:0:0:
448,192,83154,1,0,0:0:0:0:
320,192,83259,1,0,0:0:0:0:
64,192,83364,1,0,0:0:0:0:
448,192,83469,1,0,0:0:0:0:
192,192,83574,1,0,0:0:0:0:
320,192,83678,1,0,0:0:0:0:
64,192,83783,1,0,0:0:0:0:
