osu file format v14

[General]
AudioFilename: Shark.mp3
AudioLeadIn: 0
PreviewTime: 172367
Countdown: 1
SampleSet: Normal
StackLeniency: 0.7
Mode: 0
LetterboxInBreaks: 0
WidescreenStoryboard: 1

[Editor]
Bookmarks: 154550,186225,207847
DistanceSpacing: 0.9
BeatDivisor: 4
GridSize: 4
TimelineZoom: 2.599999

[Metadata]
Title:Shark
TitleUnicode:Shark
Artist:Shiena Nishizawa
ArtistUnicode:Shiena Nishizawa
Creator:cRyo[iceeicee]
Version:Insane
Source:
Tags:
BeatmapID:1250888
BeatmapSetID:591049

[Difficulty]
HPDrainRate:7
CircleSize:4.2
OverallDifficulty:8
ApproachRate:9.2
SliderMultiplier:1.8
SliderTickRate:1

[Events]
//Background and Video events
0,0,"Rel.full.68669.jpg",0,0
//Break Periods
//Storyboard Layer 0 (Background)
//Storyboard Layer 1 (Fail)
//Storyboard Layer 2 (Pass)
//Storyboard Layer 3 (Foreground)
//Storyboard Sound Samples

[TimingPoints]
134,304.568527918782,4,1,1,30,1,0
134,-133.333333333333,4,1,1,20,0,0
4397,-80,4,1,1,30,0,0
5007,-80,4,1,10,60,0,0
5311,-80,4,1,1,60,0,0
5411,-80,4,1,10,60,0,0
5920,-80,4,1,1,60,0,0
6020,-80,4,1,10,60,0,0
6529,-80,4,1,1,60,0,0
6629,-80,4,1,10,60,0,0
7139,-80,4,1,1,60,0,0
7291,-83.3333333333333,4,1,1,40,0,0
9271,-100,4,1,2,30,0,0
9727,-90.9090909090909,4,1,1,50,0,0
14144,-66.6666666666667,4,1,1,50,0,0
14601,-90.9090909090909,4,1,1,50,0,0
19626,-90.9090909090909,4,1,1,20,0,0
19930,-133.333333333333,4,1,1,20,0,0
21758,-133.333333333333,4,1,1,50,0,0
22062,-90.9090909090909,4,3,15,100,0,0
22367,-90.9090909090909,4,1,1,50,0,0
22519,-181.818181818182,4,1,1,30,0,0
24194,-90.9090909090909,4,1,1,50,0,0
24499,-90.9090909090909,4,3,15,100,0,0
24804,-90.9090909090909,4,1,1,50,0,0
24956,-181.818181818181,4,1,1,30,0,0
26631,-90.9090909090909,4,1,1,50,0,0
26936,-90.9090909090909,4,3,15,100,0,0
27240,-90.9090909090909,4,1,1,50,0,0
27340,-90.9090909090909,4,3,15,100,0,0
27392,-181.818181818181,4,1,1,30,0,0
29372,-90.9090909090909,4,3,15,100,0,0
29677,-90.9090909090909,4,1,1,50,0,0
29829,-181.818181818181,4,1,1,40,0,0
30210,-76.9230769230769,4,1,1,40,0,0
30590,-90.9090909090909,4,1,1,30,0,0
31199,-133.333333333333,4,1,1,40,0,0
31656,-100,4,1,1,50,0,0
35616,-100,4,1,1,70,0,0
35768,-100,4,1,1,50,0,0
35868,-100,4,1,1,70,0,0
36453,-100,4,1,1,50,0,0
40946,-133.333333333333,4,1,1,20,0,0
41403,-90.9090909090909,4,1,1,50,0,0
49930,-62.5,4,1,1,50,0,0
50387,-62.5,4,1,1,50,0,0
50487,-90.9090909090909,4,1,1,50,0,0
54194,-90.9090909090909,4,1,2,50,0,0
55413,-90.9090909090909,4,1,1,50,0,0
58458,-76.9230769230769,4,1,1,50,0,0
58558,-90.9090909090909,4,1,1,50,0,0
59829,-71.4285714285714,4,1,1,50,0,0
59981,-71.4285714285714,4,1,15,100,0,0
60210,-71.4285714285714,4,1,1,50,0,0
60590,-133.333333333333,4,1,1,41,0,0
60895,-90.9090909090909,4,1,2,50,0,0
67443,-90.9090909090909,4,1,1,50,0,0
75057,-133.333333333333,4,1,1,50,0,0
75310,-90.9090909090909,4,1,2,50,0,0
77951,-90.9090909090909,4,1,1,50,0,0
78179,-90.9090909090909,4,1,2,50,0,0
79321,-76.9230769230769,4,1,2,50,0,0
80083,-76.9230769230769,4,1,15,80,0,0
80540,-76.9230769230769,4,1,1,60,0,0
80692,-181.818181818181,4,2,2,30,0,0
87849,-100,4,1,1,50,0,0
89220,-100,4,1,2,50,0,0
89677,-83.3333333333333,4,1,2,50,0,0
89829,-200,4,1,1,50,0,0
89929,-100,4,1,1,50,0,0
94397,-100,4,1,15,50,0,0
94854,-100,4,1,1,50,0,0
95463,-76.9230769230769,4,1,1,50,0,0
97595,-100,4,1,2,50,0,0
100489,-133.333333333333,4,1,15,70,0,0
101098,-76.9230769230769,4,1,1,60,0,0
101198,-90.9090909090909,4,1,1,50,0,0
102316,-90.9090909090909,4,1,1,50,0,0
102621,-90.9090909090909,4,1,2,50,0,0
103078,-90.9090909090909,4,1,1,50,0,0
104753,-90.9090909090909,4,1,2,50,0,0
105514,-90.9090909090909,4,1,1,50,0,0
108408,-76.9230769230769,4,1,2,50,0,0
108508,-90.9090909090909,4,1,2,50,0,0
108712,-90.9090909090909,4,1,15,70,0,0
109626,-62.5,4,1,2,50,0,0
110311,-90.9090909090909,4,1,2,50,0,0
110844,-90.9090909090909,4,1,1,50,0,0
112215,-90.9090909090909,4,1,2,50,0,0
113281,-90.9090909090909,4,1,1,50,0,0
114804,-90.9090909090909,4,1,2,50,0,0
115260,-90.9090909090909,4,1,1,50,0,0
117316,-125,4,1,2,50,0,0
117416,-90.9090909090909,4,1,1,50,0,0
118154,-76.9230769230769,4,1,1,50,0,0
118254,-90.9090909090909,4,1,2,50,0,0
119524,-76.9230769230769,4,1,2,50,0,0
119624,-90.9090909090909,4,1,15,100,0,0
119905,-90.9090909090909,4,1,2,50,0,0
120286,-200,4,1,1,25,0,0
120743,304.568527918782,3,1,1,30,1,0
120743,-100,4,1,1,20,0,0
128052,-133.333333333333,4,1,45,40,0,0
128128,-200,4,1,2,20,0,0
129880,-133.333333333333,4,1,45,40,0,0
129980,-200,4,1,2,20,0,0
131707,-133.333333333333,4,1,2,40,0,0
131807,-133.333333333333,4,1,2,20,0,0
132621,-200,4,1,2,20,0,0
132721,-133.333333333333,4,1,2,20,0,0
133535,-133.333333333333,4,1,2,40,0,0
133635,-200,4,1,2,20,0,0
135362,-200,4,1,1,45,0,0
135971,-133.333333333333,4,3,45,80,0,0
136276,-133.333333333333,4,3,45,60,0,0
136376,-133.333333333333,4,3,45,80,0,0
143585,-133.333333333333,4,3,45,50,0,0
143685,-133.333333333333,4,3,45,80,0,0
144499,-125,4,3,45,80,0,0
145413,-125,4,3,45,60,0,0
145513,-125,4,3,45,80,0,0
146326,-111.111111111111,4,3,45,90,0,0
147240,-111.111111111111,4,3,45,80,0,0
147340,-111.111111111111,4,3,45,90,0,0
147697,-111.111111111111,4,3,45,100,0,0
148154,-100,4,3,45,90,0,0
148458,-100,4,3,45,100,0,0
149068,-100,4,3,45,90,0,0
149168,-100,4,3,45,100,0,0
149981,304.568527918782,4,1,1,30,1,0
149981,-100,4,3,45,80,0,0
150590,-133.333333333333,4,3,45,80,0,0
151199,304.568527918782,3,1,1,30,1,0
151199,-76.9230769230769,4,1,1,50,0,0
159117,304.568527918782,3,1,1,30,1,0
159193,-76.9230769230769,3,1,1,50,0,0
159878,-153.846153846153,4,1,1,50,0,0
159980,-76.9230769230769,4,1,1,50,0,0
160792,-153.846153846153,4,1,1,50,0,0
160893,-76.9230769230769,4,1,1,50,0,0
161705,-153.846153846153,4,1,1,50,0,0
161807,-76.9230769230769,4,1,1,50,0,0
162619,-153.846153846153,4,1,1,50,0,0
162721,-76.9230769230769,4,1,1,50,0,0
163533,-153.846153846153,4,1,1,50,0,0
163635,-76.9230769230769,4,1,1,50,0,0
164446,-153.846153846153,4,1,1,50,0,0
164548,-76.9230769230769,4,1,1,50,0,0
165360,-153.846153846153,4,1,1,50,0,0
165462,-76.9230769230769,4,1,1,50,0,0
166426,-66.6666666666667,4,1,1,60,0,0
166832,-76.9230769230769,4,1,1,60,0,0
167035,304.568527918782,4,1,1,30,1,0
167035,-76.9230769230769,4,1,2,60,0,0
168712,-76.9230769230769,4,1,2,60,0,0
169017,-76.9230769230769,4,1,15,70,0,0
169321,-76.9230769230769,4,1,1,60,0,0
170540,-90.9090909090909,4,1,2,60,0,0
171222,-90.9090909090909,4,1,1,5,0,0
172519,-90.9090909090909,4,1,2,35,0,0
172974,-76.9230769230769,4,1,1,60,0,0
173076,-90.9090909090909,4,1,2,50,0,0
174953,-90.9090909090909,4,1,1,50,0,0
178304,-90.9090909090909,4,1,2,50,0,0
178535,-90.9090909090909,4,1,1,50,0,0
179522,-90.9090909090909,4,1,2,50,0,0
179753,-90.9090909090909,4,1,1,50,0,0
180892,-90.9090909090909,4,1,15,60,0,0
181197,-90.9090909090909,4,1,1,50,0,0
181502,-62.5,4,1,1,65,0,0
182189,-90.9090909090909,4,1,1,50,0,0
183938,-90.9090909090909,4,1,2,50,0,0
184699,-90.9090909090909,4,1,1,50,0,0
187897,-90.9090909090909,4,1,1,50,0,0
189192,-76.9230769230769,4,1,1,50,0,0
192618,-90.9090909090909,4,1,1,50,0,0
194598,-200,4,1,1,60,0,0
195055,-66.6666666666667,4,1,1,60,0,0
197035,-66.6666666666667,4,1,15,80,0,0
197491,-66.6666666666667,4,1,1,60,0,0
199471,-66.6666666666667,4,1,33,60,0,0
199928,-66.6666666666667,4,1,1,50,0,0
201908,-66.6666666666667,4,1,15,70,0,0
202364,-66.6666666666667,4,1,1,50,0,0
204344,-66.6666666666667,4,3,45,80,0,0

[Colours]
Combo1 : 255,255,255
Combo2 : 149,197,255
Combo3 : 159,255,159
Combo4 : 111,255,255
Combo5 : 168,168,255
Combo6 : 249,151,166
Combo7 : 255,74,74

[HitObjects]
108,76,134,5,0,0:0:0:0:
108,76,286,2,0,L|112:159,1,67.5000025749208,0|0,0:0|3:0,0:0:0:0:
104,300,590,2,2,B|74:314|74:314|115:190,1,135.000005149842
172,184,1047,5,0,1:2:0:0:
248,156,1199,1,0,0:0:0:0:
324,128,1352,1,0,0:0:0:0:
448,88,1504,6,2,B|397:106|397:106|447:132|447:132|452:96,1,135.000005149842
392,200,2570,69,0,0:0:0:0:
392,200,2722,2,0,L|458:187,1,67.5000025749208,0|0,0:0|3:0,0:0:0:0:
296,320,3027,2,2,B|320:232|320:232|344:272,1,135.000005149842
324,160,3484,5,0,1:2:0:0:
248,132,3636,1,0,0:0:0:0:
172,104,3788,1,0,0:0:0:0:
54,86,3941,6,2,B|26:68|26:68|96:60|96:60|76:84,1,135.000005149842
53,324,4397,6,0,L|56:268,1,56.25,0|0,0:0|3:0,0:0:0:0:
136,200,4550,1,0,0:0:0:0:
136,200,4626,1,0,0:0:0:0:
136,200,4702,2,0,B|132:288|132:288|168:268,1,112.5,0|0,0:0|3:0,0:0:0:0:
284,336,5007,53,2,0:2:0:0:
344,152,5159,1,2,0:2:0:0:
436,232,5311,1,0,0:3:0:0:
364,80,5463,1,4,0:3:0:0:
368,64,5540,1,4,0:3:0:0:
372,48,5616,1,0,0:3:0:0:
432,144,5768,37,2,0:2:0:0:
272,92,5920,1,0,0:2:0:0:
192,280,6073,1,0,0:2:0:0:
335,173,6225,53,2,0:2:0:0:
136,208,6377,1,2,0:2:0:0:
304,260,6529,1,0,0:0:0:0:
180,112,6682,5,4,0:3:0:0:
172,104,6758,1,4,0:3:0:0:
164,96,6834,1,0,0:2:0:0:
28,224,6986,1,2,0:2:0:0:
80,44,7139,1,0,0:2:0:0:
280,132,7291,21,0,0:0:0:0:
280,132,7367,1,0,0:0:0:0:
280,132,7443,2,0,B|332:116|332:116|400:140,1,107.999996704102,0|0,0:0|1:0,0:0:0:0:
464,124,7672,1,0,0:0:0:0:
464,124,7748,2,0,B|451:177|451:177|411:211,1,107.999996704102,0|0,0:0|1:0,0:0:0:0:
380,288,7976,1,0,0:0:0:0:
380,288,8052,2,0,B|340:250|340:250|330:198,1,107.999996704102,0|0,0:0|1:0,0:0:0:0:
260,136,8281,1,0,0:0:0:0:
260,136,8357,2,0,L|180:144,1,53.9999983520508,0|0,0:0|3:0,0:0:0:0:
40,152,8509,5,2,0:0:0:0:
44,144,8814,5,2,0:0:0:0:
468,240,8966,1,2,0:0:0:0:
100,232,9271,5,2,1:2:0:0:
96,236,9347,1,2,1:2:0:0:
92,240,9423,1,2,1:2:0:0:
88,244,9499,1,2,1:2:0:0:
84,248,9575,1,2,1:2:0:0:
80,252,9727,6,2,B|147:238|147:238|220:247|220:247|279:231,1,198.000006042481
456,160,10184,37,2,0:0:0:0:
336,304,10337,1,2,0:0:0:0:
232,164,10489,1,0,0:0:0:0:
348,224,10641,53,2,0:0:0:0:
468,84,10793,1,0,0:0:0:0:
264,152,10946,1,2,0:0:0:0:
468,228,11098,5,2,0:0:0:0:
352,40,11250,1,0,0:0:0:0:
196,176,11403,38,0,L|200:248,1,49.5000015106202,2|0,0:0|3:0,0:0:0:0:
176,188,11555,2,0,L|180:260,1,49.5000015106202,2|0,0:0|3:0,0:0:0:0:
356,112,11707,2,0,L|352:40,1,49.5000015106202,2|0,0:0|3:0,0:0:0:0:
376,100,11859,2,0,L|372:28,1,49.5000015106202,2|0,0:0|3:0,0:0:0:0:
228,40,12012,2,0,L|152:52,1,49.5000015106202,2|0,0:0|3:0,0:0:0:0:
24,136,12164,38,2,B|84:126|84:126|122:142|122:142|216:128,1,198.000006042481,6|2,1:1|0:0,0:0:0:0:
408,276,12621,1,2,0:0:0:0:
328,176,12773,1,0,0:0:0:0:
332,156,12849,1,0,0:0:0:0:
336,136,12925,1,2,0:0:0:0:
436,176,13078,1,0,0:0:0:0:
255,293,13230,1,2,0:0:0:0:
384,352,13382,1,0,0:0:0:0:
216,164,13535,5,2,0:0:0:0:
108,280,13687,1,2,0:0:0:0:
88,108,13839,1,2,0:0:0:0:
28,312,13991,1,0,0:0:0:0:
188,252,14144,38,0,B|223:252|223:252|256:268,1,67.5000025749208,2|0,0:0|3:0,0:0:0:0:
388,340,14296,2,0,B|410:317|410:317|425:268,1,67.5000025749208,2|0,0:0|3:0,0:0:0:0:
420,104,14448,1,0,0:0:0:0:
324,160,14601,38,2,B|416:132|416:132|528:168,1,198.000006042481,4|2,1:1|0:0,0:0:0:0:
416,212,15057,1,2,0:0:0:0:
224,100,15210,1,0,0:0:0:0:
320,32,15362,1,2,0:0:0:0:
304,232,15514,5,0,0:0:0:0:
144,112,15666,1,2,0:0:0:0:
76,220,15819,1,2,0:0:0:0:
76,220,15895,1,0,0:0:0:0:
76,220,15971,1,2,0:0:0:0:
24,92,16123,1,0,0:0:0:0:
204,292,16276,38,0,P|232:292|260:280,1,49.5000015106202,2|0,0:0|3:0,0:0:0:0:
369,258,16428,2,0,P|341:258|313:270,1,49.5000015106202,2|0,0:0|3:0,0:0:0:0:
155,286,16580,2,0,P|178:293|203:292,1,49.5000015106202,2|0,0:0|3:0,0:0:0:0:
417,267,16732,2,0,P|393:259|368:258,1,49.5000015106202,2|0,0:0|3:0,0:0:0:0:
240,172,16885,2,0,L|232:108,1,49.5000015106202,2|0,0:0|3:0,0:0:0:0:
112,36,17037,38,2,B|88:76|88:76|100:188|100:188|60:156,1,198.000006042481,6|2,0:1|0:0,0:0:0:0:
16,108,17494,1,2,0:0:0:0:
196,96,17646,1,2,0:0:0:0:
199,124,17722,1,0,0:0:0:0:
203,152,17798,1,2,0:0:0:0:
206,180,17875,1,0,0:0:0:0:
210,208,17951,1,0,0:0:0:0:
496,280,18103,5,2,0:0:0:0:
304,288,18255,1,2,0:0:0:0:
307,260,18331,1,0,0:0:0:0:
311,232,18408,1,2,0:0:0:0:
314,204,18484,1,0,0:0:0:0:
318,176,18560,1,0,0:0:0:0:
44,156,18712,5,0,0:0:0:0:
32,296,18864,1,0,0:0:0:0:
60,288,18941,1,0,0:0:0:0:
88,280,19017,1,0,0:0:0:0:
116,272,19093,1,0,0:0:0:0:
144,264,19169,1,0,0:0:0:0:
172,256,19245,1,0,0:0:0:0:
200,264,19321,1,0,0:0:0:0:
228,260,19397,1,0,0:0:0:0:
256,252,19474,1,0,0:0:0:0:
284,244,19550,1,0,0:0:0:0:
312,236,19626,53,2,0:0:0:0:
372,160,19778,1,0,0:0:0:0:
499,231,19930,2,2,B|455:255|455:255|406:242,1,101.250003862381,0|0,1:0|2:0,0:0:0:0:
406,242,20235,5,0,0:0:0:0:
315,84,20387,2,2,B|358:110|358:110|372:160,1,101.250003862381,0|0,1:0|2:0,0:0:0:0:
372,160,20692,5,0,0:0:0:0:
424,68,20844,1,0,0:0:0:0:
248,184,20996,69,2,0:0:0:0:
236,24,21149,1,2,0:0:0:0:
244,172,21301,2,2,B|236:132|236:132|248:80|248:80|236:32,1,135.000005149842,2|0,0:0|3:0,0:0:0:0:
472,292,21758,1,8,0:1:0:0:
400,240,22062,70,0,P|364:232|340:216,1,49.5000015106202,0|0,0:0|2:0,0:0:0:0:
252,312,22215,2,0,P|220:320|184:344,1,49.5000015106202,0|0,0:0|2:0,0:0:0:0:
60,224,22367,1,0,0:0:0:0:
116,112,22519,22,0,P|108:84|84:56,1,49.5000015106202,2|0,0:0|3:0,0:0:0:0:
176,180,22824,2,0,P|208:180|240:164,1,49.5000015106202,2|0,0:0|0:0,0:0:0:0:
328,264,23128,2,0,P|360:264|392:280,1,49.5000015106202,2|0,0:0|3:0,0:0:0:0:
464,164,23433,2,0,P|472:136|484:112,1,49.5000015106202,2|0,0:0|1:0,0:0:0:0:
340,40,23738,2,0,P|312:80|332:144,1,99.0000030212403,2|0,0:0|3:0,0:0:0:0:
304,124,24194,22,0,P|297:76|325:36,1,99.0000030212403,0|0,0:0|3:0,0:0:0:0:
416,256,24499,38,0,B|389:256|389:256|352:272,1,49.5000015106202,0|0,0:0|2:0,0:0:0:0:
208,208,24651,2,0,B|234:207|234:207|272:192,1,49.5000015106202,0|0,0:0|2:0,0:0:0:0:
408,340,24804,1,0,0:0:0:0:
280,328,24956,22,0,L|288:268,1,49.5000015106202,2|0,0:0|3:0,0:0:0:0:
372,184,25260,2,0,L|364:124,1,49.5000015106202,2|8,0:0|1:0,0:0:0:0:
268,88,25565,2,0,L|276:28,1,49.5000015106202,2|0,0:0|3:0,0:0:0:0:
152,112,25870,5,2,0:0:0:0:
256,168,26022,1,8,0:0:0:0:
152,96,26174,1,2,0:0:0:0:
80,260,26326,1,0,0:0:0:0:
12,184,26479,1,2,0:0:0:0:
158,255,26631,6,0,L|256:240,1,99.0000030212403,0|0,0:0|3:0,0:0:0:0:
396,128,26936,38,0,B|414:112|414:112|425:79,1,49.5000015106202,0|0,0:0|2:0,0:0:0:0:
332,208,27088,2,0,B|328:232|328:232|336:255,1,49.5000015106202,0|0,0:0|2:0,0:0:0:0:
424,328,27240,2,0,L|472:320,1,49.5000015106202,0|0,0:0|2:0,0:0:0:0:
256,240,27392,22,0,L|204:248,1,49.5000015106202,2|0,0:0|0:0,0:0:0:0:
72,216,27697,2,0,P|85:194|91:170,1,49.5000015106202,2|0,0:0|0:0,0:0:0:0:
168,56,28002,2,2,P|177:82|192:104,1,49.5000015106202
292,156,28306,2,0,P|340:136|395:146,1,99.0000030212403,2|2,0:0|0:0,0:0:0:0:
424,224,28763,21,0,0:0:0:0:
352,208,28915,1,2,0:0:0:0:
256,328,29068,1,0,0:0:0:0:
328,312,29220,1,2,0:0:0:0:
247,224,29372,38,0,B|219:223|219:223|184:235,1,49.5000015106202,0|0,0:0|2:0,0:0:0:0:
67,323,29524,2,0,B|51:303|51:303|43:267,1,49.5000015106202,0|0,0:0|2:0,0:0:0:0:
120,96,29677,1,0,0:0:0:0:
16,168,29829,22,2,B|64:156|64:156|116:180,1,99.0000030212403,2|0,0:0|0:0,0:0:0:0:
188,144,30210,69,0,0:0:0:0:
188,144,30286,2,0,B|212:156|212:156|300:140,1,116.999994644165,8|0,0:2|3:0,0:0:0:0:
452,184,30590,21,2,0:0:0:0:
388,235,30743,1,0,0:0:0:0:
308,247,30895,1,2,0:0:0:0:
236,211,31047,1,0,0:0:0:0:
244,344,31199,5,2,0:0:0:0:
236,195,31352,2,2,B|236:167|236:167|224:127|224:127|228:91,1,101.250003862381,2|0,0:0|3:0,0:0:0:0:
300,112,31656,6,0,B|356:128|356:128|479:97,1,180,4|0,0:0|0:0,0:0:0:0:
356,44,32113,1,0,0:0:0:0:
304,216,32265,1,0,0:0:0:0:
188,136,32418,1,0,1:0:0:0:
332,72,32570,1,0,1:0:0:0:
376,236,32722,1,0,0:0:0:0:
224,292,32875,6,0,P|179:303|112:324,1,90,0|0,0:0|1:0,0:0:0:0:
36,160,33179,2,0,P|48:116|59:73,1,90,0|0,0:0|1:0,0:0:0:0:
188,136,33484,2,0,P|231:150|300:168,1,90,0|0,0:0|1:0,0:0:0:0:
412,208,33788,5,0,0:0:0:0:
336,336,33941,1,0,0:0:0:0:
480,268,34093,2,0,B|492:200|492:200|470:137,1,135,8|0,0:2|2:0,0:0:0:0:
464,128,34397,53,0,0:0:0:0:
296,192,34550,1,0,0:0:0:0:
376,256,34702,1,0,0:0:0:0:
352,96,34854,1,0,0:0:0:0:
220,204,35007,1,0,0:0:0:0:
104,96,35159,1,0,0:0:0:0:
46,201,35311,2,0,B|94:213|149:185|149:185|189:186|230:209,1,180,0|4,0:0|3:3,0:0:0:0:
384,192,35768,5,4,1:3:0:0:
235,287,35920,1,4,3:3:0:0:
344,328,36073,1,4,3:3:0:0:
156,252,36225,1,4,3:3:0:0:
280,136,36377,2,0,L|272:47,1,90
271,46,36606,1,0,0:0:0:0:
271,46,36682,1,6,0:2:0:0:
300,304,36834,5,0,0:0:0:0:
291,215,36986,1,0,0:0:0:0:
392,340,37139,1,0,0:0:0:0:
228,264,37291,2,0,B|136:248|136:248|84:276,1,135,0|0,0:0|2:0,0:0:0:0:
99,267,37595,1,0,0:0:0:0:
204,156,37748,6,0,P|249:147|316:132,1,90
228,264,38052,2,0,P|213:310|192:372,1,90
88,192,38357,2,0,P|82:147|73:81,1,90
228,56,38661,1,0,0:0:0:0:
228,56,38738,1,0,0:0:0:0:
228,56,38814,2,0,L|324:68,1,90
464,244,39118,53,4,0:2:0:0:
280,172,39271,1,0,0:0:0:0:
312,276,39423,1,0,0:0:0:0:
296,164,39575,1,0,0:0:0:0:
217,347,39727,2,0,B|177:331|177:331|130:331,1,90,2|0,0:0|0:0,0:0:0:0:
130,331,39956,1,0,0:0:0:0:
130,331,40032,6,0,L|140:280,1,45
52,192,40184,2,0,L|42:140,1,45
124,52,40337,37,0,0:0:0:0:
160,60,40413,1,0,0:0:0:0:
196,68,40489,1,0,0:0:0:0:
232,76,40565,1,0,0:0:0:0:
268,84,40641,1,0,0:0:0:0:
396,312,40946,21,0,1:2:0:0:
414,210,41098,2,0,L|430:110,1,101.250003862381,0|0,0:0|2:0,0:0:0:0:
429,110,41403,6,0,L|280:128,1,148.50000453186,8|0,0:2|0:0,0:0:0:0:
272,120,41707,1,0,0:0:0:0:
196,232,41859,1,0,0:0:0:0:
52,56,42012,1,0,0:0:0:0:
36,164,42164,2,0,L|135:150,1,99.0000030212403,4|0,0:2|0:0,0:0:0:0:
134,150,42392,1,0,0:0:0:0:
134,150,42469,1,0,0:0:0:0:
260,253,42621,6,0,B|308:225|308:225|411:244|411:244|387:216,1,198.000006042481,8|0,0:2|0:0,0:0:0:0:
387,216,43002,1,0,0:0:0:0:
387,216,43078,1,0,0:0:0:0:
324,320,43230,1,0,0:0:0:0:
168,148,43382,5,2,0:2:0:0:
100,232,43535,1,0,0:0:0:0:
56,56,43687,1,0,0:0:0:0:
188,140,43839,2,0,L|356:128,1,148.50000453186,8|0,0:2|0:0,0:0:0:0:
352,120,44144,5,0,0:0:0:0:
168,148,44296,1,0,0:0:0:0:
368,260,44448,1,0,0:0:0:0:
256,304,44601,2,0,L|264:200,1,99.0000030212403,8|0,0:2|0:0,0:0:0:0:
263,205,44829,1,0,0:0:0:0:
263,205,44905,1,0,0:0:0:0:
156,320,45057,2,0,B|80:316|12:348|12:348|28:296,1,198.000006042481,6|0,1:2|0:0,0:0:0:0:
68,188,45514,5,0,0:0:0:0:
96,180,45590,1,0,0:0:0:0:
124,172,45666,1,0,0:0:0:0:
152,164,45743,1,0,0:0:0:0:
180,156,45819,2,0,P|192:180|208:200,1,49.5000015106202,2|0,0:0|0:0,0:0:0:0:
276,308,45971,2,0,P|284:288|300:264,1,49.5000015106202,2|0,0:0|0:0,0:0:0:0:
400,128,46123,1,0,0:0:0:0:
504,184,46276,38,0,B|392:208|392:208|336:184,1,148.50000453186,8|0,0:2|0:0,0:0:0:0:
348,184,46580,1,0,0:0:0:0:
240,124,46732,2,0,P|246:72|254:12,1,99.0000030212403,6|0,0:2|0:0,0:0:0:0:
124,168,47037,2,0,L|17:189,1,99.0000030212403,2|0,0:2|0:0,0:0:0:0:
26,187,47265,1,0,0:0:0:0:
26,187,47342,1,0,0:0:0:0:
116,332,47494,6,0,L|124:172,1,148.50000453186,8|0,0:2|0:0,0:0:0:0:
124,168,47798,1,0,0:0:0:0:
272,288,47951,2,0,L|380:264,1,99.0000030212403,4|0,0:2|0:0,0:0:0:0:
428,160,48255,6,0,L|452:64,1,99.0000030212403,2|0,0:2|0:0,0:0:0:0:
452,63,48484,1,0,0:0:0:0:
452,63,48560,1,0,0:0:0:0:
340,108,48712,2,0,L|172:136,1,148.50000453186,8|0,0:2|0:0,0:0:0:0:
120,144,49017,5,0,0:2:0:0:
280,304,49169,1,0,0:2:0:0:
100,316,49321,2,0,P|106:267|112:216,1,99.0000030212403,6|0,0:2|0:0,0:0:0:0:
240,228,49626,54,0,L|298:214,1,49.5000015106202
409,270,49778,2,0,L|440:308,1,49.5000015106202
374,114,49930,54,2,L|390:40,1,72,2|0,0:0|0:0,0:0:0:0:
388,112,50235,6,2,L|404:39,1,72
252,76,50387,2,0,B|208:92|208:92|152:92|152:92|112:110,1,144
40,284,50692,69,0,0:0:0:0:
80,296,50768,1,0,0:0:0:0:
120,304,50844,1,0,0:0:0:0:
160,312,50920,1,0,0:0:0:0:
168,272,50996,1,0,0:0:0:0:
176,232,51073,1,0,0:0:0:0:
184,192,51149,54,0,L|232:356,1,148.50000453186,2|0,0:2|0:0,0:0:0:0:
225,334,51453,2,0,B|265:310|265:310|317:310,1,99.0000030212403
448,348,51758,5,0,0:0:0:0:
368,180,51910,1,4,0:2:0:0:
324,292,52062,1,0,0:0:0:0:
456,212,52215,1,0,0:0:0:0:
280,148,52367,2,0,B|248:104|248:104|232:256,1,198.000006042481,8|0,0:2|0:0,0:0:0:0:
108,344,52824,2,0,B|85:302|85:302|92:248,1,99.0000030212403
136,104,53128,5,2,0:2:0:0:
176,192,53281,1,0,0:0:0:0:
48,124,53433,1,0,0:0:0:0:
264,172,53585,2,0,B|368:148|368:148|408:176,1,148.50000453186,8|0,0:2|2:0,0:0:0:0:
420,184,53890,1,0,0:0:0:0:
268,56,54042,1,0,0:0:0:0:
167,148,54194,5,0,0:0:0:0:
167,148,54271,1,0,0:0:0:0:
167,148,54347,2,0,P|156:88|144:36,1,99.0000030212403,2|0,0:2|0:0,0:0:0:0:
344,244,54651,2,0,P|352:195|363:146,1,99.0000030212403,2|0,0:2|0:0,0:0:0:0:
164,348,54956,2,0,P|153:288|141:236,1,99.0000030212403,2|0,0:2|0:0,0:0:0:0:
140,240,55184,1,0,0:0:0:0:
136,232,55260,1,2,0:2:0:0:
204,132,55413,53,4,0:3:0:0:
348,276,55565,1,2,0:2:0:0:
436,172,55717,1,0,0:0:0:0:
436,172,55793,1,0,0:0:0:0:
436,172,55870,1,0,0:0:0:0:
316,32,56022,2,0,B|308:72|276:96|276:96|288:128|272:176|272:176|340:140,1,198.000006042481,8|0,0:2|0:0,0:0:0:0:
352,252,56403,53,0,0:0:0:0:
336,260,56479,1,0,0:0:0:0:
320,268,56555,1,0,0:0:0:0:
304,276,56631,2,0,P|275:268|252:264,1,49.5000015106202,2|0,0:0|0:0,0:0:0:0:
104,236,56783,2,0,L|112:172,1,49.5000015106202,2|0,0:0|0:0,0:0:0:0:
88,28,56936,1,2,0:0:0:0:
84,36,57240,6,2,B|77:104|77:104|92:164|92:164|85:240,1,198.000006042481,2|0,0:0|0:0,0:0:0:0:
48,340,57621,21,0,0:0:0:0:
72,332,57697,1,0,0:0:0:0:
96,324,57773,1,0,0:0:0:0:
120,316,57849,1,0,0:0:0:0:
144,308,57925,1,0,0:0:0:0:
204,248,58002,5,0,0:0:0:0:
231,250,58078,1,0,0:0:0:0:
259,252,58154,1,0,0:0:0:0:
288,256,58230,1,0,0:0:0:0:
315,257,58306,2,0,L|320:196,1,49.5000015106202,2|0,0:0|3:0,0:0:0:0:
436,312,58458,38,0,B|464:332|476:352|476:352|484:292|508:260|508:260|496:220|464:188,1,233.999989288331,14|0,0:2|0:0,0:0:0:0:
392,80,58915,1,0,0:0:0:0:
376,84,58991,1,0,0:0:0:0:
360,88,59068,2,0,L|364:20,1,49.5000015106202
304,184,59220,1,0,0:0:0:0:
288,188,59296,1,0,0:0:0:0:
272,192,59372,2,0,L|276:124,1,49.5000015106202
208,48,59524,37,2,0:0:0:0:
128,264,59677,1,2,0:0:0:0:
12,152,59829,70,0,L|137:138,1,125.999996154785,2|0,0:0|0:0,0:0:0:0:
137,139,60057,1,0,0:0:0:0:
137,139,60134,1,0,0:0:0:0:
360,320,60286,2,0,L|235:332,1,125.999996154785,2|0,0:0|3:0,0:0:0:0:
248,320,60590,6,0,L|348:308,1,101.250003862381,2|0,0:0|3:0,0:0:0:0:
472,276,60895,6,2,B|492:208|492:208|468:76,1,198.000006042481
272,128,61352,1,2,0:0:0:0:
412,200,61504,1,0,0:0:0:0:
332,56,61656,1,2,0:0:0:0:
260,208,61809,1,2,0:0:0:0:
152,96,61961,5,0,0:0:0:0:
300,96,62113,1,2,0:0:0:0:
196,256,62265,1,0,0:0:0:0:
72,112,62418,1,2,0:0:0:0:
28,256,62570,38,0,P|59:259|88:276,1,49.5000015106202,2|0,0:0|3:0,0:0:0:0:
148,180,62722,2,0,P|179:176|208:160,1,49.5000015106202,2|0,0:0|3:0,0:0:0:0:
316,240,62875,1,0,0:2:0:0:
336,236,62951,1,0,0:2:0:0:
356,232,63027,1,0,0:2:0:0:
376,228,63103,1,0,0:2:0:0:
396,224,63179,1,0,0:0:0:0:
404,356,63331,38,2,B|404:296|351:234|351:234|428:216,1,198.000006042481
472,128,63788,1,2,0:0:0:0:
264,76,63941,1,0,0:0:0:0:
256,224,64093,1,2,0:0:0:0:
376,36,64245,1,2,0:0:0:0:
328,192,64397,85,2,0:2:0:0:
336,112,64550,1,0,0:2:0:0:
400,160,64702,1,2,0:2:0:0:
184,256,64854,37,2,0:2:0:0:
256,224,65007,1,2,0:2:0:0:
248,304,65159,1,0,0:2:0:0:
40,320,65311,53,2,0:2:0:0:
112,288,65463,1,0,0:2:0:0:
48,240,65616,1,2,0:2:0:0:
112,96,65768,6,2,B|124:48|124:48|172:136|172:136|152:216,1,198.000006042481
208,304,66225,2,2,L|305:286,1,99.0000030212403,0|2,0:0|0:0,0:0:0:0:
435,186,66529,2,2,L|323:206,1,99.0000030212403,0|2,0:0|0:0,0:0:0:0:
305,286,66758,5,0,0:0:0:0:
305,286,66834,2,0,P|338:251|337:203,1,99.0000030212403,0|2,0:0|0:0,0:0:0:0:
325,125,67139,1,2,0:0:0:0:
420,284,67291,1,0,0:0:0:0:
482,174,67443,38,0,P|442:182|410:206,1,49.5000015106202,2|0,0:0|3:0,0:0:0:0:
373,136,67595,2,0,P|349:134|326:126,1,49.5000015106202,0|0,0:0|3:0,0:0:0:0:
278,218,67748,2,0,P|250:230|234:242,1,49.5000015106202,2|0,0:0|3:0,0:0:0:0:
214,62,67900,2,0,P|186:58|166:48,1,49.5000015106202,0|0,0:0|3:0,0:0:0:0:
60,128,68052,2,0,P|56:152|36:196,1,49.5000015106202,2|0,0:0|3:0,0:0:0:0:
44,328,68205,38,0,B|104:292|104:292|252:328,1,198.000006042481,2|0,0:0|0:0,0:0:0:0:
296,244,68585,1,0,0:0:0:0:
296,244,68661,2,0,B|268:252|268:252|184:232,1,99.0000030212403,2|0,0:0|0:0,0:0:0:0:
192,156,68890,1,0,0:0:0:0:
192,156,68966,2,0,B|259:172|259:172|287:164,1,99.0000030212403,2|0,0:0|0:0,0:0:0:0:
328,92,69194,1,0,0:0:0:0:
328,92,69271,1,2,0:0:0:0:
256,28,69423,1,0,0:0:0:0:
100,144,69575,37,2,0:0:0:0:
192,156,69727,1,0,0:0:0:0:
364,236,69880,53,2,0:0:0:0:
272,248,70032,1,0,0:0:0:0:
128,232,70184,54,2,L|114:329,1,99.0000030212403,2|0,0:0|0:0,0:0:0:0:
107,334,70413,1,0,0:0:0:0:
102,337,70489,1,0,0:0:0:0:
97,339,70565,1,0,0:0:0:0:
92,342,70641,1,0,0:0:0:0:
87,344,70717,1,0,0:0:0:0:
82,347,70793,6,0,L|95:248,1,99.0000030212403
208,168,71098,21,0,0:0:0:0:
280,240,71250,1,0,0:0:0:0:
432,80,71403,1,0,0:0:0:0:
288,160,71555,1,0,0:0:0:0:
448,264,71707,1,0,0:0:0:0:
376,156,71859,5,0,0:0:0:0:
364,128,71936,1,0,0:0:0:0:
352,100,72012,1,0,0:0:0:0:
280,240,72164,5,0,0:0:0:0:
268,268,72240,1,0,0:0:0:0:
256,296,72316,1,0,0:0:0:0:
156,116,72469,5,0,0:0:0:0:
144,88,72545,1,0,0:0:0:0:
132,60,72621,1,0,0:0:0:0:
56,288,72773,53,0,0:0:0:0:
96,160,72925,1,0,0:0:0:0:
220,276,73078,2,2,B|186:266|186:266|74:286,1,148.50000453186,4|0,0:2|0:0,0:0:0:0:
56,288,73382,5,0,0:0:0:0:
176,188,73535,1,0,0:0:0:0:
176,356,73687,1,0,0:0:0:0:
88,212,73839,5,0,0:0:0:0:
260,248,73991,1,0,0:0:0:0:
92,200,74144,1,0,0:0:0:0:
248,140,74296,2,0,L|240:40,1,99.0000030212403,0|0,0:0|3:0,0:0:0:0:
416,88,74601,5,0,0:0:0:0:
440,104,74677,1,0,0:0:0:0:
464,124,74753,2,0,L|456:188,3,49.5000015106202
368,276,75057,37,0,0:0:0:0:
344,292,75134,1,0,0:0:0:0:
316,308,75210,2,0,B|332:324|332:324|320:228,1,101.250003862381,0|0,0:0|3:0,0:0:0:0:
236,272,75514,6,2,B|196:260|196:260|144:292|144:292|96:280|96:280|30:294,1,198.000006042481
48,56,75971,1,0,0:0:0:0:
184,144,76123,1,0,0:0:0:0:
113,201,76276,2,2,B|64:212|64:212|24:184|24:184|48:140|48:140|112:120,1,198.000006042481
208,52,76732,6,0,P|256:66|304:84,1,99.0000030212403
456,148,77037,2,0,P|406:161|362:179,1,99.0000030212403
272,256,77342,5,2,0:2:0:0:
272,256,77418,1,2,0:2:0:0:
272,256,77494,2,0,L|284:188,1,49.5000015106202,2|0,0:2|3:0,0:0:0:0:
301,83,77646,1,2,0:2:0:0:
424,276,77798,1,0,0:0:0:0:
240,140,77951,2,2,B|170:128|170:128|106:172,1,148.50000453186,8|0,0:2|0:0,0:0:0:0:
56,232,78255,5,2,0:2:0:0:
92,264,78331,1,2,0:2:0:0:
140,278,78408,1,2,0:2:0:0:
188,271,78484,1,0,0:0:0:0:
230,245,78560,1,2,0:2:0:0:
256,204,78636,1,2,0:2:0:0:
264,155,78712,53,2,0:2:0:0:
250,108,78788,1,0,0:0:0:0:
218,71,78864,1,2,0:2:0:0:
174,50,78941,1,2,0:2:0:0:
125,50,79017,1,2,0:2:0:0:
80,70,79093,1,2,0:2:0:0:
47,107,79169,2,0,L|56:164,1,49.5000015106202
24,264,79321,54,0,B|81:271|81:271|157:230,1,116.999994644165,0|0,0:0|1:0,0:0:0:0:
216,280,79550,1,0,0:0:0:0:
216,280,79626,2,0,B|288:268|288:268|348:304,1,116.999994644165,0|0,0:0|1:0,0:0:0:0:
408,332,79854,1,0,0:0:0:0:
408,332,79930,1,0,0:0:0:0:
256,148,80083,5,8,0:3:0:0:
152,320,80235,1,4,0:3:0:0:
412,172,80387,1,4,0:3:0:0:
88,120,80540,1,4,0:0:0:0:
224,52,80692,5,2,0:0:0:0:
208,124,80844,1,0,0:0:0:0:
152,72,80996,1,2,0:0:0:0:
252,44,81149,5,0,0:0:0:0:
200,148,81301,1,2,0:0:0:0:
136,52,81453,1,0,0:0:0:0:
340,96,81606,5,2,0:0:0:0:
64,192,81758,1,2,0:0:0:0:
64,192,82367,69,2,0:0:0:0:
136,220,82519,1,0,0:0:0:0:
196,168,82672,1,0,0:0:0:0:
268,196,82824,1,0,0:0:0:0:
468,284,82976,5,2,0:0:0:0:
408,336,83128,1,0,0:0:0:0:
420,208,83281,1,0,0:0:0:0:
472,272,83433,1,0,0:0:0:0:
332,304,83585,2,0,P|323:254|356:196,1,99.0000030212403,2|0,0:0|0:0,0:0:0:0:
308,128,84042,85,2,0:0:0:0:
240,188,84194,1,0,0:0:0:0:
152,192,84347,1,2,0:0:0:0:
332,128,84651,69,2,0:0:0:0:
243,206,84804,1,0,0:0:0:0:
129,211,84956,1,0,0:0:0:0:
96,64,85108,37,2,0:0:0:0:
172,72,85260,1,2,0:0:0:0:
380,196,85413,85,0,1:0:0:0:
464,148,85565,1,2,0:0:0:0:
392,112,85717,1,0,0:0:0:0:
316,124,85870,1,2,0:0:0:0:
136,272,86022,37,0,1:0:0:0:
48,224,86174,1,2,0:0:0:0:
120,188,86326,1,0,0:0:0:0:
196,200,86479,1,2,0:0:0:0:
380,336,86631,53,0,1:0:0:0:
464,288,86783,1,2,0:0:0:0:
392,252,86936,1,0,0:0:0:0:
316,264,87088,1,2,0:0:0:0:
212,220,87240,6,0,L|152:236,1,49.5000015106202
88,252,87469,1,0,0:0:0:0:
88,252,87545,2,0,L|100:184,1,49.5000015106202,4|0,0:2|0:0,0:0:0:0:
200,60,87849,6,0,P|172:64|148:84,1,45,0|0,0:0|3:0,0:0:0:0:
128,88,88002,2,0,P|150:87|171:95,1,45,0|0,0:0|3:0,0:0:0:0:
312,140,88154,6,0,P|340:144|364:164,1,45,0|0,0:0|3:0,0:0:0:0:
384,168,88306,2,0,P|361:167|340:175,1,45,0|0,0:0|3:0,0:0:0:0:
200,232,88458,6,0,P|172:236|148:256,1,45,0|0,0:0|3:0,0:0:0:0:
128,260,88611,2,0,P|150:259|171:267,1,45,0|0,0:0|3:0,0:0:0:0:
312,312,88763,38,0,P|340:316|364:336,1,45,0|0,0:0|3:0,0:0:0:0:
384,340,88915,2,0,P|361:339|340:347,1,45,0|0,0:0|3:0,0:0:0:0:
456,272,89068,1,0,0:0:0:0:
372,160,89220,5,2,0:2:0:0:
256,176,89372,1,2,0:2:0:0:
140,192,89524,1,2,0:2:0:0:
112,176,89601,1,2,0:2:0:0:
84,160,89677,2,0,P|112:152|144:132,1,53.9999983520508,2|0,0:1|2:0,0:0:0:0:
228,76,89829,86,2,B|200:52|200:52|164:40,1,67.5,2|0,0:0|3:0,0:0:0:0:
32,72,90134,6,2,B|0:156|0:156|44:280,1,180
136,328,90590,2,2,B|148:284|148:284|128:224,1,90,2|0,0:0|0:0,0:0:0:0:
208,136,90895,5,0,0:0:0:0:
360,240,91047,1,0,0:0:0:0:
264,296,91199,1,2,0:0:0:0:
436,224,91352,1,0,0:0:0:0:
280,164,91504,5,0,0:0:0:0:
412,300,91656,1,0,0:0:0:0:
228,224,91809,1,2,0:0:0:0:
408,148,91961,2,0,L|496:131,1,90
312,48,92265,1,2,0:0:0:0:
312,48,92342,1,0,0:0:0:0:
312,48,92418,1,0,0:0:0:0:
228,224,92570,6,2,P|156:192|228:152,1,180
284,168,93027,1,2,0:0:0:0:
32,208,93179,53,0,0:0:0:0:
128,288,93331,1,0,0:0:0:0:
210,144,93484,1,0,0:0:0:0:
60,200,93636,1,2,0:0:0:0:
208,300,93788,1,0,0:0:0:0:
284,168,93941,6,0,L|292:48,1,90
376,36,94169,1,0,0:0:0:0:
376,36,94245,2,0,L|372:100,1,45
416,236,94397,5,4,3:3:0:0:
428,264,94474,1,4,3:3:0:0:
440,292,94550,1,4,3:3:0:0:
456,264,94626,1,4,3:3:0:0:
472,236,94702,1,4,3:3:0:0:
488,208,94778,1,4,3:3:0:0:
500,180,94854,1,4,1:3:0:0:
420,156,95007,6,2,B|363:146|363:146|299:162|299:162|235:150,1,180
236,72,95463,6,0,L|300:84,1,58.4999973220826
472,236,95616,1,0,0:0:0:0:
472,236,95768,1,0,0:0:0:0:
396,276,95920,6,0,L|389:199,1,58.4999973220826
372,36,96073,1,0,0:0:0:0:
372,36,96225,1,0,0:0:0:0:
420,104,96377,86,0,L|359:122,1,58.4999973220826
148,168,96529,1,0,0:0:0:0:
148,168,96682,1,0,0:0:0:0:
72,132,96834,6,0,L|68:200,1,58.4999973220826
204,356,96986,1,0,0:0:0:0:
204,356,97139,1,0,0:0:0:0:
156,288,97291,86,0,L|212:272,1,58.4999973220826,0|0,0:0|3:0,0:0:0:0:
276,192,97443,2,0,L|288:108,1,58.4999973220826,0|0,0:0|3:0,0:0:0:0:
296,40,97595,85,2,0:2:0:0:
376,328,97748,1,2,0:2:0:0:
216,40,98205,5,2,0:2:0:0:
136,328,98357,1,2,0:2:0:0:
52,192,98814,5,2,0:2:0:0:
460,192,98966,1,2,0:2:0:0:
64,288,99727,5,2,2:0:0:0:
76,280,99804,1,2,2:0:0:0:
88,272,99880,1,2,2:0:0:0:
100,264,99956,1,2,2:0:0:0:
112,256,100032,6,0,L|104:188,1,45,0|0,0:0|2:0,0:0:0:0:
188,136,100184,1,0,0:0:0:0:
188,136,100337,2,0,L|180:68,1,45,0|0,0:0|2:0,0:0:0:0:
336,40,100489,5,8,0:3:0:0:
367,52,100565,1,8,0:3:0:0:
390,76,100641,1,8,0:3:0:0:
400,108,100717,1,4,0:3:0:0:
395,141,100793,1,4,0:3:0:0:
377,169,100870,1,4,0:3:0:0:
348,186,100946,1,4,0:3:0:0:
316,192,101022,1,4,0:3:0:0:
284,176,101098,6,0,B|332:172|347:187|347:187|392:152|448:144|448:144|432:168|428:212,1,233.999989288331,8|0,1:2|0:0,0:0:0:0:
380,300,101555,2,0,L|280:316,1,99.0000030212403,8|0,0:2|0:0,0:0:0:0:
128,208,101859,5,0,0:0:0:0:
240,252,102012,1,0,0:0:0:0:
108,92,102164,1,0,0:0:0:0:
31,224,102316,2,0,L|131:208,1,99.0000030212403,8|0,0:2|0:0,0:0:0:0:
276,104,102621,37,2,0:2:0:0:
256,180,102773,1,2,0:2:0:0:
200,124,102925,1,2,0:2:0:0:
440,172,103078,5,4,0:2:0:0:
272,304,103230,1,0,0:0:0:0:
272,304,103306,1,0,0:0:0:0:
272,304,103382,1,0,0:0:0:0:
372,344,103535,2,0,L|360:192,1,148.50000453186,2|0,0:2|0:0,0:0:0:0:
358,177,103839,5,0,0:0:0:0:
204,272,103991,1,0,0:0:0:0:
156,172,104144,1,0,0:0:0:0:
324,160,104296,1,8,0:2:0:0:
120,248,104448,1,0,0:0:0:0:
188,92,104601,1,0,0:0:0:0:
368,224,104753,69,2,0:2:0:0:
376,220,104829,1,2,0:2:0:0:
384,216,104905,1,0,0:2:0:0:
296,304,105057,1,2,0:2:0:0:
216,296,105210,1,2,0:2:0:0:
136,288,105362,1,2,0:2:0:0:
28,172,105514,6,0,P|64:140|132:144,1,99.0000030212403,6|0,0:2|0:0,0:0:0:0:
188,160,105743,1,0,0:0:0:0:
188,160,105819,2,0,L|184:92,1,49.5000015106202,0|0,0:0|2:0,0:0:0:0:
332,36,105971,6,2,L|346:193,1,148.50000453186,2|0,0:0|0:0,0:0:0:0:
376,256,106276,2,0,B|404:240|404:240|424:208,1,49.5000015106202,2|0,0:0|0:0,0:0:0:0:
504,96,106428,2,0,B|456:88|456:88|384:128,1,99.0000030212403,2|0,0:0|0:0,0:0:0:0:
216,204,106732,6,0,L|92:192,1,99.0000030212403,8|0,0:2|0:0,0:0:0:0:
60,144,106961,1,0,0:0:0:0:
60,144,107037,2,0,P|76:128|104:120,1,49.5000015106202,0|0,0:0|3:2,0:0:0:0:
284,144,107189,6,2,P|300:220|244:300,1,148.50000453186
200,324,107494,2,0,P|188:292|192:260,1,49.5000015106202,2|0,0:0|0:0,0:0:0:0:
376,216,107646,2,0,L|488:236,1,99.0000030212403,2|0,0:0|0:0,0:0:0:0:
264,56,107951,53,8,0:2:0:0:
296,208,108103,1,0,0:0:0:0:
420,144,108255,1,0,0:0:0:0:
216,128,108408,2,0,B|184:136|184:136|134:131|134:131|76:148,1,116.999994644165,2|0,0:0|0:0,0:0:0:0:
32,240,108712,5,4,0:3:0:0:
32,240,108788,1,4,0:3:0:0:
32,240,108864,2,0,P|48:264|68:276,1,49.5000015106202,4|0,0:3|0:3,0:3:0:0:
152,340,109017,2,0,P|166:310|184:288,1,49.5000015106202,0|0,0:3|0:3,0:3:0:0:
276,244,109169,6,0,P|272:216|260:192,1,49.5000015106202,4|0,0:3|0:3,0:3:0:0:
332,104,109321,2,0,P|356:88|376:64,1,49.5000015106202,4|0,0:3|0:3,0:3:0:0:
492,164,109474,2,0,P|476:192|472:224,1,49.5000015106202,4|0,0:3|3:3,0:3:0:0:
392,304,109626,22,0,L|300:316,1,72,2|0,0:0|3:0,0:0:0:0:
372,320,109930,6,0,L|280:332,1,72,2|0,0:0|3:0,0:0:0:0:
172,288,110083,2,2,B|176:246|176:246|167:188|167:188|176:146,1,144
48,84,110387,69,0,0:0:0:0:
48,84,110463,1,0,0:0:0:0:
48,84,110540,1,0,0:0:0:0:
48,84,110616,1,0,0:0:0:0:
48,84,110692,1,0,0:0:0:0:
48,84,110768,1,0,0:0:0:0:
48,84,110844,54,0,B|92:64|92:64|212:88,1,148.50000453186,8|0,0:2|0:0,0:0:0:0:
208,88,111149,1,0,0:0:0:0:
88,224,111301,1,0,0:0:0:0:
176,296,111453,1,0,0:0:0:0:
229,197,111606,6,0,B|154:191|154:191|87:224,1,148.50000453186,2|0,0:2|0:0,0:0:0:0:
88,224,111910,1,0,0:0:0:0:
256,276,112062,1,0,0:0:0:0:
156,368,112215,1,0,0:0:0:0:
148,160,112367,69,2,0:2:0:0:
229,197,112519,1,2,0:2:0:0:
144,140,112672,1,2,0:2:0:0:
88,224,112824,1,2,0:2:0:0:
140,120,112976,1,2,0:2:0:0:
256,276,113128,1,2,0:2:0:0:
355,163,113281,6,0,B|394:164|423:183|423:183|459:163|499:171|499:171|447:227,1,198.000006042481,2|0,0:2|0:0,0:0:0:0:
375,260,113661,1,0,0:0:0:0:
375,260,113738,2,0,P|367:212|351:148,1,99.0000030212403
152,100,114042,2,0,P|103:89|49:75,1,99.0000030212403,4|0,0:2|0:0,0:0:0:0:
204,304,114347,2,0,P|252:293|306:279,1,99.0000030212403,4|0,0:2|0:0,0:0:0:0:
384,68,114651,1,0,0:2:0:0:
292,188,114804,85,2,0:2:0:0:
372,256,114956,1,2,0:2:0:0:
204,200,115108,1,0,0:2:0:0:
379,175,115260,38,0,L|477:164,1,99.0000030212403,8|0,0:2|0:0,0:0:0:0:
478,165,115489,1,0,0:0:0:0:
478,165,115565,1,0,0:0:0:0:
400,324,115717,2,0,B|360:332|360:332|380:168,1,198.000006042481,8|0,0:2|0:0,0:0:0:0:
408,100,116098,21,0,0:0:0:0:
408,100,116174,2,0,P|360:96|308:140,1,99.0000030212403
236,193,116403,1,0,0:0:0:0:
210,190,116479,2,0,L|146:182,1,49.5000015106202,2|0,0:0|0:0,0:0:0:0:
39,168,116631,1,2,0:0:0:0:
39,168,116936,6,2,L|235:192,1,198.000006042481,2|0,0:0|0:0,0:0:0:0:
299,239,117316,21,0,0:0:0:0:
271,262,117392,1,0,0:0:0:0:
237,270,117469,1,0,0:0:0:0:
202,263,117545,1,0,0:0:0:0:
174,240,117621,1,0,0:0:0:0:
159,208,117697,1,0,0:0:0:0:
160,172,117773,1,0,0:0:0:0:
176,141,117849,1,0,0:0:0:0:
205,120,117925,1,0,0:0:0:0:
240,116,118002,54,0,P|272:124|296:152,1,49.5000015106202,2|0,0:0|3:0,0:0:0:0:
344,308,118154,2,0,B|374:299|390:275|390:275|447:286|505:246|505:246|488:220|451:207,1,233.999989288331,8|0,0:2|1:0,0:0:0:0:
364,122,118611,69,0,0:0:0:0:
271,262,118763,1,0,0:0:0:0:
200,188,118915,1,0,0:0:0:0:
336,132,119068,1,0,0:0:0:0:
184,72,119220,21,2,0:0:0:0:
88,280,119372,1,0,0:0:0:0:
72,168,119524,6,0,L|57:37,1,116.999994644165,2|0,0:0|0:0,0:0:0:0:
58,51,119753,1,0,0:3:0:0:
58,51,119829,1,0,0:3:0:0:
256,256,119981,1,0,0:0:0:0:
256,256,120286,6,2,B|264:224|264:224|252:172|252:172|260:136,1,112.5,2|0,0:0|3:0,0:0:0:0:
136,136,120743,21,0,0:0:0:0:
144,132,120895,1,0,0:0:0:0:
152,128,121047,1,0,0:0:0:0:
160,124,121199,1,0,0:0:0:0:
168,120,121352,1,0,0:0:0:0:
176,116,121504,1,0,0:0:0:0:
320,48,121656,5,0,0:0:0:0:
324,56,121808,1,0,0:0:0:0:
328,64,121961,1,0,0:0:0:0:
332,72,122113,1,0,0:0:0:0:
336,80,122265,1,0,0:0:0:0:
340,88,122418,1,0,0:0:0:0:
340,264,122570,5,0,0:0:0:0:
332,260,122722,1,0,0:0:0:0:
324,256,122874,1,0,0:0:0:0:
316,252,123027,1,0,0:0:0:0:
308,248,123179,1,0,0:0:0:0:
300,244,123331,1,0,0:0:0:0:
188,188,123484,37,0,0:0:0:0:
196,180,123636,1,0,0:0:0:0:
204,172,123788,1,0,0:0:0:0:
212,164,123940,1,0,0:0:0:0:
220,156,124093,1,0,0:0:0:0:
228,148,124245,1,0,0:0:0:0:
312,100,124397,5,2,0:0:0:0:
318,105,124550,1,0,0:0:0:0:
372,182,124702,5,2,0:0:0:0:
366,176,124854,1,0,0:0:0:0:
397,60,125006,5,2,0:0:0:0:
405,58,125159,1,0,0:0:0:0:
459,135,125311,5,2,0:0:0:0:
451,137,125463,1,0,0:0:0:0:
352,256,125616,37,2,0:0:0:0:
344,252,125768,1,2,0:0:0:0:
336,248,125920,1,2,0:0:0:0:
328,244,126072,1,0,0:0:0:0:
200,284,126225,5,2,0:0:0:0:
194,279,126377,1,0,0:0:0:0:
140,202,126529,5,2,0:0:0:0:
146,208,126682,1,0,0:0:0:0:
115,324,126834,5,2,0:0:0:0:
107,326,126986,1,0,0:0:0:0:
53,249,127138,5,2,0:0:0:0:
61,247,127291,1,0,0:0:0:0:
160,128,127443,37,2,0:0:0:0:
168,132,127595,1,2,0:0:0:0:
176,136,127748,1,2,0:0:0:0:
184,140,127900,1,0,0:0:0:0:
301,252,128052,70,0,L|310:319,1,67.5000025749208,0|0,0:3|0:0,0:0:0:0:
310,319,128357,1,0,0:0:0:0:
310,319,128509,1,0,0:0:0:0:
310,319,128661,1,0,0:0:0:0:
310,319,128814,1,0,0:0:0:0:
120,152,128966,22,0,L|75:143,1,45,2|0,0:2|0:0,0:0:0:0:
124,148,129270,1,0,0:0:0:0:
128,144,129423,1,0,0:0:0:0:
132,140,129575,1,0,0:0:0:0:
136,136,129727,1,0,0:0:0:0:
356,247,129880,70,0,L|420:228,1,67.5000025749208,0|0,0:2|0:0,0:0:0:0:
420,228,130184,1,0,0:2:0:0:
420,228,130336,1,0,0:2:0:0:
420,228,130489,1,0,0:2:0:0:
420,228,130641,1,0,0:2:0:0:
288,80,130793,22,0,L|299:36,1,45,2|0,0:2|0:0,0:0:0:0:
286,83,131098,1,0,1:0:0:0:
285,87,131250,1,0,1:0:0:0:
284,91,131402,1,0,1:0:0:0:
283,95,131555,1,0,1:0:0:0:
152,220,131707,70,0,L|85:232,1,67.5000025749208
85,232,132012,1,0,0:0:0:0:
85,232,132164,1,0,0:0:0:0:
85,232,132316,1,0,0:0:0:0:
85,232,132468,1,0,0:0:0:0:
316,304,132621,22,0,L|326:348,1,45,2|0,0:2|0:0,0:0:0:0:
315,301,132925,1,0,0:0:0:0:
314,297,133078,1,0,0:0:0:0:
313,293,133230,1,0,0:0:0:0:
312,289,133382,1,0,0:0:0:0:
339,154,133534,70,0,L|350:88,1,67.5000025749208
350,88,133839,1,0,0:0:0:0:
350,88,133991,1,0,0:0:0:0:
350,88,134144,1,0,0:0:0:0:
350,88,134296,1,0,0:0:0:0:
160,184,134448,22,0,L|116:172,1,45,2|0,0:2|0:0,0:0:0:0:
163,185,134753,1,0,0:0:0:0:
167,186,134905,1,0,0:0:0:0:
171,187,135057,1,0,0:0:0:0:
175,188,135210,1,0,0:0:0:0:
308,264,135362,6,0,B|360:256|392:272|392:272|410:263|444:260,1,135,4|0,1:0|3:0,0:0:0:0:
480,164,135971,6,0,P|480:128|452:92,1,67.5000025749208,4|0,0:3|0:0,0:0:0:0:
368,44,136275,2,0,P|335:52|313:77,1,67.5000025749208,4|4,0:1|0:3,0:0:0:0:
284,144,136504,5,4,0:3:0:0:
284,144,136580,1,4,0:3:0:0:
380,124,136732,1,4,0:3:0:0:
204,84,136885,2,0,L|192:164,1,67.5000025749208,4|0,0:3|3:0,0:0:0:0:
76,256,137189,2,0,P|46:234|30:187,1,67.5000025749208,4|0,3:1|0:0,0:0:0:0:
116,176,137494,5,4,0:0:0:0:
156,324,137646,1,4,0:0:0:0:
216,260,137798,1,8,0:3:0:0:
96,216,137951,1,4,0:3:0:0:
280,200,138103,2,0,B|300:240|300:240|284:348,1,135.000005149842,4|0,3:1|0:3,0:0:0:0:
384,340,138560,53,2,0:3:0:0:
384,340,138712,2,0,L|394:273,1,67.5000025749208,2|0,0:3|0:0,0:0:0:0:
409,173,139017,2,0,L|476:164,1,67.5000025749208,4|0,3:1|0:0,0:0:0:0:
336,48,139321,5,4,0:3:0:0:
296,136,139473,1,4,0:3:0:0:
432,72,139626,1,8,0:3:0:0:
256,64,139778,1,4,0:3:0:0:
240,56,139854,1,4,0:3:0:0:
224,48,139930,1,4,3:1:0:0:
128,172,140083,5,4,0:3:0:0:
64,104,140235,1,8,0:3:0:0:
32,256,140387,1,4,0:3:0:0:
168,168,140539,1,4,0:3:0:0:
40,76,140692,1,4,0:3:0:0:
152,248,140844,6,0,P|193:243|252:168,1,135.000005149842,4|0,0:1|0:0,0:0:0:0:
344,64,141301,1,2,0:3:0:0:
344,64,141453,2,0,L|352:140,1,67.5000025749208,2|0,0:3|0:0,0:0:0:0:
376,324,141758,53,4,3:1:0:0:
432,232,141910,1,4,0:3:0:0:
444,220,141986,1,4,0:3:0:0:
456,208,142062,1,4,0:3:0:0:
256,208,142215,1,8,0:3:0:0:
360,252,142367,1,4,0:3:0:0:
388,92,142519,1,8,0:3:0:0:
180,196,142671,6,0,L|104:188,1,67.5000025749208,4|0,3:1|0:0,0:0:0:0:
36,236,142976,5,4,0:3:0:0:
196,112,143128,1,4,0:3:0:0:
101,122,143281,2,0,L|117:214,1,67.5000025749208,8|0,0:3|0:0,0:0:0:0:
232,328,143585,5,4,0:2:0:0:
148,304,143737,1,8,0:3:0:0:
232,216,143890,1,4,0:3:0:0:
253,300,144042,1,4,0:3:0:0:
120,296,144194,53,8,0:3:0:0:
208,132,144347,1,8,0:3:0:0:
360,244,144499,6,0,L|372:172,1,72,4|0,0:1|0:3,0:3:0:0:
448,116,144803,5,4,0:3:0:0:
292,184,144956,1,4,0:3:0:0:
360,101,145108,2,0,L|372:173,1,72,8|0,0:0|0:0,0:0:0:0:
472,324,145413,5,4,0:2:0:0:
376,276,145565,1,4,0:3:0:0:
360,280,145641,1,4,0:3:0:0:
344,284,145717,1,4,0:3:0:0:
232,312,145869,1,8,0:3:0:0:
300,208,146022,1,4,0:3:0:0:
132,136,146174,1,8,0:3:0:0:
48,264,146326,6,0,L|136:256,1,80.9999975280763,4|0,1:1|0:0,0:0:0:0:
260,324,146631,37,4,0:3:0:0:
260,324,146783,1,4,0:3:0:0:
144,240,146935,2,0,L|63:247,1,80.9999975280763,2|0,0:3|0:0,0:0:0:0:
196,108,147240,38,0,P|240:104|284:132,1,80.9999975280763,4|4,1:2|0:3,0:0:0:0:
332,160,147468,1,4,0:3:0:0:
332,160,147545,1,4,0:3:0:0:
216,204,147697,1,8,0:3:0:0:
244,28,147849,1,4,0:3:0:0:
340,248,148001,1,8,0:3:0:0:
136,212,148154,6,0,L|44:220,1,90,4|0,1:1|0:0,0:0:0:0:
188,352,148458,1,2,0:3:0:0:
292,256,148611,1,4,0:3:0:0:
316,252,148687,1,4,0:3:0:0:
340,248,148763,2,0,L|436:236,1,90,8|4,0:3|0:0,0:0:0:0:
192,120,149067,1,4,1:2:0:0:
76,48,149220,37,4,0:3:0:0:
61,65,149296,1,4,0:3:0:0:
70,86,149372,1,4,0:3:0:0:
56,104,149448,1,4,0:3:0:0:
66,126,149524,1,4,0:3:0:0:
52,144,149600,1,4,0:3:0:0:
61,161,149677,1,4,0:3:0:0:
47,180,149753,1,4,0:3:0:0:
57,201,149829,1,4,0:3:0:0:
42,219,149905,1,4,0:3:0:0:
52,242,149981,1,0,1:1:0:0:
428,292,150590,86,2,B|468:320|468:320|456:272|456:272|472:236|472:236|440:212|436:176|436:176|408:204|408:204|424:240,1,270.000010299683,2|0,0:1|1:1,0:1:0:0:
320,240,151351,86,0,L|328:168,1,58.4999973220826,2|0,0:0|3:0,0:0:0:0:
180,152,151503,2,0,L|188:80,1,58.4999973220826,2|0,0:0|3:0,0:0:0:0:
63,223,151655,2,0,L|70:165,1,58.4999973220826,2|0,0:0|3:0,0:0:0:0:
223,311,151808,2,0,L|230:253,1,58.4999973220826,2|0,0:0|3:0,0:0:0:0:
292,104,151960,2,0,L|300:32,1,58.4999973220826,2|0,0:0|3:0,0:0:0:0:
76,40,152112,1,0,0:0:0:0:
70,165,152264,86,0,L|144:157,1,58.4999973220826,2|0,0:0|3:0,0:0:0:0:
164,317,152417,2,0,L|238:309,1,58.4999973220826,2|0,0:0|3:0,0:0:0:0:
264,188,152569,2,0,L|338:180,1,58.4999973220826,2|0,0:0|3:0,0:0:0:0:
196,84,152721,2,0,L|270:76,1,58.4999973220826,2|0,0:0|3:0,0:0:0:0:
352,280,152874,2,0,L|426:272,1,58.4999973220826,2|0,0:0|3:0,0:0:0:0:
492,156,153026,1,0,0:0:0:0:
416,44,153178,6,0,L|421:102,1,58.4999973220826,2|0,0:0|3:0,0:0:0:0:
216,144,153330,2,0,L|224:228,1,58.4999973220826,2|0,0:0|3:0,0:0:0:0:
332,212,153483,2,0,L|340:296,1,58.4999973220826,2|0,0:0|3:0,0:0:0:0:
120,192,153635,2,0,L|128:276,1,58.4999973220826,2|0,0:0|3:0,0:0:0:0:
316,72,153787,2,0,L|324:156,1,58.4999973220826,2|0,0:0|3:0,0:0:0:0:
348,344,153940,1,0,0:0:0:0:
472,280,154092,86,0,L|414:291,1,58.4999973220826,2|0,0:0|3:0,0:0:0:0:
264,252,154244,2,0,L|206:263,1,58.4999973220826,2|0,0:0|3:0,0:0:0:0:
96,140,154396,2,0,L|38:151,1,58.4999973220826,2|0,0:0|3:0,0:0:0:0:
240,32,154549,2,0,L|182:43,1,58.4999973220826,2|0,0:0|3:0,0:0:0:0:
321,130,154701,2,0,L|263:141,1,58.4999973220826,2|0,0:0|3:0,0:0:0:0:
56,280,154853,1,0,0:0:0:0:
140,336,155006,6,0,L|132:264,1,58.4999973220826,2|0,0:0|3:0,0:0:0:0:
188,184,155158,2,0,L|180:112,1,58.4999973220826,2|0,0:0|3:0,0:0:0:0:
320,264,155310,2,0,L|312:192,1,58.4999973220826,2|0,0:0|3:0,0:0:0:0:
484,120,155462,2,0,L|476:48,1,58.4999973220826,2|0,0:0|3:0,0:0:0:0:
400,192,155615,2,0,L|392:120,1,58.4999973220826,2|0,0:0|3:0,0:0:0:0:
300,52,155767,1,0,0:0:0:0:
96,48,155919,86,0,L|170:56,1,58.4999973220826,2|0,0:0|3:0,0:0:0:0:
36,200,156072,2,0,L|110:208,1,58.4999973220826,2|0,0:0|3:0,0:0:0:0:
208,152,156224,2,0,L|282:160,1,58.4999973220826,2|0,0:0|3:0,0:0:0:0:
240,332,156376,2,0,L|314:340,1,58.4999973220826,2|0,0:0|3:0,0:0:0:0:
336,248,156528,2,0,L|410:256,1,58.4999973220826,2|0,0:0|3:0,0:0:0:0:
488,164,156681,1,0,0:0:0:0:
404,40,156833,6,0,L|398:98,1,58.4999973220826,2|0,0:0|3:0,0:0:0:0:
214,93,156985,2,0,L|208:151,1,58.4999973220826,2|0,0:0|3:0,0:0:0:0:
342,189,157138,2,0,L|336:247,1,58.4999973220826,2|0,0:0|3:0,0:0:0:0:
196,244,157290,2,0,L|190:302,1,58.4999973220826,2|0,0:0|3:0,0:0:0:0:
104,144,157442,2,0,L|98:202,1,58.4999973220826,2|0,0:0|3:0,0:0:0:0:
252,352,157594,1,0,0:0:0:0:
393,259,157747,86,0,L|335:247,1,58.4999973220826,2|0,0:0|3:0,0:0:0:0:
189,302,157899,2,0,L|132:291,1,58.4999973220826,2|0,0:0|3:0,0:0:0:0:
180,80,158051,2,0,L|122:68,1,58.4999973220826,2|0,0:0|3:0,0:0:0:0:
392,136,158204,2,0,L|334:124,1,58.4999973220826,2|0,0:0|3:0,0:0:0:0:
268,192,158356,2,0,L|210:180,1,58.4999973220826,2|0,0:0|3:0,0:0:0:0:
56,296,158508,6,0,B|36:272|36:272|32:232,1,58.4999973220826,2|0,0:0|3:0,0:0:0:0:
140,152,158660,2,0,B|129:181|129:181|96:204,1,58.4999973220826,2|0,0:0|3:0,0:0:0:0:
23,96,158813,2,2,B|63:56|63:56|143:72,1,116.999994644165
122,67,159041,1,0,0:0:0:0:
122,67,159117,1,0,0:0:0:0:
260,80,159269,86,0,L|252:148,1,58.4999973220826,2|0,0:0|3:0,0:0:0:0:
315,303,159421,2,0,P|341:318|370:321,1,58.4999973220826,2|0,0:0|3:0,0:0:0:0:
440,164,159573,2,0,P|411:165|388:183,1,58.4999973220826,2|0,0:0|3:0,0:0:0:0:
232,212,159726,2,0,P|202:198|184:172,1,58.4999973220826,2|0,0:0|3:0,0:0:0:0:
48,244,159878,22,2,L|44:308,1,58.4999973220826,2|0,0:0|1:0,0:0:0:0:
56,140,160182,85,2,0:0:0:0:
56,140,160259,1,0,0:0:0:0:
56,140,160335,2,2,L|59:81,1,58.4999973220826,2|0,0:0|3:0,0:0:0:0:
204,72,160487,2,0,P|232:80|268:108,1,58.4999973220826,2|0,0:0|3:0,0:0:0:0:
388,183,160639,2,0,P|357:193|336:211,1,58.4999973220826,2|0,0:0|3:0,0:0:0:0:
169,285,160792,6,2,L|188:215,1,58.4999973220826,2|0,0:0|1:0,0:0:0:0:
312,296,161096,70,0,L|320:360,1,58.4999973220826,2|0,0:0|3:0,0:0:0:0:
460,216,161248,2,0,L|467:157,1,58.4999973220826,2|0,0:0|3:0,0:0:0:0:
372,44,161401,1,2,0:0:0:0:
372,44,161477,1,0,0:0:0:0:
372,44,161553,2,0,P|334:47|308:64,1,58.4999973220826,2|0,0:0|3:0,0:0:0:0:
168,120,161705,22,2,L|92:112,1,58.4999973220826,2|0,0:0|0:0,0:0:0:0:
80,200,162010,86,0,L|4:192,1,58.4999973220826,2|0,0:0|3:0,0:0:0:0:
152,328,162162,2,0,P|172:312|184:268,1,58.4999973220826,2|0,0:0|3:0,0:0:0:0:
272,168,162314,1,0,0:0:0:0:
272,168,162391,1,0,0:0:0:0:
272,168,162467,2,0,L|296:236,1,58.4999973220826,2|0,0:0|3:0,0:0:0:0:
412,320,162619,6,2,P|432:304|472:296,1,58.4999973220826,2|0,0:0|1:0,0:0:0:0:
424,144,162924,69,2,0:0:0:0:
424,144,163000,1,0,0:0:0:0:
424,144,163076,2,0,L|432:80,1,58.4999973220826,2|0,0:0|3:0,0:0:0:0:
280,80,163228,1,0,0:0:0:0:
280,80,163304,1,0,0:0:0:0:
280,80,163380,2,0,P|242:84|218:100,1,58.4999973220826,2|0,0:0|3:0,0:0:0:0:
92,212,163533,22,2,L|40:168,1,58.4999973220826,2|0,0:0|1:0,0:0:0:0:
56,68,163837,86,0,L|100:105,1,58.4999973220826,2|0,0:0|3:0,0:0:0:0:
176,200,163990,1,2,0:0:0:0:
176,200,164066,1,0,0:0:0:0:
176,200,164142,2,0,P|176:232|160:268,1,58.4999973220826,0|0,0:0|3:0,0:0:0:0:
32,356,164294,2,0,P|52:336|88:320,1,58.4999973220826,2|0,0:0|3:0,0:0:0:0:
280,240,164446,6,2,L|356:248,1,58.4999973220826,2|0,0:0|1:0,0:0:0:0:
356,328,164751,70,0,L|432:336,1,58.4999973220826,2|0,0:0|3:0,0:0:0:0:
488,216,164903,2,0,P|480:184|448:148,1,58.4999973220826,2|0,0:0|3:0,0:0:0:0:
352,40,165056,1,2,0:0:0:0:
352,40,165132,1,0,0:0:0:0:
352,40,165208,2,0,P|337:65|329:93,1,58.4999973220826,2|0,0:0|3:0,0:0:0:0:
200,168,165360,22,2,L|142:178,1,58.4999973220826,2|0,0:0|1:0,0:0:0:0:
84,189,165665,70,0,L|141:178,1,58.4999973220826,2|0,0:0|3:0,0:0:0:0:
264,120,165817,2,0,P|275:152|272:196,1,58.4999973220826,2|0,0:0|3:0,0:0:0:0:
196,284,165969,2,0,P|164:295|120:292,1,58.4999973220826,2|0,0:0|3:0,0:0:0:0:
20,232,166122,2,0,P|9:200|12:156,1,58.4999973220826,2|0,0:0|3:0,0:0:0:0:
92,68,166274,2,0,P|124:57|168:60,1,58.4999973220826,2|0,0:0|3:0,0:0:0:0:
344,140,166426,5,2,0:0:0:0:
344,140,166578,1,2,0:0:0:0:
344,140,166731,2,2,B|360:116|360:116|376:248,1,135.000005149842,2|0,0:0|3:0,0:0:0:0:
392,336,167035,21,2,0:2:0:0:
72,248,167187,1,2,0:2:0:0:
40,120,168710,5,0,0:0:0:0:
40,120,168786,1,0,0:0:0:0:
40,120,168862,1,0,0:0:0:0:
148,100,169065,1,4,3:3:0:0:
256,80,169268,1,0,0:3:0:0:
342,117,169471,38,2,L|336:176,1,58.4999973220826,4|0,0:2|3:2,0:2:0:0:
420,336,169623,1,4,0:2:0:0:
336,176,170537,38,0,L|384:168,1,49.5000015106202
460,152,170689,53,2,0:2:0:0:
256,192,170918,5,2,0:2:0:0:
52,232,171146,85,2,0:2:0:0:
256,192,171222,12,0,171908,3:0:0:0:
96,204,172517,22,0,P|85:151|68:88,1,99.0000030212403
73,107,172974,22,0,B|132:124|208:120|208:120|144:172,1,175.499991966248,8|0,0:2|0:0,0:0:0:0:
96,204,173278,1,0,0:0:0:0:
236,268,173430,1,0,0:0:0:0:
236,268,173507,1,0,0:0:0:0:
236,268,173583,1,0,0:0:0:0:
356,84,173735,5,0,0:0:0:0:
177,145,173887,1,0,0:0:0:0:
308,224,174040,1,0,0:0:0:0:
240,48,174192,1,0,0:0:0:0:
84,128,174344,1,2,0:2:0:0:
68,124,174420,1,2,0:2:0:0:
56,120,174496,1,2,0:2:0:0:
200,248,174649,1,2,0:2:0:0:
216,244,174725,1,2,0:2:0:0:
228,240,174801,1,2,0:2:0:0:
372,136,174953,6,0,L|379:37,1,99.0000030212403,4|0,0:2|0:0,0:0:0:0:
448,228,175258,1,0,0:0:0:0:
242,131,175410,2,0,B|306:127|376:82|376:82|368:170,1,198.000006042481,8|0,0:2|0:0,0:0:0:0:
348,324,175867,53,0,0:0:0:0:
448,228,176019,1,0,0:0:0:0:
276,172,176172,1,8,0:2:0:0:
352,292,176324,1,0,0:0:0:0:
444,100,176476,1,2,0:0:0:0:
244,164,176628,2,2,B|172:144|116:156|116:156|132:112|132:112|152:132,1,198.000006042481,4|0,0:2|0:0,0:0:0:0:
300,56,177085,2,0,L|348:48,3,49.5000015106202
444,100,177390,5,0,0:0:0:0:
440,128,177466,1,0,0:0:0:0:
436,156,177542,1,0,0:0:0:0:
432,184,177618,1,0,0:0:0:0:
424,212,177694,1,0,0:0:0:0:
420,240,177771,1,0,0:0:0:0:
416,268,177847,6,0,B|308:284|308:284|328:236,1,148.50000453186,8|0,0:2|2:0,0:0:0:0:
280,168,178151,2,0,L|292:104,1,49.5000015106202
152,64,178304,1,2,0:2:0:0:
144,68,178380,1,2,0:2:0:0:
136,72,178456,1,2,0:2:0:0:
40,248,178608,5,0,0:0:0:0:
76,232,178684,1,0,0:0:0:0:
116,232,178760,1,0,0:0:0:0:
148,252,178837,1,0,0:0:0:0:
184,264,178913,1,0,0:0:0:0:
224,272,178989,1,0,0:0:0:0:
260,260,179065,54,0,B|288:248|288:248|412:280,1,148.50000453186,8|0,0:2|0:0,0:0:0:0:
484,292,179370,2,0,B|484:268|484:268|472:224,1,49.5000015106202
432,96,179522,1,2,0:2:0:0:
435,85,179598,1,2,0:2:0:0:
439,74,179674,1,2,0:2:0:0:
312,152,179826,6,0,L|208:136,1,99.0000030212403,8|0,0:2|0:0,0:0:0:0:
214,136,180055,1,0,0:0:0:0:
214,136,180131,1,0,0:0:0:0:
31,173,180283,2,0,B|79:193|79:193|223:133,1,198.000006042481,6|0,0:2|0:0,0:0:0:0:
216,56,180664,21,0,0:0:0:0:
216,56,180740,2,0,B|243:58|243:58|266:72,1,49.5000015106202
400,168,180892,2,8,L|464:152,3,49.5000015106202,8|8|8|4,0:3|0:3|0:3|0:3,0:3:0:0:
328,260,181197,70,0,P|300:256|280:244,1,49.5000015106202,2|0,0:0|0:0,0:0:0:0:
168,204,181349,2,0,P|140:208|120:220,1,49.5000015106202,2|0,0:0|0:0,0:0:0:0:
44,120,181502,38,2,L|52:48,1,72,2|0,0:0|3:0,0:0:0:0:
72,40,181806,6,2,L|64:112,1,72,2|0,0:0|3:0,0:0:0:0:
168,204,181958,2,2,B|192:236|192:236|206:105,1,144,2|0,0:0|3:0,0:0:0:0:
363,88,182263,22,0,B|412:93|412:93|479:61,1,99.0000030212403,8|0,0:2|0:0,0:0:0:0:
457,72,182491,1,0,0:0:0:0:
457,72,182567,1,0,0:0:0:0:
457,72,182644,1,0,0:0:0:0:
457,72,182720,6,0,L|446:223,1,148.50000453186,12|0,0:2|0:0,0:0:0:0:
444,240,183024,1,0,0:0:0:0:
324,160,183177,1,0,0:0:0:0:
264,320,183329,1,0,0:0:0:0:
368,256,183481,1,8,0:2:0:0:
224,156,183633,2,0,B|196:152|196:152|108:176,1,99.0000030212403
52,296,183938,69,2,0:2:0:0:
72,308,184014,1,2,0:2:0:0:
92,320,184090,1,2,0:2:0:0:
284,216,184243,1,2,0:2:0:0:
208,236,184395,1,2,0:2:0:0:
224,156,184547,1,0,0:0:0:0:
192,316,184699,5,6,0:2:0:0:
356,236,184852,1,0,0:0:0:0:
148,140,185004,1,0,0:0:0:0:
320,84,185156,2,0,B|388:60|388:60|492:96,1,148.50000453186,8|0,0:2|0:0,0:0:0:0:
460,164,185461,2,0,L|404:148,1,49.5000015106202
268,220,185613,1,0,0:0:0:0:
368,328,185765,5,0,0:0:0:0:
368,328,185842,1,0,0:0:0:0:
368,328,185918,2,0,L|356:208,1,99.0000030212403,6|0,0:2|0:0,0:0:0:0:
160,168,186222,2,0,P|109:172|61:177,1,99.0000030212403,8|0,0:2|0:0,0:0:0:0:
256,56,186527,2,0,P|306:51|354:46,1,99.0000030212403,0|0,0:2|0:0,0:0:0:0:
354,46,186755,1,0,0:0:0:0:
354,46,186831,1,0,0:2:0:0:
472,136,186984,6,0,L|480:84,1,49.5000015106202
364,188,187136,2,0,L|380:296,1,99.0000030212403
378,285,187364,1,0,0:0:0:0:
378,285,187441,1,0,0:0:0:0:
144,336,187593,1,8,0:2:0:0:
52,264,187897,21,0,0:0:0:0:
60,228,187974,1,0,0:0:0:0:
68,196,188050,2,0,P|84:220|112:240,1,49.5000015106202,0|0,0:0|3:0,0:0:0:0:
244,192,188202,1,0,0:0:0:0:
276,176,188278,1,0,0:0:0:0:
304,156,188354,2,0,P|276:162|242:162,1,49.5000015106202,2|0,0:0|0:0,0:0:0:0:
72,76,188507,1,2,0:1:0:0:
72,76,188811,6,2,B|140:90|140:90|196:76|196:76|276:93,1,198.000006042481,2|0,0:0|0:0,0:0:0:0:
324,32,189192,21,0,0:0:0:0:
348,64,189268,1,0,0:0:0:0:
356,104,189344,1,0,0:0:0:0:
344,140,189420,1,0,0:0:0:0:
316,168,189496,1,0,0:0:0:0:
276,180,189573,53,0,0:0:0:0:
240,168,189649,1,0,0:0:0:0:
204,152,189725,1,0,0:0:0:0:
164,148,189801,1,0,0:0:0:0:
124,156,189877,1,0,0:0:0:0:
88,176,189953,1,0,0:0:0:0:
60,204,190029,6,0,B|80:244|80:244|108:140|108:140|80:40,1,233.999989288331,12|0,0:2|0:0,0:0:0:0:
86,61,190410,1,0,0:0:0:0:
86,61,190486,1,0,0:0:0:0:
164,256,190639,21,0,0:0:0:0:
164,256,190715,1,0,0:0:0:0:
164,256,190791,1,0,0:0:0:0:
308,96,190943,5,0,0:0:0:0:
308,96,191019,1,0,0:0:0:0:
308,96,191095,1,0,0:0:0:0:
444,324,191248,21,0,0:0:0:0:
256,192,192618,5,4,0:0:0:0:
256,192,192694,12,0,193227,2:0:0:0:
256,192,193837,5,4,0:0:0:0:
256,192,193913,12,0,194446,0:0:0:0:
413,330,194598,6,2,B|381:308|381:308|388:263|388:263|426:291,1,112.5,0|0,0:0|3:0,0:0:0:0:
416,196,195055,5,2,0:0:0:0:
416,196,195207,1,2,0:0:0:0:
416,196,195359,2,0,B|444:216|444:216|448:152|448:152|416:128,1,135.000005149842,2|0,0:0|3:0,0:0:0:0:
148,48,195664,5,2,0:0:0:0:
148,48,195816,2,0,B|100:68|100:68|180:96,1,135.000005149842,2|0,0:0|3:0,0:0:0:0:
344,272,196121,5,2,0:0:0:0:
344,272,196273,2,0,B|352:248|352:248|376:304|376:304|336:344,1,135.000005149842,2|0,0:0|3:0,0:0:0:0:
87,259,196578,5,2,0:0:0:0:
87,259,196730,2,0,B|71:219|71:219|99:155|99:155|113:188,1,135.000005149842,2|0,0:0|0:0,0:0:0:0:
216,56,197035,5,8,3:3:0:0:
252,268,197187,1,4,3:3:0:0:
372,144,197339,1,8,3:3:0:0:
108,176,197491,37,2,0:0:0:0:
108,176,197644,1,2,0:0:0:0:
108,176,197796,2,0,B|60:220|60:220|144:200,1,135.000005149842,2|0,0:0|3:0,0:0:0:0:
412,80,198100,5,2,0:0:0:0:
412,80,198253,2,0,B|464:64|464:64|484:96|484:96|424:116,1,135.000005149842,2|0,0:0|3:0,0:0:0:0:
192,320,198557,5,2,0:0:0:0:
192,320,198710,2,0,B|208:348|208:348|104:308,1,135.000005149842,2|0,0:0|3:0,0:0:0:0:
56,140,199014,5,2,0:0:0:0:
56,140,199166,2,0,B|92:128|92:128|148:144|148:144|84:184,1,135.000005149842,2|0,0:0|1:0,0:0:0:0:
224,100,199471,22,0,B|236:132|236:132|220:180,1,67.5000025749208,2|0,0:2|3:0,0:0:0:0:
224,240,199623,2,0,B|212:208|212:208|228:160,1,67.5000025749208,2|0,0:2|3:0,0:0:0:0:
224,28,199776,2,0,B|236:60|236:60|225:92,1,67.5000025749208,2|0,0:2|3:0,0:0:0:0:
352,324,199928,37,2,0:0:0:0:
352,324,200080,1,2,0:0:0:0:
352,324,200232,2,0,B|364:340|364:340|380:248|380:248|400:288,1,135.000005149842,2|0,0:0|3:0,0:0:0:0:
356,100,200537,5,2,0:0:0:0:
356,100,200689,2,2,B|368:72|404:56|404:56|428:96|408:164,1,135.000005149842,0|0,0:0|3:0,0:0:0:0:
180,296,200994,5,2,0:0:0:0:
180,296,201146,2,2,B|128:336|128:336|128:260,1,135.000005149842,2|0,0:0|2:0,0:0:0:0:
92,88,201451,53,2,0:0:0:0:
92,88,201603,2,0,B|128:76|128:76|156:77|180:92|180:92|191:71|232:64,1,135.000005149842,2|0,0:0|3:0,0:0:0:0:
408,148,201908,53,8,0:3:0:0:
280,228,202060,1,4,0:3:0:0:
360,40,202212,1,8,0:3:0:0:
464,272,202364,37,6,0:1:0:0:
464,272,202517,1,6,0:1:0:0:
464,272,202669,2,0,B|470:239|470:239|405:248|405:248|431:281,1,135.000005149842,2|0,0:0|3:0,0:0:0:0:
180,336,202974,5,2,0:0:0:0:
180,336,203126,2,0,B|136:356|108:344|88:336|80:308|96:296|132:312,1,135.000005149842,2|0,0:0|3:0,0:0:0:0:
300,80,203430,5,2,0:0:0:0:
300,80,203583,2,0,B|310:35|310:35|344:74|308:128,1,135.000005149842,2|0,0:0|1:0,0:0:0:0:
344,284,203887,6,0,B|308:308|308:308|200:264,1,135.000005149842
223,273,204116,1,0,0:0:0:0:
223,273,204192,1,0,0:0:0:0:
256,192,204344,5,8,0:3:0:0:
344,284,204496,21,8,0:3:0:0:
444,120,204649,85,2,0:3:0:0:
