osu file format v14

[General]
AudioFilename: audio.ogg
AudioLeadIn: 0
PreviewTime: 172364
Countdown: 0
SampleSet: Normal
StackLeniency: 0.7
Mode: 0
LetterboxInBreaks: 0
WidescreenStoryboard: 1

[Editor]
DistanceSpacing: 1.1
BeatDivisor: 4
GridSize: 32
TimelineZoom: 1.4

[Metadata]
Title:Shark
TitleUnicode:Shark
Artist:Shiena Nishizawa
ArtistUnicode:西沢幸奏
Creator:-Hitomi
Version:Moete's Insane
Source:
Tags:l1ght_u light_u cryo[iceeicee] __ag moete rk657 matsuyuki ame aurorance japanese rock jrock j-rock exina
BeatmapID:4526304
BeatmapSetID:2148688

[Difficulty]
HPDrainRate:5
CircleSize:4
OverallDifficulty:8
ApproachRate:9
SliderMultiplier:1.8
SliderTickRate:1

[Events]
//Background and Video events
0,0,"bg.jpg",0,0
//Break Periods
2,81044,87249
2,124597,127452
//Storyboard Layer 0 (Background)
//Storyboard Layer 1 (Fail)
//Storyboard Layer 2 (Pass)
//Storyboard Layer 3 (Foreground)
//Storyboard Layer 4 (Overlay)
//Storyboard Sound Samples

[TimingPoints]
134,304.568527918782,4,1,1,20,1,0
134,-125,4,1,1,20,0,0
4397,-125,4,1,1,30,0,0
4702,-111.111111111111,4,1,1,30,0,0
5007,-100,4,1,10,60,0,0
5311,-100,4,1,1,60,0,0
5411,-100,4,1,10,60,0,0
5920,-100,4,1,1,60,0,0
6020,-100,4,1,10,60,0,0
6529,-100,4,1,1,60,0,0
6629,-100,4,1,10,60,0,0
7139,-100,4,1,1,60,0,0
7291,-100,4,1,1,40,0,0
9271,-100,4,1,2,30,0,0
9727,-100,4,1,1,50,0,0
19474,-125,4,1,1,50,0,0
19626,-125,4,1,1,20,0,0
21758,-125,4,1,1,50,0,0
22062,-125,4,3,15,100,0,0
22367,-125,4,1,1,50,0,0
22519,-125,4,1,1,30,0,0
24194,-125,4,1,1,50,0,0
24499,-125,4,3,15,100,0,0
24804,-125,4,1,1,50,0,0
24956,-125,4,1,1,30,0,0
26631,-125,4,1,1,50,0,0
26936,-125,4,3,15,100,0,0
27240,-125,4,1,1,50,0,0
27340,-125,4,3,15,100,0,0
27392,-125,4,1,1,30,0,0
29372,-125,4,3,15,100,0,0
29677,-125,4,1,1,50,0,0
29829,-125,4,1,1,40,0,0
30590,-125,4,1,1,30,0,0
30895,-142.857142857143,4,1,1,30,0,0
31199,-142.857142857143,4,1,1,40,0,0
31656,-111.111111111111,4,1,1,50,0,0
35616,-111.111111111111,4,1,1,70,0,0
35768,-111.111111111111,4,1,1,50,0,0
35868,-111.111111111111,4,1,1,70,0,0
36453,-111.111111111111,4,1,1,50,0,0
40946,-111.111111111111,4,1,1,20,0,0
41403,-95.2380952380952,4,1,1,50,0,0
44905,-100,4,1,1,50,0,0
46276,-95.2380952380952,4,1,1,50,0,0
48408,-100,4,1,1,50,0,0
51149,-100,4,1,1,50,0,0
54194,-100,4,1,2,50,0,0
55413,-100,4,1,1,50,0,0
56022,-95.2380952380952,4,1,1,50,0,0
59981,-95.2380952380952,4,1,15,100,0,0
60210,-95.2380952380952,4,1,1,50,0,0
60590,-95.2380952380952,4,1,1,41,0,0
60895,-100,4,1,2,50,0,0
67443,-100,4,1,1,50,0,0
70793,-111.111111111111,4,1,1,50,0,0
75310,-111.111111111111,4,1,2,50,0,0
77951,-111.111111111111,4,1,1,50,0,0
78179,-111.111111111111,4,1,2,50,0,0
80083,-111.111111111111,4,1,15,80,0,0
80540,-125,4,1,1,60,0,0
80692,-125,4,2,2,30,0,0
81758,-166.666666666666,4,2,2,30,0,0
87849,-111.111111111111,4,1,1,50,0,0
89220,-111.111111111111,4,1,2,50,0,0
89829,-111.111111111111,4,1,1,50,0,0
94397,-111.111111111111,4,1,15,50,0,0
94854,-111.111111111111,4,1,1,50,0,0
97595,-111.111111111111,4,1,2,50,0,0
100489,-111.111111111111,4,1,15,70,0,0
101098,-95.2380952380952,4,1,1,60,0,0
101198,-95.2380952380952,4,1,1,50,0,0
102621,-95.2380952380952,4,1,2,50,0,0
103078,-95.2380952380952,4,1,1,50,0,0
104753,-95.2380952380952,4,1,2,50,0,0
105514,-95.2380952380952,4,1,1,50,0,0
108408,-95.2380952380952,4,1,2,50,0,0
108712,-95.2380952380952,4,1,15,70,0,0
109626,-95.2380952380952,4,1,2,50,0,0
110844,-95.2380952380952,4,1,1,50,0,0
112215,-95.2380952380952,4,1,2,50,0,0
113281,-95.2380952380952,4,1,1,50,0,0
114804,-95.2380952380952,4,1,2,50,0,0
115260,-95.2380952380952,4,1,1,50,0,0
117316,-95.2380952380952,4,1,2,50,0,0
117416,-95.2380952380952,4,1,1,50,0,0
118254,-95.2380952380952,4,1,2,50,0,0
119624,-95.2380952380952,4,1,15,100,0,0
119905,-95.2380952380952,4,1,2,50,0,0
120286,-95.2380952380952,4,1,1,25,0,0
120743,304.568527918782,3,1,1,20,1,0
120743,-142.857142857143,3,1,1,20,0,0
128052,-142.857142857143,3,1,45,40,0,0
128128,-142.857142857143,3,1,2,20,0,0
129880,-142.857142857143,3,1,45,40,0,0
129980,-142.857142857143,3,1,2,20,0,0
131707,-142.857142857143,3,1,2,40,0,0
131807,-142.857142857143,3,1,2,20,0,0
133535,-142.857142857143,3,1,2,40,0,0
133635,-142.857142857143,3,1,2,20,0,0
135362,-200,3,1,1,45,0,0
135971,-200,3,3,45,80,0,0
136276,-200,3,3,45,60,0,0
136376,-200,3,3,45,80,0,0
142671,-166.666666666667,3,3,45,80,0,0
143585,-166.666666666667,3,3,45,50,0,0
143685,-166.666666666667,3,3,45,80,0,0
145413,-166.666666666667,3,3,45,60,0,0
145513,-166.666666666667,3,3,45,80,0,0
146326,-166.666666666667,3,3,45,90,0,0
147240,-166.666666666667,3,3,45,80,0,0
147340,-166.666666666667,3,3,45,90,0,0
147697,-166.666666666667,3,3,45,100,0,0
148154,-166.666666666667,3,3,45,90,0,0
148458,-166.666666666667,3,3,45,100,0,0
149068,-166.666666666667,3,3,45,90,0,0
149168,-166.666666666667,3,3,45,100,0,0
149677,-142.857142857143,3,3,45,100,0,0
149981,304.568527918782,4,3,45,80,1,0
150590,-125,4,3,45,80,0,0
151199,304.568527918782,3,1,1,50,1,0
159193,-100,3,1,1,50,0,0
159269,304.568527918782,3,1,1,30,1,0
166426,-100,3,1,1,60,0,0
167035,304.568527918782,4,1,2,60,1,0
169017,-100,4,1,15,70,0,0
169065,-125,4,1,15,70,0,0
169321,-125,4,1,1,60,0,0
170537,-125,4,1,2,60,0,0
171222,-125,4,1,1,5,0,0
172519,-125,4,1,2,35,0,0
172974,-95.2380952380952,4,1,1,60,0,0
173076,-95.2380952380952,4,1,2,50,0,0
174953,-95.2380952380952,4,1,1,50,0,0
178304,-95.2380952380952,4,1,2,50,0,0
178535,-95.2380952380952,4,1,1,50,0,0
179522,-95.2380952380952,4,1,2,50,0,0
179753,-95.2380952380952,4,1,1,50,0,0
180892,-95.2380952380952,4,1,15,60,0,0
181197,-95.2380952380952,4,1,1,50,0,0
181502,-95.2380952380952,4,1,1,65,0,0
182189,-95.2380952380952,4,1,1,50,0,0
183938,-95.2380952380952,4,1,2,50,0,0
184699,-95.2380952380952,4,1,1,50,0,0
192618,-125,4,1,1,50,0,0
194598,-125,4,1,1,60,0,0
197035,-125,4,1,15,80,0,0
197491,-125,4,1,1,60,0,0
199471,-125,4,1,33,60,0,0
199928,-125,4,1,1,50,0,0
201908,-125,4,1,15,70,0,0
202364,-125,4,1,1,50,0,0
204344,-125,4,3,45,80,0,0

[Colours]
Combo1 : 128,191,255
Combo2 : 179,255,255

[HitObjects]
47,197,134,6,0,B|67:298|67:298|101:260,1,144,0|0,0:0|3:0,0:0:0:0:
187,191,590,2,0,L|348:203,1,144,2|2,0:0|0:0,0:0:0:0:
415,245,1047,2,0,B|426:207|426:207|415:155,1,72,0|0,1:2|0:0,0:0:0:0:
419,175,1352,1,0,0:0:0:0:
308,158,1504,2,0,B|294:68|294:68|324:24,1,144,2|2,0:0|0:0,0:0:0:0:
474,100,2570,6,0,P|502:181|474:241,1,144,0|0,0:0|3:0,0:0:0:0:
401,314,3027,2,0,B|311:327|311:327|273:261,1,144,2|2,0:0|0:0,0:0:0:0:
202,243,3484,1,0,1:2:0:0:
202,243,3636,1,0,0:0:0:0:
202,243,3788,1,0,0:0:0:0:
293,161,3941,2,0,B|285:116|285:116|297:81|297:81|283:12,1,144,2|2,0:0|0:0,0:0:0:0:
386,136,4397,5,0,0:0:0:0:
189,64,4550,1,0,0:0:0:0:
189,64,4626,1,0,0:0:0:0:
189,64,4702,2,0,P|111:60|69:93,1,121.499996292114
23,162,5007,6,0,B|50:297|50:297|83:257,1,180,2|0,0:2|0:3,0:0:0:0:
170,202,5463,1,4,0:3:0:0:
195,210,5540,1,4,0:3:0:0:
220,217,5616,1,0,0:3:0:0:
314,305,5768,1,2,0:2:0:0:
202,384,5920,2,0,P|201:343|215:283,1,90,0|0,0:2|0:2,0:0:0:0:
319,219,6225,5,2,0:2:0:0:
319,219,6377,1,2,0:2:0:0:
211,156,6529,2,0,P|165:162|122:168,1,90,0|4,0:0|0:3,0:0:0:0:
18,121,6834,1,0,0:2:0:0:
113,44,6986,1,2,0:2:0:0:
113,44,7139,1,0,0:2:0:0:
118,205,7291,5,0,0:0:0:0:
118,205,7367,1,0,0:0:0:0:
118,205,7443,1,0,0:0:0:0:
217,137,7595,2,0,L|272:146,2,45,0|0|0,1:0|0:0|0:0,0:0:0:0:
364,228,7900,5,0,1:0:0:0:
388,220,7976,1,0,0:0:0:0:
415,211,8052,2,0,P|421:162|404:113,1,90,0|0,0:0|1:0,0:0:0:0:
402,96,8281,1,0,0:0:0:0:
402,96,8357,1,0,0:0:0:0:
261,144,8509,6,0,B|212:139|173:168|173:168|132:140,1,135,2|0,0:0|0:0,0:0:0:0:
112,125,8814,1,2,0:0:0:0:
278,12,8966,1,2,0:0:0:0:
418,110,9271,5,2,1:2:0:0:
418,122,9347,1,2,1:2:0:0:
419,136,9423,2,0,L|474:145,2,45,2|2|2,1:2|1:2|1:2,0:0:0:0:
330,211,9727,6,0,B|265:202|265:202|217:227|217:227|139:214,1,180,2|2,0:0|0:0,0:0:0:0:
52,152,10184,1,2,0:0:0:0:
175,111,10337,1,2,0:0:0:0:
75,274,10489,1,0,0:0:0:0:
75,274,10641,1,2,0:0:0:0:
183,339,10793,2,0,P|197:291|194:239,1,90,0|2,0:0|0:0,0:0:0:0:
90,90,11098,6,0,P|76:138|79:190,1,90,2|0,0:0|0:0,0:0:0:0:
196,251,11403,2,0,P|281:266|375:223,1,180,2|2,0:0|0:0,0:0:0:0:
458,147,11859,1,2,0:0:0:0:
354,75,12012,1,2,0:0:0:0:
251,184,12164,6,0,B|268:325|268:325|310:298,1,180,6|2,1:1|0:0,0:0:0:0:
165,279,12621,2,0,P|120:293|63:302,1,90,2|0,0:0|0:0,0:0:0:0:
202,383,12925,1,2,0:0:0:0:
286,263,13078,1,0,0:0:0:0:
137,184,13230,6,0,B|125:141|125:141|139:93,1,90,2|0,0:0|0:0,0:0:0:0:
137,97,13458,1,0,0:0:0:0:
138,96,13535,1,2,0:0:0:0:
236,157,13687,1,2,0:0:0:0:
68,271,13839,2,0,B|41:235|41:235|32:184,1,90,2|0,0:0|0:0,0:0:0:0:
103,12,14144,1,2,0:0:0:0:
0,94,14296,1,2,0:0:0:0:
121,148,14448,1,0,0:0:0:0:
239,54,14601,6,0,B|278:45|278:45|314:57|314:57|361:25|424:39,1,180,4|2,1:1|0:0,0:0:0:0:
499,165,15057,2,0,P|512:113|512:65,1,90,2|0,0:0|0:0,0:0:0:0:
394,135,15362,1,2,0:0:0:0:
394,135,15514,1,0,0:0:0:0:
312,188,15666,6,0,P|284:282|339:362,1,180,2|2,0:0|0:0,0:0:0:0:
436,384,16123,1,0,0:0:0:0:
407,257,16276,1,2,0:0:0:0:
407,257,16428,1,2,0:0:0:0:
277,319,16580,2,0,B|254:333|254:333|187:322,1,90,2|2,0:0|0:0,0:0:0:0:
191,322,16885,1,2,0:0:0:0:
86,381,17037,6,0,L|95:196,1,180,6|2,0:1|0:0,0:0:0:0:
94,201,17418,1,0,0:0:0:0:
94,201,17494,1,2,0:0:0:0:
104,98,17646,1,2,0:0:0:0:
1,150,17798,2,0,P|10:204|13:252,1,90,2|0,0:0|0:0,0:0:0:0:
189,246,18103,2,0,P|192:201|200:156,1,90,2|2,0:0|0:0,0:0:0:0:
305,57,18408,5,2,0:0:0:0:
468,168,18560,1,0,0:0:0:0:
296,224,18712,1,0,0:0:0:0:
392,74,18864,1,0,0:0:0:0:
258,27,19017,6,0,L|195:37,1,45
197,65,19169,2,0,L|134:75,1,45
133,36,19321,2,0,L|70:46,1,45
62,75,19474,2,0,L|15:82,2,36,0|0|2,0:0|0:0|0:0,0:0:0:0:
300,156,21758,5,8,0:1:0:0:
300,156,22062,5,4,1:2:0:0:
331,253,22215,1,0,0:0:0:0:
397,185,22367,1,0,0:0:0:0:
234,233,22519,6,0,B|70:249,1,144,2|2,0:0|0:0,0:0:0:0:
15,283,22976,2,0,B|3:248|3:248|12:213,1,72,0|2,0:0|0:0,0:0:0:0:
127,135,23281,1,0,3:0:0:0:
127,135,23433,2,0,B|144:172|144:172|137:214,1,72,2|0,0:0|1:0,0:0:0:0:
223,322,23738,2,0,P|325:335|376:305,1,144,2|0,0:0|3:0,0:0:0:0:
452,259,24194,1,0,0:0:0:0:
370,124,24499,5,0,0:0:0:0:
287,162,24651,1,0,0:0:0:0:
360,219,24804,1,0,0:0:0:0:
485,165,24956,6,0,B|496:60|496:60|475:-2,1,144,2|2,0:0|0:0,0:0:0:0:
483,23,25337,1,0,0:0:0:0:
483,23,25413,1,8,1:0:0:0:
377,106,25565,1,2,0:0:0:0:
377,106,25717,1,0,3:0:0:0:
290,48,25870,2,0,P|253:58|215:61,1,72,2|8,0:0|0:0,0:0:0:0:
219,60,26174,1,2,0:0:0:0:
127,34,26326,2,0,B|123:75|123:75|138:123,1,72,0|2,0:0|0:0,0:0:0:0:
240,223,26631,2,0,B|247:183|247:183|230:130,1,72,0|0,0:0|3:0,0:0:0:0:
111,219,26936,5,0,0:0:0:0:
111,219,27088,1,0,0:0:0:0:
237,153,27240,2,0,P|314:169|399:166,1,144
494,84,27697,1,2,0:0:0:0:
416,33,27849,2,0,P|372:45|335:49,1,72,0|2,0:0|0:0,0:0:0:0:
345,48,28078,1,0,0:0:0:0:
345,48,28154,1,2,0:0:0:0:
291,168,28306,2,0,P|311:207|318:246,1,72,2|0,0:0|0:0,0:0:0:0:
432,311,28611,6,0,P|437:271|452:234,1,72,2|0,0:0|0:0,0:0:0:0:
397,152,28915,1,2,0:0:0:0:
397,152,29068,2,0,L|257:172,1,108
271,173,29372,1,0,0:0:0:0:
144,91,29524,1,0,0:0:0:0:
275,16,29677,2,0,P|319:29|356:31,2,72,0|2|0,0:0|0:0|0:0,0:0:0:0:
236,99,30134,5,0,0:0:0:0:
236,99,30210,1,0,0:0:0:0:
236,99,30286,2,0,B|247:156|247:156|233:189|233:189|243:247,1,144,8|2,0:2|0:0,0:0:0:0:
169,324,30743,1,0,0:0:0:0:
274,366,30895,2,0,P|316:365|342:346,1,62.9999980773926,2|0,0:0|0:0,0:0:0:0:
416,305,31199,2,0,P|429:245|387:202,1,125.999996154785,2|0,0:0|0:0,0:0:0:0:
253,139,31656,6,0,B|258:88|241:24|241:24|293:62,1,161.999995056153,4|0,0:0|0:0,0:0:0:0:
143,120,32113,2,0,P|96:115|56:100,1,80.9999975280763
55,101,32342,1,0,0:0:0:0:
55,101,32418,1,0,1:0:0:0:
126,20,32570,1,0,1:0:0:0:
274,86,32722,6,0,P|341:96|403:73,1,121.499996292114
398,75,33027,1,0,1:0:0:0:
321,0,33179,1,0,0:0:0:0:
321,0,33331,1,0,1:0:0:0:
178,66,33484,2,0,P|187:108|190:151,1,80.9999975280763,0|0,0:0|1:0,0:0:0:0:
278,252,33788,1,0,0:0:0:0:
278,252,33864,1,0,0:0:0:0:
278,252,33941,1,0,0:0:0:0:
340,187,34093,1,8,0:2:0:0:
246,163,34245,6,0,B|181:153|181:153|141:169|141:169|69:156,1,161.999995056153
189,249,34702,1,0,0:0:0:0:
121,75,34854,1,0,0:0:0:0:
17,200,35007,1,0,0:0:0:0:
133,180,35159,1,0,0:0:0:0:
246,163,35311,2,0,B|252:120|252:120|234:64,1,80.9999975280763
240,84,35616,1,4,3:3:0:0:
117,48,35768,6,0,B|86:80|86:80|64:146|110:198,1,161.999995056153,4|4,1:3|3:3,0:0:0:0:
130,223,36149,1,0,0:0:0:0:
130,223,36225,2,0,L|174:211,1,40.4999987640381,4|0,3:3|0:0,0:0:0:0:
250,160,36377,2,0,L|291:168,1,40.4999987640381
348,239,36529,2,0,L|391:230,1,40.4999987640381
473,171,36682,6,0,P|478:124|462:84,1,80.9999975280763,6|0,0:2|0:0,0:0:0:0:
361,28,36986,1,0,0:0:0:0:
361,28,37139,1,0,0:0:0:0:
386,143,37291,1,0,0:0:0:0:
463,68,37443,1,0,0:0:0:0:
297,95,37595,6,0,B|255:108|211:109,1,80.9999975280763
218,109,37824,1,0,0:0:0:0:
218,109,37900,1,0,0:0:0:0:
109,199,38052,1,0,0:0:0:0:
6,131,38205,2,0,B|-15:63|32:11|32:11|44:43,1,161.999995056153
43,41,38661,1,0,0:0:0:0:
145,108,38814,2,0,P|157:68|160:9,1,80.9999975280763
350,25,39118,6,0,P|354:65|365:103,1,80.9999975280763,4|0,0:2|0:0,0:0:0:0:
442,179,39423,1,0,0:0:0:0:
284,250,39575,1,0,0:0:0:0:
422,320,39727,1,2,0:0:0:0:
422,320,39880,1,0,0:0:0:0:
324,377,40032,2,0,P|320:337|308:284,1,80.9999975280763
192,217,40337,5,0,0:0:0:0:
174,219,40413,1,0,0:0:0:0:
156,223,40489,1,0,0:0:0:0:
138,226,40565,1,0,0:0:0:0:
120,229,40641,1,0,0:0:0:0:
20,298,40946,5,0,1:2:0:0:
0,216,41098,1,0,0:0:0:0:
192,217,41403,6,0,B|266:204|311:260|311:260|365:227,1,188.999994232178,8|0,0:2|0:0,0:0:0:0:
475,297,41859,2,0,B|488:249|488:249|480:186,1,94.499997116089
301,150,42164,1,4,0:2:0:0:
373,255,42316,1,0,0:0:0:0:
417,101,42469,1,0,0:0:0:0:
223,65,42621,6,0,B|197:111|197:111|222:252,1,188.999994232178,8|0,0:2|0:0,0:0:0:0:
233,275,43002,1,0,0:0:0:0:
233,275,43078,2,0,B|186:297|186:297|131:283,1,94.499997116089
26,228,43382,5,2,0:2:0:0:
118,142,43535,1,0,0:0:0:0:
13,72,43687,1,0,0:0:0:0:
167,16,43839,6,0,B|206:26|206:26|243:8|243:8|286:49|352:39,1,188.999994232178,8|0,0:2|0:0,0:0:0:0:
430,106,44296,2,0,B|446:62|446:62|446:15,1,94.499997116089
313,133,44601,1,8,0:2:0:0:
313,133,44753,1,0,0:0:0:0:
412,207,44905,6,0,P|332:251|234:214,1,180
140,258,45362,1,0,0:0:0:0:
140,258,45514,2,0,P|151:208|152:162,1,90
28,76,45819,5,2,0:0:0:0:
145,18,45971,1,2,0:0:0:0:
19,105,46123,1,0,0:0:0:0:
202,169,46276,6,0,P|292:182|382:129,1,188.999994232178,8|0,0:2|0:0,0:0:0:0:
454,39,46732,2,0,P|395:33|350:18,1,94.499997116089,6|0,0:2|0:0,0:0:0:0:
258,61,47037,1,2,0:2:0:0:
337,210,47189,1,0,0:0:0:0:
407,126,47342,1,0,0:0:0:0:
217,184,47494,6,0,B|183:220|183:220|160:303|218:358,1,188.999994232178,8|0,0:2|0:0,0:0:0:0:
317,384,47951,2,0,P|319:331|333:284,1,94.499997116089,4|0,0:2|0:0,0:0:0:0:
458,146,48255,1,2,0:2:0:0:
330,178,48408,1,0,0:0:0:0:
410,229,48560,1,0,0:0:0:0:
373,97,48712,6,0,P|332:50|206:63,1,180,8|0,0:2|0:2,0:0:0:0:
111,36,49169,2,0,P|57:104|74:190,1,180,0|0,0:2|0:0,0:0:0:0:
74,190,49550,1,0,0:0:0:0:
74,190,49626,1,0,0:0:0:0:
171,266,49778,2,0,L|114:278,1,45
60,306,49930,2,0,L|116:296,1,45,2|0,0:0|0:0,0:0:0:0:
310,196,50235,5,2,0:0:0:0:
373,266,50387,1,0,0:0:0:0:
320,337,50540,1,0,0:0:0:0:
202,241,50692,5,0,0:0:0:0:
196,214,50768,1,0,0:0:0:0:
196,187,50844,1,0,0:0:0:0:
200,161,50920,1,0,0:0:0:0:
211,136,50996,1,0,0:0:0:0:
293,73,51149,6,0,B|340:68|370:82|370:82|400:104|400:104|429:117|474:109,1,180,2|0,0:2|0:0,0:0:0:0:
343,191,51606,2,0,P|299:205|251:209,1,90
111,140,51910,1,4,0:2:0:0:
232,116,52062,1,0,0:0:0:0:
232,116,52215,1,0,0:0:0:0:
79,43,52367,6,0,B|59:91|59:91|81:230,1,180,8|0,0:2|0:0,0:0:0:0:
177,307,52824,2,0,P|192:262|193:218,1,90
326,102,53128,2,0,P|311:147|310:191,1,90,2|0,0:2|0:0,0:0:0:0:
309,189,53433,1,0,0:0:0:0:
354,321,53585,6,0,B|284:310|284:310|244:321|244:321|155:303,1,180,8|0,0:2|0:0,0:0:0:0:
93,182,54042,2,0,L|193:199,1,90
79,374,54347,2,0,P|62:333|64:276,1,90,2|0,0:2|0:0,0:0:0:0:
205,184,54651,6,0,B|226:129|203:58|203:58|253:115,1,180,2|2,0:2|0:2,0:0:0:0:
236,96,55032,1,0,0:0:0:0:
236,96,55108,1,0,0:0:0:0:
330,52,55260,2,0,P|384:62|428:66,1,90,2|4,0:2|0:3,0:0:0:0:
490,150,55565,1,2,0:2:0:0:
402,228,55717,1,0,0:0:0:0:
402,228,55793,1,0,0:0:0:0:
402,228,55870,1,0,0:0:0:0:
268,151,56022,6,0,B|219:164|177:130|177:130|154:173|90:180,1,188.999994232178,8|0,0:2|0:0,0:0:0:0:
84,188,56403,1,0,0:0:0:0:
84,188,56479,1,0,0:0:0:0:
191,228,56631,2,0,L|200:284,2,47.2499985580445,2|0|2,0:0|0:0|0:0,0:0:0:0:
87,96,56936,2,0,P|102:51|107:-1,1,94.499997116089,2|0,0:0|0:0,0:0:0:0:
237,125,57240,6,0,B|305:123|367:88|367:88|355:159,1,188.999994232178,6|0,1:2|0:0,0:0:0:0:
441,69,57697,2,0,P|386:65|347:57,1,94.499997116089
330,53,57925,1,0,0:0:0:0:
330,53,58002,1,0,0:0:0:0:
443,180,58154,2,0,L|497:170,1,47.2499985580445
299,297,58458,6,0,B|282:285|282:285|255:297|255:297|234:282|234:282|173:307|124:274,1,188.999994232178,14|0,0:2|0:0,0:0:0:0:
24,301,58915,2,0,P|29:249|43:210,1,94.499997116089
152,59,59220,2,0,P|167:103|171:150,1,94.499997116089
224,266,59524,5,2,0:0:0:0:
310,307,59677,1,2,0:0:0:0:
385,252,59829,1,2,0:0:0:0:
301,215,59981,1,0,0:0:0:0:
301,215,60057,1,0,0:0:0:0:
301,215,60134,1,0,0:0:0:0:
407,125,60286,6,0,P|395:79|392:32,1,94.499997116089,2|0,0:0|3:0,0:0:0:0:
301,215,60895,6,0,B|260:215|229:197|229:197|189:215|189:215|161:204|127:202,1,180,6|2,1:2|0:0,0:0:0:0:
12,121,61352,2,0,P|61:116|101:104,1,90,2|0,0:0|0:0,0:0:0:0:
189,81,61656,1,2,0:0:0:0:
189,81,61809,1,2,0:0:0:0:
261,225,61961,1,0,0:0:0:0:
333,131,62113,1,2,0:0:0:0:
150,240,62265,6,0,P|103:233|61:226,1,90,0|2,0:0|0:0,0:0:0:0:
175,349,62570,2,0,B|297:327|297:327|345:367,1,180,2|0,0:0|0:2,0:0:0:0:
417,216,63027,1,0,0:2:0:0:
315,304,63179,1,0,0:0:0:0:
203,220,63331,6,0,P|179:111|228:48,1,180,2|2,0:0|0:0,0:0:0:0:
297,22,63788,2,0,L|394:40,1,90,2|0,0:0|0:0,0:0:0:0:
280,149,64093,1,2,0:0:0:0:
280,149,64245,1,2,0:0:0:0:
166,95,64397,2,0,P|120:106|69:112,1,90,2|0,0:2|0:2,0:0:0:0:
0,233,64702,5,2,0:2:0:0:
136,309,64854,1,2,0:2:0:0:
110,206,65007,1,2,0:2:0:0:
32,336,65159,1,0,0:2:0:0:
189,384,65311,5,2,0:2:0:0:
176,297,65464,1,0,0:2:0:0:
162,204,65616,1,2,0:2:0:0:
270,109,65768,6,0,B|310:82|310:82|388:73|434:120,1,180,2|2,0:0|0:0,0:0:0:0:
509,206,66225,2,0,P|465:212|410:221,1,90,0|2,0:0|0:0,0:0:0:0:
323,234,66529,1,0,0:0:0:0:
323,234,66682,1,2,0:0:0:0:
219,293,66834,2,0,P|203:250|210:195,1,90,0|2,0:0|0:0,0:0:0:0:
302,41,67139,6,0,P|318:84|313:139,1,90,2|0,0:0|0:0,0:0:0:0:
206,206,67443,2,0,B|137:195|94:240|94:240|25:207,1,180,2|2,0:0|0:0,0:0:0:0:
92,133,67900,1,0,0:0:0:0:
180,304,68052,1,2,0:0:0:0:
301,234,68205,6,0,B|331:205|331:205|355:136|294:70,1,180,6|0,1:2|0:0,0:0:0:0:
300,77,68585,1,0,0:0:0:0:
300,77,68661,1,2,0:0:0:0:
232,171,68814,1,0,0:0:0:0:
360,224,68966,2,0,P|412:216|458:210,1,90,2|0,0:0|0:0,0:0:0:0:
512,101,69271,2,0,P|467:96|423:83,1,90,2|0,0:0|0:0,0:0:0:0:
307,0,69575,5,2,0:0:0:0:
252,139,69727,1,0,0:0:0:0:
346,101,69880,1,2,0:0:0:0:
346,101,70032,1,0,0:0:0:0:
204,40,70184,6,0,P|154:53|113:55,1,90,2|0,0:0|0:0,0:0:0:0:
95,70,70413,1,0,0:0:0:0:
95,70,70489,2,0,L|42:61,1,45
0,149,70641,2,0,L|49:159,1,45
129,175,70793,6,0,B|141:213|141:213|131:265,1,80.9999975280763
63,331,71098,1,0,0:0:0:0:
63,331,71250,1,0,0:0:0:0:
181,382,71403,2,0,P|221:377|260:368,1,80.9999975280763
356,218,71707,1,0,0:0:0:0:
382,304,71859,2,0,P|341:299|302:290,1,80.9999975280763
201,200,72164,5,0,0:0:0:0:
201,200,72316,1,0,0:0:0:0:
107,262,72469,2,0,B|95:225|95:225|95:164,1,80.9999975280763
0,99,72773,2,0,P|45:92|91:77,1,80.9999975280763
223,25,73078,6,0,B|255:59|255:59|267:124|231:184,1,161.999995056153,4|0,0:2|0:0,0:0:0:0:
328,273,73535,2,0,P|330:238|347:190,1,80.9999975280763
425,122,73839,1,0,0:0:0:0:
451,235,73991,1,0,0:0:0:0:
451,235,74144,1,0,0:0:0:0:
312,177,74296,6,0,B|230:166|251:225|130:194,1,161.999995056153
84,120,74753,2,0,P|135:111|171:104,1,80.9999975280763
163,105,74981,1,0,0:0:0:0:
163,105,75057,1,0,0:0:0:0:
59,229,75210,2,0,P|66:255|69:276,1,40.4999987640381
199,377,75514,6,0,P|206:260|210:204,1,161.999995056153,2|2,0:0|0:0,0:0:0:0:
300,141,75971,2,0,P|306:186|313:227,1,80.9999975280763
311,221,76199,1,0,0:0:0:0:
311,221,76276,1,2,0:0:0:0:
417,292,76428,1,0,0:0:0:0:
417,292,76580,1,2,0:0:0:0:
329,361,76732,6,0,P|285:356|249:342,1,80.9999975280763
144,264,77037,2,0,P|188:259|224:245,1,80.9999975280763
302,156,77342,2,0,B|369:154|413:190|413:190|457:153,1,161.999995056153,2|2,0:2|0:2,0:0:0:0:
479,56,77798,5,0,0:0:0:0:
479,56,77951,2,0,P|414:69|389:71,1,80.9999975280763,8|0,0:2|0:0,0:0:0:0:
475,165,78255,1,2,0:2:0:0:
364,259,78408,2,0,P|357:219|343:181,1,80.9999975280763,2|2,0:2|0:2,0:0:0:0:
230,84,78712,2,0,P|228:127|225:173,1,80.9999975280763,2|2,0:2|0:2,0:0:0:0:
220,257,79017,1,2,0:2:0:0:
220,257,79169,1,0,0:0:0:0:
98,317,79321,2,0,P|80:238|89:163,1,121.499996292114
83,188,79626,5,0,0:0:0:0:
180,99,79778,1,0,1:0:0:0:
0,72,79930,5,0,0:0:0:0:
116,27,80083,1,8,0:3:0:0:
79,106,80235,1,4,0:3:0:0:
40,0,80387,1,4,0:3:0:0:
213,125,80540,6,0,P|313:130|360:95,1,144,4|0,0:0|0:0,0:0:0:0:
243,67,87849,6,0,L|254:234,1,161.999995056153
253,228,88306,1,0,0:0:0:0:
348,304,88458,2,0,P|356:257|361:213,1,80.9999975280763
446,151,88763,1,0,0:0:0:0:
446,151,88915,1,0,0:0:0:0:
354,82,89068,6,0,P|315:94|267:98,1,80.9999975280763,0|2,0:0|0:2,0:0:0:0:
161,180,89372,2,0,P|199:192|247:196,1,80.9999975280763,2|2,0:2|0:2,0:0:0:0:
239,196,89601,1,2,0:2:0:0:
239,196,89677,1,2,0:1:0:0:
353,257,89829,1,2,0:0:0:0:
260,323,89981,1,0,0:0:0:0:
129,260,90134,6,0,P|111:203|138:104,1,161.999995056153,2|2,0:0|0:0,0:0:0:0:
215,58,90590,2,0,L|313:73,1,80.9999975280763,2|0,0:0|0:0,0:0:0:0:
390,159,90895,1,0,0:0:0:0:
504,57,91047,1,0,0:0:0:0:
414,0,91199,2,0,P|400:43|406:93,1,80.9999975280763,2|0,0:0|0:0,0:0:0:0:
474,223,91504,6,0,B|398:260|398:260|306:227,1,161.999995056153,0|2,0:0|0:0,0:0:0:0:
207,153,91961,1,0,0:0:0:0:
163,292,92113,1,0,0:0:0:0:
236,241,92265,1,2,0:0:0:0:
236,241,92418,1,0,0:0:0:0:
112,204,92570,6,0,B|93:89|93:89|123:50,1,161.999995056153,2|2,0:0|0:0,0:0:0:0:
195,0,93027,2,0,P|213:42|214:78,1,80.9999975280763,2|0,0:0|0:0,0:0:0:0:
316,185,93331,1,0,0:0:0:0:
316,185,93484,1,0,0:0:0:0:
316,185,93636,2,0,L|231:199,1,80.9999975280763,2|0,0:0|0:0,0:0:0:0:
160,319,93941,6,0,L|245:305,1,80.9999975280763
259,302,94169,1,0,0:0:0:0:
278,298,94245,1,0,0:0:0:0:
297,293,94321,1,0,0:0:0:0:
317,290,94397,1,4,3:3:0:0:
337,286,94474,1,4,3:3:0:0:
357,283,94550,2,0,P|366:306|368:326,3,40.4999987640381,4|4|4|4,3:3|3:3|3:3|3:3,0:0:0:0:
450,354,94854,1,4,1:3:0:0:
512,254,95007,6,0,P|525:185|476:79,1,161.999995056153,2|2,0:0|0:0,0:0:0:0:
383,43,95463,1,0,0:0:0:0:
308,142,95616,1,0,0:0:0:0:
417,70,95768,1,0,0:0:0:0:
289,24,95920,2,0,P|247:41|190:46,1,80.9999975280763
211,46,96149,1,0,0:0:0:0:
211,46,96225,1,0,0:0:0:0:
102,14,96377,6,0,L|123:183,1,161.999995056153
6,239,96834,2,0,P|13:196|15:143,1,80.9999975280763
133,211,97139,1,0,0:0:0:0:
231,220,97291,1,0,0:0:0:0:
326,225,97443,1,0,0:0:0:0:
274,132,97595,5,2,0:2:0:0:
159,310,97748,1,2,0:2:0:0:
71,204,98205,5,2,0:2:0:0:
255,258,98358,1,2,0:2:0:0:
352,59,98814,5,2,0:2:0:0:
175,127,98967,1,2,0:2:0:0:
86,257,100032,5,0,0:0:0:0:
86,257,100184,1,0,0:0:0:0:
210,338,100337,2,0,P|255:336|290:326,1,80.9999975280763,0|8,0:0|0:3,0:0:0:0:
301,323,100565,1,8,0:3:0:0:
312,319,100641,1,8,0:3:0:0:
322,313,100717,1,4,0:3:0:0:
330,304,100793,2,0,L|323:246,3,40.4999987640381,4|4|4|4,0:3|0:3|0:3|0:3,0:0:0:0:
289,241,101098,6,0,B|259:208|259:208|244:131|297:67,1,188.999994232178,8|0,1:2|0:0,0:0:0:0:
376,5,101555,2,0,P|381:58|393:108,1,94.499997116089,8|0,0:2|0:0,0:0:0:0:
485,214,101859,1,0,0:0:0:0:
359,296,102012,1,0,0:0:0:0:
475,172,102164,1,0,0:0:0:0:
284,186,102316,6,0,B|216:174|216:174|166:190|166:190|98:177,1,188.999994232178,8|2,0:2|0:2,0:0:0:0:
0,83,102773,2,0,P|57:73|96:63,1,94.499997116089,2|2,0:2|0:2,0:0:0:0:
242,7,103078,5,4,0:2:0:0:
176,152,103231,1,0,0:0:0:0:
88,44,103383,1,0,0:0:0:0:
275,103,103535,6,0,P|289:192|232:267,1,188.999994232178,2|0,0:2|0:0,0:0:0:0:
150,343,103991,2,0,P|129:293|130:236,1,94.499997116089
258,295,104296,1,8,0:2:0:0:
258,295,104448,1,0,0:0:0:0:
362,343,104601,2,0,P|383:293|382:236,1,94.499997116089,0|2,0:0|0:2,0:0:0:0:
425,133,104905,6,0,B|360:114|307:154|307:154|242:128,1,188.999994232178,0|2,0:2|0:2,0:0:0:0:
247,130,105286,1,0,0:0:0:0:
247,130,105362,1,2,0:2:0:0:
90,48,105514,1,6,0:2:0:0:
154,183,105666,1,0,0:0:0:0:
200,20,105819,1,0,0:0:0:0:
50,154,105971,6,0,B|46:221|66:285|66:285|14:262,1,188.999994232178,2|2,0:0|0:0,0:0:0:0:
165,215,106428,2,0,P|210:225|265:232,1,94.499997116089,2|0,0:0|0:0,0:0:0:0:
357,306,106732,1,8,0:2:0:0:
270,382,106885,1,0,0:0:0:0:
270,382,107037,1,0,0:0:0:0:
134,306,107189,6,0,P|115:214|159:122,1,188.999994232178,2|2,0:0|0:0,0:0:0:0:
224,25,107646,2,0,P|312:53|367:128,1,188.999994232178,2|8,0:0|0:2,0:0:0:0:
322,284,108103,1,0,0:0:0:0:
397,143,108255,1,0,0:0:0:0:
251,185,108408,6,0,B|181:174|181:174|129:189|129:189|66:180,1,188.999994232178,2|4,0:0|0:3,0:0:0:0:
1,100,108864,1,4,0:3:0:0:
165,70,109017,1,0,0:3:0:0:
165,70,109093,1,0,0:3:0:0:
165,70,109169,1,4,0:3:0:0:
65,179,109321,1,4,0:3:0:0:
34,16,109474,1,4,0:3:0:0:
183,99,109626,6,0,B|219:113|219:113|281:105,1,94.499997116089,2|0,0:0|0:0,0:0:0:0:
393,14,109930,6,0,L|450:23,1,47.2499985580445,2|0,0:0|3:0,0:0:0:0:
439,21,110083,2,0,P|446:82|424:122,1,94.499997116089,2|2,0:0|0:0,0:0:0:0:
297,217,110387,2,0,P|290:156|312:116,1,94.499997116089
303,127,110616,1,0,0:0:0:0:
303,127,110692,1,0,0:0:0:0:
402,227,110844,6,0,B|359:261|359:261|222:244,1,188.999994232178,8|0,0:2|0:0,0:0:0:0:
101,156,111301,2,0,P|158:147|207:139,1,94.499997116089
120,277,111606,1,2,0:2:0:0:
120,277,111758,1,0,0:0:0:0:
19,221,111910,2,0,P|2:174|10:114,1,94.499997116089
78,9,112215,5,0,0:0:0:0:
78,9,112367,1,2,0:2:0:0:
179,50,112519,2,0,P|196:97|188:157,1,94.499997116089,2|2,0:2|0:2,0:0:0:0:
216,277,112824,1,2,0:2:0:0:
284,188,112976,1,2,0:2:0:0:
125,228,113128,1,2,0:2:0:0:
313,321,113281,6,0,B|341:279|341:279|323:116,1,188.999994232178,2|0,0:2|0:0,0:0:0:0:
409,47,113738,2,0,P|418:97|433:140,1,94.499997116089
512,251,114042,2,0,B|458:244|414:273|414:273|373:250,1,141.749995674133,4|0,0:2|0:0,0:0:0:0:
371,248,114347,1,4,0:2:0:0:
264,197,114499,1,0,0:0:0:0:
202,360,114651,5,0,0:2:0:0:
316,323,114804,1,2,0:2:0:0:
127,261,114956,2,0,P|120:193|131:167,1,94.499997116089,2|0,0:2|0:2,0:0:0:0:
226,88,115260,1,8,0:2:0:0:
121,39,115413,1,0,0:0:0:0:
121,39,115489,1,0,0:0:0:0:
121,39,115565,1,0,0:0:0:0:
268,7,115717,6,0,B|255:71|255:71|272:119|272:119|260:190,1,188.999994232178,8|0,0:2|0:0,0:0:0:0:
256,212,116098,1,0,0:0:0:0:
256,212,116174,2,0,B|302:234|302:234|357:218,1,94.499997116089
471,112,116479,1,2,0:0:0:0:
398,51,116631,2,0,P|372:97|380:147,1,94.499997116089,2|0,0:0|0:0,0:0:0:0:
491,233,116936,6,0,P|499:332|428:367,1,188.999994232178,2|0,0:0|0:0,0:0:0:0:
347,376,117316,1,0,0:0:0:0:
347,376,117392,2,0,P|340:325|322:265,1,94.499997116089
218,206,117697,1,0,0:0:0:0:
310,90,117849,1,0,0:0:0:0:
310,90,118154,6,0,P|230:60|144:123,1,188.999994232178,8|0,0:2|1:0,0:0:0:0:
54,80,118611,2,0,P|63:133|69:185,1,94.499997116089
160,323,118915,2,0,P|165:277|173:230,1,94.499997116089
281,148,119220,5,2,0:0:0:0:
401,224,119373,1,0,0:0:0:0:
298,248,119525,1,2,0:0:0:0:
383,137,119677,1,0,0:0:0:0:
383,137,119753,1,0,0:3:0:0:
383,137,119830,1,0,0:3:0:0:
495,279,119982,6,0,P|507:233|494:184,1,94.499997116089
256,192,120743,5,0,0:0:0:0:
256,192,120819,12,2,124397,0:0:0:0:
338,73,128052,5,0,0:3:0:0:
145,143,128966,1,2,0:2:0:0:
138,157,129880,5,0,0:2:0:0:
384,212,130793,1,2,0:2:0:0:
390,221,131707,5,0,0:0:0:0:
141,285,132621,1,2,0:2:0:0:
124,301,133534,5,0,0:0:0:0:
379,355,134448,1,2,0:2:0:0:
256,278,135362,6,0,B|248:218|248:218|266:165|266:165|255:96,1,180,4|4,1:0|0:3,0:0:0:0:
256,102,136275,1,4,0:1:0:0:
256,17,136580,1,4,0:3:0:0:
256,17,136732,1,4,0:3:0:0:
256,17,136885,1,4,0:3:0:0:
368,73,137189,6,0,P|378:115|378:133,1,45,4|0,3:1|0:0,0:0:0:0:
392,211,137494,1,4,0:0:0:0:
392,211,137646,1,4,0:0:0:0:
392,211,137799,1,8,0:3:0:0:
150,73,138103,6,0,P|140:115|140:133,1,45,4|0,3:1|0:0,0:0:0:0:
126,211,138408,1,0,0:3:0:0:
126,211,138560,1,2,0:3:0:0:
126,211,138713,1,2,0:3:0:0:
256,325,139017,6,0,L|256:280,1,45,4|0,3:1|0:0,0:0:0:0:
262,201,139321,1,4,0:3:0:0:
262,201,139473,1,4,0:3:0:0:
262,201,139626,1,8,0:3:0:0:
337,361,139930,1,4,3:1:0:0:
337,361,140082,1,4,0:3:0:0:
337,361,140235,1,8,0:3:0:0:
183,360,140539,1,4,0:3:0:0:
446,225,140844,5,4,0:1:0:0:
440,189,140996,1,0,0:0:0:0:
435,148,141149,1,0,0:0:0:0:
431,112,141301,1,2,0:3:0:0:
424,73,141453,1,2,0:3:0:0:
190,21,141758,6,0,B|185:47|185:47|193:82,1,45,4|4,3:1|0:3,0:0:0:0:
255,135,142062,1,4,0:3:0:0:
255,135,142215,1,8,0:3:0:0:
315,68,142367,2,0,B|319:49|319:49|314:23,1,45,4|8,0:3|0:3,0:0:0:0:
255,135,142671,6,0,L|256:263,1,107.999996704102,4|4,3:1|0:3,0:0:0:0:
258,323,143128,1,4,0:3:0:0:
255,242,143281,1,8,0:3:0:0:
147,185,143585,6,0,L|76:194,1,53.9999983520508,4|8,0:2|0:3,0:0:0:0:
22,202,143890,1,4,0:3:0:0:
10,204,144042,1,4,0:3:0:0:
0,205,144194,1,8,0:3:0:0:
88,330,144499,6,0,B|141:345|141:345|191:330,1,107.999996704102,4|4,0:1|0:3,0:0:0:0:
256,174,144956,1,4,0:3:0:0:
256,250,145108,1,8,0:0:0:0:
424,330,145413,6,0,B|371:345|371:345|321:330,1,107.999996704102,4|4,0:2|0:3,0:0:0:0:
256,250,145869,1,8,0:3:0:0:
256,174,146022,1,4,0:3:0:0:
395,151,146326,5,4,1:1:0:0:
395,151,146479,1,0,0:0:0:0:
395,151,146631,1,4,0:3:0:0:
419,77,146783,1,4,0:3:0:0:
396,3,146935,1,2,0:3:0:0:
256,12,147240,5,4,1:2:0:0:
230,81,147392,1,4,0:3:0:0:
291,39,147545,1,4,0:3:0:0:
218,37,147697,1,8,0:3:0:0:
276,82,147849,1,4,0:3:0:0:
116,3,148154,5,4,1:1:0:0:
93,77,148306,1,0,0:0:0:0:
117,151,148458,1,2,0:3:0:0:
198,189,148610,1,4,0:3:0:0:
198,189,148687,1,4,0:3:0:0:
198,189,148763,2,0,L|263:181,1,53.9999983520508,8|4,0:3|0:0,0:0:0:0:
339,107,149067,1,4,1:2:0:0:
400,215,149220,2,0,L|394:247,2,26.9999991760254,4|4|4,0:3|0:3|0:3,0:0:0:0:
490,164,149524,5,4,0:3:0:0:
490,164,149677,2,0,B|502:131|502:131|488:77,1,62.9999980773926,4|4,0:3|0:3,0:0:0:0:
425,40,149981,1,0,1:1:0:0:
232,148,150590,6,0,B|192:133|192:133|92:156|92:156|115:65,1,216,2|0,0:1|0:0,0:0:0:0:
194,46,151199,1,0,1:1:0:0:
178,222,151351,1,2,0:0:0:0:
71,167,151503,1,2,0:0:0:0:
71,167,151655,1,2,0:0:0:0:
71,167,151808,1,2,0:0:0:0:
71,167,151960,1,2,0:0:0:0:
181,124,152112,6,0,P|233:137|284:142,1,90,0|2,0:0|0:0,0:0:0:0:
373,101,152417,1,2,0:0:0:0:
279,48,152569,1,2,0:0:0:0:
363,135,152721,1,2,0:0:0:0:
270,175,152874,1,2,0:0:0:0:
162,115,153026,6,0,B|150:56|150:56|159:19,1,90,0|2,0:0|0:0,0:0:0:0:
157,27,153330,1,2,0:0:0:0:
69,139,153483,2,0,B|98:147|98:147|157:135,1,90,2|2,0:0|0:0,0:0:0:0:
244,210,153787,1,2,0:0:0:0:
333,222,153940,6,0,P|381:226|426:231,1,90,0|2,0:0|0:0,0:0:0:0:
422,230,154244,1,2,0:0:0:0:
512,174,154396,1,2,0:0:0:0:
505,274,154549,1,2,0:0:0:0:
432,131,154701,1,2,0:0:0:0:
338,177,154853,6,0,P|325:227|332:283,1,90,0|2,0:0|0:0,0:0:0:0:
234,361,155158,1,2,0:0:0:0:
234,361,155310,2,0,P|235:316|223:273,1,90,2|2,0:0|0:0,0:0:0:0:
150,243,155615,1,2,0:0:0:0:
71,317,155767,5,0,0:0:0:0:
71,317,155919,1,2,0:0:0:0:
71,317,156072,1,2,0:0:0:0:
18,180,156224,1,2,0:0:0:0:
0,265,156376,1,2,0:0:0:0:
98,157,156528,1,2,0:0:0:0:
172,253,156681,6,0,P|224:264|268:264,1,90,0|2,0:0|0:0,0:0:0:0:
345,198,156985,1,2,0:0:0:0:
423,214,157138,1,2,0:0:0:0:
368,331,157290,1,2,0:0:0:0:
368,331,157442,1,2,0:0:0:0:
368,331,157594,1,0,0:0:0:0:
248,243,157747,6,0,P|243:176|259:139,1,90,2|2,0:0|0:0,0:0:0:0:
177,71,158051,1,2,0:0:0:0:
97,93,158204,1,2,0:0:0:0:
97,93,158356,1,2,0:0:0:0:
0,161,158508,5,2,0:0:0:0:
102,210,158660,1,2,0:0:0:0:
17,282,158813,1,2,0:0:0:0:
87,320,158965,2,0,B|114:332|114:332|184:320,1,90,2|0,0:0|0:0,0:0:0:0:
248,243,159269,1,2,0:0:0:0:
323,292,159421,6,0,B|334:342|334:342|322:387,1,90,2|2,0:0|0:0,0:0:0:0:
324,379,159726,1,2,0:0:0:0:
173,321,159878,2,0,B|162:271|162:271|174:226,1,90,2|0,0:0|1:0,0:0:0:0:
99,160,160182,1,2,0:0:0:0:
223,99,160335,1,2,0:0:0:0:
132,43,160487,1,2,0:0:0:0:
132,43,160639,1,2,0:0:0:0:
132,43,160792,2,0,P|116:84|118:132,1,90,2|0,0:0|1:0,0:0:0:0:
26,217,161096,5,2,0:0:0:0:
107,274,161248,2,0,L|210:260,1,90,2|2,0:0|0:0,0:0:0:0:
297,159,161553,1,2,0:0:0:0:
297,159,161705,2,0,L|194:173,1,90,2|0,0:0|0:0,0:0:0:0:
207,171,162010,1,2,0:0:0:0:
310,268,162162,1,2,0:0:0:0:
411,196,162314,1,0,0:0:0:0:
411,196,162467,1,2,0:0:0:0:
411,196,162619,1,2,0:0:0:0:
275,27,162924,5,2,0:0:0:0:
275,27,163076,1,2,0:0:0:0:
208,109,163228,1,0,0:0:0:0:
291,134,163380,1,2,0:0:0:0:
144,48,163533,6,0,P|118:86|118:130,1,90,2|0,0:0|1:0,0:0:0:0:
117,128,163837,1,2,0:0:0:0:
48,240,163990,1,2,0:0:0:0:
29,156,164142,1,0,0:0:0:0:
134,220,164294,1,2,0:0:0:0:
31,263,164446,6,0,B|17:311|17:311|35:360,1,90,2|0,0:0|1:0,0:0:0:0:
131,323,164751,1,2,0:0:0:0:
221,384,164903,2,0,B|237:339|237:339|226:278,1,90,2|2,0:0|0:0,0:0:0:0:
302,183,165208,1,2,0:0:0:0:
322,272,165360,1,2,0:0:0:0:
111,192,165665,5,2,0:0:0:0:
119,112,165817,1,2,0:0:0:0:
129,32,165969,1,2,0:0:0:0:
129,32,166122,1,2,0:0:0:0:
40,144,166274,1,2,0:0:0:0:
200,163,166426,1,2,0:0:0:0:
200,163,166578,1,2,0:0:0:0:
200,163,166731,1,2,0:0:0:0:
445,222,167035,5,2,0:2:0:0:
276,263,167187,1,2,0:2:0:0:
143,225,168710,5,0,0:0:0:0:
133,228,168786,1,0,0:0:0:0:
124,232,168862,1,0,0:0:0:0:
24,209,169065,2,0,B|14:259|14:259|44:312,1,96,4|0,3:3|0:3,0:0:0:0:
159,364,169471,5,4,0:2:0:0:
328,323,169623,1,4,0:2:0:0:
382,188,170537,5,0,0:0:0:0:
379,176,170613,1,0,0:0:0:0:
376,165,170689,1,2,0:2:0:0:
269,48,170918,1,2,0:2:0:0:
431,16,171146,1,2,0:2:0:0:
269,102,172974,6,0,B|233:112|233:112|199:96|199:96|143:133|78:119,1,188.999994232178,8|0,0:2|0:0,0:0:0:0:
7,207,173430,2,0,P|59:216|101:231,1,94.499997116089
188,307,173735,1,0,0:0:0:0:
288,178,173887,1,0,0:0:0:0:
190,272,174040,1,0,0:0:0:0:
304,346,174192,1,0,0:0:0:0:
383,263,174344,6,0,P|429:268|475:280,1,94.499997116089,2|2,0:2|0:2,0:0:0:0:
512,143,174649,2,0,P|466:154|419:160,1,94.499997116089,2|2,0:2|0:2,0:0:0:0:
282,93,174953,1,4,0:2:0:0:
401,64,175106,1,0,0:0:0:0:
401,64,175258,1,0,0:0:0:0:
254,0,175410,6,0,B|231:45|231:45|254:184,1,188.999994232178,8|0,0:2|0:0,0:0:0:0:
338,251,175867,2,0,P|356:210|353:160,1,94.499997116089
194,256,176172,2,0,P|176:297|179:347,1,94.499997116089,8|0,0:2|0:0,0:0:0:0:
178,345,176476,1,2,0:0:0:0:
64,271,176628,6,0,P|33:188|75:92,1,188.999994232178,4|0,0:2|0:0,0:0:0:0:
157,44,177085,2,0,L|254:61,1,94.499997116089
358,144,177390,1,0,0:0:0:0:
358,144,177466,1,0,0:0:0:0:
358,144,177542,1,0,0:0:0:0:
358,144,177618,1,0,0:0:0:0:
358,144,177694,1,0,0:0:0:0:
358,144,177771,1,0,0:0:0:0:
358,144,177847,2,0,P|410:137|471:128,1,94.499997116089,8|0,0:2|0:0,0:0:0:0:
376,42,178151,5,0,0:0:0:0:
250,111,178304,2,0,B|241:158|241:158|261:211,1,94.499997116089,2|2,0:2|0:2,0:0:0:0:
379,260,178608,1,0,0:0:0:0:
224,321,178760,1,0,0:0:0:0:
344,384,178913,1,0,0:0:0:0:
200,284,179065,6,0,B|135:275|77:322|77:322|6:280,1,188.999994232178,8|0,0:2|0:0,0:0:0:0:
92,206,179522,2,0,P|87:152|55:105,1,94.499997116089,2|2,0:2|0:2,0:0:0:0:
67,117,179826,1,8,0:2:0:0:
227,202,179979,1,0,0:0:0:0:
98,323,180131,1,0,0:0:0:0:
223,348,180283,6,0,P|321:370|406:319,1,188.999994232178,6|0,0:2|0:0,0:0:0:0:
440,200,180740,1,0,0:0:0:0:
440,200,180816,1,0,0:0:0:0:
440,200,180892,2,0,L|344:210,1,94.499997116089,8|8,0:3|0:3,0:0:0:0:
256,121,181197,1,2,0:0:0:0:
198,267,181349,1,2,0:0:0:0:
90,214,181502,2,0,P|87:168|72:109,1,94.499997116089,2|0,0:0|0:0,0:0:0:0:
33,43,181806,1,2,0:0:0:0:
232,4,181958,6,0,P|222:50|219:97,1,94.499997116089,2|0,0:0|3:0,0:0:0:0:
346,223,182263,2,0,P|355:176|358:129,1,94.499997116089,8|0,0:2|0:0,0:0:0:0:
358,129,182491,1,0,0:0:0:0:
358,129,182567,1,0,0:0:0:0:
358,129,182644,1,0,0:0:0:0:
358,129,182720,6,0,B|235:112|235:112|177:146,1,188.999994232178,12|0,0:2|0:0,0:0:0:0:
71,231,183177,2,0,B|50:189|50:189|48:122,1,94.499997116089
211,15,183481,1,8,0:2:0:0:
180,181,183633,1,0,0:0:0:0:
116,85,183786,1,0,0:0:0:0:
116,85,183938,1,2,0:2:0:0:
275,118,184090,6,0,P|346:129|388:129,1,94.499997116089,2|2,0:2|0:2,0:0:0:0:
472,184,184395,2,0,B|487:138|487:138|476:88,1,94.499997116089,2|0,0:2|0:0,0:0:0:0:
375,45,184699,1,6,0:2:0:0:
368,129,184852,1,0,0:0:0:0:
362,211,185004,1,0,0:0:0:0:
252,272,185156,6,0,B|154:261|176:316|52:293,1,188.999994232178,8|0,0:2|0:0,0:0:0:0:
0,191,185613,2,0,P|59:180|97:172,1,94.499997116089
193,77,185918,2,0,B|218:124|218:124|215:173,1,94.499997116089,6|0,0:2|0:0,0:0:0:0:
132,356,186222,2,0,B|107:309|107:309|110:260,1,94.499997116089,8|0,0:2|0:0,0:0:0:0:
92,137,186527,5,0,0:2:0:0:
13,315,186679,1,0,0:0:0:0:
208,284,186831,2,0,B|258:270|258:270|315:281,1,94.499997116089,0|0,0:2|0:0,0:0:0:0:
416,352,187136,6,0,P|428:296|425:251,1,94.499997116089
426,259,187364,1,0,0:0:0:0:
426,259,187441,1,0,0:0:0:0:
305,298,187593,2,0,L|289:110,1,188.999994232178,8|0,0:2|0:0,0:0:0:0:
288,109,187974,1,0,0:0:0:0:
288,109,188050,1,0,0:0:0:0:
196,47,188202,6,0,L|145:56,1,47.2499985580445
149,55,188354,2,0,P|137:115|158:163,1,94.499997116089,2|2,0:0|0:1,0:0:0:0:
39,311,188811,6,0,B|87:345|87:345|217:328,1,188.999994232178,2|0,0:0|0:0,0:0:0:0:
241,324,189192,1,0,0:0:0:0:
241,324,189268,2,0,B|251:273|251:273|233:222,1,94.499997116089
226,204,189496,1,0,0:0:0:0:
226,204,189573,1,0,0:0:0:0:
71,167,189725,1,0,0:0:0:0:
71,167,190029,6,0,P|41:63|106:3,1,188.999994232178,12|0,0:2|0:0,0:0:0:0:
88,9,190410,1,0,0:0:0:0:
88,9,190486,1,0,0:0:0:0:
204,74,190715,1,0,0:0:0:0:
202,83,190791,1,0,0:0:0:0:
90,192,191019,1,0,0:0:0:0:
87,184,191095,1,0,0:0:0:0:
234,238,191248,1,0,0:0:0:0:
311,256,192618,6,0,B|399:289|411:190|503:234|503:234|474:291|412:243,1,288,4|0,0:0|2:0,0:0:0:0:
206,153,193837,2,0,B|117:186|105:87|13:131|13:131|42:188|104:140,1,288,4|0,0:0|0:0,0:0:0:0:
204,47,195055,6,0,L|334:61,1,108,2|0,0:0|0:0,0:0:0:0:
325,61,195359,1,2,0:0:0:0:
429,107,195664,5,2,0:0:0:0:
438,33,195816,1,2,0:0:0:0:
451,50,196121,5,2,0:0:0:0:
442,124,196273,1,2,0:0:0:0:
447,214,196578,5,2,0:0:0:0:
460,140,196730,1,2,0:0:0:0:
380,164,196882,1,0,0:0:0:0:
380,164,197035,1,8,3:3:0:0:
380,164,197187,1,4,3:3:0:0:
233,116,197491,6,0,B|193:105|155:131|155:131|116:111,1,108,2|0,0:0|0:0,0:0:0:0:
123,110,197796,1,2,0:0:0:0:
0,98,198100,5,2,0:0:0:0:
15,176,198253,1,2,0:0:0:0:
31,251,198405,1,0,1:0:0:0:
17,271,198710,5,2,0:0:0:0:
0,195,198862,1,0,3:0:0:0:
85,218,199014,1,2,0:0:0:0:
85,218,199166,1,2,0:0:0:0:
241,184,199319,5,0,1:0:0:0:
171,248,199471,1,2,0:2:0:0:
151,150,199623,1,2,0:2:0:0:
254,279,199776,1,2,0:2:0:0:
333,215,199928,2,0,P|338:155|315:111,1,108,2|0,0:0|0:0,0:0:0:0:
312,105,200232,1,2,0:0:0:0:
239,20,200537,5,2,0:0:0:0:
320,1,200689,1,0,0:0:0:0:
417,1,200994,5,2,0:0:0:0:
338,21,201146,1,2,0:0:0:0:
462,97,201451,5,2,0:0:0:0:
438,19,201603,1,2,0:0:0:0:
379,80,201755,1,0,3:0:0:0:
405,164,201908,1,8,0:3:0:0:
405,164,202060,1,4,0:3:0:0:
405,164,202212,1,8,0:3:0:0:
336,224,202364,5,6,0:1:0:0:
250,192,202517,1,6,0:1:0:0:
313,135,202669,1,2,0:0:0:0:
165,159,202974,5,2,0:0:0:0:
182,251,203126,1,2,0:0:0:0:
232,348,203430,5,2,0:0:0:0:
208,259,203583,1,2,0:0:0:0:
313,327,203735,1,0,1:0:0:0:
292,241,203887,1,0,0:0:0:0:
389,271,204040,5,0,0:0:0:0:
389,271,204116,1,0,0:0:0:0:
389,271,204192,1,0,0:0:0:0:
448,207,204344,1,8,0:3:0:0:
423,124,204496,1,8,0:3:0:0:
337,98,204649,1,2,0:3:0:0:
