osu file format v14

[General]
AudioFilename: audio.ogg
AudioLeadIn: 0
PreviewTime: 172364
Countdown: 0
SampleSet: Normal
StackLeniency: 0.3
Mode: 0
LetterboxInBreaks: 0
WidescreenStoryboard: 0

[Editor]
DistanceSpacing: 1.1
BeatDivisor: 4
GridSize: 32
TimelineZoom: 2.5

[Metadata]
Title:Shark
TitleUnicode:Shark
Artist:Shiena Nishizawa
ArtistUnicode:西沢幸奏
Creator:-Hitomi
Version:Expert
Source:
Tags:l1ght_u light_u cryo[iceeicee] __ag moete rk657 matsuyuki ame aurorance japanese rock jrock j-rock exina
BeatmapID:4526303
BeatmapSetID:2148688

[Difficulty]
HPDrainRate:6
CircleSize:4
OverallDifficulty:8.6
ApproachRate:9.3
SliderMultiplier:1.9
SliderTickRate:1

[Events]
//Background and Video events
0,0,"bg.jpg",0,0
//Break Periods
//Storyboard Layer 0 (Background)
//Storyboard Layer 1 (Fail)
//Storyboard Layer 2 (Pass)
//Storyboard Layer 3 (Foreground)
//Storyboard Layer 4 (Overlay)
//Storyboard Sound Samples

[TimingPoints]
134,304.568527918782,4,1,1,20,1,0
134,-142.857142857143,4,1,1,20,0,0
4397,-142.857142857143,4,1,1,30,0,0
5007,-111.111111111111,4,1,10,60,0,0
5311,-111.111111111111,4,1,1,60,0,0
5411,-111.111111111111,4,1,10,60,0,0
5920,-111.111111111111,4,1,1,60,0,0
6020,-111.111111111111,4,1,10,60,0,0
6529,-111.111111111111,4,1,1,60,0,0
6629,-111.111111111111,4,1,10,60,0,0
7139,-111.111111111111,4,1,1,60,0,0
7291,-111.111111111111,4,1,1,40,0,0
8052,-100,4,1,1,40,0,0
9271,-100,4,1,2,30,0,0
9727,-90.9090909090909,4,1,1,50,0,0
19626,-90.9090909090909,4,1,1,20,0,0
21758,-90.9090909090909,4,1,1,50,0,0
22062,-90.9090909090909,4,3,15,100,0,0
22367,-90.9090909090909,4,1,1,50,0,0
22519,-90.9090909090909,4,1,1,30,0,0
23281,-142.857142857143,4,1,1,30,0,0
24194,-142.857142857143,4,1,1,50,0,0
24499,-142.857142857143,4,3,15,100,0,0
24804,-142.857142857143,4,1,1,50,0,0
24956,-142.857142857143,4,1,1,30,0,0
26022,-125,4,1,1,30,0,0
26631,-125,4,1,1,50,0,0
26936,-125,4,3,15,100,0,0
27240,-125,4,1,1,50,0,0
27340,-125,4,3,15,100,0,0
27392,-125,4,1,1,30,0,0
29372,-125,4,3,15,100,0,0
29677,-125,4,1,1,50,0,0
29829,-125,4,1,1,40,0,0
30590,-125,4,1,1,30,0,0
31199,-125,4,1,1,40,0,0
31656,-76.9230769230769,4,1,1,50,0,0
31961,-100,4,1,1,50,0,0
35616,-100,4,1,1,70,0,0
35768,-100,4,1,1,50,0,0
35868,-100,4,1,1,70,0,0
36453,-100,4,1,1,50,0,0
40946,-100,4,1,1,20,0,0
41403,-71.4285714285714,4,1,1,50,0,0
41555,-83.3333333333333,4,1,1,50,0,0
43839,-71.4285714285714,4,1,1,50,0,0
44144,-83.3333333333333,4,1,1,50,0,0
46276,-71.4285714285714,4,1,1,50,0,0
46580,-83.3333333333333,4,1,1,50,0,0
47494,-71.4285714285714,4,1,1,50,0,0
47798,-83.3333333333333,4,1,1,50,0,0
48712,-71.4285714285714,4,1,1,50,0,0
49017,-83.3333333333333,4,1,1,50,0,0
49321,-76.9230769230769,4,1,1,50,0,0
49474,-83.3333333333333,4,1,1,50,0,0
51149,-76.9230769230769,4,1,1,50,0,0
51453,-83.3333333333333,4,1,1,50,0,0
53585,-71.4285714285714,4,1,1,50,0,0
53738,-83.3333333333333,4,1,1,50,0,0
54194,-83.3333333333333,4,1,2,50,0,0
55413,-83.3333333333333,4,1,1,50,0,0
57240,-76.9230769230769,4,1,1,50,0,0
57545,-83.3333333333333,4,1,1,50,0,0
58458,-71.4285714285714,4,1,1,50,0,0
58611,-83.3333333333333,4,1,1,50,0,0
59981,-83.3333333333333,4,1,15,100,0,0
60210,-83.3333333333333,4,1,1,50,0,0
60590,-200,4,1,1,41,0,0
60895,-90.9090909090909,4,1,2,50,0,0
67443,-90.9090909090909,4,1,1,50,0,0
70793,-100,4,1,1,50,0,0
75310,-100,4,1,2,50,0,0
77951,-100,4,1,1,50,0,0
78179,-100,4,1,2,50,0,0
79321,-76.9230769230769,4,1,2,50,0,0
80083,-76.9230769230769,4,1,15,80,0,0
80540,-76.9230769230769,4,1,1,60,0,0
80692,-76.9230769230769,4,2,2,30,0,0
87240,-166.666666666667,4,2,2,30,0,0
87849,-166.666666666667,4,1,1,50,0,0
89220,-166.666666666667,4,1,2,50,0,0
89829,-166.666666666667,4,1,1,50,0,0
90134,-90.9090909090909,4,1,1,50,0,0
91504,-111.111111111111,4,1,1,50,0,0
94397,-111.111111111111,4,1,15,50,0,0
94854,-111.111111111111,4,1,1,50,0,0
95007,-100,4,1,1,50,0,0
97595,-100,4,1,2,50,0,0
100489,-100,4,1,15,70,0,0
101097,-71.4285714285714,4,1,1,60,0,0
101198,-71.4285714285714,4,1,1,50,0,0
101249,-83.3333333333333,4,1,1,50,0,0
102621,-83.3333333333333,4,1,2,50,0,0
103078,-83.3333333333333,4,1,1,50,0,0
103533,-71.4285714285714,4,1,1,50,0,0
103838,-83.3333333333333,4,1,1,50,0,0
104753,-83.3333333333333,4,1,2,50,0,0
105514,-83.3333333333333,4,1,1,50,0,0
105970,-71.4285714285714,4,1,1,50,0,0
106274,-83.3333333333333,4,1,1,50,0,0
107188,-71.4285714285714,4,1,1,50,0,0
107492,-83.3333333333333,4,1,1,50,0,0
108406,-71.4285714285714,4,1,2,50,0,0
108711,-83.3333333333333,4,1,15,70,0,0
109015,-76.9230769230769,4,1,15,70,0,0
109168,-83.3333333333333,4,1,15,70,0,0
109626,-83.3333333333333,4,1,2,50,0,0
110843,-76.9230769230769,4,1,1,50,0,0
111147,-83.3333333333333,4,1,1,50,0,0
112215,-83.3333333333333,4,1,2,50,0,0
113279,-71.4285714285714,4,1,1,50,0,0
113432,-83.3333333333333,4,1,1,50,0,0
114804,-83.3333333333333,4,1,2,50,0,0
115260,-83.3333333333333,4,1,1,50,0,0
116934,-76.9230769230769,4,1,1,50,0,0
117239,-83.3333333333333,4,1,1,50,0,0
117316,-83.3333333333333,4,1,2,50,0,0
117416,-83.3333333333333,4,1,1,50,0,0
118152,-71.4285714285714,4,1,1,50,0,0
118254,-71.4285714285714,4,1,2,50,0,0
118305,-83.3333333333333,4,1,2,50,0,0
119624,-83.3333333333333,4,1,15,100,0,0
119905,-83.3333333333333,4,1,2,50,0,0
119981,-166.666666666667,4,1,2,50,0,0
120286,-166.666666666667,4,1,1,25,0,0
120743,304.568527918782,3,1,1,20,1,0
120743,-142.857142857143,3,1,1,20,0,0
128052,-142.857142857143,3,1,45,40,0,0
128128,-142.857142857143,3,1,2,20,0,0
129880,-142.857142857143,3,1,45,40,0,0
129980,-142.857142857143,3,1,2,20,0,0
131707,-142.857142857143,3,1,2,40,0,0
131807,-142.857142857143,3,1,2,20,0,0
133535,-142.857142857143,3,1,2,40,0,0
133635,-142.857142857143,3,1,2,20,0,0
135362,-200,3,1,1,45,0,0
135971,-125,3,3,45,80,0,0
136276,-125,3,3,45,60,0,0
136376,-125,3,3,45,80,0,0
143585,-125,3,3,45,50,0,0
143685,-125,3,3,45,80,0,0
145413,-125,3,3,45,60,0,0
145513,-125,3,3,45,80,0,0
146326,-125,3,3,45,90,0,0
147240,-125,3,3,45,80,0,0
147340,-125,3,3,45,90,0,0
147697,-125,3,3,45,100,0,0
148154,-125,3,3,45,90,0,0
148458,-125,3,3,45,100,0,0
148611,-100,3,3,45,100,0,0
149068,-100,3,3,45,90,0,0
149168,-100,3,3,45,100,0,0
149981,304.568527918782,4,3,45,80,1,0
151122,-100,4,3,45,5,0,0
151199,304.568527918782,3,1,1,50,1,0
159193,-100,3,1,1,50,0,0
159269,304.568527918782,3,1,1,30,1,0
166426,-100,3,1,1,60,0,0
167035,304.568527918782,4,1,2,60,1,0
169017,-100,4,1,15,70,0,0
169321,-100,4,1,1,60,0,0
170537,-100,4,1,2,60,0,0
171222,-100,4,1,1,5,0,0
172517,-125,4,1,2,35,0,0
172974,-71.4285714285714,4,1,1,60,0,0
173076,-71.4285714285714,4,1,2,50,0,0
173126,-83.3333333333333,4,1,2,50,0,0
174953,-83.3333333333333,4,1,1,50,0,0
175410,-71.4285714285714,4,1,1,50,0,0
175715,-83.3333333333333,4,1,1,50,0,0
177847,-71.4285714285714,4,1,1,50,0,0
178151,-83.3333333333333,4,1,1,50,0,0
178304,-83.3333333333333,4,1,2,50,0,0
178535,-83.3333333333333,4,1,1,50,0,0
179065,-71.4285714285714,4,1,1,50,0,0
179369,-83.3333333333333,4,1,1,50,0,0
179522,-83.3333333333333,4,1,2,50,0,0
179753,-83.3333333333333,4,1,1,50,0,0
180283,-71.4285714285714,4,1,1,50,0,0
180588,-83.3333333333333,4,1,1,50,0,0
180892,-83.3333333333333,4,1,15,60,0,0
181197,-83.3333333333333,4,1,1,50,0,0
181502,-83.3333333333333,4,1,1,65,0,0
182189,-83.3333333333333,4,1,1,50,0,0
182720,-76.9230769230769,4,1,1,50,0,0
183024,-83.3333333333333,4,1,1,50,0,0
183938,-83.3333333333333,4,1,2,50,0,0
184699,-83.3333333333333,4,1,1,50,0,0
185156,-71.4285714285714,4,1,1,50,0,0
185309,-83.3333333333333,4,1,1,50,0,0
188811,-76.9230769230769,4,1,1,50,0,0
189116,-83.3333333333333,4,1,1,50,0,0
190029,-71.4285714285714,4,1,1,50,0,0
190182,-83.3333333333333,4,1,1,50,0,0
192161,-200,4,1,1,50,0,0
192466,-90.9090909090909,4,1,1,50,0,0
194598,-90.9090909090909,4,1,1,60,0,0
195359,-166.666666666667,4,1,1,60,0,0
195664,-90.9090909090909,4,1,1,60,0,0
195816,-166.666666666667,4,1,1,60,0,0
196121,-90.9090909090909,4,1,1,60,0,0
196273,-166.666666666667,4,1,1,60,0,0
196578,-90.9090909090909,4,1,1,60,0,0
196882,-166.666666666667,4,1,1,60,0,0
197035,-166.666666666667,4,1,15,80,0,0
197187,-90.9090909090909,4,1,15,80,0,0
197491,-166.666666666667,4,1,1,60,0,0
198253,-90.9090909090909,4,1,1,60,0,0
198405,-166.666666666667,4,1,1,60,0,0
199319,-90.9090909090909,4,1,1,60,0,0
199471,-90.9090909090909,4,1,33,60,0,0
199928,-90.9090909090909,4,1,1,50,0,0
200232,-166.666666666667,4,1,1,50,0,0
200537,-90.9090909090909,4,1,1,50,0,0
200689,-166.666666666667,4,1,1,50,0,0
200994,-90.9090909090909,4,1,1,50,0,0
201146,-166.666666666667,4,1,1,50,0,0
201451,-90.9090909090909,4,1,1,50,0,0
201603,-166.666666666667,4,1,1,50,0,0
201908,-90.9090909090909,4,1,15,70,0,0
202364,-90.9090909090909,4,1,1,50,0,0
202974,-90.9090909090909,4,1,1,50,0,0
203126,-166.666666666667,4,1,1,50,0,0
203430,-90.9090909090909,4,1,1,50,0,0
203582,-166.666666666667,4,1,1,50,0,0
203887,-83.3333333333334,4,1,1,50,0,0
204344,-83.3333333333334,4,3,45,80,0,0

[Colours]
Combo1 : 128,191,255
Combo2 : 179,255,255

[HitObjects]
137,83,134,5,0,0:0:0:0:
137,83,286,2,0,L|143:157,1,66.4999979705811,0|0,0:0|3:0,0:0:0:0:
28,204,590,2,0,B|111:199|76:245|167:236,1,132.999995941162,2|2,0:0|0:0,0:0:0:0:
299,161,1047,5,0,1:2:0:0:
244,104,1199,1,0,0:0:0:0:
222,178,1352,1,0,0:0:0:0:
276,237,1504,2,0,B|293:277|293:277|262:366,1,132.999995941162,2|2,0:0|0:0,0:0:0:0:
263,361,2570,5,0,0:0:0:0:
263,361,2722,2,0,L|185:352,1,66.4999979705811,0|0,0:0|3:0,0:0:0:0:
343,295,3027,2,0,B|359:252|340:210|340:210|282:197,1,132.999995941162,2|2,0:0|0:0,0:0:0:0:
220,107,3484,5,0,1:2:0:0:
299,117,3636,1,0,0:0:0:0:
378,127,3788,1,0,0:0:0:0:
295,200,3941,2,0,L|147:187,1,132.999995941162,2|2,0:0|0:0,0:0:0:0:
270,278,4397,5,0,0:0:0:0:
140,99,4550,1,0,0:0:0:0:
144,87,4626,1,0,0:0:0:0:
148,75,4702,1,0,0:0:0:0:
148,75,5007,6,0,B|98:83|98:83|197:48,1,128.249996086121,2|0,0:2|0:0,0:0:0:0:
171,57,5311,2,0,L|206:109,1,42.7499986953736,0|0,0:3|0:0,0:0:0:0:
254,181,5463,1,4,0:3:0:0:
254,181,5540,1,4,0:3:0:0:
254,181,5616,1,0,0:3:0:0:
326,122,5768,1,2,0:2:0:0:
239,269,5920,1,0,0:2:0:0:
330,215,6073,5,0,0:2:0:0:
254,181,6225,1,2,0:2:0:0:
172,189,6377,1,2,0:2:0:0:
117,250,6529,1,0,0:0:0:0:
239,269,6682,5,4,0:3:0:0:
239,269,6758,1,4,0:3:0:0:
239,269,6834,1,0,0:2:0:0:
254,181,6986,1,2,0:2:0:0:
326,122,7139,1,0,0:2:0:0:
411,108,7291,6,0,L|364:125,1,42.7499986953736
254,181,7443,1,0,0:0:0:0:
294,166,7595,6,0,L|247:183,1,42.7499986953736,0|0,1:0|0:0,0:0:0:0:
137,239,7747,1,0,0:0:0:0:
177,224,7900,6,0,L|130:241,1,42.7499986953736,0|0,1:0|0:0,0:0:0:0:
20,297,8052,2,0,B|47:337|47:337|128:335,1,95,0|0,0:0|1:0,0:0:0:0:
183,360,8281,1,0,0:0:0:0:
183,360,8357,2,0,L|172:304,1,47.5,0|0,0:0|3:0,0:0:0:0:
126,125,8509,5,2,0:0:0:0:
122,114,8814,5,2,0:0:0:0:
379,252,8966,1,2,0:0:0:0:
379,252,9271,5,2,1:2:0:0:
370,232,9347,1,2,1:2:0:0:
362,250,9423,1,2,1:2:0:0:
354,240,9499,1,2,1:2:0:0:
350,248,9575,1,2,1:2:0:0:
344,250,9727,6,0,P|315:160|317:36,1,209.000006378174,2|2,0:0|0:0,0:0:0:0:
497,87,10184,2,0,P|505:150|500:202,1,104.500003189087,2|2,0:0|0:0,0:0:0:0:
440,264,10489,1,0,0:0:0:0:
496,343,10641,1,2,0:0:0:0:
344,250,10793,1,0,0:0:0:0:
440,264,10946,1,2,0:0:0:0:
260,288,11098,1,2,0:0:0:0:
344,250,11250,1,0,0:0:0:0:
440,264,11403,1,2,0:0:0:0:
496,343,11555,1,2,0:0:0:0:
230,365,11707,5,2,0:0:0:0:
402,192,11859,1,2,0:0:0:0:
168,151,12012,1,2,0:0:0:0:
389,10,12164,2,0,B|359:32|327:30|327:30|291:1|245:0|245:0|216:13|181:9,1,209.000006378174,6|2,1:1|0:0,0:0:0:0:
2,80,12621,2,0,B|73:65|73:65|115:87,1,104.500003189087,2|0,0:0|0:0,0:0:0:0:
168,151,12849,1,0,0:0:0:0:
167,167,12925,2,0,L|151:297,1,104.500003189087,2|0,0:0|0:0,0:0:0:0:
40,351,13230,1,2,0:0:0:0:
40,351,13306,1,0,0:0:0:0:
40,351,13382,1,0,0:0:0:0:
40,351,13458,1,0,0:0:0:0:
40,351,13535,6,0,L|104:326,1,52.2500015945435,2|0,0:0|0:0,0:0:0:0:
154,270,13687,2,0,L|218:295,1,52.2500015945435,2|0,0:0|0:0,0:0:0:0:
289,343,13839,2,0,P|344:318|406:334,1,104.500003189087,2|0,0:0|0:0,0:0:0:0:
470,293,14068,1,0,0:0:0:0:
478,283,14144,2,0,L|467:166,2,104.500003189087,2|2|0,0:0|0:0|0:0,0:0:0:0:
498,89,14601,6,0,B|440:74|396:113|396:113|332:122|293:81,1,209.000006378174,4|2,1:1|0:0,0:0:0:0:
373,0,15057,2,0,P|371:36|359:0,1,104.500003189087,2|0,0:0|0:0,0:0:0:0:
302,89,15362,1,2,0:0:0:0:
205,59,15514,1,0,0:0:0:0:
314,179,15666,1,2,0:0:0:0:
291,79,15818,1,2,0:0:0:0:
242,234,15971,1,2,0:0:0:0:
317,164,16123,1,0,0:0:0:0:
307,316,16276,1,2,0:0:0:0:
225,234,16428,1,2,0:0:0:0:
223,384,16580,5,2,0:0:0:0:
423,235,16732,1,2,0:0:0:0:
269,38,16885,1,2,0:0:0:0:
69,187,17037,2,0,B|122:177|162:189|162:189|186:166|211:147|211:147|239:143|261:146,1,209.000006378174,6|2,0:1|0:0,0:0:0:0:
423,235,17494,2,0,B|377:211|377:211|316:233,1,104.500003189087,2|2,0:0|0:0,0:0:0:0:
233,260,17722,1,0,0:0:0:0:
234,276,17798,2,0,L|250:406,1,104.500003189087,2|0,0:0|0:0,0:0:0:0:
375,352,18103,1,2,0:0:0:0:
375,352,18179,1,0,0:0:0:0:
375,352,18255,1,2,0:0:0:0:
375,352,18331,1,0,0:0:0:0:
375,352,18408,6,0,P|396:287|401:245,1,104.500003189087,2|0,0:0|0:0,0:0:0:0:
235,45,18712,2,0,P|243:96|260:145,1,104.500003189087
435,0,19017,1,0,0:0:0:0:
458,16,19093,1,0,0:0:0:0:
473,43,19169,1,0,0:0:0:0:
474,72,19245,1,0,0:0:0:0:
464,99,19321,1,0,0:0:0:0:
442,121,19397,1,0,0:0:0:0:
414,130,19473,1,0,0:0:0:0:
385,127,19549,1,0,0:0:0:0:
256,192,19626,12,8,21758,0:1:0:0:
256,86,22062,37,4,1:2:0:0:
181,80,22215,1,0,0:0:0:0:
104,73,22367,1,0,0:0:0:0:
179,97,22519,1,2,0:0:0:0:
177,115,22824,1,2,0:0:0:0:
174,132,23128,1,2,0:0:0:0:
250,138,23281,38,1,L|296:128,2,33.2499989852906,0|0|2,3:0|0:0|0:0,0:0:0:0:
96,134,23585,1,0,1:0:0:0:
172,149,23737,1,2,0:0:0:0:
243,191,24195,5,0,0:1:0:0:
92,177,24499,1,0,0:0:0:0:
165,202,24652,1,0,0:0:0:0:
236,240,24804,1,0,0:0:0:0:
163,219,24956,1,2,0:0:0:0:
161,236,25261,1,2,0:0:0:0:
87,228,25413,5,8,1:0:0:0:
160,254,25565,1,2,0:0:0:0:
226,290,25870,1,2,0:0:0:0:
292,325,26022,6,0,P|320:275|281:187,2,152,8|0|0,0:0|0:0|0:0,0:0:0:0:
483,312,26936,5,0,0:0:0:0:
446,225,27088,1,0,0:0:0:0:
359,262,27240,1,0,0:0:0:0:
396,349,27392,1,2,0:0:0:0:
421,287,27545,5,0,0:0:0:0:
396,349,27849,1,0,0:0:0:0:
359,262,28001,1,2,0:0:0:0:
446,225,28153,1,2,0:0:0:0:
483,312,28305,1,2,0:0:0:0:
421,287,28611,5,2,0:0:0:0:
390,208,28763,1,0,0:0:0:0:
359,129,28915,1,2,0:0:0:0:
328,50,29068,1,0,0:0:0:0:
328,50,29372,6,0,L|288:66,1,38,0|0,0:0|2:0,0:0:0:0:
204,98,29524,2,0,L|164:114,1,38,0|0,0:0|2:0,0:0:0:0:
279,59,29677,2,0,L|189:90,1,76,0|2,0:0|0:0,0:0:0:0:
90,134,29981,1,0,0:0:0:0:
141,219,30134,2,0,L|182:207,2,38,0|0|8,0:0|0:0|0:2,0:0:0:0:
41,281,30590,5,2,0:0:0:0:
85,322,30743,5,0,0:0:0:0:
96,307,30895,5,2,0:0:0:0:
117,322,31047,5,0,0:0:0:0:
148,306,31199,5,2,0:0:0:0:
139,325,31352,5,2,0:0:0:0:
171,330,31504,5,0,0:0:0:0:
170,319,31656,6,0,B|206:335|243:330|243:330|258:344|258:344|309:325|369:353,1,185.249991519928,4|0,0:0|0:0,0:0:0:0:
346,343,31961,1,0,0:0:0:0:
287,234,32113,2,0,L|262:123,1,95
430,28,32418,5,0,1:0:0:0:
472,100,32570,1,0,1:0:0:0:
388,98,32722,1,0,0:0:0:0:
245,48,32875,5,0,0:0:0:0:
245,48,32951,1,0,0:0:0:0:
245,48,33027,2,0,L|270:159,2,95,0|0|0,1:0|0:0|1:0,0:0:0:0:
85,25,33484,2,0,B|136:40|136:40|174:189,1,190
101,243,33941,5,0,0:0:0:0:
101,243,34093,2,0,L|3:229,1,95,8|0,0:2|0:0,0:0:0:0:
255,338,34397,1,0,0:0:0:0:
255,338,34550,2,0,L|157:352,1,95
409,245,34854,1,0,0:0:0:0:
409,245,35007,2,0,L|311:231,1,95
488,384,35311,1,0,0:0:0:0:
488,384,35387,1,0,0:0:0:0:
488,384,35463,2,0,L|500:274,1,95,0|4,0:0|3:3,0:0:0:0:
392,84,35768,5,4,1:3:0:0:
439,157,35920,1,4,3:3:0:0:
353,159,36073,1,4,3:3:0:0:
476,33,36225,5,4,3:3:0:0:
395,132,36377,1,0,0:0:0:0:
314,231,36529,1,0,0:0:0:0:
314,231,36606,1,0,0:0:0:0:
314,231,36682,1,6,0:2:0:0:
208,76,36834,5,0,0:0:0:0:
217,174,36986,1,0,0:0:0:0:
284,20,37139,1,0,0:0:0:0:
116,95,37291,2,0,B|16:73|16:73|-24:93,1,142.5,0|0,0:0|2:0,0:0:0:0:
0,103,37595,2,0,L|103:92,1,95
306,187,38052,2,0,L|391:138,1,95
233,256,38357,2,0,L|232:354,1,95
209,158,38661,2,0,L|124:108,1,95
329,22,38966,5,0,0:0:0:0:
329,22,39042,1,0,0:0:0:0:
329,22,39118,2,0,L|431:13,1,95,4|0,0:2|0:0,0:0:0:0:
490,144,39423,2,0,B|508:190|508:190|486:241,1,95
489,231,39651,1,0,0:0:0:0:
489,231,39727,1,2,0:0:0:0:
296,311,39880,1,0,0:0:0:0:
385,165,40032,1,0,0:0:0:0:
236,62,40184,5,0,0:0:0:0:
236,62,40260,1,0,0:0:0:0:
236,62,40337,2,0,P|252:89|254:115,1,47.5
216,198,40489,2,0,P|199:225|198:251,1,47.5
186,341,40641,2,0,B|150:331|150:331|105:335|105:335|64:314|-16:326,1,190,0|0,0:0|1:2,0:0:0:0:
72,76,41403,6,0,B|201:65|133:149|292:122,1,199.499993911743,8|0,0:2|0:0,0:0:0:0:
232,37,41707,1,0,0:0:0:0:
103,163,41859,2,0,L|111:282,1,113.999996520996
62,344,42164,2,0,B|115:322|115:322|169:338,1,113.999996520996,4|0,0:2|0:0,0:0:0:0:
169,338,42392,1,0,0:0:0:0:
169,338,42469,1,0,0:0:0:0:
390,308,42621,6,0,B|419:279|419:279|442:221|359:174|324:235|324:235|369:240,1,227.999993041992,8|0,0:2|0:0,0:0:0:0:
512,131,43078,2,0,L|502:14,1,113.999996520996
342,182,43382,6,0,L|353:246,1,56.9999982604981,2|0,0:2|0:0,0:0:0:0:
499,138,43535,2,0,L|492:82,1,56.9999982604981
306,24,43687,1,0,0:0:0:0:
417,105,43839,6,0,B|373:109|341:98|341:98|302:108|302:108|258:93|194:103,1,199.499993911743,8|0,0:2|0:0,0:0:0:0:
134,61,44144,2,0,B|116:56|116:39|116:39|129:33|148:47,1,56.9999982604981
220,99,44296,1,0,0:0:0:0:
427,186,44448,1,0,0:0:0:0:
351,238,44601,1,8,0:2:0:0:
151,328,44753,1,0,0:0:0:0:
241,356,44905,1,0,0:0:0:0:
462,366,45057,5,6,1:2:0:0:
462,366,45134,1,0,0:0:0:0:
462,366,45210,1,0,0:0:0:0:
483,265,45362,1,0,0:0:0:0:
364,364,45514,1,0,0:0:0:0:
195,162,45666,5,0,0:0:0:0:
274,222,45819,1,2,0:0:0:0:
180,253,45971,1,2,0:0:0:0:
97,144,46123,5,0,0:0:0:0:
361,269,46276,2,0,B|384:212|384:212|355:118|355:118|396:148,1,199.499993911743,8|0,0:2|0:0,0:0:0:0:
388,142,46580,2,0,L|328:152,1,56.9999982604981
180,253,46732,2,0,L|44:241,1,113.999996520996,6|0,0:2|0:0,0:0:0:0:
191,0,47037,2,0,P|219:66|210:109,1,113.999996520996,2|0,0:2|0:0,0:0:0:0:
211,105,47265,1,0,0:0:0:0:
211,105,47342,1,0,0:0:0:0:
251,307,47494,6,0,B|314:283|384:302|384:302|346:231,1,199.499993911743,8|0,0:2|0:0,0:0:0:0:
281,210,47798,2,0,L|291:146,1,56.9999982604981
209,374,47951,2,0,L|187:247,1,113.999996520996,4|0,0:2|0:0,0:0:0:0:
384,302,48255,2,0,L|511:282,1,113.999996520996,2|0,0:2|0:0,0:0:0:0:
496,284,48484,1,0,0:0:0:0:
496,284,48560,1,0,0:0:0:0:
480,46,48712,6,0,P|390:133|258:111,1,265.999991882324,8|0,0:2|0:2,0:0:0:0:
304,39,49169,1,0,0:2:0:0:
123,194,49321,2,0,L|0:178,1,123.499994346619,6|0,0:2|0:0,0:0:0:0:
110,357,49626,6,0,L|139:293,1,56.9999982604981
217,249,49778,2,0,L|205:191,1,56.9999982604981
88,27,49930,2,0,L|98:98,1,56.9999982604981,2|0,0:0|0:0,0:0:0:0:
112,89,50235,6,0,L|102:31,1,56.9999982604981,2|2,0:0|0:0,0:0:0:0:
219,183,50387,2,0,L|232:253,1,56.9999982604981
336,319,50540,2,0,L|404:305,1,56.9999982604981
512,168,50692,5,0,0:0:0:0:
467,131,50768,1,0,0:0:0:0:
410,129,50844,1,0,0:0:0:0:
362,160,50920,1,0,0:0:0:0:
324,202,50996,1,0,0:0:0:0:
267,215,51073,1,0,0:0:0:0:
219,183,51149,6,0,L|245:-20,1,185.249991519928,2|0,0:2|0:0,0:0:0:0:
252,8,51453,2,0,B|298:38|298:38|359:14,1,113.999996520996
468,8,51758,5,0,0:0:0:0:
362,160,51910,1,4,0:2:0:0:
295,81,52062,1,0,0:0:0:0:
467,131,52215,1,0,0:0:0:0:
267,215,52367,2,0,B|214:227|169:195|169:195|149:221|118:240|118:240|151:237|180:248,1,227.999993041992,8|0,0:2|0:0,0:0:0:0:
82,149,52824,2,0,L|64:29,1,113.999996520996
233,134,53128,5,2,0:2:0:0:
135,323,53281,1,0,0:0:0:0:
82,149,53433,1,0,0:0:0:0:
292,261,53585,6,0,B|340:277|391:240|391:240|431:232|443:279|443:279|405:321|360:284,1,265.999991882324,8|0,0:2|0:0,0:0:0:0:
365,288,53966,1,0,0:0:0:0:
365,288,54042,1,0,0:0:0:0:
236,339,54194,1,0,0:0:0:0:
321,169,54347,2,0,L|332:44,1,113.999996520996,2|0,0:2|0:0,0:0:0:0:
113,232,54651,2,0,L|-12:244,1,113.999996520996,2|0,0:2|0:0,0:0:0:0:
0,242,54880,1,0,0:0:0:0:
0,242,54956,1,2,0:2:0:0:
236,339,55108,2,0,L|361:351,1,113.999996520996,0|2,0:0|0:2,0:0:0:0:
417,173,55413,5,4,0:3:0:0:
322,252,55565,1,2,0:2:0:0:
453,294,55717,1,0,0:0:0:0:
453,294,55793,1,0,0:0:0:0:
453,294,55870,1,0,0:0:0:0:
290,140,56022,6,0,B|253:122|215:135|215:135|184:166|151:161|151:161|105:128|53:150,1,227.999993041992,8|0,0:2|0:0,0:0:0:0:
19,230,56403,1,0,0:0:0:0:
22,242,56479,1,0,0:0:0:0:
25,254,56555,1,0,0:0:0:0:
28,266,56631,6,0,L|97:251,1,56.9999982604981,2|0,0:0|0:0,0:0:0:0:
263,279,56783,2,0,L|255:189,1,56.9999982604981,2|0,0:0|0:0,0:0:0:0:
251,56,56936,1,2,0:0:0:0:
252,36,57240,6,0,B|244:138|244:138|268:202|268:202|260:303,1,246.999988693238,2|0,1:2|0:0,0:0:0:0:
177,327,57621,1,0,0:0:0:0:
157,319,57697,1,0,0:0:0:0:
157,300,57773,1,0,0:0:0:0:
177,294,57849,1,0,0:0:0:0:
188,310,57925,1,0,0:0:0:0:
194,331,58002,6,0,P|215:354|258:355,1,56.9999982604981
435,314,58154,1,0,0:0:0:0:
450,319,58458,6,0,B|478:325|503:345|503:345|494:280|517:225|517:225|494:183|445:164,1,265.999991882324,14|0,0:2|0:0,0:0:0:0:
297,33,58915,2,0,L|159:51,1,113.999996520996
183,257,59220,1,0,0:0:0:0:
284,169,59372,1,0,0:0:0:0:
160,125,59524,1,2,0:0:0:0:
77,272,59677,1,2,0:0:0:0:
77,272,59753,1,0,0:0:0:0:
77,272,59829,2,0,L|93:388,1,113.999996520996,2|0,0:0|0:0,0:0:0:0:
253,301,60134,1,0,0:0:0:0:
115,351,60286,2,0,L|105:281,1,56.9999982604981,2|0,0:0|0:0,0:0:0:0:
28,105,60590,6,0,L|18:34,1,71.25,2|0,0:0|3:0,0:0:0:0:
36,45,60895,6,0,P|85:95|38:219,1,209.000006378174,6|2,1:2|0:0,0:0:0:0:
115,351,61352,2,0,P|180:341|228:337,1,104.500003189087,2|0,0:0|0:0,0:0:0:0:
359,200,61656,2,0,P|294:210|246:214,2,104.500003189087,2|2|0,0:0|0:0|0:0,0:0:0:0:
128,94,62113,5,2,0:0:0:0:
205,154,62265,1,0,0:0:0:0:
109,187,62418,1,2,0:0:0:0:
223,29,62570,5,2,0:0:0:0:
39,72,62722,1,2,0:0:0:0:
255,213,62875,1,0,0:2:0:0:
73,262,63027,2,0,L|88:324,1,52.2500015945435,0|0,0:2|0:2,0:0:0:0:
197,372,63179,2,0,L|263:357,1,52.2500015945435
396,381,63331,6,0,B|345:346|345:346|360:178,1,209.000006378174,2|2,0:0|0:0,0:0:0:0:
486,44,63788,2,0,L|476:170,1,104.500003189087,2|0,0:0|0:0,0:0:0:0:
444,238,64017,1,0,0:0:0:0:
433,244,64093,2,0,P|375:236|358:187,1,104.500003189087,2|2,0:0|0:0,0:0:0:0:
391,108,64321,1,0,0:0:0:0:
402,102,64397,2,0,P|460:110|477:159,1,104.500003189087,2|0,0:2|0:2,0:0:0:0:
485,320,64702,5,2,0:2:0:0:
320,291,64854,1,2,0:2:0:0:
396,381,65007,1,2,0:2:0:0:
212,336,65159,1,0,0:2:0:0:
320,291,65311,1,2,0:2:0:0:
112,384,65463,2,0,L|92:329,1,52.2500015945435,0|0,0:2|0:0,0:0:0:0:
98,210,65616,2,0,L|78:155,1,52.2500015945435,2|0,0:2|0:0,0:0:0:0:
21,44,65768,6,0,B|-9:13|-9:13|99:3|99:3|143:47,1,209.000006378174,2|2,0:0|0:0,0:0:0:0:
268,140,66225,2,0,L|160:126,1,104.500003189087,0|2,0:0|0:0,0:0:0:0:
345,0,66529,2,0,B|368:47|368:47|341:102,2,104.500003189087,0|2|0,0:0|0:0|0:0,0:0:0:0:
382,169,66986,5,2,0:0:0:0:
405,262,67139,1,2,0:0:0:0:
428,355,67291,1,0,0:0:0:0:
457,116,67443,5,2,0:0:0:0:
348,384,67595,1,0,0:0:0:0:
504,310,67748,1,2,0:0:0:0:
293,156,67900,2,0,L|240:140,1,52.2500015945435,0|0,0:0|3:0,0:0:0:0:
95,180,68052,2,0,L|106:235,1,52.2500015945435,2|0,0:0|3:0,0:0:0:0:
20,330,68205,6,0,B|53:283|53:283|116:234|217:292,1,209.000006378174,6|0,1:2|0:0,0:0:0:0:
213,40,68661,2,0,L|247:157,1,104.500003189087,2|0,0:0|0:0,0:0:0:0:
124,356,68966,2,0,L|208:268,1,104.500003189087,2|0,0:0|0:0,0:0:0:0:
441,275,69271,2,0,L|322:245,1,104.500003189087,2|0,0:0|0:0,0:0:0:0:
374,131,69575,5,2,0:0:0:0:
403,36,69727,1,0,0:0:0:0:
351,233,69880,5,2,0:0:0:0:
354,133,70032,1,0,0:0:0:0:
355,337,70185,5,2,0:0:0:0:
341,290,70260,1,0,0:0:0:0:
332,240,70337,1,0,0:0:0:0:
351,233,70413,1,0,0:0:0:0:
355,183,70489,1,0,0:0:0:0:
354,133,70565,1,0,0:0:0:0:
374,131,70641,1,0,0:0:0:0:
392,85,70717,1,0,0:0:0:0:
403,36,70793,1,0,0:0:0:0:
403,36,70946,5,0,0:0:0:0:
280,105,71098,2,0,P|224:103|171:85,1,95
38,275,71403,2,0,P|91:258|138:227,1,95
280,105,71707,1,0,0:0:0:0:
342,312,71859,2,0,P|294:282|257:240,1,95
124,237,72164,6,0,P|136:288|161:334,1,95
389,186,72469,2,0,P|438:201|491:203,1,95
480,193,72697,1,0,0:0:0:0:
479,182,72773,1,0,0:0:0:0:
477,173,72849,1,0,0:0:0:0:
475,164,72925,1,0,0:0:0:0:
346,55,73078,6,0,B|297:80|297:80|223:53|138:77,1,190,4|0,0:2|0:0,0:0:0:0:
13,126,73535,1,0,0:0:0:0:
212,172,73687,1,0,0:0:0:0:
14,143,73840,1,0,0:0:0:0:
62,257,73992,1,0,0:0:0:0:
133,154,74144,1,0,0:0:0:0:
214,367,74296,1,0,0:0:0:0:
166,279,74601,5,0,0:0:0:0:
184,273,74677,1,0,0:0:0:0:
202,267,74753,1,0,0:0:0:0:
346,105,74905,5,0,0:0:0:0:
328,111,74981,1,0,0:0:0:0:
310,117,75057,1,0,0:0:0:0:
256,192,75210,5,0,0:0:0:0:
256,192,75514,2,0,B|290:225|290:225|319:318|319:318|263:297,1,190,2|2,0:0|0:0,0:0:0:0:
256,192,75971,2,0,B|221:157|221:157|222:100,1,95
438,124,76276,2,0,L|339:103,1,95,2|0,0:0|0:0,0:0:0:0:
256,192,76580,1,2,0:0:0:0:
166,279,76732,2,0,L|74:260,1,95
336,365,77037,2,0,L|244:384,1,95
447,316,77342,5,2,0:2:0:0:
447,316,77418,1,2,0:2:0:0:
447,316,77494,2,0,L|441:261,1,47.5,2|0,0:2|3:0,0:0:0:0:
438,124,77646,1,2,0:2:0:0:
314,111,77798,1,0,0:0:0:0:
352,233,77951,2,0,B|285:215|237:244|237:244|210:289|165:291,1,190,8|2,0:2|0:2,0:0:0:0:
61,248,78408,5,2,0:2:0:0:
61,248,78484,1,0,0:0:0:0:
61,248,78560,1,2,0:2:0:0:
61,248,78636,1,2,0:2:0:0:
61,248,78712,2,0,L|51:191,1,47.5,2|0,0:2|0:0,0:0:0:0:
153,206,78864,2,0,L|128:153,1,47.5,2|2,0:2|0:2,0:0:0:0:
230,141,79017,2,0,L|192:96,1,47.5,2|2,0:2|0:2,0:0:0:0:
322,118,79169,5,0,0:0:0:0:
322,118,79245,1,0,0:0:0:0:
322,118,79321,2,0,B|384:100|384:100|448:128,1,123.499994346619,0|0,0:0|1:0,0:0:0:0:
512,182,79550,1,0,0:0:0:0:
510,197,79626,2,0,B|457:221|457:221|395:203,1,123.499994346619,0|0,0:0|1:0,0:0:0:0:
308,224,79854,1,0,0:0:0:0:
298,211,79930,1,0,0:0:0:0:
199,104,80083,5,8,0:3:0:0:
88,335,80235,1,4,0:3:0:0:
221,246,80387,1,4,0:3:0:0:
75,34,80540,1,4,0:0:0:0:
29,150,80692,5,2,0:0:0:0:
88,195,80844,1,0,0:0:0:0:
160,183,80996,1,2,0:0:0:0:
110,113,81149,5,0,0:0:0:0:
250,169,81301,5,2,0:0:0:0:
320,221,81453,1,0,0:0:0:0:
337,307,81606,1,2,0:0:0:0:
242,264,81758,5,2,0:0:0:0:
242,264,82367,1,2,0:0:0:0:
275,357,82519,1,0,0:0:0:0:
337,307,82672,1,0,0:0:0:0:
411,335,82824,1,0,0:0:0:0:
320,221,82976,5,2,0:0:0:0:
376,154,83128,1,0,0:0:0:0:
238,184,83281,1,0,0:0:0:0:
320,221,83433,1,0,0:0:0:0:
459,183,83585,1,2,0:0:0:0:
428,64,83890,5,0,0:0:0:0:
417,75,84042,1,2,0:0:0:0:
436,77,84194,1,0,0:0:0:0:
459,183,84347,5,2,0:0:0:0:
415,280,84499,5,0,0:0:0:0:
407,267,84651,1,2,0:0:0:0:
426,270,84803,1,0,0:0:0:0:
376,154,84956,5,0,0:0:0:0:
276,101,85108,5,2,0:0:0:0:
271,115,85260,1,2,0:0:0:0:
289,107,85412,1,0,1:0:0:0:
320,221,85565,5,2,0:0:0:0:
257,312,85717,5,0,0:0:0:0:
255,297,85869,1,2,0:0:0:0:
271,309,86021,1,0,1:0:0:0:
238,184,86174,5,2,0:0:0:0:
164,233,86326,1,0,0:0:0:0:
94,179,86479,1,2,0:0:0:0:
21,234,86631,1,0,1:0:0:0:
168,122,86936,5,0,0:0:0:0:
94,179,87088,1,2,0:0:0:0:
153,31,87240,2,0,L|216:34,1,56.9999982604981
283,67,87469,1,0,0:0:0:0:
283,67,87545,2,0,L|275:135,1,56.9999982604981,4|0,0:2|0:0,0:0:0:0:
222,365,87849,5,0,0:0:0:0:
129,360,88002,1,0,0:0:0:0:
274,288,88154,5,0,0:0:0:0:
367,283,88307,1,0,0:0:0:0:
209,208,88458,5,0,0:0:0:0:
116,203,88611,1,0,0:0:0:0:
276,123,88763,5,0,0:0:0:0:
369,118,88916,1,0,0:0:0:0:
203,37,89068,5,0,0:0:0:0:
110,32,89221,1,2,0:2:0:0:
29,92,89372,1,2,0:2:0:0:
209,208,89524,5,2,0:2:0:0:
255,206,89601,1,2,0:2:0:0:
302,204,89677,1,2,0:1:0:0:
129,360,89829,2,0,B|104:328|104:328|110:275,1,85.4999973907472,2|0,0:0|3:0,0:0:0:0:
135,172,90134,6,0,B|169:127|169:127|348:124,1,209.000006378174,2|2,0:0|0:0,0:0:0:0:
420,218,90590,2,0,B|368:240|368:240|317:223,1,104.500003189087,2|0,0:0|0:0,0:0:0:0:
427,93,90895,1,0,0:0:0:0:
348,32,91047,1,0,0:0:0:0:
321,124,91199,1,2,0:0:0:0:
236,334,91504,6,0,L|215:220,1,85.4999973907472
104,379,91809,1,2,0:0:0:0:
104,379,91961,2,0,L|-4:356,1,85.4999973907472
209,247,92265,1,2,0:0:0:0:
67,232,92418,1,0,0:0:0:0:
220,249,92570,6,0,B|147:231|147:231|116:242|116:242|55:229,1,170.999994781494,2|2,0:0|0:0,0:0:0:0:
29,32,93027,2,0,B|61:64|61:64|53:114,1,85.4999973907472,2|0,0:0|0:0,0:0:0:0:
251,113,93331,1,0,0:0:0:0:
183,43,93484,1,0,0:0:0:0:
154,136,93636,1,2,0:0:0:0:
306,34,93788,5,0,0:0:0:0:
306,34,93864,1,0,0:0:0:0:
306,34,93941,2,0,P|330:39|357:50,1,42.7499986953736
471,115,94093,2,0,P|449:126|425:143,1,42.7499986953736
340,200,94245,2,0,P|353:220|364:247,1,42.7499986953736
430,272,94397,2,0,P|428:296|432:325,1,42.7499986953736,4|4,3:3|3:3,0:0:0:0:
361,363,94550,5,4,3:3:0:0:
339,360,94626,1,4,3:3:0:0:
318,357,94702,1,4,3:3:0:0:
297,355,94778,1,4,3:3:0:0:
276,352,94854,1,4,1:3:0:0:
107,206,95007,6,0,B|69:171|69:171|65:256|65:256|117:292,1,190,2|2,0:0|0:0,0:0:0:0:
218,257,95463,6,0,L|298:241,1,47.5
424,218,95616,1,0,0:0:0:0:
424,225,95768,1,0,0:0:0:0:
425,232,95920,6,0,L|345:216,1,47.5
196,145,96072,1,0,0:0:0:0:
197,152,96225,1,0,0:0:0:0:
198,159,96377,6,0,L|278:143,1,47.5
439,91,96529,1,0,0:0:0:0:
439,98,96682,1,0,0:0:0:0:
440,105,96834,6,0,L|360:89,1,47.5
158,21,96986,1,0,0:0:0:0:
159,28,97139,1,0,0:0:0:0:
160,35,97291,6,0,L|240:19,1,47.5,0|0,0:0|3:0,0:0:0:0:
301,48,97443,2,0,L|374:11,1,47.5,0|0,0:0|3:0,0:0:0:0:
447,0,97595,5,2,0:2:0:0:
378,222,97747,1,2,0:2:0:0:
65,384,98205,5,2,0:2:0:0:
134,162,98357,1,2,0:2:0:0:
256,32,98814,5,2,0:2:0:0:
256,352,98966,1,2,0:2:0:0:
256,352,99727,6,0,L|252:326,6,23.75,2|0|2|0|2|0|2,2:0|0:0|2:0|0:0|2:0|0:0|2:0,0:0:0:0:
278,340,100032,6,0,L|328:323,1,47.5,0|0,0:0|2:0,0:0:0:0:
481,277,100184,2,0,L|469:339,1,47.5
454,292,100337,2,0,L|463:245,1,47.5,0|0,0:0|2:0,0:0:0:0:
430,84,100489,5,8,0:3:0:0:
410,62,100565,1,8,0:3:0:0:
385,45,100641,1,8,0:3:0:0:
357,36,100717,1,4,0:3:0:0:
327,35,100793,1,4,0:3:0:0:
298,41,100869,1,4,0:3:0:0:
272,54,100945,1,4,0:3:0:0:
250,74,101021,1,4,0:3:0:0:
234,99,101098,6,0,B|308:126|336:178|336:178|369:118|446:106,1,265.999991882324,8|0,1:2|0:0,0:0:0:0:
228,299,101555,2,0,B|205:244|205:244|237:191,1,113.999996520996,8|0,0:2|0:0,0:0:0:0:
36,179,101859,2,0,B|58:233|58:233|26:286,1,113.999996520996
29,279,102088,1,0,0:0:0:0:
29,279,102164,1,0,0:0:0:0:
234,99,102316,6,0,B|223:59|223:59|184:10|102:58|137:119|137:119|164:83,1,227.999993041992,8|2,0:2|0:2,0:0:0:0:
234,198,102773,2,0,L|354:180,1,113.999996520996,2|2,0:2|0:2,0:0:0:0:
415,58,103078,6,0,P|437:87|445:117,1,56.9999982604981,4|0,0:2|0:0,0:0:0:0:
428,298,103230,2,0,P|450:268|458:239,1,56.9999982604981
346,181,103382,1,0,0:0:0:0:
200,322,103535,6,0,B|223:286|235:198|235:198|245:251|256:275,1,199.499993911743,2|0,0:2|0:0,0:0:0:0:
252,265,103839,2,0,L|181:251,1,56.9999982604981
92,229,103991,1,0,0:0:0:0:
242,114,104144,1,0,0:0:0:0:
242,114,104220,1,0,0:0:0:0:
242,114,104296,1,8,0:2:0:0:
346,181,104448,1,0,0:0:0:0:
239,0,104601,1,0,0:0:0:0:
124,120,104753,5,2,0:2:0:0:
124,120,104829,1,2,0:2:0:0:
124,120,104905,1,0,0:2:0:0:
92,229,105057,1,2,0:2:0:0:
242,114,105210,1,2,0:2:0:0:
419,256,105514,1,6,0:2:0:0:
433,253,105590,1,0,0:0:0:0:
447,251,105666,1,0,0:0:0:0:
461,248,105742,1,0,0:0:0:0:
475,246,105818,1,0,0:0:0:0:
448,384,105971,6,0,B|449:326|419:257|419:257|496:242,1,199.499993911743,2|0,0:0|0:0,0:0:0:0:
506,145,106276,2,0,L|488:70,1,56.9999982604981,2|0,0:0|0:0,0:0:0:0:
305,269,106428,2,0,L|441:255,1,113.999996520996,2|0,0:0|0:0,0:0:0:0:
275,11,106732,2,0,P|224:71|232:116,1,113.999996520996,8|0,0:2|0:0,0:0:0:0:
226,101,106961,1,0,0:0:0:0:
226,101,107037,1,0,0:0:0:0:
275,352,107189,6,0,B|240:346|216:306|216:306|185:327|136:331|136:331|154:342|178:366,1,199.499993911743,2|2,0:0|0:0,0:0:0:0:
165,354,107494,2,0,L|157:288,1,56.9999982604981,2|0,0:0|0:0,0:0:0:0:
315,145,107646,2,0,P|255:199|218:192,1,113.999996520996,2|0,0:0|0:0,0:0:0:0:
21,137,107951,2,0,L|164:114,1,113.999996520996,8|0,0:2|0:0,0:0:0:0:
133,118,108179,1,0,0:0:0:0:
133,118,108255,1,0,0:0:0:0:
404,154,108408,6,0,P|368:228|197:280,1,265.999991882324,2|4,0:0|0:3,0:0:0:0:
234,109,108864,1,4,0:3:0:0:
36,49,109017,1,0,0:3:0:0:
21,72,109093,1,4,0:3:0:0:
39,100,109169,1,4,0:3:0:0:
21,137,109245,1,8,0:3:0:0:
44,174,109321,1,4,0:3:0:0:
21,218,109397,1,0,0:3:0:0:
53,266,109474,1,4,0:3:0:0:
162,13,109626,1,2,0:0:0:0:
162,13,109930,6,0,L|235:26,1,56.9999982604981,2|0,0:0|3:0,0:0:0:0:
377,0,110083,2,0,L|364:73,1,56.9999982604981,2|0,0:0|0:0,0:0:0:0:
325,179,110235,2,0,L|338:252,1,56.9999982604981,2|0,0:0|0:0,0:0:0:0:
209,363,110387,5,0,0:0:0:0:
219,331,110463,1,0,0:0:0:0:
214,298,110539,1,0,0:0:0:0:
196,270,110616,1,0,0:0:0:0:
167,253,110692,1,0,0:0:0:0:
135,247,110768,1,0,0:0:0:0:
103,263,110844,6,0,B|151:267|166:252|166:252|211:287|271:299|271:299|242:267|247:227,1,246.999988693238,8|0,0:2|0:0,0:0:0:0:
234,109,111301,2,0,L|121:92,1,113.999996520996
103,263,111606,1,2,0:2:0:0:
0,194,111758,1,0,0:0:0:0:
100,114,111910,1,0,0:0:0:0:
246,240,112062,1,0,0:0:0:0:
246,240,112139,1,0,0:0:0:0:
246,240,112215,2,0,L|372:223,1,113.999996520996,0|2,0:0|0:2,0:0:0:0:
500,370,112519,2,0,P|478:324|464:259,1,113.999996520996,2|2,0:2|0:2,0:0:0:0:
491,45,112824,6,0,P|474:75|441:97,1,56.9999982604981,2|0,0:2|0:0,0:0:0:0:
362,127,112976,2,0,P|327:127|291:109,1,56.9999982604981,2|0,0:2|0:0,0:0:0:0:
231,42,113128,1,2,0:2:0:0:
358,224,113281,6,0,B|312:302|222:276|222:276|170:232|104:246,1,265.999991882324,2|0,0:2|0:0,0:0:0:0:
59,280,113661,1,0,0:0:0:0:
66,355,113738,2,0,P|135:359|140:323,1,113.999996520996
38,110,114042,2,0,L|5:-18,1,113.999996520996,4|0,0:2|0:0,0:0:0:0:
247,195,114347,2,0,L|375:228,1,113.999996520996,4|0,0:2|0:0,0:0:0:0:
357,223,114575,1,0,0:0:0:0:
357,223,114651,1,0,0:2:0:0:
141,329,114804,2,0,L|13:362,1,113.999996520996,2|2,0:2|0:2,0:0:0:0:
49,129,115108,5,0,0:2:0:0:
124,193,115260,1,8,0:2:0:0:
27,228,115413,1,0,0:0:0:0:
27,228,115489,1,0,0:0:0:0:
27,228,115565,1,0,0:0:0:0:
181,79,115717,6,0,B|222:59|262:64|262:64|283:38|320:32|320:32|367:44|405:23,1,227.999993041992,8|0,0:2|0:0,0:0:0:0:
395,27,116098,1,0,0:0:0:0:
395,27,116174,1,0,0:0:0:0:
317,205,116326,1,0,0:0:0:0:
491,259,116479,2,0,L|475:196,1,56.9999982604981,2|0,0:0|0:0,0:0:0:0:
455,113,116631,1,2,0:0:0:0:
455,113,116936,6,0,B|394:153|394:153|265:162|265:162|237:202,1,246.999988693238,2|0,0:0|0:0,0:0:0:0:
175,251,117316,1,0,0:0:0:0:
150,258,117392,1,0,0:0:0:0:
124,258,117468,1,0,0:0:0:0:
99,251,117544,1,0,0:0:0:0:
78,237,117620,1,0,0:0:0:0:
61,217,117696,1,0,0:0:0:0:
51,194,117772,1,0,0:0:0:0:
48,168,117848,1,0,0:0:0:0:
53,143,117925,1,0,0:0:0:0:
65,120,118002,6,0,L|119:106,1,56.9999982604981,2|0,0:0|3:0,0:0:0:0:
239,198,118154,2,0,B|293:239|293:239|437:228|437:228|474:273,1,265.999991882324,8|0,0:2|1:0,0:0:0:0:
396,335,118611,5,0,0:0:0:0:
302,351,118763,1,0,0:0:0:0:
363,206,118915,5,0,0:0:0:0:
225,299,119068,1,0,0:0:0:0:
302,102,119220,5,2,0:0:0:0:
133,318,119372,1,0,0:0:0:0:
228,3,119524,5,2,0:0:0:0:
228,3,119601,1,0,0:0:0:0:
228,3,119677,1,0,0:0:0:0:
228,3,119753,1,0,0:3:0:0:
228,3,119829,2,0,L|226:66,1,56.9999982604981,0|0,0:3|0:0,0:0:0:0:
134,205,119981,2,0,B|130:253|130:253|137:272|137:272|131:329,1,113.999996520996,0|2,0:0|0:0,0:0:0:0:
51,84,120743,5,0,0:0:0:0:
46,72,120895,1,0,0:0:0:0:
41,60,121047,1,0,0:0:0:0:
36,48,121200,1,0,0:0:0:0:
31,36,121352,1,0,0:0:0:0:
26,24,121504,1,0,0:0:0:0:
173,85,121656,5,0,0:0:0:0:
174,72,121808,1,0,0:0:0:0:
176,59,121960,1,0,0:0:0:0:
178,46,122113,1,0,0:0:0:0:
179,33,122265,1,0,0:0:0:0:
181,20,122417,1,0,0:0:0:0:
303,149,122570,5,0,0:0:0:0:
308,137,122722,1,0,0:0:0:0:
313,125,122874,1,0,0:0:0:0:
318,113,123027,1,0,0:0:0:0:
323,101,123179,1,0,0:0:0:0:
328,89,123331,1,0,0:0:0:0:
181,150,123483,5,0,0:0:0:0:
180,137,123635,1,0,0:0:0:0:
178,124,123787,1,0,0:0:0:0:
176,111,123940,1,0,0:0:0:0:
175,98,124092,1,0,0:0:0:0:
173,85,124244,1,0,0:0:0:0:
67,213,124397,5,2,0:0:0:0:
79,218,124702,1,2,0:0:0:0:
91,223,124854,1,0,0:0:0:0:
103,228,125006,1,2,0:0:0:0:
115,233,125159,1,0,0:0:0:0:
253,225,125311,5,2,0:0:0:0:
244,214,125463,1,0,0:0:0:0:
186,323,125616,5,2,0:0:0:0:
174,332,125768,1,2,0:0:0:0:
316,337,125920,5,2,0:0:0:0:
329,328,126072,1,0,0:0:0:0:
430,226,126225,5,2,0:0:0:0:
418,221,126530,1,2,0:0:0:0:
406,216,126682,1,0,0:0:0:0:
394,211,126834,1,2,0:0:0:0:
382,206,126987,1,0,0:0:0:0:
244,214,127139,5,2,0:0:0:0:
253,225,127291,1,0,0:0:0:0:
311,116,127444,5,2,0:0:0:0:
323,107,127596,1,2,0:0:0:0:
181,102,127748,5,2,0:0:0:0:
168,111,127900,1,0,0:0:0:0:
310,36,128052,6,0,L|343:113,1,66.4999979705811,0|0,0:3|0:0,0:0:0:0:
323,107,128357,1,0,0:0:0:0:
311,116,128509,1,0,0:0:0:0:
299,125,128661,1,0,0:0:0:0:
287,134,128814,1,0,0:0:0:0:
131,140,128966,6,0,L|98:63,1,66.4999979705811,2|0,0:2|0:0,0:0:0:0:
144,129,129271,1,0,0:0:0:0:
156,120,129423,1,0,0:0:0:0:
168,111,129575,1,0,0:0:0:0:
180,102,129728,1,0,0:0:0:0:
253,225,129880,6,0,L|243:308,1,66.4999979705811,0|0,0:2|0:0,0:0:0:0:
228,292,130185,1,0,0:2:0:0:
213,294,130337,1,0,0:2:0:0:
198,296,130489,1,0,0:2:0:0:
184,298,130642,1,0,0:2:0:0:
347,345,130793,6,0,L|418:332,1,66.4999979705811,2|0,0:2|0:0,0:0:0:0:
344,328,131098,1,0,1:0:0:0:
342,313,131250,1,0,1:0:0:0:
340,298,131402,1,0,1:0:0:0:
338,284,131555,1,0,1:0:0:0:
466,165,131707,6,0,L|480:95,1,66.4999979705811
463,101,132012,1,0,0:0:0:0:
448,103,132164,1,0,0:0:0:0:
433,105,132316,1,0,0:0:0:0:
419,107,132469,1,0,0:0:0:0:
278,195,132621,6,0,L|207:182,1,66.4999979705811,2|0,0:2|0:0,0:0:0:0:
281,178,132926,1,0,0:0:0:0:
283,163,133078,1,0,0:0:0:0:
285,148,133230,1,0,0:0:0:0:
287,134,133383,1,0,0:0:0:0:
128,24,133534,6,0,L|138:99,1,66.4999979705811
136,89,133839,1,0,0:0:0:0:
136,89,133991,1,0,0:0:0:0:
136,89,134144,1,0,0:0:0:0:
136,89,134296,1,0,0:0:0:0:
86,249,134448,6,0,L|15:265,1,66.4999979705811,2|0,0:2|0:0,0:0:0:0:
103,245,134753,1,0,0:0:0:0:
120,242,134905,1,0,0:0:0:0:
135,240,135057,1,0,0:0:0:0:
150,237,135210,1,0,0:0:0:0:
257,344,135362,6,0,B|304:360|304:360|402:340,1,142.5,4|0,1:0|3:0,0:0:0:0:
431,258,135971,2,0,B|392:250|392:250|359:263,1,76,4|0,0:3|0:0,0:0:0:0:
259,187,136275,2,0,B|298:195|298:195|331:182,1,76,4|4,0:1|0:3,0:0:0:0:
367,23,136580,1,4,0:3:0:0:
296,88,136732,1,4,0:3:0:0:
395,111,136885,1,4,0:3:0:0:
240,16,137037,5,8,0:3:0:0:
240,16,137113,1,8,0:3:0:0:
240,16,137189,2,0,P|162:32|83:48,1,152,4|4,3:1|0:0,0:0:0:0:
83,177,137646,1,4,0:0:0:0:
184,203,137798,2,0,L|266:185,1,76,8|4,0:3|0:3,0:0:0:0:
328,287,138103,2,0,L|301:373,1,76,4|0,3:1|0:0,0:0:0:0:
511,313,138407,1,8,0:3:0:0:
437,243,138560,1,2,0:3:0:0:
410,338,138712,1,2,0:3:0:0:
511,313,138864,5,4,0:3:0:0:
511,313,138940,1,4,0:3:0:0:
511,313,139017,2,0,P|491:259|508:164,2,152,4|4|8,3:1|0:3|0:3,0:0:0:0:
384,132,139930,5,4,3:1:0:0:
437,243,140083,1,4,0:3:0:0:
290,304,140235,1,8,0:3:0:0:
364,126,140387,1,4,0:3:0:0:
451,250,140539,1,4,0:3:0:0:
226,222,140692,5,4,0:3:0:0:
226,222,140768,1,4,0:3:0:0:
226,222,140844,2,0,B|180:226|180:226|128:274|66:263,1,152,4|0,0:1|0:0,0:0:0:0:
22,177,141301,1,2,0:3:0:0:
114,75,141453,2,0,L|95:-11,1,76,2|0,0:3|0:0,0:0:0:0:
258,108,141758,2,0,L|346:124,1,76,4|4,3:1|0:3,0:0:0:0:
506,88,142062,5,4,0:3:0:0:
404,27,142215,1,8,0:3:0:0:
457,201,142367,1,4,0:3:0:0:
487,83,142519,1,8,0:3:0:0:
348,227,142671,6,0,B|286:248|230:244|230:244|242:277,1,152,4|4,3:1|0:3,0:0:0:0:
348,227,143128,1,4,0:3:0:0:
321,341,143281,2,0,L|400:340,1,76,8|0,0:3|0:0,0:0:0:0:
268,193,143585,2,0,L|256:114,1,76,4|8,0:2|0:3,0:0:0:0:
118,206,143890,1,4,0:3:0:0:
166,111,144042,1,4,0:3:0:0:
22,63,144194,1,8,0:3:0:0:
151,107,144347,1,8,0:3:0:0:
47,256,144499,6,0,P|91:248|210:238,1,152,4|4,0:1|0:3,0:0:0:0:
286,370,144956,2,0,P|273:330|264:293,1,76,4|8,0:3|0:0,0:0:0:0:
474,228,145413,1,4,0:2:0:0:
423,337,145565,1,4,0:3:0:0:
356,230,145717,1,4,0:3:0:0:
486,237,145869,1,8,0:3:0:0:
341,222,146022,1,4,0:3:0:0:
420,130,146174,5,8,0:3:0:0:
420,130,146250,1,8,0:3:0:0:
420,130,146326,2,0,B|429:44|341:17,1,152,4|4,1:1|0:3,0:0:0:0:
323,147,146783,2,0,L|341:225,1,76,4|2,0:3|0:3,0:0:0:0:
166,240,147240,5,4,1:2:0:0:
86,136,147392,1,4,0:3:0:0:
272,74,147545,1,4,0:3:0:0:
170,221,147697,1,8,0:3:0:0:
76,53,147849,1,4,0:3:0:0:
73,42,148154,6,0,B|94:105|94:105|85:135|85:135|104:204,1,152,4|2,1:1|0:3,0:0:0:0:
33,303,148611,1,4,0:3:0:0:
33,303,148687,1,4,0:3:0:0:
33,303,148763,2,0,B|80:293|80:293|140:321,1,95,8|4,0:3|0:0,0:0:0:0:
260,374,149067,1,4,1:2:0:0:
360,242,149220,5,4,0:3:0:0:
358,230,149296,1,4,0:3:0:0:
356,218,149372,1,4,0:3:0:0:
354,206,149448,1,4,0:3:0:0:
352,195,149524,1,4,0:3:0:0:
350,183,149600,1,4,0:3:0:0:
348,171,149676,1,4,0:3:0:0:
346,160,149752,1,4,0:3:0:0:
344,148,149829,1,4,0:3:0:0:
256,192,150590,12,0,151123,0:0:0:0:
97,1,151199,6,0,L|108:58,1,47.5,0|0,1:1|0:0,0:0:0:0:
196,90,151351,2,0,L|207:147,1,47.5,2|0,0:0|3:0,0:0:0:0:
97,227,151503,1,2,0:0:0:0:
97,227,151655,6,0,L|164:235,1,47.5,2|0,0:0|3:0,0:0:0:0:
211,309,151808,2,0,L|278:317,1,47.5,2|0,0:0|3:0,0:0:0:0:
378,249,151960,1,2,0:0:0:0:
378,249,152112,1,0,0:0:0:0:
378,249,152264,6,0,L|387:198,1,47.5,2|0,0:0|3:0,0:0:0:0:
321,122,152417,2,0,L|330:71,1,47.5,2|0,0:0|3:0,0:0:0:0:
218,200,152569,2,0,L|227:149,1,47.5,2|0,0:0|3:0,0:0:0:0:
161,73,152722,2,0,L|170:22,1,47.5,2|0,0:0|3:0,0:0:0:0:
72,129,152874,1,2,0:0:0:0:
72,129,153026,1,0,0:0:0:0:
72,129,153178,6,0,L|90:180,1,47.5,2|0,0:0|3:0,0:0:0:0:
0,276,153330,2,0,L|46:258,1,47.5,2|0,0:0|3:0,0:0:0:0:
119,329,153483,2,0,L|166:337,1,47.5,2|0,0:0|3:0,0:0:0:0:
304,360,153635,1,2,0:0:0:0:
304,360,153787,6,0,L|330:254,2,95,2|0|2,0:0|0:0|0:0,0:0:0:0:
463,290,154244,2,0,L|453:237,1,47.5,2|0,0:0|3:0,0:0:0:0:
437,147,154396,1,2,0:0:0:0:
413,9,154549,2,0,L|423:62,1,47.5,2|0,0:0|3:0,0:0:0:0:
437,147,154701,2,0,L|447:200,1,47.5,2|0,0:0|3:0,0:0:0:0:
463,290,154853,1,0,0:0:0:0:
463,290,155006,1,2,0:0:0:0:
463,290,155158,6,0,L|403:298,1,47.5,2|0,0:0|3:0,0:0:0:0:
313,311,155310,1,2,0:0:0:0:
205,341,155462,2,0,L|253:363,1,47.5,2|0,0:0|3:0,0:0:0:0:
313,311,155615,2,0,L|307:252,1,47.5,2|0,0:0|3:0,0:0:0:0:
291,131,155767,1,0,0:0:0:0:
291,131,155919,1,2,0:0:0:0:
291,131,156072,6,0,L|238:145,1,47.5,2|0,0:0|3:0,0:0:0:0:
329,0,156224,2,0,L|276:14,1,47.5,2|0,0:0|3:0,0:0:0:0:
200,63,156376,2,0,L|147:77,1,47.5,2|0,0:0|3:0,0:0:0:0:
162,194,156528,2,0,L|109:208,1,47.5,2|0,0:0|3:0,0:0:0:0:
40,134,156681,2,0,L|50:30,2,95,0|2|2,0:0|0:0|0:0,0:0:0:0:
21,272,157138,1,2,0:0:0:0:
21,272,157290,6,0,L|79:285,1,47.5,2|0,0:0|3:0,0:0:0:0:
133,346,157442,2,0,L|191:359,1,47.5,2|0,0:0|3:0,0:0:0:0:
305,304,157594,1,0,0:0:0:0:
305,304,157747,1,2,0:0:0:0:
305,304,157899,6,0,L|285:247,1,47.5,2|0,0:0|3:0,0:0:0:0:
388,210,158051,2,0,L|422:160,1,47.5,2|0,0:0|3:0,0:0:0:0:
298,105,158204,2,0,L|252:65,1,47.5,2|0,0:0|3:0,0:0:0:0:
414,31,158356,2,0,L|468:4,1,47.5,2|0,0:0|3:0,0:0:0:0:
471,13,158508,6,0,L|428:33,1,47.5,2|0,0:0|3:0,0:0:0:0:
262,62,158660,2,0,L|298:92,1,47.5,2|0,0:0|3:0,0:0:0:0:
410,159,158813,2,0,L|383:198,1,47.5,2|0,0:0|0:0,0:0:0:0:
294,248,158965,2,0,L|309:292,1,47.5,2|0,0:0|0:0,0:0:0:0:
376,368,159117,1,0,0:0:0:0:
376,368,159269,1,2,0:0:0:0:
507,285,159421,6,0,B|465:269|465:269|409:286,1,95,2|2,0:0|0:0,0:0:0:0:
376,368,159726,2,0,L|325:381,1,47.5,2|0,0:0|3:0,0:0:0:0:
294,248,159878,2,0,L|243:261,1,47.5,2|0,0:0|0:0,0:0:0:0:
178,338,160030,1,0,1:0:0:0:
178,338,160182,1,2,0:0:0:0:
81,252,160335,6,0,L|90:146,1,95,2|2,0:0|0:0,0:0:0:0:
182,46,160639,2,0,L|153:92,1,47.5,2|0,0:0|3:0,0:0:0:0:
3,45,160792,2,0,L|32:91,1,47.5,2|0,0:0|0:0,0:0:0:0:
81,252,160944,1,0,1:0:0:0:
81,252,161096,1,2,0:0:0:0:
81,252,161248,6,0,L|25:264,1,47.5,2|0,0:0|3:0,0:0:0:0:
130,331,161401,2,0,L|183:338,1,47.5,2|0,0:0|0:0,0:0:0:0:
265,289,161553,2,0,L|318:282,1,47.5,2|0,0:0|3:0,0:0:0:0:
395,339,161705,2,0,L|448:346,1,47.5,2|0,0:0|0:0,0:0:0:0:
511,278,161858,1,0,0:0:0:0:
511,278,162010,1,2,0:0:0:0:
409,141,162162,6,0,B|392:188|392:188|414:240,1,95,2|0,0:0|0:0,0:0:0:0:
512,29,162467,2,0,L|408:24,2,95,2|2|0,0:0|0:0|1:0,0:0:0:0:
409,141,162924,1,2,0:0:0:0:
409,141,163076,6,0,L|349:128,1,47.5,2|0,0:0|3:0,0:0:0:0:
289,203,163228,2,0,L|229:216,1,47.5
267,111,163380,2,0,L|207:124,1,47.5,2|0,0:0|3:0,0:0:0:0:
149,191,163532,2,0,L|89:178,1,47.5,2|0,0:0|0:0,0:0:0:0:
47,104,163685,1,0,1:0:0:0:
47,104,163837,1,2,0:0:0:0:
101,1,163990,6,0,B|137:28|137:28|143:107,2,95,2|0|2,0:0|0:0|0:0,0:0:0:0:
220,121,164446,2,0,L|267:111,1,47.5,2|0,0:0|0:0,0:0:0:0:
373,82,164599,1,0,1:0:0:0:
373,82,164751,1,2,0:0:0:0:
373,82,164903,6,0,L|364:146,1,47.5,2|0,0:0|3:0,0:0:0:0:
459,168,165056,2,0,L|450:232,1,47.5,2|0,0:0|0:0,0:0:0:0:
353,235,165208,2,0,L|344:299,1,47.5,2|0,0:0|3:0,0:0:0:0:
439,321,165361,2,0,L|430:385,1,47.5,2|0,0:0|0:0,0:0:0:0:
339,384,165512,1,0,1:0:0:0:
339,384,165665,1,2,0:0:0:0:
144,326,165817,6,0,L|246:314,1,95,2|2,0:0|0:0,0:0:0:0:
70,174,166122,2,0,L|49:81,1,95,2|2,0:0|0:0,0:0:0:0:
243,24,166426,5,2,0:0:0:0:
311,108,166578,1,2,0:0:0:0:
200,198,166731,1,2,0:0:0:0:
233,3,166883,1,0,1:0:0:0:
146,126,167035,5,2,0:2:0:0:
373,178,167187,1,2,0:2:0:0:
407,211,168710,5,0,0:0:0:0:
419,207,168786,1,0,0:0:0:0:
431,203,168862,1,0,0:0:0:0:
256,288,169065,5,4,3:3:0:0:
96,359,169268,5,0,0:3:0:0:
356,379,169471,5,4,0:2:0:0:
241,167,169623,1,4,0:2:0:0:
241,167,170537,5,0,0:0:0:0:
241,167,170613,1,0,0:0:0:0:
241,167,170689,2,0,L|186:183,1,47.5,2|0,0:2|0:0,0:0:0:0:
42,230,170918,6,0,L|100:214,1,47.5,2|0,0:2|0:0,0:0:0:0:
352,137,171146,6,0,L|397:121,1,47.5,2|0,0:2|0:0,0:0:0:0:
256,192,171298,12,0,171908,3:0:0:0:
177,139,172517,6,0,L|200:58,1,76
46,107,172974,6,0,B|120:118|191:90|191:90|173:156,1,199.499993911743,8|0,0:2|0:0,0:0:0:0:
126,240,173278,1,0,0:0:0:0:
258,337,173430,2,0,L|242:208,1,113.999996520996
113,341,173735,1,0,0:0:0:0:
34,274,173887,1,0,0:0:0:0:
126,240,174040,1,0,0:0:0:0:
302,273,174192,6,0,B|343:272|343:272|400:247|375:156|310:170|310:170|335:209,1,227.999993041992,0|2,0:0|0:2,0:0:0:0:
506,41,174649,2,0,L|482:166,1,113.999996520996,2|2,0:2|0:2,0:0:0:0:
374,10,174953,1,4,0:2:0:0:
287,97,175106,1,0,0:0:0:0:
400,153,175258,1,0,0:0:0:0:
243,6,175410,6,0,B|180:28|180:28|165:38|165:38|111:59|65:108,1,199.499993911743,8|0,0:2|0:0,0:0:0:0:
69,195,175715,2,0,P|83:251|104:305,1,113.999996520996
331,378,176019,1,0,0:0:0:0:
331,378,176095,1,0,0:0:0:0:
331,378,176172,2,0,P|317:322|296:268,1,113.999996520996,8|0,0:2|0:0,0:0:0:0:
169,194,176476,5,2,0:0:0:0:
103,303,176628,2,0,P|41:337|3:361,1,113.999996520996,4|0,0:2|0:0,0:0:0:0:
296,269,176933,2,0,P|358:235|396:211,2,113.999996520996
215,368,177390,5,0,0:0:0:0:
168,368,177466,1,0,0:0:0:0:
127,344,177542,1,0,0:0:0:0:
103,303,177618,1,0,0:0:0:0:
103,257,177694,1,0,0:0:0:0:
127,216,177770,1,0,0:0:0:0:
168,193,177847,6,0,B|255:215|296:270|296:270|305:204,1,199.499993911743,8|0,0:2|2:0,0:0:0:0:
279,130,178151,1,0,0:0:0:0:
435,31,178304,2,0,L|415:156,1,113.999996520996,2|2,0:2|0:2,0:0:0:0:
376,309,178608,1,0,0:0:0:0:
236,299,178760,1,0,0:0:0:0:
436,235,178913,1,0,0:0:0:0:
283,42,179065,6,0,B|326:90|326:90|301:228,1,199.499993911743,8|0,0:2|0:0,0:0:0:0:
236,299,179370,1,0,0:0:0:0:
83,185,179522,1,2,0:2:0:0:
194,202,179674,1,2,0:2:0:0:
194,202,179750,1,0,0:0:0:0:
194,202,179826,1,8,0:2:0:0:
35,365,179979,1,0,0:0:0:0:
20,309,180055,1,0,0:0:0:0:
7,253,180131,1,0,0:0:0:0:
244,379,180283,6,0,B|288:376|312:333|312:333|380:286|457:349,1,199.499993911743,6|0,0:2|0:0,0:0:0:0:
500,363,180588,1,0,0:0:0:0:
500,363,180664,1,0,0:0:0:0:
500,363,180740,2,0,L|495:284,1,56.9999982604981
419,324,180892,2,0,L|393:248,1,56.9999982604981,8|8,0:3|0:3,0:0:0:0:
325,294,181045,2,0,L|281:228,1,56.9999982604981,8|4,0:3|0:3,0:0:0:0:
244,379,181197,6,0,L|218:303,1,56.9999982604981,2|0,0:0|0:0,0:0:0:0:
147,340,181349,2,0,L|141:260,1,56.9999982604981,2|0,0:0|0:0,0:0:0:0:
64,286,181502,2,0,L|79:208,1,56.9999982604981,2|0,0:0|3:0,0:0:0:0:
66,220,181806,6,0,L|57:286,1,56.9999982604981,2|0,0:0|3:0,0:0:0:0:
12,83,181958,2,0,L|26:13,1,56.9999982604981,2|0,0:0|0:0,0:0:0:0:
194,128,182111,2,0,L|250:115,1,56.9999982604981,0|0,3:0|0:0,0:0:0:0:
457,90,182263,5,8,0:2:0:0:
410,86,182339,1,0,0:0:0:0:
369,108,182415,1,0,0:0:0:0:
343,148,182491,1,0,0:0:0:0:
318,188,182567,1,0,0:0:0:0:
279,214,182643,1,0,0:0:0:0:
232,212,182720,6,0,B|260:189|319:188|319:188|352:224|419:226,1,185.249991519928,12|0,0:2|0:0,0:0:0:0:
469,175,183024,1,0,0:0:0:0:
301,289,183177,2,0,B|294:342|294:342|344:394,1,113.999996520996
484,287,183481,1,8,0:2:0:0:
354,374,183633,1,0,0:0:0:0:
402,224,183786,1,0,0:0:0:0:
246,100,183938,1,2,0:2:0:0:
239,156,184014,1,2,0:2:0:0:
232,212,184090,1,2,0:2:0:0:
137,320,184243,5,2,0:2:0:0:
56,302,184395,1,2,0:2:0:0:
117,244,184547,1,0,0:0:0:0:
4,362,184699,5,6,0:2:0:0:
195,377,184852,1,0,0:0:0:0:
38,174,185004,1,0,0:0:0:0:
232,212,185156,2,0,B|273:233|273:233|380:206,1,132.999995941162,8|0,0:2|0:0,0:0:0:0:
472,49,185461,5,0,0:0:0:0:
467,63,185537,1,0,0:0:0:0:
467,77,185613,1,0,0:0:0:0:
325,34,185765,5,0,0:0:0:0:
321,57,185841,1,0,0:0:0:0:
327,80,185917,1,6,0:2:0:0:
176,41,186070,5,0,0:0:0:0:
178,77,186146,1,0,0:0:0:0:
198,111,186222,1,8,0:2:0:0:
38,126,186375,5,0,0:0:0:0:
53,174,186451,1,0,0:0:0:0:
93,212,186527,1,0,0:2:0:0:
254,309,186679,1,0,0:0:0:0:
160,381,186832,1,0,0:2:0:0:
230,191,186984,1,0,0:0:0:0:
464,307,187136,5,0,0:0:0:0:
415,279,187212,1,0,0:0:0:0:
359,269,187288,1,0,0:0:0:0:
303,280,187364,1,0,0:0:0:0:
254,309,187440,1,0,0:0:0:0:
257,324,187593,6,0,B|315:333|359:365|359:365|401:331|472:321,1,227.999993041992,8|0,0:2|0:0,0:0:0:0:
479,325,187974,1,0,0:0:0:0:
490,328,188050,1,0,0:0:0:0:
487,276,188126,1,0,0:0:0:0:
477,225,188202,1,0,0:0:0:0:
465,175,188278,1,0,0:0:0:0:
454,124,188354,6,0,L|393:147,1,56.9999982604981,2|0,0:0|0:0,0:0:0:0:
168,235,188507,1,2,0:1:0:0:
168,235,188811,6,0,B|148:205|148:205|186:79|186:79|202:183,1,246.999988693238,2|0,0:0|0:0,0:0:0:0:
299,301,189268,1,0,0:0:0:0:
300,282,189344,1,0,0:0:0:0:
301,263,189420,1,0,0:0:0:0:
303,244,189496,1,0,0:0:0:0:
304,225,189572,1,0,0:0:0:0:
306,206,189648,1,0,0:0:0:0:
307,187,189724,1,0,0:0:0:0:
338,70,190029,6,0,B|290:120|307:187|307:187|276:228|276:228|259:280|207:300,1,265.999991882324,12|0,0:2|0:0,0:0:0:0:
206,300,190410,1,0,0:0:0:0:
190,303,190486,1,0,0:0:0:0:
74,147,190639,5,0,0:0:0:0:
58,141,190715,1,0,0:0:0:0:
43,141,190791,1,0,0:0:0:0:
69,229,190943,5,0,0:0:0:0:
53,235,191019,1,0,0:0:0:0:
38,235,191095,1,0,0:0:0:0:
221,91,191248,5,0,0:0:0:0:
206,84,191324,1,0,0:0:0:0:
190,81,191400,1,0,0:0:0:0:
256,192,192618,5,4,0:0:0:0:
256,192,192694,12,4,193837,0:0:0:0:
256,192,193875,12,0,194446,0:0:0:0:
42,60,195055,6,0,L|106:71,1,52.2500015945435,2|0,0:0|0:0,0:0:0:0:
187,90,195207,2,0,L|251:101,1,52.2500015945435,2|0,0:0|0:0,0:0:0:0:
352,154,195359,6,0,L|280:190,1,56.9999982604981,2|0,0:0|3:0,0:0:0:0:
171,384,195664,6,0,L|160:328,1,52.2500015945435,2|0,0:0|0:0,0:0:0:0:
155,167,195816,6,0,L|222:211,1,56.9999982604981,2|0,0:0|3:0,0:0:0:0:
435,222,196121,6,0,L|386:247,1,52.2500015945435,2|0,0:0|0:0,0:0:0:0:
264,331,196273,6,0,L|268:250,1,56.9999982604981,2|0,0:0|3:0,0:0:0:0:
104,178,196578,6,0,L|155:167,1,52.2500015945435,2|0,0:0|0:0,0:0:0:0:
175,81,196730,2,0,L|226:70,1,52.2500015945435,2|0,0:0|0:0,0:0:0:0:
289,5,196882,6,0,L|357:14,1,56.9999982604981,0|8,0:0|3:3,0:0:0:0:
466,121,197187,6,0,L|512:97,1,52.2500015945435,4|0,3:3|0:0,0:0:0:0:
388,245,197339,2,0,L|435:222,1,52.2500015945435,8|0,3:3|0:0,0:0:0:0:
336,347,197491,6,0,L|221:327,2,113.999996520996,2|2|2,0:0|0:0|0:0,0:0:0:0:
478,369,198253,6,0,L|462:311,1,52.2500015945435,2|0,0:0|0:0,0:0:0:0:
309,190,198405,6,0,L|290:255,1,56.9999982604981,0|2,1:0|0:0,0:0:0:0:
139,218,198710,2,0,L|92:169,1,56.9999982604981,2|0,0:0|3:0,0:0:0:0:
199,56,199014,2,0,L|264:39,2,56.9999982604981,2|2|0,0:0|0:0|1:0,0:0:0:0:
248,24,199471,6,0,L|197:36,1,52.2500015945435,2|0,0:2|3:0,0:0:0:0:
87,186,199623,2,0,L|124:224,1,52.2500015945435,2|0,0:2|3:0,0:0:0:0:
309,246,199775,2,0,L|324:196,1,52.2500015945435,2|0,0:2|3:0,0:0:0:0:
406,36,199928,6,0,L|421:90,1,52.2500015945435,2|0,0:0|0:0,0:0:0:0:
453,180,200080,2,0,L|468:234,1,52.2500015945435,2|0,0:0|0:0,0:0:0:0:
492,331,200232,6,0,L|424:321,1,56.9999982604981,2|0,0:0|3:0,0:0:0:0:
222,358,200537,6,0,L|195:306,1,52.2500015945435,2|0,0:0|0:0,0:0:0:0:
181,83,200689,6,0,L|211:141,1,56.9999982604981,0|0,0:0|3:0,0:0:0:0:
416,137,200994,6,0,L|384:185,1,52.2500015945435,2|0,0:0|0:0,0:0:0:0:
199,311,201146,6,0,L|234:256,1,56.9999982604981,2|0,0:0|2:0,0:0:0:0:
129,79,201451,6,0,L|187:82,1,52.2500015945435,2|0,0:0|0:0,0:0:0:0:
387,181,201603,6,0,L|322:178,1,56.9999982604981,2|0,0:0|3:0,0:0:0:0:
345,7,201908,6,0,L|314:63,1,52.2500015945435,8|0,0:3|0:0,0:0:0:0:
330,178,202060,2,0,L|360:234,1,52.2500015945435,4|0,0:3|0:0,0:0:0:0:
249,323,202212,2,0,L|185:307,1,52.2500015945435,8|0,0:3|0:0,0:0:0:0:
112,310,202364,6,0,L|101:259,1,52.2500015945435,6|0,0:1|0:0,0:0:0:0:
209,151,202517,2,0,L|259:135,1,52.2500015945435,6|0,0:1|0:0,0:0:0:0:
413,93,202669,2,0,L|437:46,1,52.2500015945435,2|0,0:0|0:0,0:0:0:0:
114,28,202974,6,0,L|130:83,1,52.2500015945435,2|0,0:0|0:0,0:0:0:0:
116,204,203126,6,0,L|100:264,1,56.9999982604981,2|0,0:0|3:0,0:0:0:0:
366,280,203430,6,0,L|350:225,1,52.2500015945435,2|0,0:0|0:0,0:0:0:0:
363,105,203582,6,0,L|378:44,1,56.9999982604981,2|0,0:0|1:0,0:0:0:0:
246,18,203887,6,0,B|241:49|253:76|253:76|251:85|251:85|257:116|252:158,1,113.999996520996
252,146,204116,1,0,0:0:0:0:
248,160,204192,1,0,0:0:0:0:
116,204,204344,5,8,0:3:0:0:
366,280,204496,5,8,0:3:0:0:
39,350,204649,5,2,0:3:0:0:
