osu file format v14

[General]
AudioFilename: audio.ogg
AudioLeadIn: 0
PreviewTime: 172364
Countdown: 0
SampleSet: Drum
StackLeniency: 0.4
Mode: 0
LetterboxInBreaks: 0
WidescreenStoryboard: 1

[Editor]
DistanceSpacing: 1.1
BeatDivisor: 4
GridSize: 32
TimelineZoom: 0.5999999

[Metadata]
Title:Shark
TitleUnicode:Shark
Artist:Shiena Nishizawa
ArtistUnicode:西沢幸奏
Creator:-Hitomi
Version:Collab Normal
Source:
Tags:l1ght_u light_u cryo[iceeicee] __ag moete rk657 matsuyuki ame aurorance japanese rock jrock j-rock exina
BeatmapID:4526305
BeatmapSetID:2148688

[Difficulty]
HPDrainRate:4
CircleSize:3.5
OverallDifficulty:4.5
ApproachRate:6
SliderMultiplier:1
SliderTickRate:1

[Events]
//Background and Video events
0,0,"bg.jpg",0,0
//Break Periods
2,80740,86724
2,120743,132409
2,167387,171849
//Storyboard Layer 0 (Background)
//Storyboard Layer 1 (Fail)
//Storyboard Layer 2 (Pass)
//Storyboard Layer 3 (Foreground)
//Storyboard Layer 4 (Overlay)
//Storyboard Sound Samples

[TimingPoints]
134,304.568527918782,4,1,1,20,1,0
134,-100,4,1,1,20,0,0
4397,-100,4,1,1,30,0,0
5007,-100,4,1,10,60,0,0
5311,-100,4,1,1,60,0,0
5411,-100,4,1,10,60,0,0
5463,-100,4,1,10,60,0,0
5920,-100,4,1,1,60,0,0
6020,-100,4,1,10,60,0,0
6224,-100,4,1,10,60,0,0
6529,-100,4,1,1,60,0,0
6629,-100,4,1,10,60,0,0
6682,-100,4,1,10,60,0,0
7139,-100,4,1,1,60,0,0
7291,-100,4,1,1,40,0,0
9271,-100,4,1,2,30,0,0
9727,-100,4,1,1,50,0,0
19626,-100,4,1,1,20,0,0
21758,-100,4,1,1,50,0,0
21986,-100,4,1,1,50,0,0
22062,-100,4,3,15,100,0,0
22367,-100,4,1,1,50,0,0
22519,-100,4,1,1,30,0,0
22976,-100,4,1,1,30,0,0
24194,-100,4,1,1,50,0,0
24498,-100,4,3,15,100,0,0
24804,-100,4,1,1,50,0,0
24956,-100,4,1,1,30,0,0
25413,-100,4,1,1,30,0,0
26631,-100,4,1,1,50,0,0
26935,-100,4,3,15,100,0,0
27240,-100,4,1,1,50,0,0
27340,-100,4,3,15,100,0,0
27392,-100,4,1,1,30,0,0
27849,-100,4,1,1,30,0,0
28458,-100,4,1,1,30,0,0
29068,-100,4,1,1,30,0,0
29372,-100,4,3,15,100,0,0
29677,-100,4,1,1,50,0,0
29829,-100,4,1,1,40,0,0
30134,-100,4,1,1,40,0,0
30590,-100,4,1,1,30,0,0
30743,-100,4,1,1,30,0,0
31199,-100,4,1,1,40,0,0
31656,-100,4,1,1,50,0,0
34245,-100,4,1,1,50,0,0
34549,-100,4,1,1,50,0,0
35463,-100,4,1,1,50,0,0
35616,-100,4,1,1,70,0,0
35768,-100,4,1,1,50,0,0
35868,-100,4,1,1,70,0,0
35920,-100,4,1,1,70,0,0
36453,-100,4,1,1,50,0,0
36529,-100,4,1,1,50,0,0
37443,-100,4,1,1,50,0,0
37595,-100,4,1,1,50,0,0
40946,-100,4,1,1,20,0,0
41403,-100,4,1,1,50,0,0
42773,-100,4,1,1,50,0,0
43077,-100,4,1,1,50,0,0
45210,-100,4,1,1,50,0,0
45362,-100,4,1,1,50,0,0
49550,-100,4,1,1,50,0,0
49626,-100,4,1,1,50,0,0
52519,-100,4,1,1,50,0,0
52672,-100,4,1,1,50,0,0
54194,-100,4,1,2,50,0,0
55413,-100,4,1,1,50,0,0
55564,-100,4,1,1,50,0,0
59981,-100,4,1,15,100,0,0
60057,-100,4,1,15,100,0,0
60210,-100,4,1,1,50,0,0
60286,-100,4,1,1,50,0,0
60590,-100,4,1,1,41,0,0
60895,-100,4,1,2,50,0,0
67444,-100,4,1,1,50,0,0
70793,-100,4,1,1,50,0,0
75310,-100,4,1,2,50,0,0
75514,-100,4,1,2,50,0,0
76428,-100,4,1,2,50,0,0
76580,-100,4,1,2,50,0,0
77951,-100,4,1,1,50,0,0
78179,-100,4,1,2,50,0,0
78255,-100,4,1,2,50,0,0
80083,-100,4,1,15,80,0,0
80540,-100,4,1,1,60,0,0
80692,-100,4,2,2,30,0,0
87849,-100,4,1,1,50,0,0
89220,-100,4,1,2,50,0,0
89829,-100,4,1,1,50,0,0
94397,-100,4,1,15,50,0,0
94854,-100,4,1,1,50,0,0
97595,-100,4,1,2,50,0,0
100489,-100,4,1,15,70,0,0
101098,-100,4,1,1,60,0,0
101198,-100,4,1,1,50,0,0
102621,-100,4,1,2,50,0,0
102772,-100,4,1,2,50,0,0
103077,-100,4,1,1,50,0,0
104752,-100,4,1,2,50,0,0
105514,-100,4,1,1,50,0,0
108407,-100,4,1,2,50,0,0
108711,-100,4,1,15,70,0,0
109625,-100,4,1,2,50,0,0
110844,-100,4,1,1,50,0,0
111757,-100,4,1,1,50,0,0
111910,-100,4,1,1,50,0,0
112214,-100,4,1,2,50,0,0
113280,-100,4,1,1,50,0,0
114804,-100,4,1,2,50,0,0
114955,-100,4,1,2,50,0,0
115259,-100,4,1,1,50,0,0
116250,-100,4,1,1,50,0,0
116326,-100,4,1,1,50,0,0
117316,-100,4,1,2,50,0,0
117392,-100,4,1,2,50,0,0
117416,-100,4,1,1,50,0,0
117544,-100,4,1,1,50,0,0
118254,-100,4,1,2,50,0,0
119624,-100,4,1,15,100,0,0
119905,-100,4,1,2,50,0,0
119981,-100,4,1,2,50,0,0
120286,-100,4,1,1,25,0,0
120743,304.568527918782,3,1,1,20,1,0
120743,-100,3,1,1,20,0,0
128052,-100,3,1,45,40,0,0
128128,-100,3,1,2,20,0,0
128966,-100,3,1,2,20,0,0
129880,-100,3,1,45,40,0,0
129980,-100,3,1,2,20,0,0
130793,-100,3,1,2,20,0,0
131707,-100,3,1,2,40,0,0
131807,-100,3,1,2,20,0,0
132621,-100,3,1,2,20,0,0
133534,-100,3,1,2,40,0,0
133635,-100,3,1,2,20,0,0
134448,-100,3,1,2,20,0,0
135362,-100,3,1,1,45,0,0
135971,-100,3,3,45,80,0,0
136275,-100,3,3,45,60,0,0
136376,-100,3,3,45,80,0,0
136580,-100,3,3,45,80,0,0
143585,-100,3,3,45,50,0,0
143685,-100,3,3,45,80,0,0
143890,-100,3,3,45,80,0,0
145413,-100,3,3,45,60,0,0
145513,-100,3,3,45,80,0,0
145717,-100,3,3,45,80,0,0
146326,-100,3,3,45,90,0,0
147240,-100,3,3,45,80,0,0
147340,-100,3,3,45,90,0,0
147697,-100,3,3,45,100,0,0
148154,-100,3,3,45,90,0,0
148458,-100,3,3,45,100,0,0
149067,-100,3,3,45,90,0,0
149168,-100,3,3,45,100,0,0
149220,-100,3,3,45,100,0,0
149981,304.568527918782,4,3,45,80,1,0
149981,-100,4,3,45,80,0,0
151122,-100,4,3,45,80,0,0
151199,304.568527918782,3,1,1,50,1,0
151199,-100,3,1,1,50,0,0
159117,-100,3,1,1,30,0,0
159193,-100,3,1,1,50,0,0
159269,304.568527918782,3,1,1,30,1,0
159269,-100,3,1,1,50,0,0
166426,-100,3,1,1,60,0,0
167035,304.568527918782,4,1,2,60,1,0
167035,-100,4,1,2,60,0,0
169014,-100,4,1,2,60,0,0
169017,-100,4,1,15,70,0,0
169321,-100,4,1,1,60,0,0
169471,-100,4,1,1,60,0,0
170537,-100,4,1,2,60,0,0
171222,-100,4,1,1,5,0,0
172519,-100,4,1,2,35,0,0
172974,-100,4,1,1,60,0,0
173076,-100,4,1,2,50,0,0
174953,-100,4,1,1,50,0,0
176781,-100,4,1,1,50,0,0
176933,-100,4,1,1,50,0,0
178303,-100,4,1,2,50,0,0
178535,-100,4,1,1,50,0,0
178607,-100,4,1,1,50,0,0
179522,-100,4,1,2,50,0,0
179753,-100,4,1,1,50,0,0
179826,-100,4,1,1,50,0,0
180892,-100,4,1,15,60,0,0
181197,-100,4,1,1,50,0,0
181502,-100,4,1,1,65,0,0
182189,-100,4,1,1,50,0,0
182263,-100,4,1,1,50,0,0
183938,-100,4,1,2,50,0,0
184090,-100,4,1,2,50,0,0
184699,-100,4,1,1,50,0,0
192618,-100,4,1,1,50,0,0
194598,-100,4,1,1,60,0,0
195055,-100,4,1,1,60,0,0
197034,-100,4,1,15,80,0,0
197491,-100,4,1,1,60,0,0
199471,-100,4,1,33,60,0,0
199928,-100,4,1,1,50,0,0
201907,-100,4,1,15,70,0,0
202364,-100,4,1,1,50,0,0
204344,-100,4,3,45,80,0,0

[Colours]
Combo1 : 128,191,255
Combo2 : 179,255,255

[HitObjects]
30,72,4397,6,0,L|24:14,2,50
108,134,5007,6,0,L|94:247,1,100,2|0,0:2|0:3,0:0:0:0:
63,271,5463,1,4,0:3:0:0:
138,344,5768,1,2,0:2:0:0:
138,344,5920,2,0,P|182:321|232:319,1,100,0|2,0:2|0:2,0:0:0:0:
278,350,6377,1,2,0:2:0:0:
278,350,6529,1,0,0:0:0:0:
354,285,6834,2,0,L|342:219,1,50,0|2,0:2|0:2,0:0:0:0:
307,202,7139,2,0,L|295:136,1,50,0|0,0:2|0:0,0:0:0:0:
314,105,7443,5,0,0:0:0:0:
240,37,7748,1,0,0:0:0:0:
157,93,8052,2,0,L|152:151,2,50,0|0|0,0:0|1:0|0:0,0:0:0:0:
125,53,8509,1,2,0:0:0:0:
45,112,8814,1,2,0:0:0:0:
45,112,8966,1,2,0:0:0:0:
174,325,9727,6,0,P|224:312|275:303,1,100,2|2,0:0|0:0,0:0:0:0:
310,334,10184,2,0,L|373:342,1,50,2|2,0:0|0:0,0:0:0:0:
401,312,10489,2,0,L|409:249,1,50,0|2,0:0|0:0,0:0:0:0:
382,219,10793,1,0,0:0:0:0:
457,153,11098,2,0,L|509:145,2,50,2|0|2,0:0|0:0|0:0,0:0:0:0:
378,91,11707,2,0,L|386:31,1,50,2|2,0:0|0:0,0:0:0:0:
356,6,12012,1,2,0:0:0:0:
356,5,12164,6,0,P|313:30|263:32,1,100,6|2,1:1|0:0,0:0:0:0:
220,57,12621,1,2,0:0:0:0:
278,138,12925,2,0,L|286:208,1,50,2|0,0:0|0:0,0:0:0:0:
255,229,13230,1,2,0:0:0:0:
322,302,13535,1,2,0:0:0:0:
251,373,13839,2,0,L|196:365,1,50,2|0,0:0|0:0,0:0:0:0:
167,329,14144,2,0,L|175:274,2,50,2|2|0,0:0|0:0|0:0,0:0:0:0:
121,349,14601,6,0,P|74:353|31:315,1,100,4|2,1:1|0:0,0:0:0:0:
8,279,15057,2,0,L|16:210,1,50,2|0,0:0|0:0,0:0:0:0:
54,200,15362,2,0,L|46:131,1,50,2|0,0:0|0:0,0:0:0:0:
18,110,15666,1,2,0:0:0:0:
97,48,15971,2,0,L|104:-4,2,50,2|0|2,0:0|0:0|0:0,0:0:0:0:
179,104,16580,2,0,L|190:164,1,50,2|2,0:0|0:0,0:0:0:0:
226,193,16885,1,2,0:0:0:0:
226,193,17037,6,0,P|274:199|317:175,1,100,6|2,0:1|0:0,0:0:0:0:
353,139,17494,1,2,0:0:0:0:
439,189,17798,2,0,L|435:253,1,50,2|0,0:0|0:0,0:0:0:0:
456,284,18103,1,2,0:0:0:0:
377,345,18408,2,0,L|327:340,1,50,2|0,0:0|0:0,0:0:0:0:
289,307,18712,2,0,L|239:302,1,50
192,320,19017,2,0,L|187:370,2,50
153,288,19474,1,0,0:0:0:0:
448,39,21758,5,8,0:1:0:0:
363,92,22062,2,0,P|312:83|263:78,1,100,4|0,1:2|0:0,0:0:0:0:
225,46,22519,2,0,P|176:59|127:67,1,100,2|2,0:0|0:0,0:0:0:0:
58,140,23128,2,0,P|29:99|27:50,2,100,2|2|2,0:0|0:0|0:0,0:0:0:0:
5,280,24194,5,0,0:0:0:0:
85,339,24499,2,0,P|136:330|184:325,1,100
224,294,24956,2,0,P|272:307|321:315,1,100,2|2,0:0|0:0,0:0:0:0:
413,354,25565,2,0,P|460:346|487:305,1,100,2|2,0:0|0:0,0:0:0:0:
497,256,26022,1,8,0:0:0:0:
420,191,26326,2,0,L|413:142,2,50,0|2|0,0:0|0:0|0:0,0:0:0:0:
347,260,26936,6,0,L|298:253,1,50
261,218,27240,2,0,P|212:210|166:228,1,100
70,224,27849,1,0,0:0:0:0:
70,224,28002,2,0,P|31:193|28:145,1,100,2|2,0:0|0:0,0:0:0:0:
78,58,28611,2,0,L|69:6,2,50,2|0|2,0:0|0:0|0:0,0:0:0:0:
123,80,29068,1,0,0:0:0:0:
177,163,29372,6,0,L|171:216,2,50
254,99,29981,2,0,L|260:46,1,50
232,7,30286,1,8,0:2:0:0:
246,286,31656,6,0,P|295:291|344:299,1,100,4|0,0:0|0:0,0:0:0:0:
387,326,32113,1,0,0:0:0:0:
472,273,32418,2,0,L|477:223,1,50,0|0,1:0|1:0,0:0:0:0:
512,188,32722,1,0,0:0:0:0:
512,188,32875,2,0,L|496:88,1,100
421,22,33484,1,0,0:0:0:0:
342,84,33788,2,0,L|292:78,1,50
247,100,34093,6,0,P|228:145|245:191,1,100,8|0,0:2|0:0,0:0:0:0:
281,226,34550,1,0,0:0:0:0:
215,301,34854,2,0,L|210:362,2,50
179,265,35311,1,0,0:0:0:0:
90,310,35616,2,0,P|22:284|6:205,1,150,4|4,3:3|3:3,0:0:0:0:
70,137,36377,1,0,0:0:0:0:
17,50,36682,6,0,P|67:43|116:32,1,100,6|0,0:2|0:0,0:0:0:0:
211,1,37291,1,0,0:0:0:0:
285,67,37595,1,0,0:0:0:0:
285,67,37748,2,0,P|273:123|268:166,1,100
203,241,38357,1,0,0:0:0:0:
271,313,38661,2,0,L|280:368,2,50
352,253,39271,5,0,0:0:0:0:
352,253,39423,2,0,L|410:261,1,50
442,288,39727,2,0,P|435:327|429:379,2,75,2|0|0,0:0|0:0|0:0,0:0:0:0:
488,268,40337,2,0,L|496:212,1,50
475,172,40641,1,0,0:0:0:0:
339,29,41403,6,0,P|296:53|246:51,1,100,8|0,0:2|0:0,0:0:0:0:
205,22,41859,1,0,0:0:0:0:
127,84,42164,1,4,0:2:0:0:
127,84,42316,2,0,L|74:75,1,50
33,97,42621,2,0,P|17:144|33:191,1,100,8|0,0:2|0:0,0:0:0:0:
68,226,43078,1,0,0:0:0:0:
166,212,43382,2,0,L|176:157,2,50,2|0|0,0:2|0:0|0:0,0:0:0:0:
208,238,43839,6,0,P|216:287|221:336,1,100,8|0,0:2|0:0,0:0:0:0:
261,367,44296,1,0,0:0:0:0:
345,312,44601,2,0,P|339:287|337:262,1,50,8|0,0:2|0:0,0:0:0:0:
361,221,44905,1,0,0:0:0:0:
361,221,45057,2,0,P|354:175|339:115,1,100,6|0,1:2|0:0,0:0:0:0:
303,89,45514,1,0,0:0:0:0:
378,23,45819,2,0,L|436:17,1,50,2|2,0:0|0:0,0:0:0:0:
477,41,46123,1,0,0:0:0:0:
477,41,46276,6,0,P|495:86|482:133,1,100,8|0,0:2|0:0,0:0:0:0:
448,171,46732,1,6,0:2:0:0:
369,232,47037,2,0,L|366:294,2,50,2|0|0,0:2|0:0|0:0,0:0:0:0:
332,197,47494,2,0,P|283:188|240:212,1,100,8|0,0:2|0:0,0:0:0:0:
210,250,47951,1,4,0:2:0:0:
160,338,48255,1,2,0:2:0:0:
160,338,48408,2,0,L|101:330,1,50
62,345,48712,6,0,P|29:308|29:259,1,100,8|0,0:2|0:2,0:0:0:0:
59,220,49169,1,0,0:2:0:0:
59,220,49321,1,6,0:2:0:0:
156,241,49626,2,0,L|211:232,1,50
247,206,49930,1,2,0:0:0:0:
328,263,50235,2,0,L|320:320,2,50,2|0|0,0:0|0:0|0:0,0:0:0:0:
369,233,50692,1,0,0:0:0:0:
369,233,50844,2,0,L|355:174,1,50
323,148,51149,6,0,P|313:104|302:46,1,100,2|0,0:2|0:0,0:0:0:0:
268,13,51606,1,0,0:0:0:0:
208,94,51910,1,4,0:2:0:0:
208,94,52062,1,0,0:0:0:0:
121,43,52367,2,0,P|72:33|28:55,1,100,8|0,0:2|0:0,0:0:0:0:
1,97,52824,1,0,0:0:0:0:
74,164,53128,2,0,L|130:155,2,50,2|0|0,0:2|0:0|0:0,0:0:0:0:
36,197,53585,6,0,P|27:244|54:294,1,100,8|0,0:2|0:0,0:0:0:0:
90,317,54042,2,0,L|147:308,1,50
179,279,54347,1,2,0:2:0:0:
259,338,54651,1,2,0:2:0:0:
331,268,54956,2,0,L|312:169,1,100,2|2,0:2|0:2,0:0:0:0:
236,104,55565,2,0,L|244:53,1,50,2|0,0:2|0:0,0:0:0:0:
279,19,55870,1,0,0:0:0:0:
279,19,56022,6,0,P|320:46|371:38,1,100,8|0,0:2|0:0,0:0:0:0:
412,15,56479,1,0,0:0:0:0:
487,80,56783,1,2,0:0:0:0:
487,80,56936,2,0,L|479:136,1,50,2|0,0:0|0:0,0:0:0:0:
441,161,57240,2,0,L|456:261,1,100,6|0,1:2|0:0,0:0:0:0:
485,300,57697,1,0,0:0:0:0:
403,358,58002,1,0,0:0:0:0:
327,292,58306,1,2,0:0:0:0:
327,292,58458,6,0,P|272:280|228:275,1,100,14|0,0:2|0:0,0:0:0:0:
183,252,58915,1,0,0:0:0:0:
104,314,59220,1,0,0:0:0:0:
35,241,59524,2,0,L|40:190,1,50,2|2,0:0|0:0,0:0:0:0:
75,156,59829,2,0,L|70:101,2,50,2|0|0,0:0|0:0|0:0,0:0:0:0:
121,176,60286,1,2,0:0:0:0:
261,33,60895,6,0,P|282:77|272:125,1,100,6|2,1:2|0:0,0:0:0:0:
244,166,61352,2,0,L|251:215,1,50,2|0,0:0|0:0,0:0:0:0:
228,259,61656,2,0,L|235:308,1,50,2|2,0:0|0:0,0:0:0:0:
272,342,61961,1,0,0:0:0:0:
358,291,62265,2,0,L|351:242,2,50,0|2|2,0:0|0:0|0:0,0:0:0:0:
452,325,62875,2,0,L|459:276,1,50,0|0,0:2|0:2,0:0:0:0:
497,243,63179,1,0,0:0:0:0:
497,242,63331,6,0,P|484:194|475:145,1,100,2|2,0:0|0:0,0:0:0:0:
499,101,63788,1,2,0:0:0:0:
417,42,64093,2,0,L|367:49,1,50,2|2,0:0|0:0,0:0:0:0:
330,83,64397,1,2,0:2:0:0:
244,31,64702,1,2,0:2:0:0:
178,106,65007,2,0,L|122:96,1,50,2|0,0:2|0:2,0:0:0:0:
90,65,65311,2,0,L|100:9,2,50,2|0|2,0:2|0:2|0:2,0:0:0:0:
42,82,65768,6,0,P|24:127|36:175,1,100,2|2,0:0|0:0,0:0:0:0:
70,212,66225,2,0,L|61:276,1,50,0|2,0:0|0:0,0:0:0:0:
26,295,66529,2,0,L|35:359,1,50,0|2,0:0|0:0,0:0:0:0:
74,372,66834,1,0,0:0:0:0:
163,326,67139,2,0,L|154:262,2,50,2|0|2,0:0|0:0|0:0,0:0:0:0:
251,371,67748,2,0,L|311:362,1,50,2|0,0:0|0:0,0:0:0:0:
343,336,68052,1,2,0:0:0:0:
343,336,68205,6,0,P|351:287|330:243,1,100,6|0,1:2|0:0,0:0:0:0:
290,213,68661,1,2,0:0:0:0:
201,259,68966,2,0,L|151:254,1,50,2|0,0:0|0:0,0:0:0:0:
109,226,69271,1,2,0:0:0:0:
157,138,69575,2,0,L|206:142,1,50,2|0,0:0|0:0,0:0:0:0:
246,112,69880,2,0,L|250:62,1,50,2|0,0:0|0:0,0:0:0:0:
219,23,70184,1,2,0:0:0:0:
413,85,70793,5,0,0:0:0:0:
413,85,70946,2,0,L|463:78,2,50
375,118,71403,2,0,P|368:166|388:211,1,100
425,246,71859,1,0,0:0:0:0:
361,323,72164,1,0,0:0:0:0:
264,295,72469,1,0,0:0:0:0:
189,351,72773,2,0,L|139:358,1,50
93,337,73078,6,0,P|67:299|80:240,1,100,4|0,0:2|0:0,0:0:0:0:
106,208,73535,1,0,0:0:0:0:
190,155,73839,2,0,L|199:102,2,50
229,186,74296,1,0,0:0:0:0:
325,151,74601,1,0,0:0:0:0:
325,151,74753,2,0,L|386:162,1,50
427,158,75057,1,0,0:0:0:0:
427,158,75210,1,0,0:0:0:0:
508,94,75514,6,0,P|489:49|443:32,1,100,2|2,0:0|0:0,0:0:0:0:
401,4,75971,1,0,0:0:0:0:
318,60,76276,2,0,L|212:47,1,100,2|2,0:0|0:0,0:0:0:0:
173,27,76732,1,0,0:0:0:0:
129,117,77037,1,0,0:0:0:0:
49,56,77342,1,2,0:2:0:0:
8,147,77646,2,0,L|17:196,1,50,2|0,0:2|0:0,0:0:0:0:
50,234,77951,6,0,P|94:243|143:217,1,100,8|2,0:2|0:2,0:0:0:0:
177,183,78408,1,2,0:2:0:0:
259,238,78712,2,0,P|250:297|245:345,1,100,2|2,0:2|0:2,0:0:0:0:
277,376,79169,1,0,0:0:0:0:
354,311,79474,1,0,1:0:0:0:
354,311,79626,1,0,0:0:0:0:
453,316,79930,2,0,L|442:262,1,50,0|8,0:0|0:3,0:0:0:0:
469,224,80235,2,0,L|458:170,1,50,4|4,0:3|0:3,0:0:0:0:
470,126,80540,1,4,0:0:0:0:
111,42,87849,6,0,L|99:145,1,100
137,233,88458,2,0,L|240:245,1,100
288,158,89068,2,0,P|333:105|476:160,1,200,0|2,0:0|0:1,0:0:0:0:
471,167,89829,1,2,0:0:0:0:
449,264,90134,6,0,L|318:253,1,100,2|2,0:0|0:0,0:0:0:0:
304,278,90590,1,2,0:0:0:0:
214,321,90895,1,0,0:0:0:0:
114,308,91199,1,2,0:0:0:0:
39,241,91504,2,0,L|48:123,1,100,0|2,0:0|0:0,0:0:0:0:
73,99,91961,2,0,P|132:77|194:100,1,100,0|2,0:0|0:0,0:0:0:0:
219,99,92418,1,0,0:0:0:0:
219,99,92570,1,2,0:0:0:0:
298,38,92875,5,2,0:0:0:0:
298,38,93027,1,2,0:0:0:0:
315,134,93331,2,0,P|299:193|316:239,1,100,0|2,0:0|0:0,0:0:0:0:
313,329,93941,2,0,P|371:314|444:302,1,100
459,317,94397,2,0,P|465:246|453:136,1,150,4|4,3:3|1:3,0:0:0:0:
431,124,95007,1,2,0:0:0:0:
367,47,95311,5,2,0:0:0:0:
367,47,95463,2,0,L|256:66,1,100
178,108,96073,1,0,0:0:0:0:
84,74,96377,2,0,P|78:51|79:21,2,50
100,172,96986,2,0,P|96:231|69:281,1,100
42,301,97443,1,0,0:0:0:0:
30,352,97595,1,2,0:2:0:0:
30,352,97748,1,2,0:2:0:0:
182,375,98205,1,2,0:2:0:0:
182,375,98357,1,2,0:2:0:0:
328,334,98814,1,2,0:2:0:0:
328,334,98966,1,2,0:2:0:0:
459,36,100032,6,0,L|469:107,1,50
438,127,100337,2,0,L|428:198,1,50,0|8,0:0|0:3,0:0:0:0:
447,223,100641,2,0,P|400:253|329:226,1,100,8|4,0:3|0:3,0:0:0:0:
314,222,101098,6,0,L|211:236,1,100,8|0,1:2|0:0,0:0:0:0:
172,261,101555,1,8,0:2:0:0:
76,268,101859,1,0,0:0:0:0:
76,268,102012,2,0,L|61:195,1,50
34,180,102316,2,0,P|16:123|44:58,1,100,8|2,0:2|0:2,0:0:0:0:
53,43,102773,1,2,0:2:0:0:
144,83,103078,2,0,L|147:20,2,50,4|0|0,0:2|0:0|0:0,0:0:0:0:
180,117,103535,6,0,P|231:97|300:103,1,100,2|0,0:2|0:0,0:0:0:0:
322,114,103991,1,0,0:0:0:0:
407,166,104296,2,0,L|419:226,1,50,8|0,0:2|0:0,0:0:0:0:
389,257,104601,1,0,0:0:0:0:
389,257,104753,2,0,P|328:256|250:251,1,100,2|2,0:2|0:2,0:0:0:0:
241,238,105210,1,2,0:2:0:0:
158,182,105514,2,0,L|104:194,1,50,6|0,0:2|0:0,0:0:0:0:
62,211,105819,1,0,0:0:0:0:
62,211,105971,6,0,P|64:267|96:326,1,100,2|2,0:0|0:0,0:0:0:0:
118,340,106428,1,2,0:0:0:0:
216,324,106732,2,0,L|228:372,2,50,8|0|0,0:2|0:0|0:0,0:0:0:0:
257,296,107189,2,0,L|284:176,1,100,2|2,0:0|0:0,0:0:0:0:
307,157,107646,1,2,0:0:0:0:
388,99,107951,1,8,0:2:0:0:
388,99,108103,2,0,L|378:42,1,50
346,11,108408,6,0,P|282:6|243:22,1,100,2|4,0:0|0:3,0:0:0:0:
222,60,108864,2,0,L|156:53,1,50,4|0,0:3|0:3,0:0:0:0:
122,62,109169,1,4,0:3:0:0:
42,123,109474,1,4,0:3:0:0:
42,123,109626,1,2,0:0:0:0:
101,202,109930,2,0,L|51:231,2,50,2|2|2,0:0|0:0|0:0,0:0:0:0:
152,222,110387,1,0,0:0:0:0:
152,222,110540,2,0,L|211:236,1,50
227,275,110844,6,0,P|271:274|329:315,1,100,8|0,0:2|0:0,0:0:0:0:
337,347,111301,1,0,0:0:0:0:
244,378,111606,1,2,0:2:0:0:
244,378,111758,1,0,0:0:0:0:
149,346,112062,2,0,P|117:306|110:229,1,100,0|2,0:0|0:2,0:0:0:0:
105,209,112519,1,2,0:2:0:0:
152,120,112824,5,2,0:2:0:0:
152,120,112976,2,0,L|216:140,1,50,2|2,0:2|0:2,0:0:0:0:
223,179,113281,2,0,L|340:169,1,100,2|0,0:2|0:0,0:0:0:0:
372,163,113738,1,0,0:0:0:0:
454,106,114042,1,4,0:2:0:0:
411,15,114347,2,0,L|299:29,2,100,4|0|2,0:2|0:2|0:2,0:0:0:0:
454,106,115260,1,8,0:2:0:0:
454,106,115413,1,0,0:0:0:0:
399,189,115717,2,0,B|417:358,1,150,8|0,0:2|0:0,0:0:0:0:
383,377,116326,1,0,0:0:0:0:
383,377,116479,2,0,P|333:365|287:367,1,50,2|2,0:0|0:0,0:0:0:0:
234,364,116936,6,0,P|199:312|200:247,1,100,2|0,0:0|0:0,0:0:0:0:
232,235,117392,2,0,L|295:245,1,50
324,217,117697,2,0,L|316:155,1,50
289,71,118154,2,0,P|238:48|156:60,1,100,8|0,0:2|1:0,0:0:0:0:
149,69,118611,2,0,L|80:83,1,50
55,102,118915,1,0,0:0:0:0:
27,198,119220,1,2,0:0:0:0:
57,292,119524,2,0,L|112:274,1,50,2|0,0:0|0:0,0:0:0:0:
152,292,119829,2,0,L|206:298,2,50,0|0|0,0:3|0:0|0:0,0:0:0:0:
256,192,133534,12,4,135362,1:0:0:0:
56,55,135971,5,4,0:3:0:0:
68,153,136275,1,4,0:1:0:0:
79,252,136580,1,4,0:3:0:0:
79,252,136732,2,0,L|87:314,1,50,4|4,0:3|0:3,0:0:0:0:
178,337,137189,5,4,3:1:0:0:
166,241,137494,1,4,0:0:0:0:
166,241,137646,2,0,L|158:179,1,50,4|8,0:0|0:3,0:0:0:0:
148,91,138103,1,4,3:1:0:0:
232,36,138407,1,0,0:3:0:0:
232,36,138560,2,0,L|240:98,1,50,2|2,0:3|0:3,0:0:0:0:
251,185,139017,5,4,3:1:0:0:
269,287,139321,1,4,0:3:0:0:
269,287,139473,2,0,L|275:344,1,50,4|8,0:3|0:3,0:0:0:0:
373,371,139930,1,4,3:1:0:0:
373,371,140083,2,0,L|368:313,1,50,4|8,0:3|0:3,0:0:0:0:
354,222,140539,1,4,0:3:0:0:
341,122,140844,1,4,0:1:0:0:
422,62,141149,5,0,0:0:0:0:
422,62,141301,2,0,L|430:131,1,50,2|2,0:3|0:3,0:0:0:0:
438,211,141758,1,4,3:1:0:0:
446,310,142062,1,4,0:3:0:0:
446,310,142215,2,0,L|453:366,1,50,8|4,0:3|0:3,0:0:0:0:
353,344,142671,6,0,L|252:333,1,100,4|4,3:1|0:3,0:0:0:0:
211,356,143128,1,4,0:3:0:0:
211,356,143281,1,8,0:3:0:0:
139,286,143585,1,4,0:2:0:0:
197,204,143890,2,0,L|202:153,2,50,4|4|8,0:3|0:3|0:3,0:0:0:0:
237,242,144347,1,8,0:3:0:0:
237,242,144499,2,0,L|336:252,2,100,4|4|8,0:1|0:3|0:0,0:0:0:0:
145,283,145413,1,4,0:2:0:0:
74,212,145717,2,0,L|79:161,1,50,4|8,0:3|0:3,0:0:0:0:
52,119,146022,1,4,0:3:0:0:
120,46,146326,6,0,L|221:57,1,100,4|4,1:1|0:3,0:0:0:0:
267,36,146783,1,4,0:3:0:0:
267,36,146935,1,2,0:3:0:0:
338,105,147240,2,0,L|333:154,1,50,4|4,1:2|0:3,0:0:0:0:
297,190,147545,2,0,L|292:239,2,50,4|8|4,0:3|0:3|0:3,0:0:0:0:
203,155,148154,6,0,L|192:256,1,100,4|2,1:1|0:3,0:0:0:0:
163,296,148611,1,4,0:3:0:0:
163,296,148763,1,8,0:3:0:0:
230,369,149067,2,0,L|279:374,1,50,4|4,1:2|0:3,0:0:0:0:
326,355,149372,2,0,L|375:360,1,50,4|4,0:3|0:3,0:0:0:0:
422,341,149677,1,4,0:3:0:0:
364,259,149981,5,0,1:1:0:0:
466,87,150590,1,2,0:1:0:0:
281,9,151199,5,0,1:1:0:0:
281,9,151351,2,0,L|275:69,1,50,2|2,0:0|0:0,0:0:0:0:
237,90,151655,2,0,L|243:150,1,50,2|2,0:0|0:0,0:0:0:0:
274,177,151960,1,2,0:0:0:0:
202,246,152264,1,2,0:0:0:0:
202,246,152417,2,0,L|196:298,2,50,2|2|2,0:0|0:0|0:0,0:0:0:0:
166,210,152874,1,2,0:0:0:0:
82,262,153178,5,2,0:0:0:0:
82,262,153330,2,0,L|87:311,2,50,2|2|2,0:0|0:0|0:0,0:0:0:0:
42,231,153787,1,2,0:0:0:0:
96,147,154092,2,0,L|102:92,1,50,2|2,0:0|0:0,0:0:0:0:
134,59,154396,2,0,L|140:4,2,50,2|2|2,0:0|0:0|0:0,0:0:0:0:
224,102,155006,6,0,L|230:157,2,50,2|2|2,0:0|0:0|0:0,0:0:0:0:
261,68,155462,1,2,0:0:0:0:
261,68,155615,1,2,0:0:0:0:
359,103,155919,1,2,0:0:0:0:
359,103,156072,2,0,L|364:53,2,50,2|2|2,0:0|0:0|0:0,0:0:0:0:
380,148,156528,1,2,0:0:0:0:
323,231,156833,5,2,0:0:0:0:
323,231,156985,2,0,L|265:225,2,50,2|2|2,0:0|0:0|0:0,0:0:0:0:
359,267,157442,1,2,0:0:0:0:
437,329,157747,2,0,L|486:324,2,50,2|2|2,0:0|0:0|0:0,0:0:0:0:
406,368,158204,2,0,L|357:363,1,50,2|2,0:0|0:0,0:0:0:0:
314,336,158508,2,0,P|265:327|222:351,1,100,2|2,0:0|0:0,0:0:0:0:
88,294,159269,5,2,0:0:0:0:
88,294,159421,2,0,L|93:244,1,50,2|2,0:0|0:0,0:0:0:0:
69,200,159726,2,0,L|74:150,1,50,2|2,0:0|0:0,0:0:0:0:
113,60,160182,1,2,0:0:0:0:
113,60,160335,2,0,L|57:53,2,50,2|2|2,0:0|0:0|0:0,0:0:0:0:
160,42,160792,1,2,0:0:0:0:
233,113,161096,6,0,L|226:177,1,50,2|2,0:0|0:0,0:0:0:0:
188,194,161401,2,0,L|181:258,1,50,2|2,0:0|0:0,0:0:0:0:
211,284,161705,1,2,0:0:0:0:
312,266,162010,1,2,0:0:0:0:
312,266,162162,2,0,L|319:210,2,50,2|0|2,0:0|0:0|0:0,0:0:0:0:
337,309,162619,1,2,0:0:0:0:
427,266,162924,6,0,L|421:217,1,50,2|2,0:0|0:0,0:0:0:0:
449,175,163228,2,0,L|498:169,2,50,0|2|2,0:0|0:0|0:0,0:0:0:0:
385,105,163837,1,2,0:0:0:0:
385,105,163990,2,0,L|334:99,1,50,2|0,0:0|0:0,0:0:0:0:
298,65,164294,2,0,L|247:59,1,50,2|2,0:0|0:0,0:0:0:0:
156,99,164751,5,2,0:0:0:0:
156,99,164903,2,0,L|151:150,2,50,2|2|2,0:0|0:0|0:0,0:0:0:0:
125,59,165360,1,2,0:0:0:0:
42,113,165665,1,2,0:0:0:0:
42,113,165817,2,0,L|36:177,1,50,2|2,0:0|0:0,0:0:0:0:
3,199,166122,2,0,L|9:263,1,50,2|2,0:0|0:0,0:0:0:0:
43,284,166426,2,0,L|36:340,2,50,2|2|2,0:0|0:0|0:0,0:0:0:0:
127,229,167035,5,2,0:2:0:0:
127,229,167187,1,2,0:2:0:0:
2,118,172974,6,0,P|45:94|95:96,1,100,8|0,0:2|0:0,0:0:0:0:
134,125,173430,1,0,0:0:0:0:
214,64,173735,1,0,0:0:0:0:
214,64,173887,2,0,L|267:59,1,50
310,77,174192,2,0,P|326:124|310:171,1,100,0|2,0:0|0:2,0:0:0:0:
275,206,174649,1,2,0:2:0:0:
192,262,174953,2,0,L|142:256,2,50,4|0|0,0:2|0:0|0:0,0:0:0:0:
221,300,175410,6,0,P|267:320|314:308,1,100,8|0,0:2|0:0,0:0:0:0:
396,250,176019,1,0,0:0:0:0:
396,250,176172,2,0,L|388:200,1,50,8|0,0:2|0:0,0:0:0:0:
423,166,176476,1,2,0:0:0:0:
423,166,176628,2,0,L|432:65,1,100,4|0,0:2|0:0,0:0:0:0:
403,25,177085,1,0,0:0:0:0:
314,70,177390,2,0,L|320:128,1,50
299,167,177694,1,0,0:0:0:0:
299,167,177847,6,0,P|254:185|207:172,1,100,8|0,0:2|0:0,0:0:0:0:
165,142,178304,1,2,0:2:0:0:
85,201,178608,2,0,L|77:257,2,50
45,169,179065,2,0,P|36:120|60:77,1,100,8|0,0:2|0:0,0:0:0:0:
95,42,179522,1,2,0:2:0:0:
191,9,179826,1,8,0:2:0:0:
191,9,179979,2,0,L|250:17,1,50
270,55,180283,6,0,P|318:63|363:42,1,100,6|0,0:2|0:0,0:0:0:0:
403,11,180740,1,0,0:0:0:0:
403,11,180892,1,8,0:3:0:0:
488,63,181197,2,0,L|482:114,1,50,2|2,0:0|0:0,0:0:0:0:
501,158,181502,1,2,0:0:0:0:
414,207,181806,2,0,L|419:261,2,50,2|2|0,0:0|0:0|3:0,0:0:0:0:
389,169,182263,1,8,0:2:0:0:
389,169,182415,1,0,0:0:0:0:
300,214,182720,6,0,P|313:261|301:309,1,100,12|0,0:2|0:0,0:0:0:0:
261,340,183177,2,0,L|204:330,1,50
179,301,183481,1,8,0:2:0:0:
179,301,183633,1,0,0:0:0:0:
89,345,183938,2,0,P|55:308|51:259,1,100,2|2,0:2|0:2,0:0:0:0:
67,212,184395,1,2,0:2:0:0:
131,135,184699,2,0,L|122:79,2,50,6|0|0,0:2|0:0|0:0,0:0:0:0:
176,155,185156,6,0,P|223:146|273:173,1,100,8|0,0:2|0:0,0:0:0:0:
303,203,185613,2,0,L|296:262,1,50
265,291,185918,1,6,0:2:0:0:
335,361,186222,1,8,0:2:0:0:
420,309,186527,2,0,L|409:210,1,100,0|0,0:2|0:2,0:0:0:0:
466,127,187136,2,0,L|471:76,1,50
448,38,187441,1,0,0:0:0:0:
448,38,187593,6,0,P|404:15|354:28,1,100,8|0,0:2|0:0,0:0:0:0:
318,59,188050,1,0,0:0:0:0:
282,154,188354,1,2,0:0:0:0:
282,154,188507,2,0,L|290:210,1,50,2|0,0:1|0:0,0:0:0:0:
325,237,188811,2,0,L|313:338,1,100,2|0,0:0|0:0,0:0:0:0:
275,369,189268,1,0,0:0:0:0:
202,299,189573,1,0,0:0:0:0:
129,367,189877,1,0,0:0:0:0:
129,367,190029,6,0,P|74:355|30:350,1,100,12|0,0:2|0:0,0:0:0:0:
2,308,190486,1,0,0:0:0:0:
84,251,190791,1,0,0:0:0:0:
26,169,191095,2,0,L|21:119,1,50
44,74,191400,1,0,0:0:0:0:
443,82,192618,6,0,B|458:101|458:101|446:178|446:178|434:188|434:188|423:269,1,200,4|0,0:0|2:0,0:0:0:0:
242,355,193837,1,4,0:0:0:0:
327,174,194446,1,0,0:0:0:0:
157,279,195055,6,0,L|97:287,1,50,2|2,0:0|0:0,0:0:0:0:
68,253,195359,2,0,L|79:153,1,100,2|2,0:0|0:0,0:0:0:0:
38,61,195969,1,0,3:0:0:0:
123,10,196273,1,2,0:0:0:0:
173,96,196578,1,2,0:0:0:0:
262,52,196882,2,0,L|314:46,1,50,0|8,0:0|3:3,0:0:0:0:
355,21,197187,2,0,L|459:41,1,100,4|2,3:3|0:0,0:0:0:0:
511,121,197796,5,2,0:0:0:0:
429,178,198100,2,0,L|443:280,1,100,2|0,0:0|1:0,0:0:0:0:
355,327,198710,2,0,L|347:382,2,50,2|0|2,0:0|3:0|0:0,0:0:0:0:
282,257,199319,2,0,L|226:264,1,50,0|2,1:0|0:2,0:0:0:0:
195,229,199623,2,0,L|201:180,1,50,2|2,0:2|0:2,0:0:0:0:
237,144,199928,1,2,0:0:0:0:
302,68,200232,5,2,0:0:0:0:
229,7,200537,1,2,0:0:0:0:
229,7,200689,1,0,0:0:0:0:
155,75,200994,2,0,L|56:87,1,100,2|2,0:0|2:1,0:0:0:0:
5,174,201603,1,2,0:0:0:0:
5,174,201755,2,0,L|-1:226,2,50,0|8|4,3:0|0:3|0:3,0:0:0:0:
97,212,202364,6,0,L|107:271,1,50,6|6,0:1|0:1,0:0:0:0:
147,288,202669,2,0,L|251:254,1,100,2|2,0:0|0:0,0:0:0:0:
277,221,203126,1,2,0:0:0:0:
328,306,203430,2,0,L|438:325,1,100,2|0,0:0|1:0,0:0:0:0:
471,300,203887,1,0,0:0:0:0:
417,215,204192,2,0,L|411:158,1,50,0|8,0:0|0:3,0:0:0:0:
438,124,204496,1,8,0:3:0:0:
438,124,204649,1,2,0:3:0:0:
