osu file format v14

[General]
AudioFilename: audio.ogg
AudioLeadIn: 0
PreviewTime: 172364
Countdown: 0
SampleSet: Normal
StackLeniency: 0.9
Mode: 0
LetterboxInBreaks: 0
WidescreenStoryboard: 1

[Editor]
DistanceSpacing: 1.1
BeatDivisor: 4
GridSize: 32
TimelineZoom: 1.8

[Metadata]
Title:Shark
TitleUnicode:Shark
Artist:Shiena Nishizawa
ArtistUnicode:西沢幸奏
Creator:-Hitomi
Version:Ame's Expert
Source:
Tags:l1ght_u light_u cryo[iceeicee] __ag moete rk657 matsuyuki ame aurorance japanese rock jrock j-rock exina
BeatmapID:4540277
BeatmapSetID:2148688

[Difficulty]
HPDrainRate:5
CircleSize:3.8
OverallDifficulty:8.5
ApproachRate:9
SliderMultiplier:1.8
SliderTickRate:1

[Events]
//Background and Video events
0,0,"bg.jpg",0,0
//Break Periods
2,80740,87249
//Storyboard Layer 0 (Background)
//Storyboard Layer 1 (Fail)
//Storyboard Layer 2 (Pass)
//Storyboard Layer 3 (Foreground)
//Storyboard Layer 4 (Overlay)
//Storyboard Sound Samples

[TimingPoints]
134,304.568527918782,4,1,1,20,1,0
134,-142.857142857143,4,1,1,20,0,0
4397,-111.111111111111,4,1,1,30,0,0
5007,-111.111111111111,4,1,10,60,0,0
5311,-111.111111111111,4,1,1,60,0,0
5411,-111.111111111111,4,1,10,60,0,0
5920,-111.111111111111,4,1,1,60,0,0
6020,-111.111111111111,4,1,10,60,0,0
6529,-111.111111111111,4,1,1,60,0,0
6629,-111.111111111111,4,1,10,60,0,0
7139,-111.111111111111,4,1,1,60,0,0
7291,-111.111111111111,4,1,1,40,0,0
8509,-83.3333333333333,4,1,1,40,0,0
9271,-83.3333333333333,4,1,2,30,0,0
9727,-90.9090909090909,4,1,1,50,0,0
19626,-90.9090909090909,4,1,1,20,0,0
21758,-90.9090909090909,4,1,1,50,0,0
22062,-125,4,3,15,100,0,0
22367,-125,4,1,1,50,0,0
22519,-125,4,1,1,30,0,0
24194,-125,4,1,1,50,0,0
24499,-125,4,3,15,100,0,0
24804,-125,4,1,1,50,0,0
24956,-125,4,1,1,30,0,0
26631,-125,4,1,1,50,0,0
26936,-125,4,3,15,100,0,0
27240,-125,4,1,1,50,0,0
27340,-125,4,3,15,100,0,0
27392,-125,4,1,1,30,0,0
29372,-125,4,3,15,100,0,0
29677,-125,4,1,1,50,0,0
29829,-125,4,1,1,40,0,0
30590,-125,4,1,1,30,0,0
31199,-250,4,1,1,40,0,0
31656,-111.111111111111,4,1,1,50,0,0
35616,-111.111111111111,4,1,1,70,0,0
35768,-111.111111111111,4,1,1,50,0,0
35868,-111.111111111111,4,1,1,70,0,0
36453,-111.111111111111,4,1,1,50,0,0
39118,-100,4,1,1,50,0,0
40946,-100,4,1,1,20,0,0
41403,-90.9090909090909,4,1,1,50,0,0
54194,-90.9090909090909,4,1,2,50,0,0
55413,-90.9090909090909,4,1,1,50,0,0
58915,-100,4,1,1,50,0,0
59981,-100,4,1,15,100,0,0
60210,-100,4,1,1,50,0,0
60590,-100,4,1,1,41,0,0
60895,-90.9090909090909,4,1,2,50,0,0
67443,-90.9090909090909,4,1,1,50,0,0
70793,-111.111111111111,4,1,1,50,0,0
75310,-111.111111111111,4,1,2,50,0,0
77951,-111.111111111111,4,1,1,50,0,0
78179,-111.111111111111,4,1,2,50,0,0
80083,-111.111111111111,4,1,15,80,0,0
80540,-111.111111111111,4,1,1,60,0,0
80692,-111.111111111111,4,2,2,30,0,0
87849,-142.857142857143,4,1,1,50,0,0
89220,-142.857142857143,4,1,2,50,0,0
89829,-142.857142857143,4,1,1,50,0,0
90134,-111.111111111111,4,1,1,50,0,0
94397,-111.111111111111,4,1,15,50,0,0
94854,-111.111111111111,4,1,1,50,0,0
95007,-100,4,1,1,50,0,0
97595,-100,4,1,2,50,0,0
100489,-100,4,1,15,70,0,0
101098,-90.9090909090909,4,1,1,60,0,0
101198,-90.9090909090909,4,1,1,50,0,0
102621,-90.9090909090909,4,1,2,50,0,0
103078,-90.9090909090909,4,1,1,50,0,0
104753,-90.9090909090909,4,1,2,50,0,0
105514,-90.9090909090909,4,1,1,50,0,0
108408,-90.9090909090909,4,1,2,50,0,0
108712,-90.9090909090909,4,1,15,70,0,0
109626,-90.9090909090909,4,1,2,50,0,0
110844,-90.9090909090909,4,1,1,50,0,0
112215,-90.9090909090909,4,1,2,50,0,0
113281,-90.9090909090909,4,1,1,50,0,0
114804,-90.9090909090909,4,1,2,50,0,0
115260,-90.9090909090909,4,1,1,50,0,0
117316,-90.9090909090909,4,1,2,50,0,0
117416,-90.9090909090909,4,1,1,50,0,0
118254,-90.9090909090909,4,1,2,50,0,0
118611,-100,4,1,2,50,0,0
119624,-100,4,1,15,100,0,0
119905,-100,4,1,2,50,0,0
119981,-125,4,1,2,50,0,0
120286,-125,4,1,1,25,0,0
120743,304.568527918782,3,1,1,20,1,0
128052,-100,3,1,45,40,0,0
128128,-100,3,1,2,20,0,0
129880,-100,3,1,45,40,0,0
129980,-100,3,1,2,20,0,0
131707,-100,3,1,2,40,0,0
131807,-100,3,1,2,20,0,0
133535,-100,3,1,2,40,0,0
133635,-100,3,1,2,20,0,0
135362,-166.666666666667,3,1,1,45,0,0
135971,-166.666666666667,3,3,45,80,0,0
136276,-166.666666666667,3,3,45,60,0,0
136376,-166.666666666667,3,3,45,80,0,0
142671,-142.857142857143,3,3,45,80,0,0
143585,-125,3,3,45,50,0,0
143685,-125,3,3,45,80,0,0
145413,-125,3,3,45,60,0,0
145513,-125,3,3,45,80,0,0
146326,-125,3,3,45,90,0,0
147240,-125,3,3,45,80,0,0
147340,-125,3,3,45,90,0,0
147697,-125,3,3,45,100,0,0
148154,-125,3,3,45,90,0,0
148458,-125,3,3,45,100,0,0
149068,-125,3,3,45,90,0,0
149168,-125,3,3,45,100,0,0
149981,304.568527918782,4,3,45,80,1,0
150590,-166.666666666667,4,3,45,80,0,0
151199,304.568527918782,3,1,1,50,1,0
159193,-100,3,1,1,50,0,0
159269,304.568527918782,3,1,1,30,1,0
166426,-100,3,1,1,60,0,0
167035,304.568527918782,4,1,2,60,1,0
169017,-100,4,1,15,70,0,0
169321,-100,4,1,1,60,0,0
170537,-100,4,1,2,60,0,0
171222,-100,4,1,1,5,0,0
172519,-100,4,1,2,35,0,0
172974,-90.9090909090909,4,1,1,60,0,0
173076,-90.9090909090909,4,1,2,50,0,0
174953,-90.9090909090909,4,1,1,50,0,0
178304,-90.9090909090909,4,1,2,50,0,0
178535,-90.9090909090909,4,1,1,50,0,0
179522,-90.9090909090909,4,1,2,50,0,0
179753,-90.9090909090909,4,1,1,50,0,0
180892,-90.9090909090909,4,1,15,60,0,0
181197,-90.9090909090909,4,1,1,50,0,0
181502,-90.9090909090909,4,1,1,65,0,0
182189,-90.9090909090909,4,1,1,50,0,0
183938,-90.9090909090909,4,1,2,50,0,0
184699,-90.9090909090909,4,1,1,50,0,0
192618,-166.666666666667,4,1,1,50,0,0
194598,-166.666666666667,4,1,1,60,0,0
195055,-111.111111111111,4,1,1,60,0,0
197035,-111.111111111111,4,1,15,80,0,0
197491,-111.111111111111,4,1,1,60,0,0
199471,-111.111111111111,4,1,33,60,0,0
199928,-111.111111111111,4,1,1,50,0,0
201908,-111.111111111111,4,1,15,70,0,0
202364,-111.111111111111,4,1,1,50,0,0
204344,-111.111111111111,4,3,45,80,0,0

[Colours]
Combo1 : 128,191,255
Combo2 : 179,255,255

[HitObjects]
366,144,134,6,0,P|404:152|433:156,2,62.9999980773926,0|0|0,0:0|0:0|3:0,0:0:0:0:
271,84,590,2,0,P|250:124|257:214,1,125.999996154785,2|2,0:0|0:0,0:0:0:0:
397,305,1047,1,0,1:2:0:0:
397,305,1199,2,0,P|388:263|380:228,1,62.9999980773926
292,300,1504,2,0,P|244:319|147:311,1,125.999996154785,2|2,0:0|0:0,0:0:0:0:
52,107,2570,6,0,P|58:74|63:42,2,62.9999980773926,0|0|0,0:0|0:0|3:0,0:0:0:0:
15,199,3027,2,0,P|65:205|141:161,1,125.999996154785,2|2,0:0|0:0,0:0:0:0:
221,63,3484,1,0,1:2:0:0:
221,63,3636,2,0,P|183:60|156:54,1,62.9999980773926
144,172,3941,2,0,P|194:166|270:210,1,125.999996154785,2|2,0:0|0:0,0:0:0:0:
425,84,4397,5,0,0:0:0:0:
325,34,4550,1,0,0:0:0:0:
325,34,4626,1,0,0:0:0:0:
325,34,4702,2,0,P|313:80|310:123,1,80.9999975280763,0|0,0:0|3:0,0:0:0:0:
465,252,5007,6,0,P|477:206|480:163,1,80.9999975280763,2|2,0:2|0:2,0:0:0:0:
356,214,5311,1,0,0:3:0:0:
413,346,5463,1,4,0:3:0:0:
413,346,5540,1,4,0:3:0:0:
413,346,5616,2,0,P|461:341|496:334,1,80.9999975280763,0|2,0:3|0:2,0:0:0:0:
261,231,5920,2,0,P|309:226|344:219,1,80.9999975280763,0|0,0:2|0:2,0:0:0:0:
266,344,6225,5,2,0:2:0:0:
171,320,6377,1,2,0:2:0:0:
96,381,6529,1,0,0:0:0:0:
138,239,6682,1,4,0:3:0:0:
138,239,6758,1,4,0:3:0:0:
138,239,6834,2,0,P|146:191|147:150,1,80.9999975280763,0|2,0:2|0:2,0:0:0:0:
358,56,7139,2,0,P|350:104|349:145,1,80.9999975280763,0|0,0:2|0:0,0:0:0:0:
348,136,7367,1,0,0:0:0:0:
348,136,7443,1,0,0:0:0:0:
255,7,7595,5,0,1:0:0:0:
255,7,7672,1,0,0:0:0:0:
255,7,7748,1,0,0:0:0:0:
460,72,7900,1,0,1:0:0:0:
460,72,7976,1,0,0:0:0:0:
460,72,8052,2,0,P|452:120|455:162,1,80.9999975280763,0|0,0:0|1:0,0:0:0:0:
455,165,8281,1,0,0:0:0:0:
458,177,8357,1,0,0:0:0:0:
502,336,8509,6,0,P|454:368|349:366,1,161.999995056153,2|0,0:0|0:0,0:0:0:0:
255,380,8814,2,0,L|243:314,1,53.9999983520508,2|0,0:0|0:0,0:0:0:0:
275,155,8966,2,0,L|263:89,1,53.9999983520508,2|0,0:0|0:0,0:0:0:0:
23,227,9271,5,2,1:2:0:0:
17,225,9347,1,2,1:2:0:0:
17,218,9423,1,2,1:2:0:0:
23,216,9499,1,2,1:2:0:0:
26,221,9575,1,2,1:2:0:0:
116,139,9727,6,0,P|109:236|152:330,1,198.000006042481,2|2,0:0|0:0,0:0:0:0:
306,230,10184,2,0,P|251:242|199:247,1,99.0000030212403,2|2,0:0|0:0,0:0:0:0:
116,139,10489,1,0,0:0:0:0:
304,35,10641,1,2,0:0:0:0:
240,150,10793,1,0,0:0:0:0:
240,150,10946,1,2,0:0:0:0:
175,70,11098,5,2,0:0:0:0:
211,234,11250,1,0,0:0:0:0:
352,164,11403,2,0,P|407:176|473:172,1,99.0000030212403,2|2,0:0|0:0,0:0:0:0:
356,313,11707,1,2,0:0:0:0:
481,278,11859,1,2,0:0:0:0:
349,329,12012,1,2,0:0:0:0:
240,150,12164,6,0,B|257:214|257:214|232:261|232:261|253:347,1,198.000006042481,6|2,1:1|0:0,0:0:0:0:
108,233,12621,1,2,0:0:0:0:
237,145,12773,1,0,0:0:0:0:
16,217,12925,1,2,0:0:0:0:
144,324,13078,1,0,0:0:0:0:
122,135,13230,2,0,L|106:242,1,99.0000030212403,2|0,0:0|0:0,0:0:0:0:
107,232,13458,1,0,0:0:0:0:
107,232,13535,1,2,0:0:0:0:
37,76,13687,5,2,0:0:0:0:
167,6,13839,1,2,0:0:0:0:
237,145,13991,1,0,0:0:0:0:
158,19,14144,1,2,0:0:0:0:
301,27,14296,1,2,0:0:0:0:
122,135,14448,1,0,0:0:0:0:
315,18,14601,6,0,B|362:18|362:18|389:36|389:36|459:26|510:71,1,198.000006042481,4|2,1:1|0:0,0:0:0:0:
348,199,15057,2,0,P|337:148|330:96,1,99.0000030212403,2|0,0:0|0:0,0:0:0:0:
442,140,15362,1,2,0:0:0:0:
381,293,15514,1,0,0:0:0:0:
250,242,15666,1,2,0:0:0:0:
250,242,15819,1,2,0:0:0:0:
360,382,15971,5,2,0:0:0:0:
465,241,16123,1,0,0:0:0:0:
278,339,16276,2,0,P|230:328|174:322,1,99.0000030212403,2|2,0:0|0:0,0:0:0:0:
131,165,16580,1,2,0:0:0:0:
250,242,16732,1,2,0:0:0:0:
325,122,16885,1,2,0:0:0:0:
131,22,17037,6,0,P|94:101|114:234,1,198.000006042481,6|2,0:1|0:0,0:0:0:0:
112,363,17494,1,2,0:0:0:0:
250,242,17646,1,2,0:0:0:0:
40,268,17798,1,2,0:0:0:0:
214,154,17951,1,0,0:0:0:0:
205,384,18103,6,0,P|191:330|181:262,1,99.0000030212403,2|2,0:0|0:0,0:0:0:0:
183,287,18331,1,0,0:0:0:0:
183,287,18408,1,2,0:0:0:0:
408,238,18560,1,0,0:0:0:0:
350,129,18712,2,0,P|336:183|326:251,1,99.0000030212403
512,384,19017,5,0,0:0:0:0:
508,364,19093,1,0,0:0:0:0:
504,344,19169,1,0,0:0:0:0:
500,324,19245,1,0,0:0:0:0:
496,304,19321,1,0,0:0:0:0:
492,284,19397,1,0,0:0:0:0:
488,264,19474,1,0,0:0:0:0:
484,244,19550,1,0,0:0:0:0:
481,224,19626,1,2,0:0:0:0:
256,192,21758,5,8,0:1:0:0:
256,192,22062,2,0,P|208:197|171:202,1,72,4|0,1:2|0:0,0:0:0:0:
63,235,22367,1,0,0:0:0:0:
151,283,22519,2,0,P|141:232|157:131,1,144,2|2,0:0|0:0,0:0:0:0:
117,59,22976,1,0,0:0:0:0:
117,59,23128,2,0,P|170:50|196:44,1,72,2|0,0:0|3:0,0:0:0:0:
286,8,23433,2,0,P|279:60|273:84,1,72,2|0,0:0|1:0,0:0:0:0:
255,194,23738,2,0,P|306:193|403:151,1,144,2|0,0:0|3:0,0:0:0:0:
453,90,24194,1,0,0:0:0:0:
512,254,24499,6,0,P|507:296|500:327,1,72
417,256,24804,1,0,0:0:0:0:
424,381,24956,2,0,P|386:370|275:353,1,144,2|2,0:0|0:0,0:0:0:0:
193,325,25413,1,8,1:0:0:0:
313,226,25565,2,0,P|275:215|164:198,1,144,2|2,0:0|0:0,0:0:0:0:
99,154,26022,1,8,0:0:0:0:
99,154,26174,1,2,0:0:0:0:
36,224,26326,1,0,0:0:0:0:
36,224,26479,1,2,0:0:0:0:
75,307,26631,1,0,0:0:0:0:
99,154,26936,6,0,P|90:115|82:75,1,72
187,71,27240,2,0,P|178:32|170:-8,1,72,0|2,0:0|0:0,0:0:0:0:
172,198,27545,2,0,P|254:198|325:157,1,144
409,142,28002,2,0,B|387:68|420:65|404:-6,2,144,2|2|2,0:0|0:0|0:0,0:0:0:0:
418,245,28763,1,0,0:0:0:0:
418,245,28915,1,2,0:0:0:0:
508,294,29068,2,0,P|499:334|495:374,1,72,0|2,0:0|0:0,0:0:0:0:
305,341,29372,6,0,P|355:331|401:322,1,72
497,205,29677,2,0,P|446:214|401:224,1,72,0|2,0:0|0:0,0:0:0:0:
299,238,29981,2,0,P|308:198|312:158,1,72
374,106,30210,1,0,0:0:0:0:
383,114,30286,2,0,P|334:132|232:128,1,144,8|2,0:2|0:0,0:0:0:0:
0,30,31199,6,0,B|37:31|37:31|76:12,1,72,2|0,0:0|0:0,0:0:0:0:
174,6,31656,6,0,B|156:62|156:62|165:99|165:99|144:183,1,161.999995056153,4|0,0:0|0:0,0:0:0:0:
52,222,32113,2,0,P|36:181|34:135,1,80.9999975280763
195,240,32418,1,0,1:0:0:0:
141,372,32570,1,0,1:0:0:0:
98,298,32722,1,0,0:0:0:0:
236,356,32875,6,0,P|285:351|329:335,1,80.9999975280763,0|0,0:0|1:0,0:0:0:0:
446,304,33179,2,0,P|455:343|455:383,1,80.9999975280763,0|0,0:0|1:0,0:0:0:0:
286,224,33484,2,0,P|393:227|452:193,1,161.999995056153
439,202,33941,1,0,0:0:0:0:
450,47,34093,5,8,0:2:0:0:
450,47,34169,1,0,0:0:0:0:
450,47,34245,2,0,B|370:66|370:66|293:15,1,161.999995056153
194,3,34702,1,0,0:0:0:0:
120,79,34854,2,0,P|121:132|137:173,1,80.9999975280763
221,104,35159,1,0,0:0:0:0:
316,203,35311,6,0,P|275:210|226:221,1,80.9999975280763
73,238,35616,2,0,P|70:316|116:386,1,161.999995056153,4|4,3:3|3:3,0:0:0:0:
264,334,36073,1,4,3:3:0:0:
159,286,36225,1,4,3:3:0:0:
277,333,36377,1,0,0:0:0:0:
335,177,36529,5,0,0:0:0:0:
335,177,36606,1,0,0:0:0:0:
335,177,36682,2,0,P|320:117|336:17,1,161.999995056153,6|0,0:2|0:0,0:0:0:0:
237,108,37139,1,0,0:0:0:0:
406,81,37291,2,0,P|460:93|509:92,1,80.9999975280763
424,175,37595,5,0,0:0:0:0:
505,249,37748,2,0,P|495:299|493:338,1,80.9999975280763
346,256,38052,2,0,P|342:215|334:176,1,80.9999975280763
402,371,38357,2,0,P|334:382|240:325,1,161.999995056153
253,341,38814,1,0,0:0:0:0:
75,285,38966,5,0,0:0:0:0:
75,285,39042,1,0,0:0:0:0:
75,285,39118,2,0,P|131:275|168:262,1,90,4|0,0:2|0:0,0:0:0:0:
334,176,39423,2,0,P|278:166|241:153,1,90
53,99,39727,1,2,0:0:0:0:
255,17,39880,1,0,0:0:0:0:
160,185,40032,2,0,P|152:134|152:93,1,90
364,12,40337,5,0,0:0:0:0:
369,38,40413,1,0,0:0:0:0:
371,64,40489,1,0,0:0:0:0:
370,90,40565,1,0,0:0:0:0:
367,116,40641,1,0,0:0:0:0:
504,355,41403,6,0,B|467:337|467:337|433:333|433:333|378:298|302:314,1,198.000006042481,8|0,0:2|0:0,0:0:0:0:
217,357,41859,1,0,0:0:0:0:
333,222,42012,1,0,0:0:0:0:
152,282,42164,1,4,0:2:0:0:
216,145,42316,2,0,P|230:209|231:252,1,99.0000030212403
61,361,42621,5,8,0:2:0:0:
61,361,42697,1,0,0:0:0:0:
61,361,42773,2,0,B|49:309|49:309|-1:258|23:174,1,198.000006042481
117,3,43230,1,0,0:0:0:0:
216,145,43382,1,2,0:2:0:0:
37,91,43535,2,0,P|101:88|151:74,1,99.0000030212403
335,0,43839,6,0,P|336:76|312:146,1,148.50000453186,8|0,0:2|0:0,0:0:0:0:
313,144,44144,2,0,P|318:200|324:245,1,99.0000030212403
461,363,44448,1,0,0:0:0:0:
269,313,44601,1,8,0:2:0:0:
415,233,44753,1,0,0:0:0:0:
342,384,44905,1,0,0:0:0:0:
511,277,45057,5,6,1:2:0:0:
511,277,45134,1,0,0:0:0:0:
511,277,45210,2,0,P|425:284|322:241,1,198.000006042481
226,152,45666,1,0,0:0:0:0:
319,107,45819,1,2,0:0:0:0:
230,247,45971,1,2,0:0:0:0:
90,181,46123,1,0,0:0:0:0:
186,1,46276,6,0,B|172:58|172:58|210:120|164:213,1,198.000006042481,8|0,0:2|0:0,0:0:0:0:
3,111,46732,2,0,P|54:103|113:88,1,99.0000030212403,6|0,0:2|0:0,0:0:0:0:
143,257,47037,1,2,0:2:0:0:
6,229,47189,2,0,P|20:280|21:326,1,99.0000030212403
285,381,47494,6,0,B|298:341|298:341|291:302|291:302|320:266|316:184,1,198.000006042481,8|0,0:2|0:0,0:0:0:0:
397,42,47951,2,0,P|405:101|423:147,1,99.0000030212403,4|0,0:2|0:0,0:0:0:0:
478,250,48255,1,2,0:2:0:0:
317,209,48408,1,0,0:0:0:0:
441,115,48560,1,0,0:0:0:0:
450,339,48712,6,0,B|381:314|381:314|341:324|341:324|258:302,1,198.000006042481,8|0,0:2|0:2,0:0:0:0:
151,206,49169,1,0,0:2:0:0:
285,122,49321,1,6,0:2:0:0:
139,228,49474,1,0,0:0:0:0:
91,17,49626,1,0,0:0:0:0:
91,17,49702,1,0,0:0:0:0:
91,17,49778,1,0,0:0:0:0:
0,142,49930,6,0,P|72:142|152:105,1,148.50000453186,2|0,0:0|0:0,0:0:0:0:
141,112,50235,2,0,L|201:123,1,49.5000015106202,2|2,0:0|0:0,0:0:0:0:
299,25,50387,2,0,P|308:74|307:125,1,99.0000030212403
239,243,50692,5,0,0:0:0:0:
246,263,50768,1,0,0:0:0:0:
249,285,50844,1,0,0:0:0:0:
246,306,50920,1,0,0:0:0:0:
242,328,50996,1,0,0:0:0:0:
236,350,51073,1,0,0:0:0:0:
250,380,51149,6,0,B|342:351|339:399|451:360,1,198.000006042481,2|0,0:2|0:0,0:0:0:0:
489,210,51606,1,0,0:0:0:0:
322,156,51758,1,0,0:0:0:0:
511,203,51910,1,4,0:2:0:0:
413,284,52062,2,0,P|404:225|393:179,1,99.0000030212403
485,44,52367,5,8,0:2:0:0:
485,44,52443,1,0,0:0:0:0:
485,44,52519,2,0,P|421:10|292:28,1,198.000006042481
232,79,52976,1,0,0:0:0:0:
392,101,53128,1,2,0:2:0:0:
313,238,53281,2,0,P|304:179|293:134,1,99.0000030212403
143,22,53585,6,0,P|131:77|172:162,1,148.50000453186,8|0,0:2|2:0,0:0:0:0:
167,158,53890,1,0,0:0:0:0:
109,281,54042,1,0,0:0:0:0:
257,331,54194,1,0,0:0:0:0:
88,253,54347,6,0,P|36:265|-13:270,1,99.0000030212403,2|0,0:2|0:0,0:0:0:0:
274,357,54651,2,0,B|334:343|334:343|396:369|484:332,2,198.000006042481,2|2|2,0:2|0:2|0:2,0:0:0:0:
199,253,55413,1,4,0:3:0:0:
364,135,55565,1,2,0:2:0:0:
324,256,55717,1,0,0:0:0:0:
324,256,55793,1,0,0:0:0:0:
324,256,55870,1,0,0:0:0:0:
260,20,56022,6,0,P|280:99|273:185,1,148.50000453186,8|0,0:2|0:0,0:0:0:0:
277,165,56326,2,0,L|222:176,2,49.5000015106202
415,75,56631,1,2,0:0:0:0:
443,81,56707,1,0,0:0:0:0:
471,88,56783,1,2,0:0:0:0:
260,20,56936,1,2,0:0:0:0:
260,20,57240,6,0,P|182:36|88:43,1,148.50000453186,6|0,1:2|0:0,0:0:0:0:
113,42,57545,2,0,P|107:9|105:-10,2,49.5000015106202
2,185,57849,1,0,0:0:0:0:
31,181,57925,1,0,0:0:0:0:
60,177,58002,1,0,0:0:0:0:
188,311,58154,1,0,0:0:0:0:
188,311,58458,6,0,B|152:357|152:357|76:372|12:310,1,198.000006042481,14|0,0:2|0:0,0:0:0:0:
140,201,58915,2,0,P|201:193|239:177,1,90
335,94,59220,2,0,P|329:151|329:191,1,90
273,351,59524,2,0,P|267:294|267:254,1,90,2|2,0:0|0:0,0:0:0:0:
405,262,59829,5,2,0:0:0:0:
239,164,59981,1,0,0:0:0:0:
239,164,60057,1,0,0:0:0:0:
239,164,60134,1,0,0:0:0:0:
437,121,60286,1,2,0:0:0:0:
260,384,60895,6,0,B|241:323|241:323|259:273|259:273|231:183,1,198.000006042481,6|2,1:2|0:0,0:0:0:0:
73,253,61352,2,0,B|121:247|121:247|172:271,1,99.0000030212403,2|0,0:0|0:0,0:0:0:0:
297,95,61656,1,2,0:0:0:0:
135,151,61809,1,2,0:0:0:0:
185,14,61961,1,0,0:0:0:0:
185,14,62113,1,2,0:0:0:0:
286,9,62265,5,0,0:0:0:0:
234,195,62418,1,2,0:0:0:0:
405,109,62570,2,0,P|350:106|290:94,1,99.0000030212403,2|2,0:0|0:0,0:0:0:0:
122,74,62875,1,0,0:2:0:0:
286,9,63027,1,0,0:2:0:0:
115,58,63179,1,0,0:0:0:0:
251,200,63331,6,0,P|230:275|272:388,1,198.000006042481,2|2,0:0|0:0,0:0:0:0:
384,245,63788,1,2,0:0:0:0:
251,200,63941,1,0,0:0:0:0:
410,152,64093,1,2,0:0:0:0:
335,337,64245,1,2,0:0:0:0:
480,265,64397,2,0,L|374:242,1,99.0000030212403,2|0,0:2|0:2,0:0:0:0:
383,244,64626,1,0,0:0:0:0:
383,244,64702,1,2,0:2:0:0:
313,117,64854,5,2,0:2:0:0:
507,132,65007,1,2,0:2:0:0:
379,44,65159,1,0,0:2:0:0:
410,152,65311,5,2,0:2:0:0:
292,31,65463,1,0,0:2:0:0:
506,0,65616,1,2,0:2:0:0:
317,121,65768,6,0,B|262:125|262:125|228:108|228:108|168:117|104:65,1,198.000006042481,2|2,0:0|0:0,0:0:0:0:
26,6,66225,2,0,P|6:63|7:111,1,99.0000030212403,0|2,0:0|0:0,0:0:0:0:
172,205,66529,1,0,0:0:0:0:
45,191,66682,1,2,0:0:0:0:
27,322,66834,1,0,0:0:0:0:
27,322,66986,1,2,0:0:0:0:
172,205,67139,5,2,0:0:0:0:
19,174,67291,1,0,0:0:0:0:
111,364,67443,2,0,P|167:356|229:338,1,99.0000030212403,2|0,0:0|0:0,0:0:0:0:
357,211,67748,1,2,0:0:0:0:
331,353,67900,1,0,0:0:0:0:
235,261,68052,1,2,0:0:0:0:
469,331,68205,6,0,B|452:267|452:267|473:223|473:223|449:129,1,198.000006042481,6|0,1:2|0:0,0:0:0:0:
298,52,68661,1,2,0:0:0:0:
357,211,68814,1,0,0:0:0:0:
284,43,68966,1,2,0:0:0:0:
452,142,69118,1,0,0:0:0:0:
215,113,69271,5,2,0:0:0:0:
215,113,69347,1,0,0:0:0:0:
215,113,69423,2,0,B|152:100|152:100|92:132|6:102,1,198.000006042481
69,32,69880,1,2,0:0:0:0:
126,195,70032,1,0,0:0:0:0:
286,168,70184,6,0,P|271:215|271:276,1,99.0000030212403,2|0,0:0|0:0,0:0:0:0:
310,332,70413,1,0,0:0:0:0:
319,330,70489,1,0,0:0:0:0:
328,328,70565,1,0,0:0:0:0:
337,326,70641,1,0,0:0:0:0:
346,324,70717,1,0,0:0:0:0:
355,321,70793,6,0,L|463:333,1,80.9999975280763
512,211,71098,2,0,L|431:202,1,80.9999975280763
326,99,71403,1,0,0:0:0:0:
474,60,71555,1,0,0:0:0:0:
431,202,71707,1,0,0:0:0:0:
313,86,71859,6,0,P|241:91|135:52,1,161.999995056153
234,4,72316,1,0,0:0:0:0:
52,0,72469,2,0,B|67:58|67:58|57:96|57:96|76:165,1,161.999995056153
134,221,72925,1,0,0:0:0:0:
38,347,73078,6,0,B|128:366|116:326|210:353,1,161.999995056153,4|0,0:2|0:0,0:0:0:0:
318,215,73535,1,0,0:0:0:0:
223,271,73687,1,0,0:0:0:0:
300,371,73839,2,0,B|350:364|350:364|403:352,1,80.9999975280763
223,271,74144,1,0,0:0:0:0:
401,167,74296,6,0,P|404:223|411:264,1,80.9999975280763,0|0,0:0|3:0,0:0:0:0:
222,167,74601,2,0,P|215:86|244:0,1,161.999995056153
238,9,74981,1,0,0:0:0:0:
238,9,75057,1,0,0:0:0:0:
444,67,75210,1,0,0:0:0:0:
444,67,75514,6,0,P|451:148|422:234,1,161.999995056153,2|2,0:0|0:0,0:0:0:0:
469,325,75971,2,0,P|424:329|374:339,1,80.9999975280763
250,239,76276,2,0,P|295:235|345:225,1,80.9999975280763,2|0,0:0|0:0,0:0:0:0:
293,366,76580,1,2,0:0:0:0:
178,299,76732,6,0,P|191:350|195:383,1,80.9999975280763
34,285,77037,2,0,P|47:336|51:369,1,80.9999975280763
114,214,77342,2,0,P|99:159|126:53,1,161.999995056153,2|2,0:2|0:2,0:0:0:0:
37,4,77798,1,0,0:0:0:0:
194,136,77951,6,0,B|275:113|260:151|362:124,1,161.999995056153,8|2,0:2|0:2,0:0:0:0:
457,158,78408,1,2,0:2:0:0:
406,50,78560,1,2,0:2:0:0:
512,6,78712,2,0,P|510:57|497:105,1,80.9999975280763,2|2,0:2|0:2,0:0:0:0:
353,134,79017,2,0,P|355:185|368:233,1,80.9999975280763,2|0,0:2|0:0,0:0:0:0:
489,348,79321,5,0,0:0:0:0:
326,303,79474,1,0,1:0:0:0:
489,348,79626,1,0,0:0:0:0:
447,177,79778,5,0,1:0:0:0:
447,177,79854,1,0,0:0:0:0:
447,177,79930,1,0,0:0:0:0:
391,384,80083,1,8,0:3:0:0:
207,236,80235,5,4,0:3:0:0:
248,338,80387,1,4,0:3:0:0:
413,268,80540,5,4,0:0:0:0:
240,27,87849,6,0,P|248:68|254:107,1,62.9999980773926
304,155,88154,2,0,P|297:185|292:216,1,62.9999980773926
322,295,88458,1,0,0:0:0:0:
236,365,88611,2,0,P|229:335|224:304,1,62.9999980773926
141,216,88915,6,0,P|58:221|3:198,1,125.999996154785,0|2,0:0|0:2,0:0:0:0:
114,121,89372,1,2,0:2:0:0:
219,162,89524,1,2,0:2:0:0:
219,162,89601,1,2,0:2:0:0:
219,162,89677,1,2,0:1:0:0:
318,23,89829,1,2,0:0:0:0:
318,23,90134,6,0,B|333:60|334:92|334:92|360:134|341:203,1,161.999995056153,2|2,0:0|0:0,0:0:0:0:
426,247,90590,2,0,B|463:229|463:229|522:227,1,80.9999975280763,2|0,0:0|0:0,0:0:0:0:
426,351,90895,1,0,0:0:0:0:
336,259,91047,1,0,0:0:0:0:
225,301,91199,2,0,P|232:354|233:385,1,80.9999975280763,2|0,0:0|0:0,0:0:0:0:
118,347,91504,6,0,P|114:263|102:165,1,161.999995056153,0|2,0:0|0:0,0:0:0:0:
36,105,91961,2,0,P|111:103|168:68,1,121.499996292114
151,82,92265,1,2,0:0:0:0:
356,51,92418,1,0,0:0:0:0:
266,0,92570,6,0,P|252:71|267:170,1,161.999995056153,2|2,0:0|0:0,0:0:0:0:
354,216,93027,2,0,P|363:164|362:127,1,80.9999975280763,2|0,0:0|0:0,0:0:0:0:
449,67,93331,1,0,0:0:0:0:
449,67,93484,1,0,0:0:0:0:
504,165,93636,1,2,0:0:0:0:
504,165,93788,1,0,0:0:0:0:
430,257,93941,6,0,P|439:309|438:346,1,80.9999975280763
444,352,94169,1,0,0:0:0:0:
444,352,94245,2,0,L|394:343,1,40.4999987640381
326,300,94397,2,0,L|276:309,1,40.4999987640381,4|4,3:3|3:3,0:0:0:0:
206,360,94550,1,4,3:3:0:0:
198,341,94626,1,4,3:3:0:0:
193,321,94702,1,4,3:3:0:0:
192,300,94778,1,4,3:3:0:0:
192,279,94854,1,4,1:3:0:0:
226,186,95007,6,0,B|139:166|153:210|34:187,1,180,2|2,0:0|0:0,0:0:0:0:
0,98,95463,2,0,B|49:99|49:99|108:72,1,90
291,65,95768,5,0,0:0:0:0:
212,4,95920,2,0,L|196:114,1,90
334,195,96225,5,0,0:0:0:0:
436,124,96377,2,0,L|452:234,1,90
351,356,96682,5,0,0:0:0:0:
213,290,96834,1,0,0:0:0:0:
334,195,96986,1,0,0:0:0:0:
199,294,97139,1,0,0:0:0:0:
339,367,97291,1,0,0:0:0:0:
229,180,97443,1,0,0:0:0:0:
60,281,97595,5,2,0:2:0:0:
60,281,97748,1,2,0:2:0:0:
334,195,98205,5,2,0:2:0:0:
334,195,98358,1,2,0:2:0:0:
60,281,98814,5,2,0:2:0:0:
60,281,98966,1,2,0:2:0:0:
60,281,100032,5,0,0:0:0:0:
177,174,100184,1,0,0:0:0:0:
40,144,100337,1,0,0:0:0:0:
219,323,100489,5,8,0:3:0:0:
219,323,100565,1,8,0:3:0:0:
219,323,100641,1,8,0:3:0:0:
239,336,100717,1,4,0:3:0:0:
263,343,100793,1,4,0:3:0:0:
288,343,100870,1,4,0:3:0:0:
313,337,100946,1,4,0:3:0:0:
336,329,101022,1,4,0:3:0:0:
356,315,101098,6,0,B|338:250|338:250|354:198|354:198|326:105,1,198.000006042481,8|0,1:2|0:0,0:0:0:0:
356,315,101555,1,8,0:2:0:0:
427,161,101707,1,0,0:0:0:0:
254,203,101859,1,0,0:0:0:0:
444,291,102012,2,0,B|438:347|438:347|463:389,1,99.0000030212403
232,318,102316,5,8,0:2:0:0:
232,318,102392,1,0,0:0:0:0:
232,318,102469,2,0,B|136:287|149:340|30:301,1,198.000006042481,0|2,0:0|0:2,0:0:0:0:
160,211,102925,1,2,0:2:0:0:
11,124,103078,1,4,0:2:0:0:
112,57,103230,2,0,P|90:123|90:164,1,99.0000030212403
232,318,103535,6,0,P|255:245|255:168,1,148.50000453186,2|0,0:2|0:0,0:0:0:0:
255,173,103839,1,0,0:0:0:0:
306,32,103991,1,0,0:0:0:0:
189,95,104144,1,0,0:0:0:0:
367,196,104296,1,8,0:2:0:0:
367,196,104448,1,0,0:0:0:0:
316,115,104601,1,0,0:0:0:0:
473,55,104753,6,0,B|452:134|452:134|483:182|452:256,1,198.000006042481,2|2,0:2|0:2,0:0:0:0:
353,384,105210,1,2,0:2:0:0:
489,348,105362,1,2,0:2:0:0:
489,348,105438,1,0,0:0:0:0:
489,348,105514,1,6,0:2:0:0:
367,196,105666,1,0,0:0:0:0:
496,320,105819,1,0,0:0:0:0:
263,300,105971,6,0,P|206:318|60:307,1,198.000006042481,2|2,0:0|0:0,0:0:0:0:
13,172,106428,2,0,P|21:127|25:71,1,99.0000030212403,2|0,0:0|0:0,0:0:0:0:
205,153,106732,1,8,0:2:0:0:
130,238,106885,2,0,B|106:194|106:194|113:146,1,99.0000030212403
313,9,107189,6,0,B|390:26|390:26|442:11|442:11|534:31,1,198.000006042481,2|2,0:0|0:0,0:0:0:0:
425,206,107646,2,0,P|424:156|417:107,1,99.0000030212403,2|0,0:0|0:0,0:0:0:0:
265,261,107951,1,8,0:2:0:0:
431,208,108103,1,0,0:0:0:0:
323,105,108255,1,0,0:0:0:0:
512,257,108408,6,0,P|446:249|322:322,1,198.000006042481,2|4,0:0|0:3,0:0:0:0:
172,356,108864,1,4,0:3:0:0:
217,163,109017,1,0,0:3:0:0:
217,163,109093,1,0,0:3:0:0:
217,163,109169,1,4,0:3:0:0:
25,255,109321,2,0,P|58:260|97:267,1,49.5000015106202,4|0,0:3|0:3,0:0:0:0:
246,291,109474,1,4,0:3:0:0:
114,164,109626,6,0,P|114:96|80:1,1,148.50000453186,2|0,0:0|0:0,0:0:0:0:
90,19,109930,1,2,0:0:0:0:
218,77,110083,1,2,0:0:0:0:
19,161,110235,1,2,0:0:0:0:
234,73,110387,2,0,P|287:81|342:84,1,99.0000030212403
371,8,110616,1,0,0:0:0:0:
371,8,110692,1,0,0:0:0:0:
371,8,110768,1,0,0:0:0:0:
371,8,110844,6,0,B|361:49|361:49|372:91|372:91|355:146|394:201,1,198.000006042481,8|0,0:2|0:0,0:0:0:0:
485,375,111301,1,0,0:0:0:0:
496,213,111453,1,0,0:0:0:0:
324,280,111606,2,0,P|339:330|342:378,1,99.0000030212403,2|0,0:2|0:0,0:0:0:0:
342,376,111834,1,0,0:0:0:0:
342,376,111910,1,0,0:0:0:0:
437,291,112062,1,0,0:0:0:0:
220,341,112215,6,0,B|157:325|157:325|90:348|3:316,2,198.000006042481,0|2|2,0:0|0:2|0:2,0:0:0:0:
324,280,112976,1,2,0:2:0:0:
170,223,113128,1,2,0:2:0:0:
278,58,113281,6,0,P|259:109|270:218,1,148.50000453186,2|0,0:2|0:0,0:0:0:0:
263,201,113585,1,0,0:0:0:0:
385,98,113738,2,0,P|378:40|373:-7,1,99.0000030212403
151,43,114042,2,0,P|144:101|139:148,1,99.0000030212403,4|0,0:2|0:0,0:0:0:0:
139,141,114271,1,0,0:0:0:0:
139,141,114347,2,0,P|54:143|9:238,1,198.000006042481,4|0,0:2|0:2,0:0:0:0:
207,310,114804,1,2,0:2:0:0:
89,384,114956,6,0,P|96:326|101:279,1,99.0000030212403,2|0,0:2|0:2,0:0:0:0:
263,201,115260,1,8,0:2:0:0:
287,207,115337,1,0,0:0:0:0:
311,209,115413,1,0,0:0:0:0:
335,205,115489,1,0,0:0:0:0:
358,196,115565,1,0,0:0:0:0:
464,87,115717,6,0,P|497:160|480:252,1,148.50000453186,8|0,0:2|0:0,0:0:0:0:
491,226,116022,2,0,L|501:284,2,49.5000015106202
372,109,116326,1,0,0:0:0:0:
377,79,116403,1,0,0:0:0:0:
382,49,116479,1,2,0:0:0:0:
263,201,116631,1,2,0:0:0:0:
263,201,116936,6,0,B|187:194|187:194|107:231,1,148.50000453186,2|0,0:0|0:0,0:0:0:0:
121,224,117240,2,0,L|133:288,2,49.5000015106202
0,93,117545,1,0,0:0:0:0:
4,63,117621,1,0,0:0:0:0:
9,33,117697,1,0,0:0:0:0:
212,99,117849,1,0,0:0:0:0:
212,99,118154,6,0,P|292:102|380:63,1,148.50000453186,8|0,0:2|0:0,0:0:0:0:
355,79,118458,1,0,1:0:0:0:
512,9,118611,2,0,P|508:64|506:111,1,90
369,264,118915,2,0,P|365:209|363:162,1,90
280,247,119220,1,2,0:0:0:0:
449,164,119372,1,0,0:0:0:0:
280,247,119524,2,0,P|228:241|171:233,1,90,2|0,0:0|0:0,0:0:0:0:
190,235,119753,1,0,0:3:0:0:
190,235,119829,1,0,0:3:0:0:
345,376,119981,6,0,P|420:377|506:347,1,144,0|2,0:0|0:0,0:0:0:0:
332,131,120743,1,0,0:0:0:0:
256,192,120819,12,2,124397,0:0:0:0:
144,107,128052,5,0,0:3:0:0:
144,107,128966,1,2,0:2:0:0:
358,79,129880,1,0,0:2:0:0:
358,79,130793,1,2,0:2:0:0:
392,292,131707,1,0,0:0:0:0:
392,292,132621,1,2,0:2:0:0:
178,320,133535,1,0,0:0:0:0:
178,320,134448,1,2,0:2:0:0:
144,107,135362,6,0,P|206:115|313:71,1,161.999995056153,4|0,1:0|3:0,0:0:0:0:
220,34,135971,1,4,0:3:0:0:
372,156,136275,2,0,P|386:108|379:45,1,107.999996704102,4|4,0:1|0:3,0:0:0:0:
307,1,136732,1,4,0:3:0:0:
307,1,136885,1,4,0:3:0:0:
237,188,137189,6,0,P|251:259|249:316,1,107.999996704102,4|4,3:1|0:0,0:0:0:0:
316,371,137646,1,4,0:0:0:0:
392,314,137798,1,8,0:3:0:0:
237,188,138103,6,0,P|238:241|251:294,1,107.999996704102,4|0,3:1|0:3,0:0:0:0:
183,348,138560,1,2,0:3:0:0:
106,306,138712,1,2,0:3:0:0:
137,224,138864,1,0,0:0:0:0:
328,222,139017,6,0,P|373:229|452:225,1,107.999996704102,4|4,3:1|0:3,0:0:0:0:
495,150,139473,1,4,0:3:0:0:
422,93,139626,2,0,P|390:97|360:101,1,53.9999983520508,8|4,0:3|0:3,0:0:0:0:
200,71,139930,5,4,3:1:0:0:
352,18,140083,1,4,0:3:0:0:
288,145,140235,2,0,P|256:149|226:153,1,53.9999983520508,8|4,0:3|0:3,0:0:0:0:
179,69,140539,2,0,P|147:73|117:77,1,53.9999983520508,4|4,0:3|0:3,0:0:0:0:
14,226,140844,6,0,P|26:270|27:343,1,107.999996704102,4|0,0:1|0:0,0:0:0:0:
164,213,141301,1,2,0:3:0:0:
118,286,141453,2,0,P|121:325|123:358,1,53.9999983520508,2|0,0:3|0:0,0:0:0:0:
289,380,141758,6,0,P|274:327|285:257,1,107.999996704102,4|4,3:1|0:3,0:0:0:0:
344,210,142215,1,8,0:3:0:0:
428,242,142367,1,4,0:3:0:0:
483,171,142519,1,8,0:3:0:0:
397,28,142671,6,0,P|412:81|403:158,1,125.999996154785,4|4,3:1|0:3,0:0:0:0:
489,61,143128,1,4,0:3:0:0:
334,99,143281,2,0,P|295:110|264:109,1,62.9999980773926,8|0,0:3|0:0,0:0:0:0:
179,9,143585,6,0,P|158:51|177:163,1,144,4|4,0:2|0:3,0:0:0:0:
223,233,144042,1,4,0:3:0:0:
188,315,144194,1,8,0:3:0:0:
259,370,144347,1,8,0:3:0:0:
142,236,144499,6,0,L|-7:258,2,144,4|4|8,0:1|0:3|0:0,0:0:0:0:
322,295,145413,2,0,L|464:273,1,144,4|4,0:2|0:3,0:0:0:0:
512,178,145869,1,8,0:3:0:0:
423,145,146022,1,4,0:3:0:0:
486,75,146174,1,8,0:3:0:0:
363,212,146326,6,0,P|380:142|362:60,1,144,4|4,1:1|0:3,0:0:0:0:
300,4,146783,1,4,0:3:0:0:
214,45,146935,2,0,P|223:91|226:131,1,72,2|0,0:3|0:0,0:0:0:0:
260,237,147240,5,4,1:2:0:0:
211,320,147392,1,4,0:3:0:0:
288,383,147545,1,4,0:3:0:0:
334,303,147697,1,8,0:3:0:0:
334,303,147849,1,4,0:3:0:0:
334,303,148001,1,8,0:3:0:0:
153,372,148154,6,0,P|102:379|25:318,1,144,4|2,1:1|0:3,0:0:0:0:
25,237,148611,1,4,0:3:0:0:
25,237,148687,1,4,0:3:0:0:
25,237,148763,1,8,0:3:0:0:
119,253,148915,1,4,0:0:0:0:
177,144,149067,6,0,L|159:67,1,72,4|4,1:2|0:3,0:0:0:0:
161,63,149296,1,4,0:3:0:0:
162,51,149372,1,4,0:3:0:0:
248,77,149524,1,4,0:3:0:0:
89,118,149677,1,4,0:3:0:0:
248,77,149829,1,4,0:3:0:0:
316,203,149981,5,0,1:1:0:0:
316,203,150590,2,0,P|302:273|301:374,1,161.999995056153,2|0,0:1|0:0,0:0:0:0:
300,363,151199,5,0,1:1:0:0:
169,253,151351,1,2,0:0:0:0:
169,253,151503,1,2,0:0:0:0:
237,195,151655,1,2,0:0:0:0:
194,330,151808,1,2,0:0:0:0:
62,321,151960,2,0,P|59:273|48:231,1,90,2|0,0:0|0:0,0:0:0:0:
125,127,152264,5,2,0:0:0:0:
125,127,152417,1,2,0:0:0:0:
38,90,152569,1,2,0:0:0:0:
190,39,152721,1,2,0:0:0:0:
237,195,152874,2,0,L|344:178,1,90,2|0,0:0|0:0,0:0:0:0:
477,81,153178,5,2,0:0:0:0:
323,87,153330,1,2,0:0:0:0:
500,100,153483,1,2,0:0:0:0:
305,63,153635,1,2,0:0:0:0:
414,6,153787,2,0,B|395:50|395:50|401:102,1,90,2|0,0:0|0:0,0:0:0:0:
397,289,154092,5,2,0:0:0:0:
469,211,154244,1,2,0:0:0:0:
325,180,154396,1,2,0:0:0:0:
294,308,154549,1,2,0:0:0:0:
477,375,154701,2,0,B|496:331|496:331|490:279,1,90,2|0,0:0|0:0,0:0:0:0:
325,180,155006,5,2,0:0:0:0:
325,180,155158,1,2,0:0:0:0:
196,105,155310,1,2,0:0:0:0:
283,14,155462,1,2,0:0:0:0:
239,190,155615,2,0,L|143:206,1,90,2|0,0:0|0:0,0:0:0:0:
48,333,155919,5,2,0:0:0:0:
48,333,156072,1,2,0:0:0:0:
168,290,156224,1,2,0:0:0:0:
240,383,156376,1,2,0:0:0:0:
74,253,156528,2,0,P|65:198|60:159,1,90,2|0,0:0|0:0,0:0:0:0:
180,20,156833,5,2,0:0:0:0:
37,54,156985,1,2,0:0:0:0:
206,30,157138,1,2,0:0:0:0:
20,36,157290,1,2,0:0:0:0:
136,115,157442,2,0,P|144:169|150:209,1,90,2|0,0:0|0:0,0:0:0:0:
271,305,157747,5,2,0:0:0:0:
385,192,157899,1,2,0:0:0:0:
385,192,158051,1,2,0:0:0:0:
276,220,158204,1,2,0:0:0:0:
441,268,158356,1,2,0:0:0:0:
441,268,158508,1,2,0:0:0:0:
310,125,158660,5,2,0:0:0:0:
368,354,158813,2,0,B|304:338|304:338|256:348|256:348|191:333,1,180,2|0,0:0|0:0,0:0:0:0:
93,233,159269,5,2,0:0:0:0:
93,233,159421,1,2,0:0:0:0:
179,261,159573,1,2,0:0:0:0:
52,358,159726,1,2,0:0:0:0:
0,218,159878,2,0,L|10:121,1,90,2|0,0:0|1:0,0:0:0:0:
164,39,160182,5,2,0:0:0:0:
164,39,160335,1,2,0:0:0:0:
63,12,160487,1,2,0:0:0:0:
138,150,160639,1,2,0:0:0:0:
254,70,160792,2,0,P|304:75|353:75,1,90,2|0,0:0|1:0,0:0:0:0:
458,203,161096,5,2,0:0:0:0:
331,170,161248,1,2,0:0:0:0:
491,179,161401,1,2,0:0:0:0:
298,193,161553,1,2,0:0:0:0:
372,321,161705,2,0,L|388:224,1,90,2|0,0:0|0:0,0:0:0:0:
254,70,162010,5,2,0:0:0:0:
216,239,162162,1,2,0:0:0:0:
331,170,162314,1,0,0:0:0:0:
140,124,162467,1,2,0:0:0:0:
216,239,162619,2,0,L|201:327,1,90,2|0,0:0|1:0,0:0:0:0:
402,384,162924,5,2,0:0:0:0:
402,384,163076,1,2,0:0:0:0:
315,294,163228,1,0,0:0:0:0:
408,211,163380,1,2,0:0:0:0:
501,331,163533,2,0,P|504:284|519:223,1,90,2|0,0:0|1:0,0:0:0:0:
419,76,163837,5,2,0:0:0:0:
419,76,163990,1,2,0:0:0:0:
483,12,164142,1,0,0:0:0:0:
510,162,164294,1,2,0:0:0:0:
351,134,164446,2,0,P|301:144|244:142,1,90,2|0,0:0|1:0,0:0:0:0:
105,68,164751,5,2,0:0:0:0:
255,18,164903,1,2,0:0:0:0:
90,60,165056,1,2,0:0:0:0:
265,3,165208,1,2,0:0:0:0:
174,149,165360,2,0,L|164:261,1,90,2|0,0:0|1:0,0:0:0:0:
269,352,165665,5,2,0:0:0:0:
164,325,165817,1,2,0:0:0:0:
59,298,165969,1,2,0:0:0:0:
279,274,166122,5,2,0:0:0:0:
164,325,166274,1,2,0:0:0:0:
48,374,166426,1,2,0:0:0:0:
165,238,166578,5,2,0:0:0:0:
353,370,166731,2,0,P|359:329|368:282,1,90,2|0,0:0|3:0,0:0:0:0:
278,86,167035,5,2,0:2:0:0:
164,325,167187,1,2,0:2:0:0:
313,199,168710,5,0,0:0:0:0:
313,199,168786,1,0,0:0:0:0:
313,199,168862,2,0,L|176:222,2,120,0|4|0,0:0|3:3|0:3,0:0:0:0:
401,227,169471,5,4,0:2:0:0:
131,150,169623,1,4,0:2:0:0:
273,42,170537,5,0,0:0:0:0:
273,42,170613,1,0,0:0:0:0:
273,42,170689,2,0,L|257:154,1,90,2|0,0:2|0:0,0:0:0:0:
313,199,170918,2,0,L|297:311,1,90,2|0,0:2|0:0,0:0:0:0:
241,366,171146,1,2,0:2:0:0:
256,192,171222,12,0,171908,3:0:0:0:
425,265,172974,6,0,B|386:283|386:283|339:278|339:278|294:307|220:294,1,198.000006042481,8|0,0:2|0:0,0:0:0:0:
100,328,173430,1,0,0:0:0:0:
117,182,173583,1,0,0:0:0:0:
260,200,173735,1,0,0:0:0:0:
38,260,173887,2,0,P|30:200|25:159,1,99.0000030212403
164,15,174192,5,0,0:0:0:0:
164,15,174268,1,0,0:0:0:0:
164,15,174344,2,0,P|266:10|308:92,1,198.000006042481,2|2,0:2|0:2,0:0:0:0:
260,200,174801,1,2,0:2:0:0:
202,97,174953,1,4,0:2:0:0:
396,135,175106,2,0,P|401:79|412:31,1,99.0000030212403
512,216,175410,6,0,P|448:234|366:233,1,148.50000453186,8|0,0:2|0:0,0:0:0:0:
366,233,175715,2,0,P|375:288|372:338,1,99.0000030212403
167,303,176019,1,0,0:0:0:0:
260,200,176172,1,8,0:2:0:0:
292,376,176324,1,0,0:0:0:0:
167,303,176476,1,2,0:0:0:0:
22,357,176628,5,4,0:2:0:0:
22,357,176705,1,0,0:0:0:0:
22,357,176781,2,0,P|0:276|42:158,1,198.000006042481
17,47,177238,1,0,0:0:0:0:
151,113,177390,1,0,0:0:0:0:
175,117,177466,1,0,0:0:0:0:
199,115,177542,1,0,0:0:0:0:
223,109,177618,1,0,0:0:0:0:
246,100,177694,1,0,0:0:0:0:
267,87,177771,1,0,0:0:0:0:
280,65,177847,6,0,B|350:47|350:47|410:67|410:67|485:51,1,198.000006042481,8|0,0:2|0:0,0:0:0:0:
335,142,178304,2,0,P|346:196|343:247,1,99.0000030212403,2|2,0:2|0:2,0:0:0:0:
256,208,178608,1,0,0:0:0:0:
453,299,178760,2,0,P|442:245|445:194,1,99.0000030212403
168,145,179065,6,0,P|181:222|181:351,1,198.000006042481,8|0,0:2|0:0,0:0:0:0:
278,303,179522,1,2,0:2:0:0:
102,242,179674,1,2,0:2:0:0:
102,242,179750,1,0,0:0:0:0:
102,242,179826,1,8,0:2:0:0:
269,205,179979,1,0,0:0:0:0:
181,341,180131,1,0,0:0:0:0:
16,167,180283,6,0,B|-13:99|8:28|8:28|74:50,1,198.000006042481,6|0,0:2|0:0,0:0:0:0:
168,145,180740,1,0,0:0:0:0:
258,40,180892,1,8,0:3:0:0:
258,40,180969,1,8,0:3:0:0:
258,40,181045,1,8,0:3:0:0:
399,160,181197,2,0,L|324:145,1,49.5000015106202,2|0,0:0|0:0,0:0:0:0:
263,124,181349,1,2,0:0:0:0:
475,21,181502,6,0,P|492:86|483:178,1,148.50000453186,2|0,0:0|0:0,0:0:0:0:
486,166,181806,2,0,L|500:223,1,49.5000015106202,2|0,0:0|3:0,0:0:0:0:
486,363,181958,1,2,0:0:0:0:
361,250,182111,1,0,1:0:0:0:
268,377,182263,2,0,B|311:354|311:354|391:360,1,99.0000030212403,8|0,0:2|0:0,0:0:0:0:
399,160,182567,5,0,0:0:0:0:
399,160,182644,1,0,0:0:0:0:
399,160,182720,2,0,B|307:144|313:191|189:162,1,198.000006042481,12|0,0:2|0:0,0:0:0:0:
33,91,183177,1,0,0:0:0:0:
199,33,183329,1,0,0:0:0:0:
8,77,183481,1,8,0:2:0:0:
98,213,183633,2,0,P|108:156|116:95,1,99.0000030212403
192,258,183938,5,2,0:2:0:0:
192,258,184014,1,2,0:2:0:0:
192,258,184090,1,2,0:2:0:0:
0,209,184243,1,2,0:2:0:0:
74,369,184395,2,0,P|127:357|186:347,1,99.0000030212403,2|0,0:2|0:0,0:0:0:0:
321,208,184699,1,6,0:2:0:0:
295,384,184852,1,0,0:0:0:0:
192,258,185004,1,0,0:0:0:0:
473,349,185156,6,0,B|491:285|491:285|478:227|478:227|500:140,1,198.000006042481,8|0,0:2|0:0,0:0:0:0:
336,32,185613,1,0,0:0:0:0:
502,0,185765,1,0,0:0:0:0:
406,152,185918,6,0,P|353:142|291:132,1,99.0000030212403,6|0,0:2|0:0,0:0:0:0:
134,47,186222,2,0,B|202:50|202:50|258:10|353:23,2,198.000006042481,8|0|0,0:2|0:2|0:2,0:0:0:0:
2,188,186984,1,0,0:0:0:0:
154,129,187136,1,0,0:0:0:0:
59,10,187288,1,0,0:0:0:0:
59,10,187364,1,0,0:0:0:0:
59,10,187441,1,0,0:0:0:0:
89,222,187593,6,0,P|76:293|113:374,1,148.50000453186,8|0,0:2|0:0,0:0:0:0:
103,362,187897,2,0,L|40:354,2,49.5000015106202
235,262,188202,1,0,0:0:0:0:
264,266,188278,1,0,0:0:0:0:
293,270,188354,1,2,0:0:0:0:
154,129,188507,1,2,0:1:0:0:
154,129,188811,6,0,L|306:154,1,148.50000453186,2|0,0:0|0:0,0:0:0:0:
300,153,189116,2,0,L|294:91,2,49.5000015106202
475,24,189420,1,0,0:0:0:0:
478,53,189496,1,0,0:0:0:0:
482,82,189573,1,0,0:0:0:0:
405,224,189725,1,0,0:0:0:0:
405,224,190029,6,0,P|433:295|415:369,1,148.50000453186,12|0,0:2|0:0,0:0:0:0:
418,363,190334,2,0,L|357:371,2,49.5000015106202
221,239,190639,1,0,0:0:0:0:
249,234,190715,1,0,0:0:0:0:
278,231,190791,1,0,0:0:0:0:
253,357,190943,1,0,0:0:0:0:
253,357,191019,1,0,0:0:0:0:
253,357,191095,1,0,0:0:0:0:
43,291,191248,1,0,0:0:0:0:
133,129,191400,1,0,0:0:0:0:
47,46,192618,6,0,P|126:46|269:16,1,215.999993408203,4|0,0:0|2:0,0:0:0:0:
503,195,193837,2,0,P|424:195|281:225,1,215.999993408203,4|0,0:0|0:0,0:0:0:0:
290,221,195055,6,0,P|299:268|298:304,1,80.9999975280763,2|2,0:0|0:0,0:0:0:0:
235,375,195359,1,2,0:0:0:0:
128,328,195512,1,0,3:0:0:0:
176,212,195664,2,0,P|163:138|169:41,1,161.999995056153,2|0,0:0|3:0,0:0:0:0:
105,0,196121,1,2,0:0:0:0:
254,91,196273,6,0,B|346:67|331:113|425:87,1,161.999995056153,2|2,0:0|0:0,0:0:0:0:
480,44,196730,1,2,0:0:0:0:
512,192,196882,1,0,0:0:0:0:
512,192,197035,1,8,3:3:0:0:
392,176,197187,2,0,P|407:237|411:342,1,161.999995056153,4|2,3:3|0:0,0:0:0:0:
175,369,197796,6,0,P|133:374|72:380,1,80.9999975280763,2|0,0:0|3:0,0:0:0:0:
0,299,198100,2,0,P|95:290|184:280,1,161.999995056153,2|0,0:0|1:0,0:0:0:0:
234,313,198557,1,2,0:0:0:0:
97,204,198710,2,0,P|112:139|84:44,1,161.999995056153,2|2,0:0|0:0,0:0:0:0:
24,5,199166,1,2,0:0:0:0:
193,73,199319,5,0,1:0:0:0:
27,133,199471,1,2,0:2:0:0:
193,73,199623,1,2,0:2:0:0:
168,264,199776,1,2,0:2:0:0:
289,192,199928,6,0,P|342:194|464:165,1,161.999995056153,2|2,0:0|0:0,0:0:0:0:
448,171,200537,1,2,0:0:0:0:
379,95,200689,2,0,P|381:55|390:12,1,80.9999975280763,0|0,0:0|3:0,0:0:0:0:
289,192,200994,6,0,P|305:273|295:368,2,161.999995056153,2|2|2,0:0|2:1|0:0,0:0:0:0:
190,50,201755,1,0,3:0:0:0:
299,32,201908,1,8,0:3:0:0:
211,164,202060,2,0,P|164:155|108:152,1,80.9999975280763,4|8,0:3|0:3,0:0:0:0:
43,85,202364,5,6,0:1:0:0:
134,246,202517,1,6,0:1:0:0:
0,206,202669,2,0,P|12:271|8:379,1,161.999995056153,2|2,0:0|0:0,0:0:0:0:
142,325,203126,2,0,P|132:261|135:232,1,80.9999975280763,2|0,0:0|3:0,0:0:0:0:
289,192,203430,6,0,P|334:205|447:161,1,161.999995056153,2|0,0:0|1:0,0:0:0:0:
494,64,203887,1,0,0:0:0:0:
336,117,204040,1,0,0:0:0:0:
336,117,204116,1,0,0:0:0:0:
336,117,204192,1,0,0:0:0:0:
381,20,204344,1,8,0:3:0:0:
456,183,204496,1,8,0:3:0:0:
231,133,204649,1,2,0:3:0:0:
