osu file format v14

[General]
AudioFilename: audio.ogg
AudioLeadIn: 0
PreviewTime: 172364
Countdown: 0
SampleSet: Normal
StackLeniency: 0.4
Mode: 0
LetterboxInBreaks: 0
WidescreenStoryboard: 1

[Editor]
DistanceSpacing: 1.1
BeatDivisor: 4
GridSize: 32
TimelineZoom: 3.399999

[Metadata]
Title:Shark
TitleUnicode:Shark
Artist:Shiena Nishizawa
ArtistUnicode:西沢幸奏
Creator:-Hitomi
Version:Ag's Hard
Source:
Tags:l1ght_u light_u cryo[iceeicee] __ag moete rk657 matsuyuki ame aurorance japanese rock jrock j-rock exina
BeatmapID:4526301
BeatmapSetID:2148688

[Difficulty]
HPDrainRate:4
CircleSize:3.8
OverallDifficulty:7
ApproachRate:8
SliderMultiplier:1.4
SliderTickRate:1

[Events]
//Background and Video events
0,0,"bg.jpg",0,0
//Break Periods
2,80740,87099
2,120181,127302
//Storyboard Layer 0 (Background)
//Storyboard Layer 1 (Fail)
//Storyboard Layer 2 (Pass)
//Storyboard Layer 3 (Foreground)
//Storyboard Layer 4 (Overlay)
//Storyboard Sound Samples

[TimingPoints]
134,304.568527918782,4,1,1,20,1,0
134,-142.857142857143,4,1,1,20,0,0
4397,-142.857142857143,4,1,1,30,0,0
5007,-111.111111111111,4,1,10,60,0,0
5311,-111.111111111111,4,1,1,60,0,0
5463,-111.111111111111,4,1,10,60,0,0
5920,-111.111111111111,4,1,1,60,0,0
6224,-111.111111111111,4,1,10,60,0,0
6529,-111.111111111111,4,1,1,60,0,0
6682,-111.111111111111,4,1,10,60,0,0
7139,-111.111111111111,4,1,1,60,0,0
7291,-111.111111111111,4,1,1,40,0,0
9271,-111.111111111111,4,1,2,30,0,0
9727,-100,4,1,1,50,0,0
21758,-200,4,1,1,50,0,0
21986,-200,4,2,1,30,0,0
22062,-125,4,3,15,100,0,0
22367,-125,4,1,1,50,0,0
22976,-125,4,1,1,30,0,0
24194,-125,4,1,1,50,0,0
24498,-125,4,3,15,100,0,0
24804,-125,4,1,1,50,0,0
25413,-125,4,1,1,30,0,0
26631,-125,4,1,1,50,0,0
26935,-125,4,3,15,100,0,0
27240,-125,4,1,1,50,0,0
27849,-125,4,1,1,30,0,0
28458,-125,4,2,1,30,0,0
29068,-125,4,1,1,30,0,0
29372,-125,4,3,15,100,0,0
29677,-125,4,1,1,50,0,0
30134,-125,4,1,1,40,0,0
30743,-200,4,1,1,30,0,0
31199,-200,4,1,1,40,0,0
31656,-117.647058823529,4,1,1,50,0,0
34245,-117.647058823529,4,2,1,30,0,0
34549,-117.647058823529,4,1,1,50,0,0
35463,-117.647058823529,4,2,1,30,0,0
35616,-117.647058823529,4,1,1,70,0,0
35768,-117.647058823529,4,1,1,50,0,0
35920,-117.647058823529,4,1,1,70,0,0
36529,-117.647058823529,4,1,1,50,0,0
37443,-117.647058823529,4,2,1,30,0,0
37595,-117.647058823529,4,1,1,50,0,0
41403,-100,4,1,1,50,0,0
42773,-100,4,2,1,30,0,0
43077,-100,4,1,1,50,0,0
45210,-100,4,2,1,30,0,0
45362,-100,4,1,1,50,0,0
49626,-100,4,1,1,50,0,0
52519,-100,4,2,1,30,0,0
52672,-100,4,1,1,50,0,0
54194,-100,4,1,2,50,0,0
55564,-100,4,1,1,50,0,0
60057,-100,4,1,15,100,0,0
60286,-100,4,1,1,50,0,0
60895,-100,4,1,2,50,0,0
67444,-100,4,1,1,50,0,0
70793,-111.111111111111,4,1,1,50,0,0
75514,-111.111111111111,4,1,2,50,0,0
76428,-111.111111111111,4,2,2,30,0,0
76580,-111.111111111111,4,1,2,50,0,0
77951,-111.111111111111,4,1,1,50,0,0
78255,-111.111111111111,4,1,2,50,0,0
80083,-111.111111111111,4,1,15,80,0,0
80540,-166.666666666667,4,1,1,60,0,0
87849,-111.111111111111,4,1,1,50,0,0
89220,-111.111111111111,4,1,2,50,0,0
89829,-111.111111111111,4,1,1,50,0,0
94397,-111.111111111111,4,1,15,50,0,0
94854,-111.111111111111,4,1,1,50,0,0
97595,-111.111111111111,4,1,2,50,0,0
100489,-111.111111111111,4,1,15,70,0,0
101098,-100,4,1,1,60,0,0
101198,-100,4,1,1,50,0,0
102772,-100,4,1,2,50,0,0
103077,-100,4,1,1,50,0,0
104752,-100,4,1,2,50,0,0
105514,-100,4,1,1,50,0,0
108407,-100,4,1,2,50,0,0
108711,-100,4,1,15,70,0,0
109625,-100,4,1,2,50,0,0
110844,-100,4,1,1,50,0,0
111757,-100,4,2,1,30,0,0
111910,-100,4,1,1,50,0,0
112214,-100,4,1,2,50,0,0
113280,-100,4,1,1,50,0,0
114955,-100,4,1,2,50,0,0
115259,-100,4,1,1,50,0,0
116326,-100,4,1,1,50,0,0
117392,-100,4,1,2,50,0,0
117544,-100,4,1,1,50,0,0
118254,-100,4,1,2,50,0,0
119624,-100,4,1,15,100,0,0
119981,-100,4,1,2,50,0,0
120743,304.568527918782,3,2,1,30,1,0
120743,-142.857142857143,3,2,1,30,0,0
128052,-142.857142857143,3,1,45,40,0,0
128966,-142.857142857143,3,1,2,20,0,0
129880,-142.857142857143,3,1,45,40,0,0
130793,-142.857142857143,3,1,2,20,0,0
131707,-142.857142857143,3,1,2,40,0,0
132621,-142.857142857143,3,1,2,20,0,0
133534,-142.857142857143,3,1,2,40,0,0
134448,-142.857142857143,3,1,2,20,0,0
135362,-142.857142857143,3,1,1,45,0,0
135971,-142.857142857143,3,3,45,80,0,0
136275,-142.857142857143,3,3,45,60,0,0
136580,-142.857142857143,3,3,45,80,0,0
143585,-142.857142857143,3,3,45,50,0,0
143890,-142.857142857143,3,3,45,80,0,0
145413,-142.857142857143,3,3,45,60,0,0
145717,-142.857142857143,3,3,45,80,0,0
146326,-142.857142857143,3,3,45,90,0,0
147240,-142.857142857143,3,3,45,80,0,0
147340,-142.857142857143,3,3,45,90,0,0
147697,-142.857142857143,3,3,45,100,0,0
148154,-142.857142857143,3,3,45,90,0,0
148458,-142.857142857143,3,3,45,100,0,0
149067,-142.857142857143,3,3,45,90,0,0
149220,-142.857142857143,3,3,45,100,0,0
149981,304.568527918782,4,3,45,80,1,0
149981,-200,4,3,45,80,0,0
151122,-200,4,2,45,30,0,0
151199,304.568527918782,3,1,1,50,1,0
151199,-111.111111111111,3,1,1,50,0,0
159117,-111.111111111111,4,2,1,30,0,0
159269,304.568527918782,3,1,1,50,1,0
159269,-111.111111111111,4,1,1,50,0,0
166426,-111.111111111111,3,1,1,60,0,0
167035,304.568527918782,4,1,2,60,1,0
167035,-133.333333333333,4,1,2,60,0,0
169014,-133.333333333333,4,2,2,30,0,0
169471,-133.333333333333,4,1,1,60,0,0
170537,-133.333333333333,4,1,2,60,0,0
172974,-100,4,1,1,60,0,0
173076,-100,4,1,2,50,0,0
174953,-100,4,1,1,50,0,0
176781,-100,4,2,1,30,0,0
176933,-100,4,1,1,50,0,0
178303,-100,4,1,2,50,0,0
178607,-100,4,1,1,50,0,0
179522,-100,4,1,2,50,0,0
179826,-100,4,1,1,50,0,0
180892,-100,4,1,15,60,0,0
181197,-100,4,1,1,50,0,0
181502,-100,4,1,1,65,0,0
182263,-100,4,1,1,50,0,0
184090,-100,4,1,2,50,0,0
184699,-100,4,1,1,50,0,0
192618,-125,4,1,1,50,0,0
195055,-125,4,1,1,60,0,0
197034,-125,4,1,15,80,0,0
197491,-125,4,1,1,60,0,0
199471,-125,4,1,33,60,0,0
199928,-125,4,1,1,50,0,0
201907,-125,4,1,15,70,0,0
202364,-125,4,1,1,50,0,0
204344,-125,4,3,45,80,0,0

[Colours]
Combo1 : 128,191,255
Combo2 : 179,255,255

[HitObjects]
161,308,134,6,0,P|117:305|81:262,1,97.9999970092774,0|0,0:0|3:0,0:0:0:0:
151,229,590,2,2,P|190:229|231:268,1,97.9999970092774
277,331,1047,2,0,P|245:346|225:341,2,48.9999985046387,0|0|0,1:2|0:0|0:0,0:0:0:0:
321,266,1504,2,2,L|417:252,1,97.9999970092774
465,53,2570,6,0,L|437:153,1,97.9999970092774,0|0,0:0|3:0,0:0:0:0:
363,122,3027,2,2,P|347:90|291:105,1,97.9999970092774
275,177,3484,2,0,L|333:197,2,48.9999985046387,0|0|0,1:2|0:0|0:0,0:0:0:0:
212,129,3941,2,2,L|113:163,1,97.9999970092774
48,193,4397,1,0,0:0:0:0:
48,193,4550,2,0,L|36:165,2,24.4999992523194
160,245,5007,6,0,B|168:283|168:283|148:343|148:343|160:368,1,125.999996154785,2|0,0:2|0:3,0:0:0:0:
247,369,5463,2,0,L|231:341,2,31.4999990386963,4|4|0,0:3|0:3|0:3,0:0:0:0:
326,347,5768,1,2,0:2:0:0:
326,347,5920,2,0,L|253:225,1,125.999996154785,0|2,0:2|0:2,0:0:0:0:
329,193,6377,6,0,P|361:184|399:198,1,62.9999980773926,2|0,0:2|0:0,0:0:0:0:
442,254,6682,2,0,L|421:290,2,31.4999990386963,4|4|0,0:3|0:3|0:2,0:0:0:0:
484,184,6986,1,2,0:2:0:0:
484,184,7139,2,0,L|448:126,1,62.9999980773926,0|0,0:2|0:0,0:0:0:0:
407,60,7443,5,0,0:0:0:0:
339,209,7748,1,0,0:0:0:0:
221,95,8052,2,0,L|139:109,1,62.9999980773926,0|0,0:0|1:0,0:0:0:0:
117,110,8281,1,0,0:0:0:0:
117,110,8357,1,0,0:0:0:0:
105,190,8509,1,2,0:0:0:0:
105,190,8814,6,0,P|71:181|45:147,1,62.9999980773926,2|2,0:0|0:0,0:0:0:0:
199,233,9271,2,0,P|208:219|210:199,4,31.4999990386963,2|2|2|2|2,1:2|1:2|1:2|1:2|1:2,0:0:0:0:
170,319,9727,6,2,P|189:281|291:293,1,140
351,316,10184,2,0,L|377:238,1,70,2|2,0:0|0:0,0:0:0:0:
314,196,10489,1,0,0:0:0:0:
314,196,10641,1,2,0:0:0:0:
389,160,10793,2,0,P|354:167|283:93,1,140,0|2,0:0|0:0,0:0:0:0:
231,35,11250,5,0,0:0:0:0:
231,35,11403,2,0,B|206:80|206:80|212:129|212:129|182:182,1,140,2|2,0:0|0:0,0:0:0:0:
117,194,11859,1,2,0:0:0:0:
117,194,12012,1,2,0:0:0:0:
33,186,12164,2,2,P|47:142|129:114,1,140,6|2,1:1|0:0,0:0:0:0:
192,163,12621,6,0,B|201:211|201:211|187:244|187:244|210:321,1,140,2|2,0:0|0:0,0:0:0:0:
283,273,13078,1,0,0:0:0:0:
283,273,13230,2,0,L|352:249,1,70,2|0,0:0|0:0,0:0:0:0:
396,180,13535,5,2,0:0:0:0:
396,180,13687,1,2,0:0:0:0:
336,120,13839,2,0,L|257:109,2,70,2|0|2,0:0|0:0|0:0,0:0:0:0:
178,76,14448,1,0,0:0:0:0:
178,76,14601,6,2,B|162:106|176:133|176:133|210:192|155:231,1,140,4|2,1:1|0:0,0:0:0:0:
101,175,15057,2,0,P|64:178|40:206,1,70,2|0,0:0|0:0,0:0:0:0:
21,282,15362,1,2,0:0:0:0:
21,282,15514,1,0,0:0:0:0:
102,261,15666,2,0,B|128:303|128:303|128:332|128:332|169:386,1,140,2|2,0:0|0:0,0:0:0:0:
237,334,16123,5,0,0:0:0:0:
237,334,16276,2,0,P|220:284|292:296,1,140,2|2,0:0|0:0,0:0:0:0:
352,340,16732,1,2,0:0:0:0:
352,340,16885,1,2,0:0:0:0:
416,286,17037,2,2,B|369:244|369:244|361:246|361:246|362:239|362:239|305:190,1,140,6|2,0:1|0:0,0:0:0:0:
230,205,17494,6,0,P|270:199|273:94,1,140,2|2,0:0|0:0,0:0:0:0:
227,69,17951,1,0,0:0:0:0:
227,69,18103,1,2,0:0:0:0:
153,108,18255,2,0,P|150:155|167:181,2,70,2|2|0,0:0|0:0|0:0,0:0:0:0:
227,69,18712,2,0,L|161:13,1,70
90,39,19017,2,0,L|57:7,6,35
207,323,21758,2,0,L|263:314,1,52.5,8|0,0:1|0:0,0:0:0:0:
291,308,22062,6,0,L|279:244,1,56,4|0,1:2|0:0,0:0:0:0:
269,174,22367,1,0,0:0:0:0:
443,64,22976,1,0,0:0:0:0:
411,237,23585,1,0,1:0:0:0:
308,60,24194,2,0,L|196:40,1,112
140,94,24651,5,0,0:0:0:0:
140,94,24804,1,0,0:0:0:0:
108,277,25413,1,8,1:0:0:0:
19,138,26022,1,8,0:0:0:0:
200,235,26631,2,0,P|236:230|278:293,1,112
250,357,27088,5,0,0:0:0:0:
250,357,27240,1,0,0:0:0:0:
414,204,27849,1,0,0:0:0:0:
385,358,28458,1,0,0:0:0:0:
285,188,29068,2,0,B|305:141|305:141|314:140|314:140|338:78,1,112
282,31,29524,5,0,0:0:0:0:
282,31,29677,1,0,0:0:0:0:
127,208,30134,2,0,L|98:182,2,28,0|0|8,0:0|0:0|0:2,0:0:0:0:
233,309,30743,6,0,L|202:343,2,35,0|2|0,0:0|0:0|0:0,0:0:0:0:
290,249,31199,2,0,P|277:222|319:232,1,87.5,2|0,0:0|3:0,0:0:0:0:
318,254,31656,6,0,B|328:298|328:298|316:336|316:336|328:382,1,119.000002269745,4|0,0:0|0:0,0:0:0:0:
404,343,32113,2,0,P|436:351|476:335,2,59.5000011348725,0|0|0,0:0|0:0|1:0,0:0:0:0:
439,267,32570,2,0,B|452:220|452:220|462:212|462:212|481:150,1,119.000002269745,0|0,1:0|0:0,0:0:0:0:
417,104,33027,5,0,1:0:0:0:
417,104,33179,1,0,0:0:0:0:
372,174,33331,2,0,L|249:162,1,119.000002269745,0|0,1:0|1:0,0:0:0:0:
177,140,33788,1,0,0:0:0:0:
177,140,33941,2,0,P|200:102|226:90,1,59.5000011348725,0|8,0:0|0:2,0:0:0:0:
253,162,34245,6,0,B|242:198|212:213|212:213|175:228|178:277,1,119.000002269745
256,284,34702,2,0,P|285:303|292:340,2,59.5000011348725
215,357,35159,2,0,B|199:349|190:330|190:330|136:337|107:286,1,119.000002269745
70,232,35616,5,4,3:3:0:0:
70,232,35768,2,0,P|92:186|88:164,1,59.5000011348725,4|4,1:3|3:3,0:0:0:0:
47,107,36073,2,0,P|80:95|116:103,1,59.5000011348725,4|4,3:3|3:3,0:0:0:0:
166,152,36377,1,0,0:0:0:0:
193,73,36529,1,0,0:0:0:0:
193,73,36606,1,0,0:0:0:0:
193,73,36682,1,6,0:2:0:0:
347,147,36986,5,0,0:0:0:0:
347,147,37139,2,0,L|328:87,2,59.5000011348725
425,173,37595,2,0,B|404:211|404:211|364:230|364:230|341:276,1,119.000002269745
266,252,38052,6,0,L|297:188,2,59.5000011348725
283,338,38509,1,0,0:0:0:0:
283,338,38661,1,0,0:0:0:0:
204,309,38814,2,0,P|182:285|95:296,1,119.000002269745,0|4,0:0|0:2,0:0:0:0:
63,127,39423,5,0,0:0:0:0:
221,76,39727,2,0,L|253:17,2,59.5000011348725,2|0|0,0:0|0:0|0:0,0:0:0:0:
178,148,40184,1,0,0:0:0:0:
178,148,40337,6,0,L|195:184,4,29.7500005674362
46,238,41403,6,0,B|77:260|77:260|97:333|97:333|129:350,1,140,8|0,0:2|0:0,0:0:0:0:
184,291,41859,2,0,P|170:248|246:244,1,140,0|4,0:0|0:2,0:0:0:0:
298,301,42316,1,0,0:0:0:0:
357,240,42469,2,0,L|305:189,1,70,0|8,0:0|0:2,0:0:0:0:
339,113,42773,6,0,L|441:214,2,140,0|0|2,0:0|0:0|0:2,0:0:0:0:
279,53,43535,1,0,0:0:0:0:
239,127,43687,1,0,0:0:0:0:
198,53,43839,6,0,B|171:69|156:102|156:102|134:144|87:137,1,140,8|0,0:2|0:0,0:0:0:0:
13,119,44296,2,0,P|6:74|91:71,1,140,0|8,0:0|0:2,0:0:0:0:
95,137,44753,1,0,0:0:0:0:
108,219,44905,2,0,P|109:243|76:277,1,70,0|6,0:0|1:2,0:0:0:0:
27,216,45210,5,0,0:0:0:0:
27,216,45362,1,0,0:0:0:0:
108,219,45514,2,0,L|187:218,1,70
247,169,45819,1,2,0:0:0:0:
247,169,45971,2,0,L|285:236,1,70,2|0,0:0|0:0,0:0:0:0:
330,298,46276,6,0,B|361:264|361:264|366:224|366:224|405:179,1,140,8|0,0:2|0:0,0:0:0:0:
391,100,46732,2,0,B|336:94|336:94|329:105|329:105|323:92|323:92|262:85,1,140,6|2,0:2|0:2,0:0:0:0:
191,45,47189,1,0,0:0:0:0:
186,129,47342,1,0,0:0:0:0:
116,82,47494,6,0,B|105:122|105:122|37:138|28:207,1,140,8|0,0:2|0:0,0:0:0:0:
100,239,47951,2,0,P|117:206|183:257,1,140,4|2,0:2|0:2,0:0:0:0:
206,328,48408,1,0,0:0:0:0:
288,341,48560,1,0,0:0:0:0:
341,276,48712,6,0,B|321:253|281:254|281:254|288:206|248:156,1,140,8|0,0:2|0:2,0:0:0:0:
218,113,49169,1,0,0:2:0:0:
140,82,49321,1,6,0:2:0:0:
61,113,49474,2,0,L|43:80,3,35
78,142,49778,2,0,B|72:164|72:164|55:183|55:183|50:211,1,70,0|2,0:0|0:0,0:0:0:0:
51,204,50235,6,2,L|38:280,1,70
113,313,50540,1,0,0:0:0:0:
132,231,50692,1,0,0:0:0:0:
198,298,50844,1,0,0:0:0:0:
198,298,50920,1,0,0:0:0:0:
198,298,50996,1,0,0:0:0:0:
257,358,51149,6,0,B|280:320|280:320|273:271|273:271|297:218,1,140,2|0,0:2|0:0,0:0:0:0:
367,266,51606,2,0,P|375:311|437:278,1,140,0|4,0:0|0:2,0:0:0:0:
415,197,52062,1,0,0:0:0:0:
386,117,52215,2,0,B|348:136|339:168|339:168|301:143|268:157,1,140
190,166,52672,5,0,0:0:0:0:
108,147,52824,2,0,P|145:97|235:102,1,140,0|2,0:0|0:2,0:0:0:0:
274,154,53281,1,0,0:0:0:0:
355,172,53433,1,0,0:0:0:0:
398,100,53585,6,0,B|386:151|386:151|399:186|399:186|382:258,1,140,8|0,0:2|0:0,0:0:0:0:
358,314,54042,1,0,0:0:0:0:
289,273,54194,1,0,0:0:0:0:
240,342,54347,2,0,P|175:368|110:317,2,140,2|2|2,0:2|0:2|0:2,0:0:0:0:
41,320,55260,6,0,L|79:173,1,140,2|2,0:2|0:2,0:0:0:0:
147,136,55717,1,0,0:0:0:0:
147,136,55793,1,0,0:0:0:0:
147,136,55870,1,0,0:0:0:0:
161,218,56022,6,0,P|203:246|284:196,1,140,8|0,0:2|0:0,0:0:0:0:
292,188,56403,1,0,0:0:0:0:
292,188,56479,2,0,P|296:166|297:144,2,35,0|0|2,0:0|0:0|0:0,0:0:0:0:
343,254,56783,2,0,P|382:256|406:289,1,70,2|2,0:0|0:0,0:0:0:0:
402,277,57240,6,2,P|402:197|461:172,1,140,6|0,1:2|0:0,0:0:0:0:
502,107,57697,1,0,0:0:0:0:
432,59,57849,1,0,0:0:0:0:
432,59,57925,1,0,0:0:0:0:
432,59,58002,2,0,L|348:45,1,70
362,47,58458,6,0,B|323:71|323:71|265:60|265:60|223:51,1,140,14|0,0:2|0:0,0:0:0:0:
156,11,58915,2,0,P|190:53|134:114,1,140
61,125,59372,1,0,0:0:0:0:
38,205,59524,1,2,0:0:0:0:
108,251,59677,1,2,0:0:0:0:
173,198,59829,6,0,L|283:186,1,105,2|0,0:0|0:0,0:0:0:0:
314,165,60134,1,0,0:0:0:0:
351,240,60286,1,2,0:0:0:0:
351,240,60895,6,2,P|352:201|448:183,1,140,6|2,1:2|0:0,0:0:0:0:
433,257,61352,2,0,P|422:291|374:320,1,70,2|0,0:0|0:0,0:0:0:0:
316,314,61657,1,2,0:0:0:0:
316,314,61809,1,2,0:0:0:0:
261,250,61961,2,0,B|231:276|231:276|171:264|171:264|139:290,1,140
70,251,62418,5,2,0:0:0:0:
70,251,62571,2,0,B|86:183|86:183|163:187,1,140,2|0,0:0|0:2,0:0:0:0:
240,167,63027,1,0,0:2:0:0:
240,167,63180,1,0,0:0:0:0:
261,250,63332,2,2,B|280:294|280:294|266:332|266:332|288:393,1,140
357,339,63789,6,0,P|422:355|444:274,1,140,2|2,0:0|0:0,0:0:0:0:
440,220,64246,1,2,0:0:0:0:
440,220,64398,2,0,P|421:189|365:188,1,70,2|0,0:2|0:2,0:0:0:0:
310,195,64703,5,2,0:2:0:0:
310,195,64855,1,2,0:2:0:0:
226,201,65007,2,0,L|239:128,1,70,2|0,0:2|0:2,0:0:0:0:
155,116,65311,2,0,L|142:189,1,70,2|0,0:2|0:2,0:0:0:0:
62,177,65616,1,2,0:2:0:0:
62,177,65769,6,2,P|25:129|90:101,1,140
155,116,66225,2,2,L|168:46,1,70,0|2,0:0|0:0,0:0:0:0:
254,38,66530,1,0,0:0:0:0:
254,38,66682,1,2,0:0:0:0:
252,121,66834,2,0,B|270:175|270:175|261:200|261:200|287:259,1,140,0|2,0:0|0:0,0:0:0:0:
365,222,67291,5,0,0:0:0:0:
365,222,67444,2,0,P|362:170|431:200,1,140,2|2,0:0|0:0,0:0:0:0:
472,259,67900,1,0,0:0:0:0:
472,259,68053,1,2,0:0:0:0:
397,296,68205,2,0,B|339:322|339:322|329:317|329:317|325:329|325:329|265:356,1,140,6|0,1:2|0:0,0:0:0:0:
242,273,68662,6,0,P|211:239|135:288,1,140,2|2,0:0|0:0,0:0:0:0:
93,348,69119,1,0,0:0:0:0:
93,348,69271,1,2,0:0:0:0:
60,258,69423,2,0,P|33:282|-11:274,2,70,0|2|0,0:0|0:0|0:0,0:0:0:0:
106,187,69880,2,0,P|92:157|101:108,1,70,2|0,0:0|0:0,0:0:0:0:
170,81,70184,1,2,0:0:0:0:
170,81,70337,2,0,P|177:104|174:134,5,35
179,152,70793,6,0,P|220:129|282:174,1,125.999996154785
319,240,71250,1,0,0:0:0:0:
319,240,71403,2,0,P|340:271|372:284,1,62.9999980773926
448,282,71707,1,0,0:0:0:0:
448,282,71859,2,0,P|457:231|388:217,1,125.999996154785
362,282,72316,6,0,L|320:359,2,62.9999980773926
396,211,72773,2,0,L|335:189,1,62.9999980773926
258,164,73078,2,2,B|248:202|248:202|265:250|265:250|242:291,1,125.999996154785,4|0,0:2|0:0,0:0:0:0:
184,334,73535,5,0,0:0:0:0:
184,334,73687,1,0,0:0:0:0:
173,252,73839,2,0,P|139:258|112:295,2,62.9999980773926
247,281,74296,2,0,P|282:301|359:264,1,125.999996154785
402,202,74753,1,0,0:0:0:0:
452,278,74905,1,0,0:0:0:0:
452,278,74981,1,0,0:0:0:0:
452,278,75057,2,0,L|492:338,1,62.9999980773926
402,202,75514,6,2,B|430:151|430:151|443:148|443:148|470:93,1,125.999996154785
391,66,75971,2,0,L|425:4,2,62.9999980773926
351,138,76428,1,0,0:0:0:0:
351,138,76580,1,0,0:0:0:0:
303,71,76732,2,0,P|271:43|199:84,1,125.999996154785
183,153,77189,6,0,P|148:140|126:107,2,62.9999980773926,0|2|2,0:0|0:2|0:2,0:0:0:0:
269,155,77646,1,2,0:2:0:0:
269,155,77798,1,0,0:0:0:0:
247,234,77951,2,2,B|242:278|242:278|252:309|252:309|239:371,1,125.999996154785,8|2,0:2|0:2,0:0:0:0:
164,330,78408,2,0,P|146:315|88:329,1,62.9999980773926,2|2,0:2|0:2,0:0:0:0:
38,270,78712,2,0,L|15:339,2,62.9999980773926,2|2|2,0:2|0:2|0:2,0:0:0:0:
67,193,79169,1,0,0:0:0:0:
67,193,79321,6,0,P|101:202|132:186,1,62.9999980773926,0|0,0:0|1:0,0:0:0:0:
188,138,79626,2,0,P|222:129|253:145,1,62.9999980773926,0|0,0:0|1:0,0:0:0:0:
304,204,79930,1,0,0:0:0:0:
304,204,80083,1,8,0:3:0:0:
387,189,80235,1,4,0:3:0:0:
387,189,80387,1,4,0:3:0:0:
398,109,80540,5,4,0:0:0:0:
157,314,87849,6,0,P|121:324|84:306,1,62.9999980773926
123,238,88154,2,0,P|98:209|99:168,1,62.9999980773926
176,173,88458,2,0,P|191:138|229:122,1,62.9999980773926
256,195,88763,2,0,P|293:194|324:221,1,62.9999980773926
393,229,89068,6,0,L|425:150,1,62.9999980773926,0|2,0:0|0:2,0:0:0:0:
435,90,89372,1,2,0:2:0:0:
435,90,89524,2,0,L|485:91,2,31.4999990386963,2|2|2,0:2|0:2|0:1,0:0:0:0:
352,84,89829,1,2,0:0:0:0:
352,84,90134,6,2,L|227:31,1,125.999996154785
220,115,90590,2,2,L|285:143,1,62.9999980773926,2|0,0:0|0:0,0:0:0:0:
323,208,90895,2,0,P|350:185|357:147,2,62.9999980773926,0|0|2,0:0|0:0|0:0,0:0:0:0:
323,208,91504,6,0,P|283:267|300:325,1,125.999996154785,0|2,0:0|0:0,0:0:0:0:
367,278,91961,2,0,P|399:273|434:297,2,62.9999980773926,0|0|2,0:0|0:0|0:0,0:0:0:0:
294,316,92418,1,0,0:0:0:0:
294,316,92570,6,2,P|244:338|186:289,1,125.999996154785
158,224,93027,1,2,0:0:0:0:
158,224,93331,2,0,L|93:260,1,62.9999980773926
64,181,93636,2,0,L|129:145,1,62.9999980773926,2|0,0:0|0:0,0:0:0:0:
190,109,93941,5,0,0:0:0:0:
237,187,94093,1,0,0:0:0:0:
237,187,94169,1,0,0:0:0:0:
237,187,94245,2,0,L|256:221,3,31.4999990386963,0|0|4|4,0:0|0:0|3:3|3:3,0:0:0:0:
276,247,94550,2,0,L|295:281,3,31.4999990386963,4|4|4|4,3:3|3:3|3:3|3:3,0:0:0:0:
317,305,94854,1,4,1:3:0:0:
363,236,95007,6,2,B|383:193|383:193|405:185|405:185|439:117,1,125.999996154785
352,107,95463,6,0,P|323:126|265:69,1,125.999996154785
190,37,95920,6,0,B|175:70|183:104|183:104|193:144|161:171,1,125.999996154785
94,183,96377,6,0,P|53:159|102:123,1,125.999996154785
173,158,96834,6,0,B|175:199|175:199|162:231|162:231|174:301,1,125.999996154785
190,359,97291,5,0,0:0:0:0:
190,359,97443,1,0,0:0:0:0:
253,307,97595,1,2,0:2:0:0:
253,307,97748,1,2,0:2:0:0:
182,71,98205,1,2,0:2:0:0:
182,71,98357,5,2,0:2:0:0:
407,169,98814,1,2,0:2:0:0:
407,169,98966,5,2,0:2:0:0:
165,186,100032,2,0,L|155:252,1,62.9999980773926
78,220,100337,2,0,L|68:286,1,62.9999980773926,0|8,0:0|0:3,0:0:0:0:
113,350,100641,2,0,L|147:334,5,31.4999990386963,8|4|4|4|4|4,0:3|0:3|0:3|0:3|0:3|0:3,0:0:0:0:
185,322,101098,6,0,B|218:340|218:340|283:322|283:322|328:344,1,140,8|0,1:2|0:0,0:0:0:0:
383,289,101554,2,0,B|373:262|373:262|302:228|302:228|269:238,1,140,8|0,0:2|0:0,0:0:0:0:
186,245,102011,1,0,0:0:0:0:
211,164,102164,2,0,L|280:141,1,70,0|8,0:0|0:2,0:0:0:0:
357,118,102468,6,0,P|385:172|455:157,2,140,0|2|4,0:0|0:2|0:2,0:0:0:0:
327,39,103230,1,0,0:0:0:0:
243,36,103382,1,0,0:0:0:0:
215,115,103534,6,0,B|206:175|206:175|197:186|197:186|183:260,1,140,2|0,0:2|0:0,0:0:0:0:
160,330,103991,2,0,P|177:289|262:317,1,140,0|8,0:0|0:2,0:0:0:0:
324,354,104448,1,0,0:0:0:0:
335,270,104600,2,0,P|373:268|401:224,1,70,0|2,0:0|0:2,0:0:0:0:
433,173,104905,5,0,0:2:0:0:
433,173,105057,1,2,0:2:0:0:
355,139,105210,2,0,P|317:141|289:185,1,70,2|2,0:2|0:2,0:0:0:0:
230,214,105514,1,6,0:2:0:0:
230,214,105666,2,0,L|188:150,1,70
151,81,105971,6,2,B|112:119|112:119|110:149|110:149|61:186,1,140
84,264,106427,2,0,B|143:224|143:224|189:294,1,140,2|8,0:0|0:2,0:0:0:0:
223,354,106884,1,0,0:0:0:0:
292,306,107037,1,0,0:0:0:0:
250,233,107189,6,2,P|305:271|364:223,1,140,0|2,0:0|0:0,0:0:0:0:
357,151,107646,2,0,P|302:113|243:161,1,140,2|8,0:0|0:2,0:0:0:0:
179,198,108103,1,0,0:0:0:0:
96,184,108255,1,0,0:0:0:0:
66,105,108407,6,0,B|70:142|70:142|46:182|46:182|51:248,1,140,2|4,0:0|0:3,0:0:0:0:
38,321,108864,1,4,0:3:0:0:
119,300,109016,1,0,0:3:0:0:
156,375,109169,2,0,L|190:363,3,35,4|0|4|0,0:3|0:3|0:3|0:3,0:3:0:0:
206,356,109473,2,0,B|274:331,1,70,4|2,0:3|0:0,0:3:0:0:
271,331,109930,6,0,L|241:241,1,70,2|0,0:0|0:0,0:0:0:0:
217,186,110235,1,0,0:0:0:0:
300,196,110387,1,0,0:0:0:0:
272,116,110540,2,0,L|260:78,3,35
226,105,110844,6,0,B|184:102|184:102|152:128|152:128|66:117,1,140,8|0,0:2|0:0,0:0:0:0:
31,66,111301,2,0,P|59:100|26:180,1,140,0|2,0:0|0:2,0:0:0:0:
3,261,111757,1,0,1:0:0:0:
84,238,111910,2,0,P|98:296|178:296,1,140
220,236,112367,5,2,0:2:0:0:
269,303,112519,2,0,L|241:155,1,140,2|2,0:2|0:2,0:0:0:0:
176,113,112976,1,2,0:2:0:0:
252,78,113128,1,2,0:2:0:0:
318,129,113280,6,0,B|386:108|386:108|423:179,1,140,2|0,0:2|0:0,0:0:0:0:
411,253,113737,1,0,0:0:0:0:
327,257,113889,1,0,0:0:0:0:
266,197,114042,2,0,P|201:223|136:172,2,140,4|4|0,0:2|0:2|0:2,0:0:0:0:
123,108,114955,6,0,P|87:128|87:243,1,140,2|8,0:2|0:2,0:0:0:0:
141,280,115412,1,0,0:0:0:0:
141,280,115488,1,0,0:0:0:0:
141,280,115565,1,0,0:0:0:0:
145,189,115717,6,0,P|194:173|256:245,1,140,8|0,0:2|0:0,0:0:0:0:
260,273,116098,1,0,0:0:0:0:
260,273,116174,2,0,P|257:295|250:315,2,35
342,253,116478,2,0,P|381:255|415:228,1,70,2|2,0:0|0:0,0:0:0:0:
406,239,116935,6,2,P|429:189|375:120,1,140,2|0,0:0|0:0,0:0:0:0:
302,107,117392,1,0,0:0:0:0:
239,160,117544,1,0,0:0:0:0:
239,160,117620,1,0,0:0:0:0:
239,160,117697,2,0,P|197:162|166:131,1,70
175,146,118153,6,0,B|167:196|167:196|146:220|146:220|135:308,1,140,8|0,0:2|1:0,0:0:0:0:
222,290,118610,2,0,P|273:252|300:325,1,140
359,370,119067,1,0,0:0:0:0:
441,355,119219,1,2,0:0:0:0:
449,270,119372,1,0,0:0:0:0:
371,238,119524,6,0,L|398:161,1,70,2|0,0:0|0:0,0:0:0:0:
419,91,119829,1,0,0:3:0:0:
475,153,119981,1,0,0:0:0:0:
161,62,128052,5,0,0:3:0:0:
323,148,128966,1,2,0:2:0:0:
155,237,129880,1,0,0:2:0:0:
280,220,130793,1,2,0:2:0:0:
137,139,131707,1,0,0:0:0:0:
356,86,132621,1,2,0:2:0:0:
196,57,133534,1,0,0:0:0:0:
307,269,134448,1,2,0:2:0:0:
116,253,135362,2,0,P|79:268|83:169,1,195.999994018555,4|4,1:0|0:3,0:0:0:0:
201,183,136275,5,4,0:1:0:0:
309,242,136580,2,0,L|324:193,2,48.9999985046387,4|4|4,0:3|0:3|0:3,0:0:0:0:
390,298,137189,2,0,L|421:201,2,97.9999970092774,4|4|8,3:1|0:0|0:3,0:0:0:0:
295,338,138103,1,4,3:1:0:0:
265,211,138407,2,0,L|278:272,2,48.9999985046387,0|2|2,0:3|0:3|0:3,0:0:0:0:
236,97,139017,5,4,3:1:0:0:
353,144,139321,2,0,P|381:145|408:128,2,48.9999985046387,4|4|8,0:3|0:3|0:3,0:0:0:0:
236,97,139930,2,0,P|208:96|181:113,2,48.9999985046387,4|4|8,3:1|0:3|0:3,0:0:0:0:
353,144,140539,1,4,0:3:0:0:
264,208,140844,1,4,0:1:0:0:
135,216,141149,2,0,P|132:184|142:160,2,48.9999985046387,0|2|2,0:0|0:3|0:3,0:0:0:0:
171,347,141758,6,0,L|62:321,2,97.9999970092774,4|4|4,3:1|0:3|0:3,0:0:0:0:
258,259,142671,1,4,3:1:0:0:
353,330,142976,2,0,L|333:380,2,48.9999985046387,4|4|8,0:3|0:3|0:3,0:0:0:0:
399,223,143585,1,4,0:2:0:0:
251,181,143890,2,0,L|315:198,2,48.9999985046387,4|4|8,0:3|0:3|0:3,0:0:0:0:
159,72,144499,6,0,P|186:43|244:40,2,97.9999970092774,4|4|8,0:1|0:3|0:0,0:3:0:0:
117,185,145413,1,4,0:2:0:0:
50,83,145717,2,0,P|29:88|2:74,2,48.9999985046387,4|8|4,0:3|0:3|0:3,0:0:0:0:
117,185,146326,1,4,1:1:0:0:
212,257,146631,2,0,P|226:237|229:204,2,48.9999985046387,4|4|2,0:3|0:3|0:3,0:0:0:0:
303,307,147240,2,0,L|326:355,1,48.9999985046387,4|4,1:2|0:3,0:0:0:0:
374,284,147545,2,0,L|401:338,1,48.9999985046387,4|8,0:3|0:3,0:0:0:0:
465,356,147849,1,4,0:3:0:0:
500,232,148154,6,0,P|457:236|416:194,1,97.9999970092774,4|2,1:1|0:3,0:0:0:0:
377,136,148611,2,0,L|402:115,2,24.4999992523194,4|4|8,0:3|0:3|0:3,0:0:0:0:
319,186,148915,2,0,L|270:229,1,48.9999985046387,4|4,0:0|1:2,0:0:0:0:
222,260,149220,2,0,L|206:238,2,24.4999992523194,4|4|4,0:3|0:3|0:3,0:0:0:0:
274,319,149524,2,0,L|317:285,2,48.9999985046387,4|4|4,0:3|0:3|0:3,0:0:0:0:
214,366,149981,5,0,1:1:0:0:
50,194,150590,2,2,P|62:144|107:186,1,122.5,2|0,0:1|0:0,0:1:0:0:
88,215,151199,6,0,B|126:201|126:201|179:226|179:226|222:214,1,125.999996154785,0|2,1:1|0:0,0:0:0:0:
209,137,151655,6,0,P|196:105|265:61,1,125.999996154785,2|2,0:0|0:0,0:0:0:0:
332,93,152112,6,0,B|307:135|307:135|292:135|292:135|298:148|298:148|263:209,1,125.999996154785,0|2,0:0|0:0,0:0:0:0:
338,241,152569,6,0,L|406:133,1,125.999996154785,2|2,0:0|0:0,0:0:0:0:
471,182,153026,6,0,B|489:211|489:211|469:268|469:268|506:311,1,125.999996154785,0|2,0:0|0:0,0:0:0:0:
429,347,153483,6,0,B|395:308|395:308|360:340|305:319,1,125.999996154785,2|2,0:0|0:0,0:0:0:0:
250,292,153940,6,0,P|227:251|253:182,1,125.999996154785,0|2,0:0|0:0,0:0:0:0:
317,130,154396,6,0,B|296:106|264:100|264:100|220:93|218:55,1,125.999996154785,2|2,0:0|0:0,0:0:0:0:
142,92,154853,6,0,P|110:65|77:132,1,125.999996154785,0|2,0:0|0:0,0:0:0:0:
129,173,155310,6,0,B|145:217|67:248|100:296,1,125.999996154785,2|2,0:0|0:0,0:0:0:0:
177,291,155767,5,0,0:0:0:0:
177,291,155919,2,0,P|206:275|246:286,2,62.9999980773926,2|2|2,0:0|0:0|0:0,0:0:0:0:
134,361,156376,2,0,P|95:373|64:364,1,62.9999980773926,2|2,0:0|0:0,0:0:0:0:
58,205,156833,6,0,P|34:192|-9:195,2,62.9999980773926,2|2|2,0:0|0:0|0:0,0:0:0:0:
110,268,157290,2,0,P|125:240|161:223,1,62.9999980773926,2|2,0:0|0:0,0:0:0:0:
312,192,157747,6,0,P|345:217|370:218,2,62.9999980773926,2|2|2,0:0|0:0|0:0,0:0:0:0:
287,113,158204,2,0,P|280:78|246:53,1,62.9999980773926,2|2,0:0|0:0,0:0:0:0:
205,119,158508,2,0,P|170:110|133:130,2,62.9999980773926,2|2|0,0:0|0:0|0:0,0:0:0:0:
229,197,158965,1,0,0:0:0:0:
357,298,159269,6,0,L|383:236,1,62.9999980773926,2|2,0:0|0:0,0:0:0:0:
447,288,159573,2,0,L|473:226,1,62.9999980773926,2|2,0:0|0:0,0:0:0:0:
442,152,159878,1,2,0:0:0:0:
293,84,160182,6,0,L|267:146,1,62.9999980773926,2|2,0:0|0:0,0:0:0:0:
203,94,160486,2,0,L|177:156,1,62.9999980773926,2|2,0:0|0:0,0:0:0:0:
208,230,160791,1,2,0:0:0:0:
45,205,161096,6,0,L|105:241,1,62.9999980773926,2|2,0:0|0:0,0:0:0:0:
41,295,161401,2,0,L|101:331,1,62.9999980773926,2|2,0:0|0:0,0:0:0:0:
176,323,161705,1,2,0:0:0:0:
294,210,162010,6,0,L|234:174,1,62.9999980773926,2|2,0:0|0:0,0:0:0:0:
298,120,162315,2,0,L|238:84,1,62.9999980773926,0|2,0:0|0:0,0:0:0:0:
163,92,162619,1,2,0:0:0:0:
375,62,162924,6,0,P|405:55|440:73,1,62.9999980773926,2|2,0:0|0:0,0:0:0:0:
400,141,163228,2,0,P|419:165|417:204,1,62.9999980773926,0|2,0:0|0:0,0:0:0:0:
338,199,163533,1,2,0:0:0:0:
219,311,163837,6,0,P|189:318|154:300,1,62.9999980773926,2|2,0:0|0:0,0:0:0:0:
194,232,164141,2,0,P|174:207|176:168,1,62.9999980773926,0|2,0:0|0:0,0:0:0:0:
256,174,164446,1,2,0:0:0:0:
445,272,164751,6,0,P|452:302|434:337,1,62.9999980773926,2|2,0:0|0:0,0:0:0:0:
366,297,165055,2,0,P|341:316|302:314,1,62.9999980773926,2|2,0:0|0:0,0:0:0:0:
308,235,165360,1,2,0:0:0:0:
196,116,165664,6,0,P|189:86|207:51,1,62.9999980773926,2|2,0:0|0:0,0:0:0:0:
275,91,165968,2,0,P|299:71|338:73,2,62.9999980773926,2|2|2,0:0|0:0|0:0,0:0:0:0:
330,153,166426,2,0,P|337:183|319:218,1,62.9999980773926,2|2,0:0|0:0,0:0:0:0:
251,178,166730,2,2,P|226:197|187:195,1,62.9999980773926,2|0,0:0|3:0,0:0:0:0:
143,139,167035,5,2,0:2:0:0:
143,139,167187,1,2,0:2:0:0:
283,325,168710,2,0,L|259:354,2,26.2500010013581
238,255,169065,6,0,L|177:328,2,70.0000026702882,8|4|4,0:3|0:3|0:3,0:2:0:0:
318,250,169623,5,4,0:2:0:0:
361,136,170537,1,0,0:0:0:0:
361,136,170613,1,0,0:0:0:0:
361,136,170689,6,0,L|395:216,2,78.7500030040742,2|2|2,0:2|0:2|0:2,0:0:0:0:
95,328,172974,6,0,B|130:302|28:256|80:174,1,140,8|0,0:2|0:0,0:0:0:0:
149,219,173430,2,0,P|208:233|209:154,1,140
149,131,173887,1,0,0:0:0:0:
80,81,174040,2,0,P|109:54|148:50,1,70
214,83,174344,6,0,B|258:86|258:86|310:55|310:55|361:63,2,140,2|2|4,0:2|0:2|0:2,0:0:0:0:
137,48,175106,1,0,0:0:0:0:
149,131,175258,1,0,0:0:0:0:
160,214,175410,6,0,B|180:368,1,140,8|0,0:2|0:0,0:0:0:0:
261,339,175867,2,0,P|278:298|363:326,1,140,0|8,0:0|0:2,0:0:0:0:
441,324,176324,1,0,0:0:0:0:
412,245,176476,2,0,P|450:243|478:199,1,70,2|4,0:0|0:2,0:0:0:0:
415,165,176781,5,0,1:0:0:0:
415,165,176933,1,0,0:0:0:0:
334,188,177086,2,0,P|314:223|318:267,1,70
331,342,177390,1,0,0:0:0:0:
331,342,177466,1,0,0:0:0:0:
331,342,177542,2,0,L|285:333,3,35
258,316,177847,6,0,P|219:357|138:308,1,140,8|0,0:2|0:0,0:0:0:0:
64,319,178303,2,0,B|77:261|77:261|91:249|91:249|105:173,1,140,2|0,0:2|0:0,0:0:0:0:
57,116,178760,1,0,0:0:0:0:
120,60,178913,1,0,0:0:0:0:
169,127,179065,6,0,P|201:151|259:91,1,140,8|0,0:2|0:0,0:0:0:0:
319,33,179522,2,0,B|342:67|342:67|343:121|343:121|381:174,1,140,2|8,0:2|0:2,0:0:0:0:
446,190,179979,1,0,0:0:0:0:
375,235,180131,1,0,0:0:0:0:
448,275,180283,6,0,B|377:255|377:255|331:335,1,140,6|0,0:2|0:0,0:0:0:0:
263,337,180740,1,0,0:0:0:0:
241,265,180892,1,8,0:3:0:0:
241,265,180969,1,8,0:3:0:0:
241,265,181045,2,0,L|276:202,1,70,8|2,0:3|0:0,0:0:0:0:
270,124,181349,1,2,0:0:0:0:
344,164,181502,1,2,0:0:0:0:
344,164,181806,6,2,L|383:104,1,70
311,60,182111,1,0,1:0:0:0:
311,60,182263,2,0,P|272:45|229:65,1,70,8|0,0:2|0:0,0:0:0:0:
201,125,182567,1,0,0:0:0:0:
201,125,182644,1,0,0:0:0:0:
201,125,182720,6,0,B|166:101|163:70|163:70|126:101|78:75,1,140,12|0,0:2|0:0,0:0:0:0:
37,22,183177,2,0,P|65:56|14:122,1,140,0|8,0:0|0:2,0:0:0:0:
6,205,183633,1,0,0:0:0:0:
88,185,183786,2,0,B|101:232|101:232|83:264|83:264|108:333,1,140,0|2,0:0|0:2,0:0:0:0:
171,362,184243,5,2,0:2:0:0:
254,367,184395,2,0,P|245:314|150:286,1,140,2|6,0:2|0:2,0:0:0:0:
101,315,184852,1,0,0:0:0:0:
171,362,185004,1,0,0:0:0:0:
172,279,185156,6,0,B|176:218|176:218|168:202|168:202|171:123,1,140,8|0,0:2|0:0,0:0:0:0:
232,84,185613,1,0,0:0:0:0:
304,125,185765,1,0,0:0:0:0:
381,157,185918,2,0,P|381:95|320:43,2,140,6|8|0,0:2|0:2|0:2,0:0:0:0:
381,157,186831,6,0,P|363:200|409:287,1,140,0|0,0:2|0:0,0:0:0:0:
464,349,187288,1,0,0:0:0:0:
464,349,187364,1,0,0:0:0:0:
464,349,187441,1,0,0:0:0:0:
382,368,187593,6,0,L|235:360,1,140,8|0,0:2|0:0,0:0:0:0:
224,321,187974,1,0,0:0:0:0:
224,321,188050,1,0,0:0:0:0:
162,263,188202,2,0,P|141:308|146:335,2,70,0|2|2,0:0|0:0|0:1,0:0:0:0:
162,263,188811,6,2,P|185:213|168:125,1,140,2|0,0:0|0:0,0:0:0:0:
204,104,189192,1,0,0:0:0:0:
204,104,189268,1,0,0:0:0:0:
286,120,189420,2,0,L|297:74,2,35
265,201,189725,1,0,0:0:0:0:
265,201,190029,6,0,B|312:208|312:208|346:186|346:186|413:197,1,140,12|0,0:2|0:0,0:0:0:0:
429,200,190410,1,0,0:0:0:0:
429,200,190486,1,0,0:0:0:0:
449,293,190639,1,0,0:0:0:0:
449,293,190715,1,0,0:0:0:0:
450,294,190791,2,0,L|356:280,1,70
329,350,191095,2,0,L|235:336,1,70
132,87,192618,1,4,0:0:0:0:
374,139,193837,1,4,0:0:0:0:
182,232,194446,1,0,0:0:0:0:
249,88,195055,6,0,L|234:22,2,56,2|2|2,0:0|0:0|0:0,0:0:0:0:
278,219,195664,5,2,0:0:0:0:
278,219,195816,1,2,0:0:0:0:
392,149,196121,5,2,0:0:0:0:
392,149,196273,1,2,0:0:0:0:
401,283,196578,5,2,0:0:0:0:
401,283,196730,1,2,0:0:0:0:
385,365,196882,2,0,P|418:364|449:351,2,56,0|8|4,0:0|3:3|3:3,0:0:0:0:
270,291,197491,2,0,P|238:277|170:328,1,112,2|2,0:0|0:0,0:0:0:0:
70,204,198100,5,2,0:0:0:0:
70,204,198253,1,2,0:0:0:0:
205,96,198710,2,0,L|99:27,2,112,2|2|0,0:0|0:0|1:0,0:0:0:0:
276,134,199471,1,2,0:2:0:0:
276,134,199623,1,2,0:2:0:0:
321,68,199776,2,0,P|346:88|353:124,1,56,2|2,0:2|0:0,0:0:0:0:
430,219,200232,5,2,0:0:0:0:
311,281,200537,5,2,0:0:0:0:
311,281,200689,1,0,0:0:0:0:
426,349,200994,5,2,0:0:0:0:
426,349,201146,1,2,0:0:0:0:
430,219,201451,5,2,0:0:0:0:
430,219,201603,1,2,0:0:0:0:
428,134,201755,2,0,P|461:138|490:166,2,56,0|8|4,3:0|0:3|0:3,0:0:0:0:
317,57,202364,5,6,0:1:0:0:
317,57,202517,2,0,P|281:91|259:97,1,56,6|2,0:1|0:0,0:0:0:0:
142,73,202974,5,2,0:0:0:0:
142,73,203126,1,2,0:0:0:0:
186,199,203430,5,2,0:0:0:0:
186,199,203583,1,2,0:0:0:0:
61,150,203887,5,0,0:0:0:0:
61,150,204040,1,0,0:0:0:0:
44,231,204192,2,0,P|10:220|-10:189,2,56,0|8|8,0:0|0:3|0:3,0:0:0:0:
119,247,204649,1,2,0:3:0:0:
