osu file format v14

[General]
AudioFilename: Meaning.mp3
AudioLeadIn: 1500
PreviewTime: 43150
Countdown: 0
SampleSet: Soft
StackLeniency: 0.5
Mode: 0
LetterboxInBreaks: 0
EpilepsyWarning: 1
WidescreenStoryboard: 1

[Editor]
Bookmarks: 605,3131,13236,23341,33447,41026,42605,43552,53657,61236,62499,63762,73868,78920,83973,94078,101657,104183,114289,121868,122973,126920
DistanceSpacing: 0.7
BeatDivisor: 4
GridSize: 4
TimelineZoom: 2.1

[Metadata]
Title:Meaning
TitleUnicode:Meaning
Artist:Shiena Nishizawa
ArtistUnicode:西沢幸奏
Creator:Taeyang
Version:True Meaning
Source:
Tags:艦隊これくしょん -艦これ- Kantai Collection Kancolle Kibbleru Arusamour Synpoo xChippy BetaStar short ver.
BeatmapID:799913
BeatmapSetID:364401

[Difficulty]
HPDrainRate:7.2
CircleSize:3.8
OverallDifficulty:8.5
ApproachRate:9.5
SliderMultiplier:1.76
SliderTickRate:1

[Events]
//Background and Video events
0,0,"bg.jpg",0,0
//Break Periods
2,74061,77757
//Storyboard Layer 0 (Background)
//Storyboard Layer 1 (Fail)
//Storyboard Layer 2 (Pass)
//Storyboard Layer 3 (Foreground)
Sprite,Foreground,Centre,"SB\highlight.png",320,240 C,0,0,,234,198,30 F,2,506,598,0,1 M,0,598,2070,330,316 F,1,598,2070,1,0
Sprite,Foreground,Centre,"SB\squareSm.png",320,240 F,0,506,598,0,1 R,0,506,598,0,-0.5934119 V,0,598,782,0.5,0.5,9,0.5 M,0,598,966,330,316,496,204 F,0,598,966,1 V,0,782,966,9,0.5,0.5,0.5 F,0,966,1150,1,0
Sprite,Foreground,Centre,"SB\squareSm.png",320,240 F,0,506,598,0,1 R,0,506,598,0,-2.181662 V,0,598,782,0.5,0.5,8,0.5 M,0,598,966,330,316,215,152 F,0,598,966,1 V,0,782,966,8,0.5,0.5,0.5 F,0,966,1150,1,0
Sprite,Foreground,Centre,"SB\squareSm.png",320,240 F,0,506,598,0,1 R,0,506,598,0,-3.316126 V,0,598,782,0.5,0.5,9,0.5 M,0,598,966,330,316,133,351 F,0,598,966,1 V,0,782,966,9,0.5,0.5,0.5 F,0,966,1150,1,0
Sprite,Foreground,Centre,"SB\squareSm.png",320,240 F,0,506,598,0,1 R,0,506,598,0,-4.45059 V,0,598,782,0.5,0.5,9,0.5 M,0,598,966,330,316,278,509 F,0,598,966,1 V,0,782,966,9,0.5,0.5,0.5 F,0,966,1150,1,0
Sprite,Foreground,Centre,"SB\squareSm.png",320,240 F,0,506,598,0,1 R,0,506,598,0,-5.532694 V,0,598,782,0.5,0.5,10,0.5 M,0,598,966,330,316,476,452 F,0,598,966,1 V,0,782,966,10,0.5,0.5,0.5 F,0,966,1150,1,0
Sprite,Foreground,Centre,"SB\dot.png",320,240 F,2,414,598,0,1 M,0,598,966,330,316 F,2,598,966,1 S,1,598,966,1,2 F,2,966,1150,1,0
Sprite,Foreground,Centre,"SB\highlight.png",320,240 C,0,0,,234,198,30 F,2,663,755,0,0.7 M,0,755,2227,181,293 F,1,755,2227,0.7,0
Sprite,Foreground,Centre,"SB\highlight.png",320,240 C,0,0,,234,198,30 F,2,821,913,0,0.7 M,0,913,2385,185,380 F,1,913,2385,0.7,0
Sprite,Foreground,Centre,"SB\highlight.png",320,240 C,0,0,,203,60,52 F,2,979,1071,0,1 M,0,1071,2543,265,242 F,1,1071,2543,1,0
Sprite,Foreground,Centre,"SB\squareSm.png",320,240 F,0,979,1071,0,1 R,0,979,1071,0,-0.9599311 V,0,1071,1255,0.5,0.5,10,0.5 M,0,1071,1439,265,242,380,78 F,0,1071,1439,1 V,0,1255,1439,10,0.5,0.5,0.5 F,0,1439,1623,1,0
Sprite,Foreground,Centre,"SB\squareSm.png",320,240 F,0,979,1071,0,1 R,0,979,1071,0,-1.902409 V,0,1071,1255,0.5,0.5,8,0.5 M,0,1071,1439,265,242,200,53 F,0,1071,1439,1 V,0,1255,1439,8,0.5,0.5,0.5 F,0,1439,1623,1,0
Sprite,Foreground,Centre,"SB\squareSm.png",320,240 F,0,979,1071,0,1 R,0,979,1071,0,-3.560472 V,0,1071,1255,0.5,0.5,10,0.5 M,0,1071,1439,265,242,82,323 F,0,1071,1439,1 V,0,1255,1439,10,0.5,0.5,0.5 F,0,1439,1623,1,0
Sprite,Foreground,Centre,"SB\squareSm.png",320,240 F,0,979,1071,0,1 R,0,979,1071,0,-4.014257 V,0,1071,1255,0.5,0.5,9,0.5 M,0,1071,1439,265,242,136,395 F,0,1071,1439,1 V,0,1255,1439,9,0.5,0.5,0.5 F,0,1439,1623,1,0
Sprite,Foreground,Centre,"SB\squareSm.png",320,240 F,0,979,1071,0,1 R,0,979,1071,0,-5.462881 V,0,1071,1255,0.5,0.5,10,0.5 M,0,1071,1439,265,242,401,388 F,0,1071,1439,1 V,0,1255,1439,10,0.5,0.5,0.5 F,0,1439,1623,1,0
Sprite,Foreground,Centre,"SB\dot.png",320,240 F,2,887,1071,0,1 M,0,1071,1439,265,242 F,2,1071,1439,1 S,1,1071,1439,1,2 F,2,1439,1623,1,0
Sprite,Foreground,Centre,"SB\highlight.png",320,240 C,0,0,,203,60,52 F,2,1137,1229,0,0.7 M,0,1229,2701,447,213 F,1,1229,2701,0.7,0
Sprite,Foreground,Centre,"SB\highlight.png",320,240 C,0,0,,203,60,52 F,2,1295,1387,0,0.7 M,0,1387,2859,440,303 F,1,1387,2859,0.7,0
Sprite,Foreground,Centre,"SB\highlight.png",320,240 C,0,0,,134,103,214 F,2,1453,1545,0,1 M,0,1545,3017,379,126 F,1,1545,3017,1,0
Sprite,Foreground,Centre,"SB\squareSm.png",320,240 F,0,1453,1545,0,1 R,0,1453,1545,0,-0.6108652 V,0,1545,1729,0.5,0.5,10,0.5 M,0,1545,1913,379,126,543,11 F,0,1545,1913,1 V,0,1729,1913,10,0.5,0.5,0.5 F,0,1913,2097,1,0
Sprite,Foreground,Centre,"SB\squareSm.png",320,240 F,0,1453,1545,0,1 R,0,1453,1545,0,-2.181662 V,0,1545,1729,0.5,0.5,8,0.5 M,0,1545,1913,379,126,264,-38 F,0,1545,1913,1 V,0,1729,1913,8,0.5,0.5,0.5 F,0,1913,2097,1,0
Sprite,Foreground,Centre,"SB\squareSm.png",320,240 F,0,1453,1545,0,1 R,0,1453,1545,0,-3.176499 V,0,1545,1729,0.5,0.5,8,0.5 M,0,1545,1913,379,126,179,133 F,0,1545,1913,1 V,0,1729,1913,8,0.5,0.5,0.5 F,0,1913,2097,1,0
Sprite,Foreground,Centre,"SB\squareSm.png",320,240 F,0,1453,1545,0,1 R,0,1453,1545,0,-4.694936 V,0,1545,1729,0.5,0.5,8,0.5 M,0,1545,1913,379,126,376,326 F,0,1545,1913,1 V,0,1729,1913,8,0.5,0.5,0.5 F,0,1913,2097,1,0
Sprite,Foreground,Centre,"SB\squareSm.png",320,240 F,0,1453,1545,0,1 R,0,1453,1545,0,-5.235988 V,0,1545,1729,0.5,0.5,9,0.5 M,0,1545,1913,379,126,479,299 F,0,1545,1913,1 V,0,1729,1913,9,0.5,0.5,0.5 F,0,1913,2097,1,0
Sprite,Foreground,Centre,"SB\dot.png",320,240 F,2,1361,1545,0,1 M,0,1545,1913,379,126 F,2,1545,1913,1 S,1,1545,1913,1,2 F,2,1913,2097,1,0
Sprite,Foreground,Centre,"SB\highlight.png",320,240 C,0,0,,134,103,214 F,2,1611,1703,0,0.7 M,0,1703,3175,174,111 F,1,1703,3175,0.7,0
Sprite,Foreground,Centre,"SB\highlight.png",320,240 C,0,0,,134,103,214 F,2,1769,1861,0,0.7 M,0,1861,3333,176,198 F,1,1861,3333,0.7,0
Sprite,Foreground,Centre,"SB\highlight.png",320,240 C,0,0,,134,103,214 F,2,7453,7545,0,1 M,0,7545,9017,418,251 F,1,7545,9017,1,0
Sprite,Foreground,Centre,"SB\squareSm.png",320,240 F,0,7453,7545,0,1 R,0,7453,7545,0,-1.012291 V,0,7545,7729,0.5,0.5,10,0.5 M,0,7545,7913,418,251,524,81 F,0,7545,7913,1 V,0,7729,7913,10,0.5,0.5,0.5 F,0,7913,8097,1,0
Sprite,Foreground,Centre,"SB\squareSm.png",320,240 F,0,7453,7545,0,1 R,0,7453,7545,0,-1.850049 V,0,7545,7729,0.5,0.5,8,0.5 M,0,7545,7913,418,251,363,59 F,0,7545,7913,1 V,0,7729,7913,8,0.5,0.5,0.5 F,0,7913,8097,1,0
Sprite,Foreground,Centre,"SB\squareSm.png",320,240 F,0,7453,7545,0,1 R,0,7453,7545,0,-3.193953 V,0,7545,7729,0.5,0.5,10,0.5 M,0,7545,7913,418,251,218,261 F,0,7545,7913,1 V,0,7729,7913,10,0.5,0.5,0.5 F,0,7913,8097,1,0
Sprite,Foreground,Centre,"SB\squareSm.png",320,240 F,0,7453,7545,0,1 R,0,7453,7545,0,-4.660029 V,0,7545,7729,0.5,0.5,10,0.5 M,0,7545,7913,418,251,408,451 F,0,7545,7913,1 V,0,7729,7913,10,0.5,0.5,0.5 F,0,7913,8097,1,0
Sprite,Foreground,Centre,"SB\squareSm.png",320,240 F,0,7453,7545,0,1 R,0,7453,7545,0,-5.899213 V,0,7545,7729,0.5,0.5,9,0.5 M,0,7545,7913,418,251,603,326 F,0,7545,7913,1 V,0,7729,7913,9,0.5,0.5,0.5 F,0,7913,8097,1,0
Sprite,Foreground,Centre,"SB\dot.png",320,240 F,2,7361,7545,0,1 M,0,7545,7913,418,251 F,2,7545,7913,1 S,1,7545,7913,1,2 F,2,7913,8097,1,0
Sprite,Foreground,Centre,"SB\highlight.png",320,240 C,0,0,,134,103,214 F,2,7611,7703,0,1 M,0,7703,9175,285,407 F,1,7703,9175,1,0
Sprite,Foreground,Centre,"SB\squareSm.png",320,240 F,0,7611,7703,0,1 R,0,7611,7703,0,-0.9773844 V,0,7703,7887,0.5,0.5,9,0.5 M,0,7703,8071,285,407,397,241 F,0,7703,8071,1 V,0,7887,8071,9,0.5,0.5,0.5 F,0,8071,8255,1,0
Sprite,Foreground,Centre,"SB\squareSm.png",320,240 F,0,7611,7703,0,1 R,0,7611,7703,0,-1.570796 V,0,7703,7887,0.5,0.5,8,0.5 M,0,7703,8071,285,407,285,207 F,0,7703,8071,1 V,0,7887,8071,8,0.5,0.5,0.5 F,0,8071,8255,1,0
Sprite,Foreground,Centre,"SB\squareSm.png",320,240 F,0,7611,7703,0,1 R,0,7611,7703,0,-3.525565 V,0,7703,7887,0.5,0.5,10,0.5 M,0,7703,8071,285,407,100,482 F,0,7703,8071,1 V,0,7887,8071,10,0.5,0.5,0.5 F,0,8071,8255,1,0
Sprite,Foreground,Centre,"SB\squareSm.png",320,240 F,0,7611,7703,0,1 R,0,7611,7703,0,-4.485496 V,0,7703,7887,0.5,0.5,9,0.5 M,0,7703,8071,285,407,240,602 F,0,7703,8071,1 V,0,7887,8071,9,0.5,0.5,0.5 F,0,8071,8255,1,0
Sprite,Foreground,Centre,"SB\squareSm.png",320,240 F,0,7611,7703,0,1 R,0,7611,7703,0,-6.073746 V,0,7703,7887,0.5,0.5,8,0.5 M,0,7703,8071,285,407,481,449 F,0,7703,8071,1 V,0,7887,8071,8,0.5,0.5,0.5 F,0,8071,8255,1,0
Sprite,Foreground,Centre,"SB\dot.png",320,240 F,2,7519,7703,0,1 M,0,7703,8071,285,407 F,2,7703,8071,1 S,1,7703,8071,1,2 F,2,8071,8255,1,0
Sprite,Foreground,Centre,"SB\highlight.png",320,240 C,0,0,,134,103,214 F,2,7769,7861,0,1 M,0,7861,9333,299,213 F,1,7861,9333,1,0
Sprite,Foreground,Centre,"SB\squareSm.png",320,240 F,0,7769,7861,0,1 R,0,7769,7861,0,-1.012291 V,0,7861,8045,0.5,0.5,9,0.5 M,0,7861,8229,299,213,405,43 F,0,7861,8229,1 V,0,8045,8229,9,0.5,0.5,0.5 F,0,8229,8413,1,0
Sprite,Foreground,Centre,"SB\squareSm.png",320,240 F,0,7769,7861,0,1 R,0,7769,7861,0,-1.64061 V,0,7861,8045,0.5,0.5,8,0.5 M,0,7861,8229,299,213,285,13 F,0,7861,8229,1 V,0,8045,8229,8,0.5,0.5,0.5 F,0,8229,8413,1,0
Sprite,Foreground,Centre,"SB\squareSm.png",320,240 F,0,7769,7861,0,1 R,0,7769,7861,0,-3.01942 V,0,7861,8045,0.5,0.5,10,0.5 M,0,7861,8229,299,213,100,189 F,0,7861,8229,1 V,0,8045,8229,10,0.5,0.5,0.5 F,0,8229,8413,1,0
Sprite,Foreground,Centre,"SB\squareSm.png",320,240 F,0,7769,7861,0,1 R,0,7769,7861,0,-4.747295 V,0,7861,8045,0.5,0.5,9,0.5 M,0,7861,8229,299,213,306,413 F,0,7861,8229,1 V,0,8045,8229,9,0.5,0.5,0.5 F,0,8229,8413,1,0
Sprite,Foreground,Centre,"SB\squareSm.png",320,240 F,0,7769,7861,0,1 R,0,7769,7861,0,-5.585053 V,0,7861,8045,0.5,0.5,9,0.5 M,0,7861,8229,299,213,452,342 F,0,7861,8229,1 V,0,8045,8229,9,0.5,0.5,0.5 F,0,8229,8413,1,0
Sprite,Foreground,Centre,"SB\dot.png",320,240 F,2,7677,7861,0,1 M,0,7861,8229,299,213 F,2,7861,8229,1 S,1,7861,8229,1,2 F,2,8229,8413,1,0
Sprite,Foreground,Centre,"SB\highlight.png",320,240 C,0,0,,134,103,214 F,2,7927,8019,0,1 M,0,8019,9491,406,394 F,1,8019,9491,1,0
Sprite,Foreground,Centre,"SB\squareSm.png",320,240 F,0,7927,8019,0,1 R,0,7927,8019,0,-0.5759587 V,0,8019,8203,0.5,0.5,9,0.5 M,0,8019,8387,406,394,574,285 F,0,8019,8387,1 V,0,8203,8387,9,0.5,0.5,0.5 F,0,8387,8571,1,0
Sprite,Foreground,Centre,"SB\squareSm.png",320,240 F,0,7927,8019,0,1 R,0,7927,8019,0,-2.286381 V,0,8019,8203,0.5,0.5,10,0.5 M,0,8019,8387,406,394,275,243 F,0,8019,8387,1 V,0,8203,8387,10,0.5,0.5,0.5 F,0,8387,8571,1,0
Sprite,Foreground,Centre,"SB\squareSm.png",320,240 F,0,7927,8019,0,1 R,0,7927,8019,0,-3.036873 V,0,8019,8203,0.5,0.5,8,0.5 M,0,8019,8387,406,394,207,373 F,0,8019,8387,1 V,0,8203,8387,8,0.5,0.5,0.5 F,0,8387,8571,1,0
Sprite,Foreground,Centre,"SB\squareSm.png",320,240 F,0,7927,8019,0,1 R,0,7927,8019,0,-4.066617 V,0,8019,8203,0.5,0.5,8,0.5 M,0,8019,8387,406,394,286,554 F,0,8019,8387,1 V,0,8203,8387,8,0.5,0.5,0.5 F,0,8387,8571,1,0
Sprite,Foreground,Centre,"SB\squareSm.png",320,240 F,0,7927,8019,0,1 R,0,7927,8019,0,-5.916666 V,0,8019,8203,0.5,0.5,9,0.5 M,0,8019,8387,406,394,593,466 F,0,8019,8387,1 V,0,8203,8387,9,0.5,0.5,0.5 F,0,8387,8571,1,0
Sprite,Foreground,Centre,"SB\dot.png",320,240 F,2,7835,8019,0,1 M,0,8019,8387,406,394 F,2,8019,8387,1 S,1,8019,8387,1,2 F,2,8387,8571,1,0
Sprite,Foreground,Centre,"SB\highlight.png",320,240 C,0,0,,234,198,30 F,2,32400,32492,0,1 M,0,32492,33964,459,229 F,1,32492,33964,1,0
Sprite,Foreground,Centre,"SB\squareSm.png",320,240 F,0,32400,32492,0,1 R,0,32400,32492,0,-0.7853982 V,0,32492,32676,0.5,0.5,9,0.5 M,0,32492,32860,459,229,600,88 F,0,32492,32860,1 V,0,32676,32860,9,0.5,0.5,0.5 F,0,32860,33044,1,0
Sprite,Foreground,Centre,"SB\squareSm.png",320,240 F,0,32400,32492,0,1 R,0,32400,32492,0,-1.710423 V,0,32492,32676,0.5,0.5,10,0.5 M,0,32492,32860,459,229,431,31 F,0,32492,32860,1 V,0,32676,32860,10,0.5,0.5,0.5 F,0,32860,33044,1,0
Sprite,Foreground,Centre,"SB\squareSm.png",320,240 F,0,32400,32492,0,1 R,0,32400,32492,0,-3.525565 V,0,32492,32676,0.5,0.5,10,0.5 M,0,32492,32860,459,229,274,304 F,0,32492,32860,1 V,0,32676,32860,10,0.5,0.5,0.5 F,0,32860,33044,1,0
Sprite,Foreground,Centre,"SB\squareSm.png",320,240 F,0,32400,32492,0,1 R,0,32400,32492,0,-4.694936 V,0,32492,32676,0.5,0.5,10,0.5 M,0,32492,32860,459,229,456,429 F,0,32492,32860,1 V,0,32676,32860,10,0.5,0.5,0.5 F,0,32860,33044,1,0
Sprite,Foreground,Centre,"SB\squareSm.png",320,240 F,0,32400,32492,0,1 R,0,32400,32492,0,-5.270895 V,0,32492,32676,0.5,0.5,9,0.5 M,0,32492,32860,459,229,565,399 F,0,32492,32860,1 V,0,32676,32860,9,0.5,0.5,0.5 F,0,32860,33044,1,0
Sprite,Foreground,Centre,"SB\dot.png",320,240 F,2,32308,32492,0,1 M,0,32492,32860,459,229 F,2,32492,32860,1 S,1,32492,32860,1,2 F,2,32860,33044,1,0
Sprite,Foreground,Centre,"SB\highlight.png",320,240 C,0,0,,234,198,30 F,2,32558,32650,0,1 M,0,32650,34122,227,326 F,1,32650,34122,1,0
Sprite,Foreground,Centre,"SB\squareSm.png",320,240 F,0,32558,32650,0,1 R,0,32558,32650,0,-0.7679449 V,0,32650,32834,0.5,0.5,10,0.5 M,0,32650,33018,227,326,371,187 F,0,32650,33018,1 V,0,32834,33018,10,0.5,0.5,0.5 F,0,33018,33202,1,0
Sprite,Foreground,Centre,"SB\squareSm.png",320,240 F,0,32558,32650,0,1 R,0,32558,32650,0,-1.692969 V,0,32650,32834,0.5,0.5,8,0.5 M,0,32650,33018,227,326,203,127 F,0,32650,33018,1 V,0,32834,33018,8,0.5,0.5,0.5 F,0,33018,33202,1,0
Sprite,Foreground,Centre,"SB\squareSm.png",320,240 F,0,32558,32650,0,1 R,0,32558,32650,0,-3.351032 V,0,32650,32834,0.5,0.5,9,0.5 M,0,32650,33018,227,326,31,368 F,0,32650,33018,1 V,0,32834,33018,9,0.5,0.5,0.5 F,0,33018,33202,1,0
Sprite,Foreground,Centre,"SB\squareSm.png",320,240 F,0,32558,32650,0,1 R,0,32558,32650,0,-4.817109 V,0,32650,32834,0.5,0.5,9,0.5 M,0,32650,33018,227,326,248,525 F,0,32650,33018,1 V,0,32834,33018,9,0.5,0.5,0.5 F,0,33018,33202,1,0
Sprite,Foreground,Centre,"SB\squareSm.png",320,240 F,0,32558,32650,0,1 R,0,32558,32650,0,-5.654867 V,0,32650,32834,0.5,0.5,8,0.5 M,0,32650,33018,227,326,389,444 F,0,32650,33018,1 V,0,32834,33018,8,0.5,0.5,0.5 F,0,33018,33202,1,0
Sprite,Foreground,Centre,"SB\dot.png",320,240 F,2,32466,32650,0,1 M,0,32650,33018,227,326 F,2,32650,33018,1 S,1,32650,33018,1,2 F,2,33018,33202,1,0
Sprite,Foreground,Centre,"SB\highlight.png",320,240 C,0,0,,203,60,52 F,2,32716,32808,0,1 M,0,32808,34280,319,162 F,1,32808,34280,1,0
Sprite,Foreground,Centre,"SB\squareSm.png",320,240 F,0,32716,32808,0,1 R,0,32716,32808,0,-0.5759587 V,0,32808,32992,0.5,0.5,10,0.5 M,0,32808,33176,319,162,487,53 F,0,32808,33176,1 V,0,32992,33176,10,0.5,0.5,0.5 F,0,33176,33360,1,0
Sprite,Foreground,Centre,"SB\squareSm.png",320,240 F,0,32716,32808,0,1 R,0,32716,32808,0,-1.605703 V,0,32808,32992,0.5,0.5,10,0.5 M,0,32808,33176,319,162,312,-38 F,0,32808,33176,1 V,0,32992,33176,10,0.5,0.5,0.5 F,0,33176,33360,1,0
Sprite,Foreground,Centre,"SB\squareSm.png",320,240 F,0,32716,32808,0,1 R,0,32716,32808,0,-2.9147 V,0,32808,32992,0.5,0.5,10,0.5 M,0,32808,33176,319,162,124,117 F,0,32808,33176,1 V,0,32992,33176,10,0.5,0.5,0.5 F,0,33176,33360,1,0
Sprite,Foreground,Centre,"SB\squareSm.png",320,240 F,0,32716,32808,0,1 R,0,32716,32808,0,-4.45059 V,0,32808,32992,0.5,0.5,10,0.5 M,0,32808,33176,319,162,267,355 F,0,32808,33176,1 V,0,32992,33176,10,0.5,0.5,0.5 F,0,33176,33360,1,0
Sprite,Foreground,Centre,"SB\squareSm.png",320,240 F,0,32716,32808,0,1 R,0,32716,32808,0,-5.375614 V,0,32808,32992,0.5,0.5,9,0.5 M,0,32808,33176,319,162,442,320 F,0,32808,33176,1 V,0,32992,33176,9,0.5,0.5,0.5 F,0,33176,33360,1,0
Sprite,Foreground,Centre,"SB\dot.png",320,240 F,2,32624,32808,0,1 M,0,32808,33176,319,162 F,2,32808,33176,1 S,1,32808,33176,1,2 F,2,33176,33360,1,0
Sprite,Foreground,Centre,"SB\highlight.png",320,240 C,0,0,,203,60,52 F,2,32874,32966,0,1 M,0,32966,34438,327,382 F,1,32966,34438,1,0
Sprite,Foreground,Centre,"SB\squareSm.png",320,240 F,0,32874,32966,0,1 R,0,32874,32966,0,-0.541052 V,0,32966,33150,0.5,0.5,9,0.5 M,0,32966,33334,327,382,498,279 F,0,32966,33334,1 V,0,33150,33334,9,0.5,0.5,0.5 F,0,33334,33518,1,0
Sprite,Foreground,Centre,"SB\squareSm.png",320,240 F,0,32874,32966,0,1 R,0,32874,32966,0,-1.53589 V,0,32966,33150,0.5,0.5,8,0.5 M,0,32966,33334,327,382,334,182 F,0,32966,33334,1 V,0,33150,33334,8,0.5,0.5,0.5 F,0,33334,33518,1,0
Sprite,Foreground,Centre,"SB\squareSm.png",320,240 F,0,32874,32966,0,1 R,0,32874,32966,0,-3.193953 V,0,32966,33150,0.5,0.5,9,0.5 M,0,32966,33334,327,382,127,392 F,0,32966,33334,1 V,0,33150,33334,9,0.5,0.5,0.5 F,0,33334,33518,1,0
Sprite,Foreground,Centre,"SB\squareSm.png",320,240 F,0,32874,32966,0,1 R,0,32874,32966,0,-4.642576 V,0,32966,33150,0.5,0.5,10,0.5 M,0,32966,33334,327,382,313,582 F,0,32966,33334,1 V,0,33150,33334,10,0.5,0.5,0.5 F,0,33334,33518,1,0
Sprite,Foreground,Centre,"SB\squareSm.png",320,240 F,0,32874,32966,0,1 R,0,32874,32966,0,-5.742133 V,0,32966,33150,0.5,0.5,8,0.5 M,0,32966,33334,327,382,498,485 F,0,32966,33334,1 V,0,33150,33334,8,0.5,0.5,0.5 F,0,33334,33518,1,0
Sprite,Foreground,Centre,"SB\dot.png",320,240 F,2,32782,32966,0,1 M,0,32966,33334,327,382 F,2,32966,33334,1 S,1,32966,33334,1,2 F,2,33334,33518,1,0
Sprite,Foreground,Centre,"SB\highlight.png",320,240 C,0,0,,134,103,214 F,2,33032,33124,0,1 M,0,33124,34596,438,262 F,1,33124,34596,1,0
Sprite,Foreground,Centre,"SB\squareSm.png",320,240 F,0,33032,33124,0,1 R,0,33032,33124,0,-0.8028514 V,0,33124,33308,0.5,0.5,8,0.5 M,0,33124,33492,438,262,577,118 F,0,33124,33492,1 V,0,33308,33492,8,0.5,0.5,0.5 F,0,33492,33676,1,0
Sprite,Foreground,Centre,"SB\squareSm.png",320,240 F,0,33032,33124,0,1 R,0,33032,33124,0,-1.780236 V,0,33124,33308,0.5,0.5,8,0.5 M,0,33124,33492,438,262,396,66 F,0,33124,33492,1 V,0,33308,33492,8,0.5,0.5,0.5 F,0,33492,33676,1,0
Sprite,Foreground,Centre,"SB\squareSm.png",320,240 F,0,33032,33124,0,1 R,0,33032,33124,0,-3.543018 V,0,33124,33308,0.5,0.5,9,0.5 M,0,33124,33492,438,262,254,340 F,0,33124,33492,1 V,0,33308,33492,9,0.5,0.5,0.5 F,0,33492,33676,1,0
Sprite,Foreground,Centre,"SB\squareSm.png",320,240 F,0,33032,33124,0,1 R,0,33032,33124,0,-4.729842 V,0,33124,33308,0.5,0.5,9,0.5 M,0,33124,33492,438,262,441,462 F,0,33124,33492,1 V,0,33308,33492,9,0.5,0.5,0.5 F,0,33492,33676,1,0
Sprite,Foreground,Centre,"SB\squareSm.png",320,240 F,0,33032,33124,0,1 R,0,33032,33124,0,-5.899213 V,0,33124,33308,0.5,0.5,8,0.5 M,0,33124,33492,438,262,623,337 F,0,33124,33492,1 V,0,33308,33492,8,0.5,0.5,0.5 F,0,33492,33676,1,0
Sprite,Foreground,Centre,"SB\dot.png",320,240 F,2,32940,33124,0,1 M,0,33124,33492,438,262 F,2,33124,33492,1 S,1,33124,33492,1,2 F,2,33492,33676,1,0
Sprite,Foreground,Centre,"SB\highlight.png",320,240 C,0,0,,134,103,214 F,2,33190,33282,0,1 M,0,33282,34754,208,205 F,1,33282,34754,1,0
Sprite,Foreground,Centre,"SB\squareSm.png",320,240 F,0,33190,33282,0,1 R,0,33190,33282,0,-0.4712389 V,0,33282,33466,0.5,0.5,9,0.5 M,0,33282,33650,208,205,386,114 F,0,33282,33650,1 V,0,33466,33650,9,0.5,0.5,0.5 F,0,33650,33834,1,0
Sprite,Foreground,Centre,"SB\squareSm.png",320,240 F,0,33190,33282,0,1 R,0,33190,33282,0,-1.727876 V,0,33282,33466,0.5,0.5,8,0.5 M,0,33282,33650,208,205,177,7 F,0,33282,33650,1 V,0,33466,33650,8,0.5,0.5,0.5 F,0,33650,33834,1,0
Sprite,Foreground,Centre,"SB\squareSm.png",320,240 F,0,33190,33282,0,1 R,0,33190,33282,0,-3.385939 V,0,33282,33466,0.5,0.5,9,0.5 M,0,33282,33650,208,205,14,253 F,0,33282,33650,1 V,0,33466,33650,9,0.5,0.5,0.5 F,0,33650,33834,1,0
Sprite,Foreground,Centre,"SB\squareSm.png",320,240 F,0,33190,33282,0,1 R,0,33190,33282,0,-4.049164 V,0,33282,33466,0.5,0.5,10,0.5 M,0,33282,33650,208,205,85,363 F,0,33282,33650,1 V,0,33466,33650,10,0.5,0.5,0.5 F,0,33650,33834,1,0
Sprite,Foreground,Centre,"SB\squareSm.png",320,240 F,0,33190,33282,0,1 R,0,33190,33282,0,-5.323254 V,0,33282,33466,0.5,0.5,8,0.5 M,0,33282,33650,208,205,323,369 F,0,33282,33650,1 V,0,33466,33650,8,0.5,0.5,0.5 F,0,33650,33834,1,0
Sprite,Foreground,Centre,"SB\dot.png",320,240 F,2,33098,33282,0,1 M,0,33282,33650,208,205 F,2,33282,33650,1 S,1,33282,33650,1,2 F,2,33650,33834,1,0
Sprite,Foreground,Centre,"SB\highlight.png",320,240 C,0,0,,234,198,30 F,2,52927,53019,0,0.7 M,0,53019,54491,442,236 F,1,53019,54491,0.7,0
Sprite,Foreground,Centre,"SB\highlight.png",320,240 C,0,0,,234,198,30 F,2,53005,53097,0,0.7 M,0,53097,54569,482,272 F,1,53097,54569,0.7,0
Sprite,Foreground,Centre,"SB\highlight.png",320,240 C,0,0,,234,198,30 F,2,53084,53176,0,0.7 M,0,53176,54648,494,324 F,1,53176,54648,0.7,0
Sprite,Foreground,Centre,"SB\highlight.png",320,240 C,0,0,,234,198,30 F,2,53163,53255,0,0.7 M,0,53255,54727,473,374 F,1,53255,54727,0.7,0
Sprite,Foreground,Centre,"SB\highlight.png",320,240 C,0,0,,234,198,30 F,2,53242,53334,0,0.7 M,0,53334,54806,427,403 F,1,53334,54806,0.7,0
Sprite,Foreground,Centre,"SB\highlight.png",320,240 C,0,0,,234,198,30 F,2,53321,53413,0,0.7 M,0,53413,54885,373,400 F,1,53413,54885,0.7,0
Sprite,Foreground,Centre,"SB\highlight.png",320,240 C,0,0,,234,198,30 F,2,53400,53492,0,0.7 M,0,53492,54964,331,366 F,1,53492,54964,0.7,0
Sprite,Foreground,Centre,"SB\highlight.png",320,240 C,0,0,,234,198,30 F,2,53479,53571,0,0.7 M,0,53571,55043,316,314 F,1,53571,55043,0.7,0
Sprite,Foreground,Centre,"SB\ring.png",320,240 F,2,61137,61229,0,1 M,0,61229,61965,377,179 F,1,61229,61965,1,0 S,0,61229,61965,0.2,1
Sprite,Foreground,Centre,"SB\ring.png",320,240 F,2,61295,61387,0,1 M,0,61387,62123,194,100 F,1,61387,62123,1,0 S,0,61387,62123,0.2,1
Sprite,Foreground,Centre,"SB\ring.png",320,240 F,2,61611,61703,0,1 M,0,61703,62439,154,189 F,1,61703,62439,1,0 S,0,61703,62439,0.2,1
Sprite,Foreground,Centre,"SB\ring.png",320,240 F,2,61927,62019,0,1 M,0,62019,62755,179,282 F,1,62019,62755,1,0 S,0,62019,62755,0.2,1
Sprite,Foreground,Centre,"SB\ring.png",320,240 F,2,62242,62334,0,1 M,0,62334,63070,257,337 F,1,62334,63070,1,0 S,0,62334,63070,0.2,1
Sprite,Foreground,Centre,"SB\highlight.png",320,240 C,0,0,,234,198,30 F,2,62400,62492,0,0.7 M,0,62492,63964,352,328 F,1,62492,63964,0.7,0
Sprite,Foreground,Centre,"SB\highlight.png",320,240 C,0,0,,234,198,30 F,2,62716,62808,0,0.7 M,0,62808,64280,367,111 F,1,62808,64280,0.7,0
Sprite,Foreground,Centre,"SB\highlight.png",320,240 C,0,0,,234,198,30 F,2,62874,62966,0,0.7 M,0,62966,64438,246,225 F,1,62966,64438,0.7,0
Sprite,Foreground,Centre,"SB\highlight.png",320,240 C,0,0,,234,198,30 F,2,63032,63124,0,0.7 M,0,63124,64596,228,64 F,1,63124,64596,0.7,0
Sprite,Foreground,Centre,"SB\highlight.png",320,240 C,0,0,,234,198,30 F,2,63190,63282,0,0.7 M,0,63282,64754,443,75 F,1,63282,64754,0.7,0
Sprite,Foreground,Centre,"SB\highlight.png",320,240 C,0,0,,234,198,30 F,2,63268,63360,0,0.7 M,0,63360,64832,451,117 F,1,63360,64832,0.7,0
Sprite,Foreground,Centre,"SB\highlight.png",320,240 C,0,0,,234,198,30 F,2,63347,63439,0,0.7 M,0,63439,64911,436,158 F,1,63439,64911,0.7,0
Sprite,Foreground,Centre,"SB\highlight.png",320,240 C,0,0,,234,198,30 F,2,63426,63518,0,0.7 M,0,63518,64990,404,187 F,1,63518,64990,0.7,0
Sprite,Foreground,Centre,"SB\highlight.png",320,240 C,0,0,,234,198,30 F,2,63505,63597,0,0.7 M,0,63597,65069,361,196 F,1,63597,65069,0.7,0
Sprite,Foreground,Centre,"SB\highlight.png",320,240 C,0,0,,234,198,30 F,2,63584,63676,0,0.7 M,0,63676,65148,320,183 F,1,63676,65148,0.7,0
Sprite,Foreground,Centre,"SB\highlight.png",320,240 C,0,0,,134,103,214 F,2,68084,68176,0,1 M,0,68176,69648,216,290 F,1,68176,69648,1,0
Sprite,Foreground,Centre,"SB\squareSm.png",320,240 F,0,68084,68176,0,1 R,0,68084,68176,0,-0.6981317 V,0,68176,68360,0.5,0.5,9,0.5 M,0,68176,68544,216,290,369,161 F,0,68176,68544,1 V,0,68360,68544,9,0.5,0.5,0.5 F,0,68544,68728,1,0
Sprite,Foreground,Centre,"SB\squareSm.png",320,240 F,0,68084,68176,0,1 R,0,68084,68176,0,-1.500983 V,0,68176,68360,0.5,0.5,10,0.5 M,0,68176,68544,216,290,230,90 F,0,68176,68544,1 V,0,68360,68544,10,0.5,0.5,0.5 F,0,68544,68728,1,0
Sprite,Foreground,Centre,"SB\squareSm.png",320,240 F,0,68084,68176,0,1 R,0,68084,68176,0,-2.827433 V,0,68176,68360,0.5,0.5,10,0.5 M,0,68176,68544,216,290,26,228 F,0,68176,68544,1 V,0,68360,68544,10,0.5,0.5,0.5 F,0,68544,68728,1,0
Sprite,Foreground,Centre,"SB\squareSm.png",320,240 F,0,68084,68176,0,1 R,0,68084,68176,0,-4.24115 V,0,68176,68360,0.5,0.5,9,0.5 M,0,68176,68544,216,290,125,468 F,0,68176,68544,1 V,0,68360,68544,9,0.5,0.5,0.5 F,0,68544,68728,1,0
Sprite,Foreground,Centre,"SB\squareSm.png",320,240 F,0,68084,68176,0,1 R,0,68084,68176,0,-5.462881 V,0,68176,68360,0.5,0.5,10,0.5 M,0,68176,68544,216,290,352,436 F,0,68176,68544,1 V,0,68360,68544,10,0.5,0.5,0.5 F,0,68544,68728,1,0
Sprite,Foreground,Centre,"SB\dot.png",320,240 F,2,67992,68176,0,1 M,0,68176,68544,216,290 F,2,68176,68544,1 S,1,68176,68544,1,2 F,2,68544,68728,1,0
Sprite,Foreground,Centre,"SB\highlight.png",320,240 C,0,0,,134,103,214 F,2,68242,68334,0,1 M,0,68334,69806,413,242 F,1,68334,69806,1,0
Sprite,Foreground,Centre,"SB\squareSm.png",320,240 F,0,68242,68334,0,1 R,0,68242,68334,0,-0.5934119 V,0,68334,68518,0.5,0.5,8,0.5 M,0,68334,68702,413,242,579,130 F,0,68334,68702,1 V,0,68518,68702,8,0.5,0.5,0.5 F,0,68702,68886,1,0
Sprite,Foreground,Centre,"SB\squareSm.png",320,240 F,0,68242,68334,0,1 R,0,68242,68334,0,-1.954769 V,0,68334,68518,0.5,0.5,8,0.5 M,0,68334,68702,413,242,338,57 F,0,68334,68702,1 V,0,68518,68702,8,0.5,0.5,0.5 F,0,68702,68886,1,0
Sprite,Foreground,Centre,"SB\squareSm.png",320,240 F,0,68242,68334,0,1 R,0,68242,68334,0,-3.385939 V,0,68334,68518,0.5,0.5,9,0.5 M,0,68334,68702,413,242,219,290 F,0,68334,68702,1 V,0,68518,68702,9,0.5,0.5,0.5 F,0,68702,68886,1,0
Sprite,Foreground,Centre,"SB\squareSm.png",320,240 F,0,68242,68334,0,1 R,0,68242,68334,0,-4.24115 V,0,68334,68518,0.5,0.5,10,0.5 M,0,68334,68702,413,242,322,420 F,0,68334,68702,1 V,0,68518,68702,10,0.5,0.5,0.5 F,0,68702,68886,1,0
Sprite,Foreground,Centre,"SB\squareSm.png",320,240 F,0,68242,68334,0,1 R,0,68242,68334,0,-5.637414 V,0,68334,68518,0.5,0.5,8,0.5 M,0,68334,68702,413,242,573,362 F,0,68334,68702,1 V,0,68518,68702,8,0.5,0.5,0.5 F,0,68702,68886,1,0
Sprite,Foreground,Centre,"SB\dot.png",320,240 F,2,68150,68334,0,1 M,0,68334,68702,413,242 F,2,68334,68702,1 S,1,68334,68702,1,2 F,2,68702,68886,1,0
Sprite,Foreground,Centre,"SB\highlight.png",320,240 C,0,0,,134,103,214 F,2,68400,68492,0,1 M,0,68492,69964,266,190 F,1,68492,69964,1,0
Sprite,Foreground,Centre,"SB\squareSm.png",320,240 F,0,68400,68492,0,1 R,0,68400,68492,0,-0.8028514 V,0,68492,68676,0.5,0.5,8,0.5 M,0,68492,68860,266,190,405,46 F,0,68492,68860,1 V,0,68676,68860,8,0.5,0.5,0.5 F,0,68860,69044,1,0
Sprite,Foreground,Centre,"SB\squareSm.png",320,240 F,0,68400,68492,0,1 R,0,68400,68492,0,-1.780236 V,0,68492,68676,0.5,0.5,8,0.5 M,0,68492,68860,266,190,224,-6 F,0,68492,68860,1 V,0,68676,68860,8,0.5,0.5,0.5 F,0,68860,69044,1,0
Sprite,Foreground,Centre,"SB\squareSm.png",320,240 F,0,68400,68492,0,1 R,0,68400,68492,0,-2.897247 V,0,68492,68676,0.5,0.5,9,0.5 M,0,68492,68860,266,190,72,142 F,0,68492,68860,1 V,0,68676,68860,9,0.5,0.5,0.5 F,0,68860,69044,1,0
Sprite,Foreground,Centre,"SB\squareSm.png",320,240 F,0,68400,68492,0,1 R,0,68400,68492,0,-4.590216 V,0,68492,68676,0.5,0.5,10,0.5 M,0,68492,68860,266,190,242,389 F,0,68492,68860,1 V,0,68676,68860,10,0.5,0.5,0.5 F,0,68860,69044,1,0
Sprite,Foreground,Centre,"SB\squareSm.png",320,240 F,0,68400,68492,0,1 R,0,68400,68492,0,-5.427974 V,0,68492,68676,0.5,0.5,8,0.5 M,0,68492,68860,266,190,397,341 F,0,68492,68860,1 V,0,68676,68860,8,0.5,0.5,0.5 F,0,68860,69044,1,0
Sprite,Foreground,Centre,"SB\dot.png",320,240 F,2,68308,68492,0,1 M,0,68492,68860,266,190 F,2,68492,68860,1 S,1,68492,68860,1,2 F,2,68860,69044,1,0
Sprite,Foreground,Centre,"SB\highlight.png",320,240 C,0,0,,134,103,214 F,2,68558,68650,0,1 M,0,68650,70122,366,361 F,1,68650,70122,1,0
Sprite,Foreground,Centre,"SB\squareSm.png",320,240 F,0,68558,68650,0,1 R,0,68558,68650,0,-0.6981317 V,0,68650,68834,0.5,0.5,9,0.5 M,0,68650,69018,366,361,519,232 F,0,68650,69018,1 V,0,68834,69018,9,0.5,0.5,0.5 F,0,69018,69202,1,0
Sprite,Foreground,Centre,"SB\squareSm.png",320,240 F,0,68558,68650,0,1 R,0,68558,68650,0,-2.216568 V,0,68650,68834,0.5,0.5,8,0.5 M,0,68650,69018,366,361,246,201 F,0,68650,69018,1 V,0,68834,69018,8,0.5,0.5,0.5 F,0,69018,69202,1,0
Sprite,Foreground,Centre,"SB\squareSm.png",320,240 F,0,68558,68650,0,1 R,0,68558,68650,0,-3.438299 V,0,68650,68834,0.5,0.5,9,0.5 M,0,68650,69018,366,361,175,419 F,0,68650,69018,1 V,0,68834,69018,9,0.5,0.5,0.5 F,0,69018,69202,1,0
Sprite,Foreground,Centre,"SB\squareSm.png",320,240 F,0,68558,68650,0,1 R,0,68558,68650,0,-4.590216 V,0,68650,68834,0.5,0.5,9,0.5 M,0,68650,69018,366,361,342,560 F,0,68650,69018,1 V,0,68834,69018,9,0.5,0.5,0.5 F,0,69018,69202,1,0
Sprite,Foreground,Centre,"SB\squareSm.png",320,240 F,0,68558,68650,0,1 R,0,68558,68650,0,-5.654867 V,0,68650,68834,0.5,0.5,8,0.5 M,0,68650,69018,366,361,528,479 F,0,68650,69018,1 V,0,68834,69018,8,0.5,0.5,0.5 F,0,69018,69202,1,0
Sprite,Foreground,Centre,"SB\dot.png",320,240 F,2,68466,68650,0,1 M,0,68650,69018,366,361 F,2,68650,69018,1 S,1,68650,69018,1,2 F,2,69018,69202,1,0
Sprite,Foreground,Centre,"SB\highlight.png",320,240 C,0,0,,134,103,214 F,2,78190,78282,0,0.7 M,0,78282,79754,379,136 F,1,78282,79754,0.7,0
Sprite,Foreground,Centre,"SB\highlight.png",320,240 C,0,0,,134,103,214 F,2,78348,78440,0,0.7 M,0,78440,79912,283,205 F,1,78440,79912,0.7,0
Sprite,Foreground,Centre,"SB\highlight.png",320,240 C,0,0,,21,170,111 F,2,78506,78598,0,0.7 M,0,78598,80070,242,120 F,1,78598,80070,0.7,0
Sprite,Foreground,Centre,"SB\highlight.png",320,240 C,0,0,,203,60,52 F,2,93032,93124,0,1 M,0,93124,94596,166,166 F,1,93124,94596,1,0
Sprite,Foreground,Centre,"SB\squareSm.png",320,240 F,0,93032,93124,0,1 R,0,93032,93124,0,-0.5759587 V,0,93124,93308,0.5,0.5,10,0.5 M,0,93124,93492,166,166,334,57 F,0,93124,93492,1 V,0,93308,93492,10,0.5,0.5,0.5 F,0,93492,93676,1,0
Sprite,Foreground,Centre,"SB\squareSm.png",320,240 F,0,93032,93124,0,1 R,0,93032,93124,0,-1.692969 V,0,93124,93308,0.5,0.5,9,0.5 M,0,93124,93492,166,166,142,-33 F,0,93124,93492,1 V,0,93308,93492,9,0.5,0.5,0.5 F,0,93492,93676,1,0
Sprite,Foreground,Centre,"SB\squareSm.png",320,240 F,0,93032,93124,0,1 R,0,93032,93124,0,-3.560472 V,0,93124,93308,0.5,0.5,9,0.5 M,0,93124,93492,166,166,-17,247 F,0,93124,93492,1 V,0,93308,93492,9,0.5,0.5,0.5 F,0,93492,93676,1,0
Sprite,Foreground,Centre,"SB\squareSm.png",320,240 F,0,93032,93124,0,1 R,0,93032,93124,0,-4.642576 V,0,93124,93308,0.5,0.5,9,0.5 M,0,93124,93492,166,166,152,366 F,0,93124,93492,1 V,0,93308,93492,9,0.5,0.5,0.5 F,0,93492,93676,1,0
Sprite,Foreground,Centre,"SB\squareSm.png",320,240 F,0,93032,93124,0,1 R,0,93032,93124,0,-5.77704 V,0,93124,93308,0.5,0.5,8,0.5 M,0,93124,93492,166,166,341,263 F,0,93124,93492,1 V,0,93308,93492,8,0.5,0.5,0.5 F,0,93492,93676,1,0
Sprite,Foreground,Centre,"SB\dot.png",320,240 F,2,92940,93124,0,1 M,0,93124,93492,166,166 F,2,93124,93492,1 S,1,93124,93492,1,2 F,2,93492,93676,1,0
Sprite,Foreground,Centre,"SB\highlight.png",320,240 C,0,0,,203,60,52 F,2,93190,93282,0,1 M,0,93282,94754,187,366 F,1,93282,94754,1,0
Sprite,Foreground,Centre,"SB\squareSm.png",320,240 F,0,93190,93282,0,1 R,0,93190,93282,0,-0.4712389 V,0,93282,93466,0.5,0.5,8,0.5 M,0,93282,93650,187,366,365,275 F,0,93282,93650,1 V,0,93466,93650,8,0.5,0.5,0.5 F,0,93650,93834,1,0
Sprite,Foreground,Centre,"SB\squareSm.png",320,240 F,0,93190,93282,0,1 R,0,93190,93282,0,-2.076942 V,0,93282,93466,0.5,0.5,10,0.5 M,0,93282,93650,187,366,90,191 F,0,93282,93650,1 V,0,93466,93650,10,0.5,0.5,0.5 F,0,93650,93834,1,0
Sprite,Foreground,Centre,"SB\squareSm.png",320,240 F,0,93190,93282,0,1 R,0,93190,93282,0,-3.228859 V,0,93282,93466,0.5,0.5,9,0.5 M,0,93282,93650,187,366,-12,383 F,0,93282,93650,1 V,0,93466,93650,9,0.5,0.5,0.5 F,0,93650,93834,1,0
Sprite,Foreground,Centre,"SB\squareSm.png",320,240 F,0,93190,93282,0,1 R,0,93190,93282,0,-4.537856 V,0,93282,93466,0.5,0.5,8,0.5 M,0,93282,93650,187,366,152,563 F,0,93282,93650,1 V,0,93466,93650,8,0.5,0.5,0.5 F,0,93650,93834,1,0
Sprite,Foreground,Centre,"SB\squareSm.png",320,240 F,0,93190,93282,0,1 R,0,93190,93282,0,-5.602507 V,0,93282,93466,0.5,0.5,8,0.5 M,0,93282,93650,187,366,342,492 F,0,93282,93650,1 V,0,93466,93650,8,0.5,0.5,0.5 F,0,93650,93834,1,0
Sprite,Foreground,Centre,"SB\dot.png",320,240 F,2,93098,93282,0,1 M,0,93282,93650,187,366 F,2,93282,93650,1 S,1,93282,93650,1,2 F,2,93650,93834,1,0
Sprite,Foreground,Centre,"SB\highlight.png",320,240 C,0,0,,134,103,214 F,2,93348,93440,0,1 M,0,93440,94912,281,178 F,1,93440,94912,1,0
Sprite,Foreground,Centre,"SB\squareSm.png",320,240 F,0,93348,93440,0,1 R,0,93348,93440,0,-0.4014257 V,0,93440,93624,0.5,0.5,9,0.5 M,0,93440,93808,281,178,465,100 F,0,93440,93808,1 V,0,93624,93808,9,0.5,0.5,0.5 F,0,93808,93992,1,0
Sprite,Foreground,Centre,"SB\squareSm.png",320,240 F,0,93348,93440,0,1 R,0,93348,93440,0,-1.675516 V,0,93440,93624,0.5,0.5,10,0.5 M,0,93440,93808,281,178,260,-21 F,0,93440,93808,1 V,0,93624,93808,10,0.5,0.5,0.5 F,0,93808,93992,1,0
Sprite,Foreground,Centre,"SB\squareSm.png",320,240 F,0,93348,93440,0,1 R,0,93348,93440,0,-2.949606 V,0,93440,93624,0.5,0.5,8,0.5 M,0,93440,93808,281,178,85,140 F,0,93440,93808,1 V,0,93624,93808,8,0.5,0.5,0.5 F,0,93808,93992,1,0
Sprite,Foreground,Centre,"SB\squareSm.png",320,240 F,0,93348,93440,0,1 R,0,93348,93440,0,-4.223697 V,0,93440,93624,0.5,0.5,10,0.5 M,0,93440,93808,281,178,187,355 F,0,93440,93808,1 V,0,93624,93808,10,0.5,0.5,0.5 F,0,93808,93992,1,0
Sprite,Foreground,Centre,"SB\squareSm.png",320,240 F,0,93348,93440,0,1 R,0,93348,93440,0,-5.462881 V,0,93440,93624,0.5,0.5,10,0.5 M,0,93440,93808,281,178,417,324 F,0,93440,93808,1 V,0,93624,93808,10,0.5,0.5,0.5 F,0,93808,93992,1,0
Sprite,Foreground,Centre,"SB\dot.png",320,240 F,2,93256,93440,0,1 M,0,93440,93808,281,178 F,2,93440,93808,1 S,1,93440,93808,1,2 F,2,93808,93992,1,0
Sprite,Foreground,Centre,"SB\highlight.png",320,240 C,0,0,,134,103,214 F,2,93506,93598,0,1 M,0,93598,95070,266,356 F,1,93598,95070,1,0
Sprite,Foreground,Centre,"SB\squareSm.png",320,240 F,0,93506,93598,0,1 R,0,93506,93598,0,-0.9075712 V,0,93598,93782,0.5,0.5,9,0.5 M,0,93598,93966,266,356,389,198 F,0,93598,93966,1 V,0,93782,93966,9,0.5,0.5,0.5 F,0,93966,94150,1,0
Sprite,Foreground,Centre,"SB\squareSm.png",320,240 F,0,93506,93598,0,1 R,0,93506,93598,0,-1.919862 V,0,93598,93782,0.5,0.5,9,0.5 M,0,93598,93966,266,356,198,168 F,0,93598,93966,1 V,0,93782,93966,9,0.5,0.5,0.5 F,0,93966,94150,1,0
Sprite,Foreground,Centre,"SB\squareSm.png",320,240 F,0,93506,93598,0,1 R,0,93506,93598,0,-3.351032 V,0,93598,93782,0.5,0.5,9,0.5 M,0,93598,93966,266,356,70,398 F,0,93598,93966,1 V,0,93782,93966,9,0.5,0.5,0.5 F,0,93966,94150,1,0
Sprite,Foreground,Centre,"SB\squareSm.png",320,240 F,0,93506,93598,0,1 R,0,93506,93598,0,-4.45059 V,0,93598,93782,0.5,0.5,8,0.5 M,0,93598,93966,266,356,214,549 F,0,93598,93966,1 V,0,93782,93966,8,0.5,0.5,0.5 F,0,93966,94150,1,0
Sprite,Foreground,Centre,"SB\squareSm.png",320,240 F,0,93506,93598,0,1 R,0,93506,93598,0,-5.72468 V,0,93598,93782,0.5,0.5,9,0.5 M,0,93598,93966,266,356,436,462 F,0,93598,93966,1 V,0,93782,93966,9,0.5,0.5,0.5 F,0,93966,94150,1,0
Sprite,Foreground,Centre,"SB\dot.png",320,240 F,2,93414,93598,0,1 M,0,93598,93966,266,356 F,2,93598,93966,1 S,1,93598,93966,1,2 F,2,93966,94150,1,0
Sprite,Foreground,Centre,"SB\highlight.png",320,240 C,0,0,,21,170,111 F,2,93663,93755,0,1 M,0,93755,95227,390,216 F,1,93755,95227,1,0
Sprite,Foreground,Centre,"SB\squareSm.png",320,240 F,0,93663,93755,0,1 R,0,93663,93755,0,-0.6632251 V,0,93755,93939,0.5,0.5,10,0.5 M,0,93755,94123,390,216,548,93 F,0,93755,94123,1 V,0,93939,94123,10,0.5,0.5,0.5 F,0,94123,94307,1,0
Sprite,Foreground,Centre,"SB\squareSm.png",320,240 F,0,93663,93755,0,1 R,0,93663,93755,0,-2.181662 V,0,93755,93939,0.5,0.5,8,0.5 M,0,93755,94123,390,216,275,52 F,0,93755,94123,1 V,0,93939,94123,8,0.5,0.5,0.5 F,0,94123,94307,1,0
Sprite,Foreground,Centre,"SB\squareSm.png",320,240 F,0,93663,93755,0,1 R,0,93663,93755,0,-3.455752 V,0,93755,93939,0.5,0.5,8,0.5 M,0,93755,94123,390,216,200,278 F,0,93755,94123,1 V,0,93939,94123,8,0.5,0.5,0.5 F,0,94123,94307,1,0
Sprite,Foreground,Centre,"SB\squareSm.png",320,240 F,0,93663,93755,0,1 R,0,93663,93755,0,-4.502949 V,0,93755,93939,0.5,0.5,8,0.5 M,0,93755,94123,390,216,348,412 F,0,93755,94123,1 V,0,93939,94123,8,0.5,0.5,0.5 F,0,94123,94307,1,0
Sprite,Foreground,Centre,"SB\squareSm.png",320,240 F,0,93663,93755,0,1 R,0,93663,93755,0,-5.899213 V,0,93755,93939,0.5,0.5,8,0.5 M,0,93755,94123,390,216,575,291 F,0,93755,94123,1 V,0,93939,94123,8,0.5,0.5,0.5 F,0,94123,94307,1,0
Sprite,Foreground,Centre,"SB\dot.png",320,240 F,2,93571,93755,0,1 M,0,93755,94123,390,216 F,2,93755,94123,1 S,1,93755,94123,1,2 F,2,94123,94307,1,0
Sprite,Foreground,Centre,"SB\highlight.png",320,240 C,0,0,,21,170,111 F,2,93821,93913,0,1 M,0,93913,95385,345,360 F,1,93913,95385,1,0
Sprite,Foreground,Centre,"SB\squareSm.png",320,240 F,0,93821,93913,0,1 R,0,93821,93913,0,-0.8901179 V,0,93913,94097,0.5,0.5,8,0.5 M,0,93913,94281,345,360,471,205 F,0,93913,94281,1 V,0,94097,94281,8,0.5,0.5,0.5 F,0,94281,94465,1,0
Sprite,Foreground,Centre,"SB\squareSm.png",320,240 F,0,93821,93913,0,1 R,0,93821,93913,0,-2.146755 V,0,93913,94097,0.5,0.5,10,0.5 M,0,93913,94281,345,360,236,192 F,0,93913,94281,1 V,0,94097,94281,10,0.5,0.5,0.5 F,0,94281,94465,1,0
Sprite,Foreground,Centre,"SB\squareSm.png",320,240 F,0,93821,93913,0,1 R,0,93821,93913,0,-3.211406 V,0,93913,94097,0.5,0.5,10,0.5 M,0,93913,94281,345,360,145,374 F,0,93913,94281,1 V,0,94097,94281,10,0.5,0.5,0.5 F,0,94281,94465,1,0
Sprite,Foreground,Centre,"SB\squareSm.png",320,240 F,0,93821,93913,0,1 R,0,93821,93913,0,-4.310963 V,0,93913,94097,0.5,0.5,9,0.5 M,0,93913,94281,345,360,267,544 F,0,93913,94281,1 V,0,94097,94281,9,0.5,0.5,0.5 F,0,94281,94465,1,0
Sprite,Foreground,Centre,"SB\squareSm.png",320,240 F,0,93821,93913,0,1 R,0,93821,93913,0,-6.073746 V,0,93913,94097,0.5,0.5,8,0.5 M,0,93913,94281,345,360,541,402 F,0,93913,94281,1 V,0,94097,94281,8,0.5,0.5,0.5 F,0,94281,94465,1,0
Sprite,Foreground,Centre,"SB\dot.png",320,240 F,2,93729,93913,0,1 M,0,93913,94281,345,360 F,2,93913,94281,1 S,1,93913,94281,1,2 F,2,94281,94465,1,0
Sprite,Foreground,Centre,"SB\highlight.png",320,240 C,0,0,,203,60,52 F,2,102821,102913,0,1 M,0,102913,104385,429,207 F,1,102913,104385,1,0
Sprite,Foreground,Centre,"SB\squareSm.png",320,240 F,0,102821,102913,0,1 R,0,102821,102913,0,-1.029744 V,0,102913,103097,0.5,0.5,10,0.5 M,0,102913,103281,429,207,532,36 F,0,102913,103281,1 V,0,103097,103281,10,0.5,0.5,0.5 F,0,103281,103465,1,0
Sprite,Foreground,Centre,"SB\squareSm.png",320,240 F,0,102821,102913,0,1 R,0,102821,102913,0,-1.867502 V,0,102913,103097,0.5,0.5,10,0.5 M,0,102913,103281,429,207,371,16 F,0,102913,103281,1 V,0,103097,103281,10,0.5,0.5,0.5 F,0,103281,103465,1,0
Sprite,Foreground,Centre,"SB\squareSm.png",320,240 F,0,102821,102913,0,1 R,0,102821,102913,0,-3.263766 V,0,102913,103097,0.5,0.5,8,0.5 M,0,102913,103281,429,207,230,231 F,0,102913,103281,1 V,0,103097,103281,8,0.5,0.5,0.5 F,0,103281,103465,1,0
Sprite,Foreground,Centre,"SB\squareSm.png",320,240 F,0,102821,102913,0,1 R,0,102821,102913,0,-4.642576 V,0,102913,103097,0.5,0.5,8,0.5 M,0,102913,103281,429,207,415,407 F,0,102913,103281,1 V,0,103097,103281,8,0.5,0.5,0.5 F,0,103281,103465,1,0
Sprite,Foreground,Centre,"SB\squareSm.png",320,240 F,0,102821,102913,0,1 R,0,102821,102913,0,-5.410521 V,0,102913,103097,0.5,0.5,8,0.5 M,0,102913,103281,429,207,558,360 F,0,102913,103281,1 V,0,103097,103281,8,0.5,0.5,0.5 F,0,103281,103465,1,0
Sprite,Foreground,Centre,"SB\dot.png",320,240 F,2,102729,102913,0,1 M,0,102913,103281,429,207 F,2,102913,103281,1 S,1,102913,103281,1,2 F,2,103281,103465,1,0
Sprite,Foreground,Centre,"SB\highlight.png",320,240 C,0,0,,203,60,52 F,2,102979,103071,0,1 M,0,103071,104543,244,172 F,1,103071,104543,1,0
Sprite,Foreground,Centre,"SB\squareSm.png",320,240 F,0,102979,103071,0,1 R,0,102979,103071,0,-0.9075712 V,0,103071,103255,0.5,0.5,9,0.5 M,0,103071,103439,244,172,367,14 F,0,103071,103439,1 V,0,103255,103439,9,0.5,0.5,0.5 F,0,103439,103623,1,0
Sprite,Foreground,Centre,"SB\squareSm.png",320,240 F,0,102979,103071,0,1 R,0,102979,103071,0,-1.815142 V,0,103071,103255,0.5,0.5,9,0.5 M,0,103071,103439,244,172,196,-22 F,0,103071,103439,1 V,0,103255,103439,9,0.5,0.5,0.5 F,0,103439,103623,1,0
Sprite,Foreground,Centre,"SB\squareSm.png",320,240 F,0,102979,103071,0,1 R,0,102979,103071,0,-3.001966 V,0,103071,103255,0.5,0.5,9,0.5 M,0,103071,103439,244,172,46,144 F,0,103071,103439,1 V,0,103255,103439,9,0.5,0.5,0.5 F,0,103439,103623,1,0
Sprite,Foreground,Centre,"SB\squareSm.png",320,240 F,0,102979,103071,0,1 R,0,102979,103071,0,-4.45059 V,0,103071,103255,0.5,0.5,9,0.5 M,0,103071,103439,244,172,192,365 F,0,103071,103439,1 V,0,103255,103439,9,0.5,0.5,0.5 F,0,103439,103623,1,0
Sprite,Foreground,Centre,"SB\squareSm.png",320,240 F,0,102979,103071,0,1 R,0,102979,103071,0,-5.794493 V,0,103071,103255,0.5,0.5,9,0.5 M,0,103071,103439,244,172,421,266 F,0,103071,103439,1 V,0,103255,103439,9,0.5,0.5,0.5 F,0,103439,103623,1,0
Sprite,Foreground,Centre,"SB\dot.png",320,240 F,2,102887,103071,0,1 M,0,103071,103439,244,172 F,2,103071,103439,1 S,1,103071,103439,1,2 F,2,103439,103623,1,0
Sprite,Foreground,Centre,"SB\highlight.png",320,240 C,0,0,,203,60,52 F,2,103137,103229,0,1 M,0,103229,104701,407,90 F,1,103229,104701,1,0
Sprite,Foreground,Centre,"SB\squareSm.png",320,240 F,0,103137,103229,0,1 R,0,103137,103229,0,-0.4363323 V,0,103229,103413,0.5,0.5,8,0.5 M,0,103229,103597,407,90,588,5 F,0,103229,103597,1 V,0,103413,103597,8,0.5,0.5,0.5 F,0,103597,103781,1,0
Sprite,Foreground,Centre,"SB\squareSm.png",320,240 F,0,103137,103229,0,1 R,0,103137,103229,0,-1.937315 V,0,103229,103413,0.5,0.5,10,0.5 M,0,103229,103597,407,90,335,-97 F,0,103229,103597,1 V,0,103413,103597,10,0.5,0.5,0.5 F,0,103597,103781,1,0
Sprite,Foreground,Centre,"SB\squareSm.png",320,240 F,0,103137,103229,0,1 R,0,103137,103229,0,-3.351032 V,0,103229,103413,0.5,0.5,8,0.5 M,0,103229,103597,407,90,211,132 F,0,103229,103597,1 V,0,103413,103597,8,0.5,0.5,0.5 F,0,103597,103781,1,0
Sprite,Foreground,Centre,"SB\squareSm.png",320,240 F,0,103137,103229,0,1 R,0,103137,103229,0,-4.433136 V,0,103229,103413,0.5,0.5,9,0.5 M,0,103229,103597,407,90,352,282 F,0,103229,103597,1 V,0,103413,103597,9,0.5,0.5,0.5 F,0,103597,103781,1,0
Sprite,Foreground,Centre,"SB\squareSm.png",320,240 F,0,103137,103229,0,1 R,0,103137,103229,0,-5.253441 V,0,103229,103413,0.5,0.5,9,0.5 M,0,103229,103597,407,90,510,261 F,0,103229,103597,1 V,0,103413,103597,9,0.5,0.5,0.5 F,0,103597,103781,1,0
Sprite,Foreground,Centre,"SB\dot.png",320,240 F,2,103045,103229,0,1 M,0,103229,103597,407,90 F,2,103229,103597,1 S,1,103229,103597,1,2 F,2,103597,103781,1,0
Sprite,Foreground,Centre,"SB\highlight.png",320,240 C,0,0,,134,103,214 F,2,103295,103387,0,1 M,0,103387,104859,321,258 F,1,103387,104859,1,0
Sprite,Foreground,Centre,"SB\squareSm.png",320,240 F,0,103295,103387,0,1 R,0,103295,103387,0,-0.5759587 V,0,103387,103571,0.5,0.5,8,0.5 M,0,103387,103755,321,258,489,149 F,0,103387,103755,1 V,0,103571,103755,8,0.5,0.5,0.5 F,0,103755,103939,1,0
Sprite,Foreground,Centre,"SB\squareSm.png",320,240 F,0,103295,103387,0,1 R,0,103295,103387,0,-2.042035 V,0,103387,103571,0.5,0.5,8,0.5 M,0,103387,103755,321,258,230,80 F,0,103387,103755,1 V,0,103571,103755,8,0.5,0.5,0.5 F,0,103755,103939,1,0
Sprite,Foreground,Centre,"SB\squareSm.png",320,240 F,0,103295,103387,0,1 R,0,103295,103387,0,-3.490659 V,0,103387,103571,0.5,0.5,8,0.5 M,0,103387,103755,321,258,133,326 F,0,103387,103755,1 V,0,103571,103755,8,0.5,0.5,0.5 F,0,103755,103939,1,0
Sprite,Foreground,Centre,"SB\squareSm.png",320,240 F,0,103295,103387,0,1 R,0,103295,103387,0,-3.979351 V,0,103387,103571,0.5,0.5,9,0.5 M,0,103387,103755,321,258,187,407 F,0,103387,103755,1 V,0,103571,103755,9,0.5,0.5,0.5 F,0,103755,103939,1,0
Sprite,Foreground,Centre,"SB\squareSm.png",320,240 F,0,103295,103387,0,1 R,0,103295,103387,0,-5.689774 V,0,103387,103571,0.5,0.5,8,0.5 M,0,103387,103755,321,258,487,370 F,0,103387,103755,1 V,0,103571,103755,8,0.5,0.5,0.5 F,0,103755,103939,1,0
Sprite,Foreground,Centre,"SB\dot.png",320,240 F,2,103203,103387,0,1 M,0,103387,103755,321,258 F,2,103387,103755,1 S,1,103387,103755,1,2 F,2,103755,103939,1,0
Sprite,Foreground,Centre,"SB\highlight.png",320,240 C,0,0,,134,103,214 F,2,103453,103545,0,1 M,0,103545,105017,417,114 F,1,103545,105017,1,0
Sprite,Foreground,Centre,"SB\squareSm.png",320,240 F,0,103453,103545,0,1 R,0,103453,103545,0,-0.9250245 V,0,103545,103729,0.5,0.5,9,0.5 M,0,103545,103913,417,114,537,-46 F,0,103545,103913,1 V,0,103729,103913,9,0.5,0.5,0.5 F,0,103913,104097,1,0
Sprite,Foreground,Centre,"SB\squareSm.png",320,240 F,0,103453,103545,0,1 R,0,103453,103545,0,-1.675516 V,0,103545,103729,0.5,0.5,9,0.5 M,0,103545,103913,417,114,396,-85 F,0,103545,103913,1 V,0,103729,103913,9,0.5,0.5,0.5 F,0,103913,104097,1,0
Sprite,Foreground,Centre,"SB\squareSm.png",320,240 F,0,103453,103545,0,1 R,0,103453,103545,0,-2.792527 V,0,103545,103729,0.5,0.5,8,0.5 M,0,103545,103913,417,114,229,46 F,0,103545,103913,1 V,0,103729,103913,8,0.5,0.5,0.5 F,0,103913,104097,1,0
Sprite,Foreground,Centre,"SB\squareSm.png",320,240 F,0,103453,103545,0,1 R,0,103453,103545,0,-4.223697 V,0,103545,103729,0.5,0.5,10,0.5 M,0,103545,103913,417,114,323,291 F,0,103545,103913,1 V,0,103729,103913,10,0.5,0.5,0.5 F,0,103913,104097,1,0
Sprite,Foreground,Centre,"SB\squareSm.png",320,240 F,0,103453,103545,0,1 R,0,103453,103545,0,-5.602507 V,0,103545,103729,0.5,0.5,9,0.5 M,0,103545,103913,417,114,572,240 F,0,103545,103913,1 V,0,103729,103913,9,0.5,0.5,0.5 F,0,103913,104097,1,0
Sprite,Foreground,Centre,"SB\dot.png",320,240 F,2,103361,103545,0,1 M,0,103545,103913,417,114 F,2,103545,103913,1 S,1,103545,103913,1,2 F,2,103913,104097,1,0
Sprite,Foreground,Centre,"SB\highlight.png",320,240 C,0,0,,134,103,214 F,2,103611,103703,0,1 M,0,103703,105175,422,319 F,1,103703,105175,1,0
Sprite,Foreground,Centre,"SB\squareSm.png",320,240 F,0,103611,103703,0,1 R,0,103611,103703,0,-0.8726646 V,0,103703,103887,0.5,0.5,9,0.5 M,0,103703,104071,422,319,551,166 F,0,103703,104071,1 V,0,103887,104071,9,0.5,0.5,0.5 F,0,104071,104255,1,0
Sprite,Foreground,Centre,"SB\squareSm.png",320,240 F,0,103611,103703,0,1 R,0,103611,103703,0,-1.745329 V,0,103703,103887,0.5,0.5,10,0.5 M,0,103703,104071,422,319,387,122 F,0,103703,104071,1 V,0,103887,104071,10,0.5,0.5,0.5 F,0,104071,104255,1,0
Sprite,Foreground,Centre,"SB\squareSm.png",320,240 F,0,103611,103703,0,1 R,0,103611,103703,0,-2.879793 V,0,103703,103887,0.5,0.5,8,0.5 M,0,103703,104071,422,319,229,267 F,0,103703,104071,1 V,0,103887,104071,8,0.5,0.5,0.5 F,0,104071,104255,1,0
Sprite,Foreground,Centre,"SB\squareSm.png",320,240 F,0,103611,103703,0,1 R,0,103611,103703,0,-4.049164 V,0,103703,103887,0.5,0.5,10,0.5 M,0,103703,104071,422,319,299,477 F,0,103703,104071,1 V,0,103887,104071,10,0.5,0.5,0.5 F,0,104071,104255,1,0
Sprite,Foreground,Centre,"SB\squareSm.png",320,240 F,0,103611,103703,0,1 R,0,103611,103703,0,-5.916666 V,0,103703,103887,0.5,0.5,8,0.5 M,0,103703,104071,422,319,609,391 F,0,103703,104071,1 V,0,103887,104071,8,0.5,0.5,0.5 F,0,104071,104255,1,0
Sprite,Foreground,Centre,"SB\dot.png",320,240 F,2,103519,103703,0,1 M,0,103703,104071,422,319 F,2,103703,104071,1 S,1,103703,104071,1,2 F,2,104071,104255,1,0
Sprite,Foreground,Centre,"SB\highlight.png",320,240 C,0,0,,21,170,111 F,2,103769,103861,0,1 M,0,103861,105333,212,377 F,1,103861,105333,1,0
Sprite,Foreground,Centre,"SB\squareSm.png",320,240 F,0,103769,103861,0,1 R,0,103769,103861,0,-0.8901179 V,0,103861,104045,0.5,0.5,8,0.5 M,0,103861,104229,212,377,338,222 F,0,103861,104229,1 V,0,104045,104229,8,0.5,0.5,0.5 F,0,104229,104413,1,0
Sprite,Foreground,Centre,"SB\squareSm.png",320,240 F,0,103769,103861,0,1 R,0,103769,103861,0,-2.024582 V,0,103861,104045,0.5,0.5,9,0.5 M,0,103861,104229,212,377,124,197 F,0,103861,104229,1 V,0,104045,104229,9,0.5,0.5,0.5 F,0,104229,104413,1,0
Sprite,Foreground,Centre,"SB\squareSm.png",320,240 F,0,103769,103861,0,1 R,0,103769,103861,0,-3.106686 V,0,103861,104045,0.5,0.5,8,0.5 M,0,103861,104229,212,377,12,370 F,0,103861,104229,1 V,0,104045,104229,8,0.5,0.5,0.5 F,0,104229,104413,1,0
Sprite,Foreground,Centre,"SB\squareSm.png",320,240 F,0,103769,103861,0,1 R,0,103769,103861,0,-4.572762 V,0,103861,104045,0.5,0.5,8,0.5 M,0,103861,104229,212,377,184,575 F,0,103861,104229,1 V,0,104045,104229,8,0.5,0.5,0.5 F,0,104229,104413,1,0
Sprite,Foreground,Centre,"SB\squareSm.png",320,240 F,0,103769,103861,0,1 R,0,103769,103861,0,-5.707227 V,0,103861,104045,0.5,0.5,9,0.5 M,0,103861,104229,212,377,380,486 F,0,103861,104229,1 V,0,104045,104229,9,0.5,0.5,0.5 F,0,104229,104413,1,0
Sprite,Foreground,Centre,"SB\dot.png",320,240 F,2,103677,103861,0,1 M,0,103861,104229,212,377 F,2,103861,104229,1 S,1,103861,104229,1,2 F,2,104229,104413,1,0
Sprite,Foreground,Centre,"SB\highlight.png",320,240 C,0,0,,21,170,111 F,2,103927,104019,0,1 M,0,104019,105491,382,397 F,1,104019,105491,1,0
Sprite,Foreground,Centre,"SB\squareSm.png",320,240 F,0,103927,104019,0,1 R,0,103927,104019,0,-0.3665192 V,0,104019,104203,0.5,0.5,8,0.5 M,0,104019,104387,382,397,569,325 F,0,104019,104387,1 V,0,104203,104387,8,0.5,0.5,0.5 F,0,104387,104571,1,0
Sprite,Foreground,Centre,"SB\squareSm.png",320,240 F,0,103927,104019,0,1 R,0,103927,104019,0,-1.710423 V,0,104019,104203,0.5,0.5,9,0.5 M,0,104019,104387,382,397,354,199 F,0,104019,104387,1 V,0,104203,104387,9,0.5,0.5,0.5 F,0,104387,104571,1,0
Sprite,Foreground,Centre,"SB\squareSm.png",320,240 F,0,103927,104019,0,1 R,0,103927,104019,0,-2.9147 V,0,104019,104203,0.5,0.5,9,0.5 M,0,104019,104387,382,397,187,352 F,0,104019,104387,1 V,0,104203,104387,9,0.5,0.5,0.5 F,0,104387,104571,1,0
Sprite,Foreground,Centre,"SB\squareSm.png",320,240 F,0,103927,104019,0,1 R,0,103927,104019,0,-4.39823 V,0,104019,104203,0.5,0.5,8,0.5 M,0,104019,104387,382,397,320,587 F,0,104019,104387,1 V,0,104203,104387,8,0.5,0.5,0.5 F,0,104387,104571,1,0
Sprite,Foreground,Centre,"SB\squareSm.png",320,240 F,0,103927,104019,0,1 R,0,103927,104019,0,-5.707227 V,0,104019,104203,0.5,0.5,9,0.5 M,0,104019,104387,382,397,550,506 F,0,104019,104387,1 V,0,104203,104387,9,0.5,0.5,0.5 F,0,104387,104571,1,0
Sprite,Foreground,Centre,"SB\dot.png",320,240 F,2,103835,104019,0,1 M,0,104019,104387,382,397 F,2,104019,104387,1 S,1,104019,104387,1,2 F,2,104387,104571,1,0
Sprite,Foreground,Centre,"SB\highlight.png",320,240 C,0,0,,234,198,30 F,2,113558,113650,0,0.7 M,0,113650,115122,381,218 F,1,113650,115122,0.7,0
Sprite,Foreground,Centre,"SB\highlight.png",320,240 C,0,0,,234,198,30 F,2,113636,113728,0,0.7 M,0,113728,115200,433,216 F,1,113728,115200,0.7,0
Sprite,Foreground,Centre,"SB\highlight.png",320,240 C,0,0,,234,198,30 F,2,113715,113807,0,0.7 M,0,113807,115279,476,247 F,1,113807,115279,0.7,0
Sprite,Foreground,Centre,"SB\highlight.png",320,240 C,0,0,,234,198,30 F,2,113794,113886,0,0.7 M,0,113886,115358,492,300 F,1,113886,115358,0.7,0
Sprite,Foreground,Centre,"SB\highlight.png",320,240 C,0,0,,234,198,30 F,2,113873,113965,0,0.7 M,0,113965,115437,475,351 F,1,113965,115437,0.7,0
Sprite,Foreground,Centre,"SB\highlight.png",320,240 C,0,0,,234,198,30 F,2,113952,114044,0,0.7 M,0,114044,115516,430,384 F,1,114044,115516,0.7,0
Sprite,Foreground,Centre,"SB\highlight.png",320,240 C,0,0,,234,198,30 F,2,114031,114123,0,0.7 M,0,114123,115595,377,385 F,1,114123,115595,0.7,0
Sprite,Foreground,Centre,"SB\highlight.png",320,240 C,0,0,,234,198,30 F,2,114110,114202,0,0.7 M,0,114202,115674,333,355 F,1,114202,115674,0.7,0
Sprite,Foreground,Centre,"SB\highlight.png",320,240 C,0,0,,234,198,30 F,2,121769,121861,0,1 M,0,121861,123333,438,343 F,1,121861,123333,1,0
Sprite,Foreground,Centre,"SB\squareSm.png",320,240 F,0,121769,121861,0,1 R,0,121769,121861,0,-0.6632251 V,0,121861,122045,0.5,0.5,8,0.5 M,0,121861,122229,438,343,596,220 F,0,121861,122229,1 V,0,122045,122229,8,0.5,0.5,0.5 F,0,122229,122413,1,0
Sprite,Foreground,Centre,"SB\squareSm.png",320,240 F,0,121769,121861,0,1 R,0,121769,121861,0,-2.251475 V,0,121861,122045,0.5,0.5,9,0.5 M,0,121861,122229,438,343,312,188 F,0,121861,122229,1 V,0,122045,122229,9,0.5,0.5,0.5 F,0,122229,122413,1,0
Sprite,Foreground,Centre,"SB\squareSm.png",320,240 F,0,121769,121861,0,1 R,0,121769,121861,0,-3.211406 V,0,121861,122045,0.5,0.5,10,0.5 M,0,121861,122229,438,343,238,357 F,0,121861,122229,1 V,0,122045,122229,10,0.5,0.5,0.5 F,0,122229,122413,1,0
Sprite,Foreground,Centre,"SB\squareSm.png",320,240 F,0,121769,121861,0,1 R,0,121769,121861,0,-4.799655 V,0,121861,122045,0.5,0.5,8,0.5 M,0,121861,122229,438,343,455,542 F,0,121861,122229,1 V,0,122045,122229,8,0.5,0.5,0.5 F,0,122229,122413,1,0
Sprite,Foreground,Centre,"SB\squareSm.png",320,240 F,0,121769,121861,0,1 R,0,121769,121861,0,-5.742133 V,0,121861,122045,0.5,0.5,8,0.5 M,0,121861,122229,438,343,609,446 F,0,121861,122229,1 V,0,122045,122229,8,0.5,0.5,0.5 F,0,122229,122413,1,0
Sprite,Foreground,Centre,"SB\dot.png",320,240 F,2,121677,121861,0,1 M,0,121861,122229,438,343 F,2,121861,122229,1 S,1,121861,122229,1,2 F,2,122229,122413,1,0
Sprite,Foreground,Centre,"SB\highlight.png",320,240 C,0,0,,234,198,30 F,2,121927,122019,0,1 M,0,122019,123491,191,330 F,1,122019,123491,1,0
Sprite,Foreground,Centre,"SB\squareSm.png",320,240 F,0,121927,122019,0,1 R,0,121927,122019,0,-0.4712389 V,0,122019,122203,0.5,0.5,8,0.5 M,0,122019,122387,191,330,369,239 F,0,122019,122387,1 V,0,122203,122387,8,0.5,0.5,0.5 F,0,122387,122571,1,0
Sprite,Foreground,Centre,"SB\squareSm.png",320,240 F,0,121927,122019,0,1 R,0,121927,122019,0,-1.53589 V,0,122019,122203,0.5,0.5,10,0.5 M,0,122019,122387,191,330,198,130 F,0,122019,122387,1 V,0,122203,122387,10,0.5,0.5,0.5 F,0,122387,122571,1,0
Sprite,Foreground,Centre,"SB\squareSm.png",320,240 F,0,121927,122019,0,1 R,0,121927,122019,0,-3.001966 V,0,122019,122203,0.5,0.5,9,0.5 M,0,122019,122387,191,330,-7,302 F,0,122019,122387,1 V,0,122203,122387,9,0.5,0.5,0.5 F,0,122387,122571,1,0
Sprite,Foreground,Centre,"SB\squareSm.png",320,240 F,0,121927,122019,0,1 R,0,121927,122019,0,-4.153883 V,0,122019,122203,0.5,0.5,10,0.5 M,0,122019,122387,191,330,85,500 F,0,122019,122387,1 V,0,122203,122387,10,0.5,0.5,0.5 F,0,122387,122571,1,0
Sprite,Foreground,Centre,"SB\squareSm.png",320,240 F,0,121927,122019,0,1 R,0,121927,122019,0,-5.410521 V,0,122019,122203,0.5,0.5,8,0.5 M,0,122019,122387,191,330,320,483 F,0,122019,122387,1 V,0,122203,122387,8,0.5,0.5,0.5 F,0,122387,122571,1,0
Sprite,Foreground,Centre,"SB\dot.png",320,240 F,2,121835,122019,0,1 M,0,122019,122387,191,330 F,2,122019,122387,1 S,1,122019,122387,1,2 F,2,122387,122571,1,0
Sprite,Foreground,Centre,"SB\highlight.png",320,240 C,0,0,,234,198,30 F,2,122084,122176,0,1 M,0,122176,123648,325,122 F,1,122176,123648,1,0
Sprite,Foreground,Centre,"SB\squareSm.png",320,240 F,0,122084,122176,0,1 R,0,122084,122176,0,-0.9250245 V,0,122176,122360,0.5,0.5,9,0.5 M,0,122176,122544,325,122,445,-38 F,0,122176,122544,1 V,0,122360,122544,9,0.5,0.5,0.5 F,0,122544,122728,1,0
Sprite,Foreground,Centre,"SB\squareSm.png",320,240 F,0,122084,122176,0,1 R,0,122084,122176,0,-1.58825 V,0,122176,122360,0.5,0.5,8,0.5 M,0,122176,122544,325,122,322,-78 F,0,122176,122544,1 V,0,122360,122544,8,0.5,0.5,0.5 F,0,122544,122728,1,0
Sprite,Foreground,Centre,"SB\squareSm.png",320,240 F,0,122084,122176,0,1 R,0,122084,122176,0,-2.740167 V,0,122176,122360,0.5,0.5,10,0.5 M,0,122176,122544,325,122,141,44 F,0,122176,122544,1 V,0,122360,122544,10,0.5,0.5,0.5 F,0,122544,122728,1,0
Sprite,Foreground,Centre,"SB\squareSm.png",320,240 F,0,122084,122176,0,1 R,0,122084,122176,0,-4.101524 V,0,122176,122360,0.5,0.5,9,0.5 M,0,122176,122544,325,122,210,286 F,0,122176,122544,1 V,0,122360,122544,9,0.5,0.5,0.5 F,0,122544,122728,1,0
Sprite,Foreground,Centre,"SB\squareSm.png",320,240 F,0,122084,122176,0,1 R,0,122084,122176,0,-5.585053 V,0,122176,122360,0.5,0.5,10,0.5 M,0,122176,122544,325,122,478,251 F,0,122176,122544,1 V,0,122360,122544,10,0.5,0.5,0.5 F,0,122544,122728,1,0
Sprite,Foreground,Centre,"SB\dot.png",320,240 F,2,121992,122176,0,1 M,0,122176,122544,325,122 F,2,122176,122544,1 S,1,122176,122544,1,2 F,2,122544,122728,1,0
Sprite,Foreground,Centre,"SB\highlight.png",320,240 C,0,0,,203,60,52 F,2,122242,122334,0,1 M,0,122334,123806,295,422 F,1,122334,123806,1,0
Sprite,Foreground,Centre,"SB\squareSm.png",320,240 F,0,122242,122334,0,1 R,0,122242,122334,0,-0.9948377 V,0,122334,122518,0.5,0.5,10,0.5 M,0,122334,122702,295,422,404,254 F,0,122334,122702,1 V,0,122518,122702,10,0.5,0.5,0.5 F,0,122702,122886,1,0
Sprite,Foreground,Centre,"SB\squareSm.png",320,240 F,0,122242,122334,0,1 R,0,122242,122334,0,-1.692969 V,0,122334,122518,0.5,0.5,8,0.5 M,0,122334,122702,295,422,271,223 F,0,122334,122702,1 V,0,122518,122702,8,0.5,0.5,0.5 F,0,122702,122886,1,0
Sprite,Foreground,Centre,"SB\squareSm.png",320,240 F,0,122242,122334,0,1 R,0,122242,122334,0,-2.722714 V,0,122334,122518,0.5,0.5,9,0.5 M,0,122334,122702,295,422,112,341 F,0,122334,122702,1 V,0,122518,122702,9,0.5,0.5,0.5 F,0,122702,122886,1,0
Sprite,Foreground,Centre,"SB\squareSm.png",320,240 F,0,122242,122334,0,1 R,0,122242,122334,0,-4.066617 V,0,122334,122518,0.5,0.5,8,0.5 M,0,122334,122702,295,422,175,582 F,0,122334,122702,1 V,0,122518,122702,8,0.5,0.5,0.5 F,0,122702,122886,1,0
Sprite,Foreground,Centre,"SB\squareSm.png",320,240 F,0,122242,122334,0,1 R,0,122242,122334,0,-5.77704 V,0,122334,122518,0.5,0.5,9,0.5 M,0,122334,122702,295,422,470,519 F,0,122334,122702,1 V,0,122518,122702,9,0.5,0.5,0.5 F,0,122702,122886,1,0
Sprite,Foreground,Centre,"SB\dot.png",320,240 F,2,122150,122334,0,1 M,0,122334,122702,295,422 F,2,122334,122702,1 S,1,122334,122702,1,2 F,2,122702,122886,1,0
Sprite,Foreground,Centre,"SB\highlight.png",320,240 C,0,0,,203,60,52 F,2,122558,122650,0,1 M,0,122650,124122,106,105 F,1,122650,124122,1,0
Sprite,Foreground,Centre,"SB\squareSm.png",320,240 F,0,122558,122650,0,1 R,0,122558,122650,0,-0.7504916 V,0,122650,122834,0.5,0.5,8,0.5 M,0,122650,123018,106,105,252,-31 F,0,122650,123018,1 V,0,122834,123018,8,0.5,0.5,0.5 F,0,123018,123202,1,0
Sprite,Foreground,Centre,"SB\squareSm.png",320,240 F,0,122558,122650,0,1 R,0,122558,122650,0,-2.076942 V,0,122650,122834,0.5,0.5,10,0.5 M,0,122650,123018,106,105,9,-70 F,0,122650,123018,1 V,0,122834,123018,10,0.5,0.5,0.5 F,0,123018,123202,1,0
Sprite,Foreground,Centre,"SB\squareSm.png",320,240 F,0,122558,122650,0,1 R,0,122558,122650,0,-2.80998 V,0,122650,122834,0.5,0.5,8,0.5 M,0,122650,123018,106,105,-83,40 F,0,122650,123018,1 V,0,122834,123018,8,0.5,0.5,0.5 F,0,123018,123202,1,0
Sprite,Foreground,Centre,"SB\squareSm.png",320,240 F,0,122558,122650,0,1 R,0,122558,122650,0,-4.729842 V,0,122650,122834,0.5,0.5,8,0.5 M,0,122650,123018,106,105,109,305 F,0,122650,123018,1 V,0,122834,123018,8,0.5,0.5,0.5 F,0,123018,123202,1,0
Sprite,Foreground,Centre,"SB\squareSm.png",320,240 F,0,122558,122650,0,1 R,0,122558,122650,0,-5.462881 V,0,122650,122834,0.5,0.5,9,0.5 M,0,122650,123018,106,105,242,251 F,0,122650,123018,1 V,0,122834,123018,9,0.5,0.5,0.5 F,0,123018,123202,1,0
Sprite,Foreground,Centre,"SB\dot.png",320,240 F,2,122466,122650,0,1 M,0,122650,123018,106,105 F,2,122650,123018,1 S,1,122650,123018,1,2 F,2,123018,123202,1,0
Sprite,Foreground,Centre,"SB\highlight.png",320,240 C,0,0,,203,60,52 F,2,122874,122966,0,1 M,0,122966,124438,546,133 F,1,122966,124438,1,0
Sprite,Foreground,Centre,"SB\squareSm.png",320,240 F,0,122874,122966,0,1 R,0,122874,122966,0,-0.3839724 V,0,122966,123150,0.5,0.5,9,0.5 M,0,122966,123334,546,133,731,58 F,0,122966,123334,1 V,0,123150,123334,9,0.5,0.5,0.5 F,0,123334,123518,1,0
Sprite,Foreground,Centre,"SB\squareSm.png",320,240 F,0,122874,122966,0,1 R,0,122874,122966,0,-1.53589 V,0,122966,123150,0.5,0.5,10,0.5 M,0,122966,123334,546,133,553,-67 F,0,122966,123334,1 V,0,123150,123334,10,0.5,0.5,0.5 F,0,123334,123518,1,0
Sprite,Foreground,Centre,"SB\squareSm.png",320,240 F,0,122874,122966,0,1 R,0,122874,122966,0,-3.333579 V,0,122966,123150,0.5,0.5,9,0.5 M,0,122966,123334,546,133,350,171 F,0,122966,123334,1 V,0,123150,123334,9,0.5,0.5,0.5 F,0,123334,123518,1,0
Sprite,Foreground,Centre,"SB\squareSm.png",320,240 F,0,122874,122966,0,1 R,0,122874,122966,0,-4.660029 V,0,122966,123150,0.5,0.5,9,0.5 M,0,122966,123334,546,133,536,333 F,0,122966,123334,1 V,0,123150,123334,9,0.5,0.5,0.5 F,0,123334,123518,1,0
Sprite,Foreground,Centre,"SB\squareSm.png",320,240 F,0,122874,122966,0,1 R,0,122874,122966,0,-5.899213 V,0,122966,123150,0.5,0.5,8,0.5 M,0,122966,123334,546,133,731,208 F,0,122966,123334,1 V,0,123150,123334,8,0.5,0.5,0.5 F,0,123334,123518,1,0
Sprite,Foreground,Centre,"SB\dot.png",320,240 F,2,122782,122966,0,1 M,0,122966,123334,546,133 F,2,122966,123334,1 S,1,122966,123334,1,2 F,2,123334,123518,1,0
//Storyboard Sound Samples

[TimingPoints]
598,315.789473684211,4,2,12,50,1,0
3124,-100,4,2,12,60,0,0
13229,-100,4,2,12,50,0,0
23334,-100,4,2,12,55,0,0
33440,-133.333333333333,4,2,0,40,0,0
41019,-100,4,2,12,50,0,0
43229,-133.333333333333,4,2,12,60,0,0
43466,-133.333333333333,4,2,12,5,0,0
43545,-80,4,2,11,70,0,1
53571,-80,4,2,11,70,0,0
53650,-80,4,2,11,70,0,1
61229,-100,4,2,0,40,0,0
62492,-100,4,2,12,50,0,0
63755,-100,4,2,12,60,0,0
78440,-100,4,2,12,50,0,0
78598,-133.333333333333,4,2,12,60,0,0
78834,-133.333333333333,4,2,12,5,0,0
78913,-100,4,2,12,50,0,0
94071,-133.333333333333,4,2,12,40,0,0
101650,-133.333333333333,4,2,12,30,0,0
102913,-100,4,2,12,60,0,0
104176,-80,4,2,11,70,0,1
114203,-80,4,2,11,70,0,0
114282,-80,4,2,11,70,0,1
121861,-80,4,2,11,70,0,0
122334,-80,4,2,11,76,0,0
122966,-80,4,2,11,82,0,0
123755,-80,4,2,11,70,0,0
124387,-80,4,2,11,58,0,0
125019,-80,4,2,11,46,0,0
125650,-80,4,2,11,34,0,0
126282,-80,4,2,11,22,0,0
126913,-80,4,2,0,10,0,0

[Colours]
Combo1 : 21,170,111
Combo2 : 234,198,30
Combo3 : 203,60,52
Combo4 : 134,103,214

[HitObjects]
266,261,598,5,4,0:0:0:0:
117,238,755,2,0,L|121:325,1,88,2|2,0:0|0:0,0:0:0:0:
201,187,1071,5,4,0:0:0:0:
383,158,1229,2,0,L|375:286,1,88,2|2,0:0|0:0,0:0:0:0:
315,71,1545,5,4,0:0:0:0:
110,56,1703,2,0,L|112:143,1,88,2|2,0:0|0:0,0:0:0:0:
121,325,2019,5,0,1:0:0:0:
166,335,2097,1,0,1:0:0:0:
210,337,2176,2,0,P|240:320|255:303,1,44,0|0,1:0|1:0,1:0:0:0:
337,341,2334,2,0,L|341:294,1,44,0|0,1:0|1:0,1:0:0:0:
435,310,2492,5,8,0:3:0:0:
437,266,2570,1,8,0:3:0:0:
438,222,2649,1,8,0:3:0:0:
439,178,2728,1,8,0:3:0:0:
441,134,2808,2,0,P|424:119|405:108,1,44,4|4,0:3|0:3,0:0:0:0:
310,154,2966,2,0,P|326:168|345:179,1,44,4|4,0:3|0:3,0:0:0:0:
329,60,3124,6,0,P|284:60|246:80,1,88,6|0,0:0|0:0,0:0:0:0:
218,251,3439,1,8,0:0:0:0:
221,57,3598,6,0,P|183:78|159:115,1,88,0|2,0:0|0:0,0:0:0:0:
209,273,3913,1,0,0:0:0:0:
125,108,4071,6,0,P|103:145|101:189,1,88,8|0,0:0|0:0,0:0:0:0:
210,296,4387,1,2,0:0:0:0:
67,199,4545,6,0,P|67:242|87:280,1,88,0|8,0:0|0:0,0:0:0:0:
222,314,4861,1,0,0:0:0:0:
279,133,5019,5,2,0:0:0:0:
151,197,5176,1,0,0:0:0:0:
363,241,5334,2,0,L|369:141,1,88,8|0,0:0|0:0,0:0:0:0:
198,33,5650,6,0,L|189:136,1,88,6|0,0:0|0:0,0:0:0:0:
175,282,5966,1,8,0:0:0:0:
329,60,6124,6,0,L|270:145,1,88,0|2,0:0|0:0,0:0:0:0:
184,265,6440,1,0,0:0:0:0:
428,149,6598,6,0,L|334:193,1,88,8|0,0:0|0:0,0:0:0:0:
199,254,6914,1,2,0:0:0:0:
469,274,7071,6,0,L|365:265,1,88,0|8,0:0|0:0,0:0:0:0:
218,251,7387,1,0,0:0:0:0:
354,196,7545,5,6,0:0:0:0:
221,352,7703,1,0,0:0:0:0:
235,158,7861,1,12,0:0:0:0:
342,339,8019,1,0,0:0:0:0:
109,333,8176,6,0,P|98:290|103:247,1,88,6|0,0:0|0:0,0:0:0:0:
223,141,8492,1,8,0:0:0:0:
303,245,8650,6,0,P|260:255|217:250,1,88,0|2,0:0|0:0,0:0:0:0:
112,131,8966,1,0,0:0:0:0:
217,55,9124,6,0,P|228:102|222:142,1,88,8|0,0:0|0:0,0:0:0:0:
103,247,9440,1,2,0:0:0:0:
26,136,9598,6,0,P|68:126|111:130,1,88,0|8,0:0|0:0,0:0:0:0:
218,251,9913,1,0,0:0:0:0:
344,130,10071,5,2,0:0:0:0:
321,259,10229,1,6,0:0:0:0:
230,87,10387,1,12,0:0:0:0:
437,62,10545,1,2,0:0:0:0:
417,305,10703,5,12,0:0:0:0:
228,268,10861,1,2,0:0:0:0:
354,149,11019,1,2,0:0:0:0:
334,347,11176,5,12,0:0:0:0:
223,183,11334,1,2,0:0:0:0:
438,224,11492,1,2,0:0:0:0:
242,350,11650,5,12,0:0:0:0:
338,120,11808,1,2,0:0:0:0:
438,319,11966,1,2,0:0:0:0:
202,169,12124,5,12,0:0:0:0:
445,145,12282,1,2,0:0:0:0:
334,347,12440,1,2,0:0:0:0:
358,86,12598,5,6,0:0:0:0:
144,109,12756,1,8,0:0:0:0:
121,145,12834,1,8,0:0:0:0:
122,191,12913,1,12,0:0:0:0:
146,228,12992,1,8,0:0:0:0:
186,249,13071,1,8,0:0:0:0:
230,248,13150,1,8,0:0:0:0:
260,226,13229,5,6,0:0:0:0:
224,34,13387,1,2,0:0:0:0:
408,17,13545,2,0,L|401:105,1,88,8|0,0:0|0:0,0:0:0:0:
343,196,13861,1,0,0:0:0:0:
343,196,14019,1,0,0:0:0:0:
372,296,14176,2,0,P|441:299|484:271,1,88,8|0,0:0|0:0,0:0:0:0:
254,263,14492,6,0,P|185:260|142:288,1,88
71,308,14808,1,8,0:0:0:0:
41,157,14966,1,2,0:0:0:0:
41,157,15124,2,0,L|151:167,1,88,0|2,0:0|0:0,0:0:0:0:
287,52,15440,2,0,L|196:59,1,88,8|2,0:0|0:0,0:0:0:0:
104,66,15755,5,2,0:0:0:0:
302,70,15913,1,2,0:0:0:0:
155,151,16071,2,0,P|151:213|155:260,1,88,8|0,0:0|0:0,0:0:0:0:
203,332,16387,1,0,0:0:0:0:
203,332,16545,1,0,0:0:0:0:
302,295,16703,2,0,P|373:294|411:315,1,88,8|0,0:0|0:0,0:0:0:0:
463,178,17019,6,0,P|398:182|353:138,1,132
339,112,17334,1,8,0:0:0:0:
221,62,17492,1,2,0:0:0:0:
316,31,17650,1,0,0:0:0:0:
221,62,17808,2,0,L|213:165,1,88,2|8,0:0|0:0,0:0:0:0:
357,210,18124,1,2,0:0:0:0:
206,230,18282,5,6,0:0:0:0:
320,57,18440,1,2,0:0:0:0:
141,26,18597,2,0,L|133:113,1,88,8|0,0:0|0:0,0:0:0:0:
184,303,18913,1,0,0:0:0:0:
184,303,19071,2,0,L|191:215,1,88,0|8,0:0|0:0,0:0:0:0:
85,327,19387,1,0,0:0:0:0:
256,358,19545,6,0,P|299:358|339:340,1,88
485,270,19861,2,0,P|441:270|401:252,1,88,8|2,0:0|0:0,0:0:0:0:
245,195,20176,2,0,P|288:195|328:177,1,88,0|2,0:0|0:0,0:0:0:0:
473,106,20492,2,0,P|429:106|389:88,1,88,8|2,0:0|0:0,0:0:0:0:
285,20,20808,5,2,0:0:0:0:
274,223,20966,1,2,0:0:0:0:
254,37,21124,2,0,L|248:135,1,88,8|0,0:0|0:0,0:0:0:0:
88,197,21440,2,0,P|147:200|203:235,1,88
285,251,21755,1,8,0:0:0:0:
393,121,21913,6,0,L|387:208,1,88,6|0,0:0|0:0,0:0:0:0:
384,315,22229,1,2,0:0:0:0:
182,341,22387,5,8,0:0:0:0:
299,352,22545,1,2,0:0:0:0:
342,207,22703,5,8,0:0:0:0:
159,250,22861,1,2,0:0:0:0:
126,99,23019,5,8,0:0:0:0:
368,111,23176,1,2,0:0:0:0:
247,252,23334,5,6,0:0:0:0:
247,252,23492,1,2,0:0:0:0:
202,90,23650,2,0,L|289:91,1,88,8|0,0:0|0:0,0:0:0:0:
442,148,23966,2,0,P|450:100|432:55,1,88,0|2,0:0|0:0,0:0:0:0:
303,192,24282,1,8,0:0:0:0:
141,181,24440,6,0,P|122:141|125:98,1,88,2|0,0:0|0:0,0:0:0:0:
66,231,24755,1,2,0:0:0:0:
66,231,24913,2,0,P|37:142|51:53,1,176,8|0,0:0|0:0,0:0:0:0:
208,22,25387,1,2,0:0:0:0:
228,183,25545,2,0,L|141:181,1,88,8|0,0:0|0:0,0:0:0:0:
203,322,25861,5,2,0:0:0:0:
203,322,26019,1,2,0:0:0:0:
360,269,26176,2,0,P|374:228|374:183,1,88,8|0,0:0|0:0,0:0:0:0:
222,96,26492,2,0,P|218:139|227:182,1,88,0|2,0:0|0:0,0:0:0:0:
360,269,26808,1,8,0:0:0:0:
425,95,26966,1,2,0:0:0:0:
425,95,27124,6,0,P|380:91|325:96,1,88,0|2,0:0|0:0,0:0:0:0:
132,107,27440,2,0,L|136:194,1,88,8|0,0:0|0:0,0:0:0:0:
143,353,27755,1,0,0:0:0:0:
52,247,27913,1,2,0:0:0:0:
222,302,28071,2,0,P|265:303|308:294,1,88,8|0,0:0|0:0,0:0:0:0:
408,117,28387,5,6,0:0:0:0:
247,115,28545,1,2,0:0:0:0:
388,139,28703,2,0,L|385:226,1,88,8|0,0:0|0:0,0:0:0:0:
247,206,29019,2,0,L|254:294,1,88,0|2,0:0|0:0,0:0:0:0:
381,336,29334,1,8,0:0:0:0:
204,364,29492,1,2,0:0:0:0:
405,356,29650,6,0,L|407:268,1,88,0|2,0:0|0:0,0:0:0:0:
408,117,29966,1,8,0:0:0:0:
243,41,30124,2,0,P|166:74|168:160,1,176,2|2,0:0|0:0,0:0:0:0:
226,338,30598,2,0,P|238:297|245:250,1,88,8|0,0:0|0:0,0:0:0:0:
232,117,30913,5,2,0:0:0:0:
397,86,31071,2,0,L|394:190,1,88,2|8,0:0|0:0,0:0:0:0:
385,321,31387,2,0,P|342:324|289:313,1,88,2|0,0:0|0:0,0:0:0:0:
468,239,31703,1,2,0:0:0:0:
468,239,31861,1,8,0:0:0:0:
352,237,32019,6,0,B|291:234|224:212|224:212|241:233|243:253,1,176,6|2,0:0|0:0,0:0:0:0:
395,174,32492,5,12,0:0:0:0:
163,271,32650,1,2,0:0:0:0:
255,107,32808,5,12,0:0:0:0:
263,327,32966,1,2,0:0:0:0:
374,207,33124,5,12,0:0:0:0:
144,150,33282,1,2,0:0:0:0:
267,8,33440,6,0,P|324:36|355:101,1,132.000005035401,6|0,0:0|0:0,0:0:0:0:
224,225,33913,2,0,P|219:161|260:102,1,132.000005035401,2|0,0:0|0:0,0:0:0:0:
433,155,34387,6,0,P|379:190|308:184,1,132.000005035401,2|0,0:0|0:0,0:0:0:0:
424,313,34861,2,0,P|359:311|301:282,1,132.000005035401,2|0,0:0|0:0,0:0:0:0:
260,370,35334,6,0,P|232:352|212:326,1,66.0000025177003,2|0,0:0|0:0,0:0:0:0:
239,162,35650,2,0,P|237:194|224:224,1,66.0000025177003,2|0,0:0|0:0,0:0:0:0:
22,328,35966,6,0,P|68:282|131:265,1,132.000005035401,2|0,0:0|0:0,0:0:0:0:
21,178,36440,2,0,P|84:162|148:175,1,132.000005035401,2|0,0:0|0:0,0:0:0:0:
341,230,36913,6,0,L|337:367,1,132.000005035401,2|0,0:0|0:0,0:0:0:0:
239,162,37387,2,0,L|235:299,1,132.000005035401,2|0,0:0|0:0,0:0:0:0:
363,200,37861,6,0,L|360:283,1,66.0000025177003,2|0,0:0|0:0,0:0:0:0:
261,132,38176,2,0,L|258:215,1,66.0000025177003,2|0,0:0|0:0,0:0:0:0:
327,59,38492,6,0,P|267:34|205:53,1,132.000005035401,6|0,0:0|0:0,0:0:0:0:
127,209,38966,2,0,L|258:198,1,132.000005035401,2|0,0:0|0:0,0:0:0:0:
194,359,39440,2,0,P|227:356|260:352,1,66.0000025177003,0|8,0:0|0:3,0:0:0:0:
342,345,39676,1,8,0:3:0:0:
365,340,39755,6,0,P|398:275|368:223,1,132.000005035401,8|0,0:3|0:0,0:0:0:0:
301,181,40229,2,0,L|432:170,1,132.000005035401,4|0,0:3|0:0,0:0:0:0:
392,93,40703,2,0,L|304:101,1,66.0000025177003,4|0,0:3|0:0,0:0:0:0:
140,109,41019,5,12,0:0:0:0:
119,304,41176,1,2,0:0:0:0:
271,195,41334,1,2,0:0:0:0:
126,88,41492,5,12,0:0:0:0:
253,326,41650,1,2,0:0:0:0:
283,64,41808,1,2,0:0:0:0:
403,344,41966,5,12,0:0:0:0:
439,40,42124,1,2,0:0:0:0:
385,327,42440,5,2,0:0:0:0:
409,59,42598,1,2,0:0:0:0:
403,344,43229,6,2,P|420:291|404:239,1,99.0000037765504,2|0,0:0|0:0,0:0:0:0:
392,223,43545,6,0,L|276:229,1,110,6|0,0:0|0:0,0:0:0:0:
80,238,43861,1,8,0:0:0:0:
233,325,44019,1,0,0:0:0:0:
54,219,44176,5,2,0:0:0:0:
317,201,44334,1,0,0:0:0:0:
185,63,44492,1,8,0:0:0:0:
215,347,44650,1,0,0:0:0:0:
425,213,44808,5,2,0:0:0:0:
425,213,44966,2,0,P|343:199|300:203,1,110,0|8,0:0|0:0,0:0:0:0:
353,78,45282,2,0,P|298:76|244:88,1,110,0|2,0:0|0:0,0:0:0:0:
321,300,45598,2,0,P|243:306|196:298,1,110,0|8,0:0|0:0,0:0:0:0:
76,207,45913,1,0,0:0:0:0:
204,31,46071,6,0,L|199:161,1,110,6|0,0:0|0:0,0:0:0:0:
191,315,46387,1,8,0:0:0:0:
412,218,46545,2,0,P|340:212|295:226,1,110,0|2,0:0|0:0,0:0:0:0:
172,155,46861,2,0,L|177:36,1,110,0|8,0:0|0:0,0:0:0:0:
310,112,47176,2,0,L|305:221,1,110,0|2,0:0|0:0,0:0:0:0:
191,315,47492,5,0,0:0:0:0:
191,315,47650,2,0,P|119:321|74:307,1,110,8|0,0:0|0:0,0:0:0:0:
148,126,47966,1,2,0:0:0:0:
328,210,48124,1,8,0:0:0:0:
191,315,48282,1,2,0:0:0:0:
256,130,48440,1,8,0:0:0:0:
368,284,48598,6,0,P|315:295|268:268,1,110,6|0,0:0|0:0,0:0:0:0:
436,81,48913,2,0,L|426:190,1,110,8|0,0:0|0:0,0:0:0:0:
309,24,49229,2,0,L|319:135,1,110,2|0,0:0|0:0,0:0:0:0:
338,335,49545,1,8,0:0:0:0:
338,335,49703,1,0,0:0:0:0:
112,319,49861,6,0,P|179:320|241:310,1,110,2|0,0:0|0:0,0:0:0:0:
162,205,50176,2,0,P|229:204|291:214,1,110,8|0,0:0|0:0,0:0:0:0:
425,328,50492,1,2,0:0:0:0:
238,297,50650,1,0,0:0:0:0:
424,209,50808,1,8,0:0:0:0:
284,187,50966,1,0,0:0:0:0:
436,71,51124,6,0,P|442:138|435:191,1,110,6|0,0:0|0:0,0:0:0:0:
271,209,51440,1,8,0:0:0:0:
313,45,51598,1,0,0:0:0:0:
137,22,51755,1,2,0:0:0:0:
137,22,51913,2,0,L|148:144,1,110,0|8,0:0|0:0,0:0:0:0:
168,328,52229,1,0,0:0:0:0:
58,195,52387,5,2,0:0:0:0:
271,209,52545,1,0,0:0:0:0:
153,345,52703,1,8,0:0:0:0:
229,130,52861,1,0,0:0:0:0:
378,181,53019,1,8,0:3:0:0:
418,217,53097,1,8,0:3:0:0:
430,269,53176,1,8,0:3:0:0:
409,319,53255,1,8,0:3:0:0:
363,348,53334,1,4,0:3:0:0:
309,345,53413,1,4,0:3:0:0:
267,311,53492,1,2,0:0:0:0:
252,259,53571,1,2,0:0:0:0:
271,209,53650,5,6,0:0:0:0:
369,66,53808,1,0,0:0:0:0:
341,262,53966,1,8,0:0:0:0:
127,275,54124,1,0,0:0:0:0:
344,161,54282,5,2,0:0:0:0:
91,167,54440,1,0,0:0:0:0:
267,311,54598,1,8,0:0:0:0:
248,62,54755,1,0,0:0:0:0:
140,299,54913,5,2,0:0:0:0:
363,316,55071,2,0,P|371:261|365:206,1,110,0|8,0:0|0:0,0:0:0:0:
252,259,55387,2,0,P|244:204|250:149,1,110,0|2,0:0|0:0,0:0:0:0:
463,209,55703,2,0,P|460:154|445:101,1,110,0|8,0:0|0:0,0:0:0:0:
273,68,56019,1,0,0:0:0:0:
273,68,56176,6,0,L|270:183,1,110,6|0,0:0|0:0,0:0:0:0:
353,327,56492,1,8,0:0:0:0:
463,209,56650,2,0,P|408:211|358:238,1,110,0|2,0:0|0:0,0:0:0:0:
141,321,56966,2,0,P|195:318|246:292,1,110,0|8,0:0|0:0,0:0:0:0:
397,116,57282,2,0,P|342:115|294:89,1,110,0|2,0:0|0:0,0:0:0:0:
161,11,57598,5,0,0:0:0:0:
161,11,57755,2,0,L|165:138,1,110,8|0,0:0|0:0,0:0:0:0:
175,289,58071,1,2,0:0:0:0:
362,330,58229,1,8,0:0:0:0:
147,284,58387,1,2,0:0:0:0:
385,203,58545,1,8,0:0:0:0:
250,27,58703,6,0,L|253:136,1,110,6|0,0:0|0:0,0:0:0:0:
258,337,59019,2,0,P|310:349|360:328,1,110,8|0,0:0|0:0,0:0:0:0:
443,139,59334,2,0,P|380:118|332:136,1,110,2|0,0:0|0:0,0:0:0:0:
119,279,59650,1,8,0:0:0:0:
385,203,59808,1,0,0:0:0:0:
237,47,59966,6,0,L|233:156,1,110,2|0,0:0|0:0,0:0:0:0:
70,99,60282,2,0,L|79:215,1,110,8|0,0:0|0:0,0:0:0:0:
185,360,60598,1,2,0:0:0:0:
203,170,60755,1,0,0:0:0:0:
88,305,60913,1,8,0:0:0:0:
297,338,61071,1,0,0:0:0:0:
313,124,61229,1,2,0:0:0:0:
130,45,61387,5,2,0:0:0:0:
90,134,61703,5,2,0:0:0:0:
115,227,62019,5,2,0:0:0:0:
193,282,62334,5,2,0:0:0:0:
288,273,62492,6,0,P|301:204|302:166,1,88,2|0,0:0|1:0,0:0:0:0:
303,56,62808,1,0,1:0:0:0:
182,170,62966,1,0,1:0:0:0:
164,9,63124,1,8,0:3:0:0:
379,20,63282,1,8,0:3:0:0:
387,62,63360,1,8,0:3:0:0:
372,103,63439,1,4,0:3:0:0:
340,132,63518,1,4,0:3:0:0:
297,141,63597,1,2,0:0:0:0:
256,128,63676,1,2,0:0:0:0:
226,96,63755,6,0,P|185:84|142:94,1,88,6|0,0:0|0:0,0:0:0:0:
120,279,64071,1,8,0:0:0:0:
208,106,64229,6,0,P|166:116|134:146,1,88,0|2,0:0|0:0,0:0:0:0:
207,317,64545,1,0,0:0:0:0:
197,123,64703,6,0,P|166:152|153:194,1,88,8|0,0:0|0:0,0:0:0:0:
302,306,65019,1,2,0:0:0:0:
195,143,65176,6,0,P|182:184|192:227,1,88,0|8,0:0|0:0,0:0:0:0:
378,249,65492,1,0,0:0:0:0:
399,67,65650,5,2,0:0:0:0:
399,67,65808,2,0,P|349:66|285:76,1,88,0|8,0:0|0:0,0:0:0:0:
109,123,66124,1,0,0:0:0:0:
190,317,66282,6,0,L|195:206,1,88,6|0,0:0|0:0,0:0:0:0:
201,51,66598,1,8,0:0:0:0:
302,306,66755,6,0,L|268:199,1,88,0|2,0:0|0:0,0:0:0:0:
221,52,67071,1,0,0:0:0:0:
403,257,67229,6,0,L|335:168,1,88,8|0,0:0|0:0,0:0:0:0:
240,46,67545,1,2,0:0:0:0:
481,176,67703,6,0,L|387:116,1,88,0|8,0:0|0:0,0:0:0:0:
255,33,68019,1,0,0:0:0:0:
152,235,68176,5,6,0:0:0:0:
349,187,68334,1,0,0:0:0:0:
202,135,68492,1,12,0:0:0:0:
302,306,68650,1,0,0:0:0:0:
427,170,68808,6,0,P|409:130|371:108,1,88,6|0,0:0|0:0,0:0:0:0:
202,135,69124,1,8,0:0:0:0:
302,306,69282,6,0,P|341:288|363:250,1,88,0|2,0:0|0:0,0:0:0:0:
337,81,69598,1,0,0:0:0:0:
166,181,69755,6,0,P|183:220|221:242,1,88,8|0,0:0|0:0,0:0:0:0:
391,216,70071,1,2,0:0:0:0:
291,45,70229,6,0,P|251:62|229:100,1,88,0|8,0:0|0:0,0:0:0:0:
256,270,70545,1,0,0:0:0:0:
398,132,70703,5,2,0:0:0:0:
229,99,70861,1,6,0:0:0:0:
425,137,71019,1,12,0:0:0:0:
166,181,71176,1,2,0:0:0:0:
400,219,71334,5,12,0:0:0:0:
246,295,71492,1,2,0:0:0:0:
300,119,71650,1,2,0:0:0:0:
342,321,71808,5,12,0:0:0:0:
201,195,71966,1,2,0:0:0:0:
400,219,72124,1,2,0:0:0:0:
233,311,72282,5,12,0:0:0:0:
302,96,72440,1,2,0:0:0:0:
356,337,72598,1,2,0:0:0:0:
175,184,72755,5,12,0:0:0:0:
421,197,72913,1,2,0:0:0:0:
218,333,73071,1,2,0:0:0:0:
300,119,73229,5,6,0:0:0:0:
116,124,73387,1,8,0:0:0:0:
93,160,73465,1,8,0:0:0:0:
94,206,73544,1,12,0:0:0:0:
118,243,73623,1,8,0:0:0:0:
158,264,73703,2,0,L|229:259,1,44,8|8,0:0|0:0,0:0:0:0:
371,248,73861,5,4,0:0:0:0:
315,81,78282,6,0,L|358:78,1,44,8|8,0:3|0:3,0:0:0:0:
219,150,78440,2,0,L|263:148,1,44,4|4,0:3|0:3,0:0:0:0:
178,65,78598,6,0,L|276:60,1,99.0000037765504,8|0,0:3|0:0,0:0:0:0:
315,81,78913,5,6,0:0:0:0:
326,270,79071,1,2,0:0:0:0:
219,150,79229,2,0,L|212:244,1,88,8|0,0:0|0:0,0:0:0:0:
350,342,79545,2,0,L|341:254,1,88,0|2,0:0|0:0,0:0:0:0:
322,120,79861,1,8,0:0:0:0:
426,168,80019,1,0,0:0:0:0:
315,80,80176,5,0,0:0:0:0:
466,158,80334,1,2,0:0:0:0:
326,270,80492,2,0,P|271:269|225:242,1,88,8|0,0:0|0:0,0:0:0:0:
131,327,80808,2,0,P|114:286|111:242,1,88,0|2,0:0|0:0,0:0:0:0:
120,66,81124,1,8,0:0:0:0:
282,79,81282,1,0,0:0:0:0:
93,157,81440,6,0,L|180:162,1,88,2|2,0:0|0:0,0:0:0:0:
340,287,81755,2,0,L|252:281,1,88,8|0,0:0|0:0,0:0:0:0:
319,186,82071,1,0,0:0:0:0:
163,274,82229,1,6,0:0:0:0:
262,103,82387,1,8,0:0:0:0:
421,156,82545,6,0,P|422:197|415:244,1,88,6|0,0:0|0:0,0:0:0:0:
235,328,82861,1,2,0:0:0:0:
264,133,83019,1,8,0:0:0:0:
340,287,83176,1,6,0:0:0:0:
357,310,83492,5,2,0:0:0:0:
136,292,83650,1,8,0:0:0:0:
262,103,83808,2,0,L|339:103,1,44,8|8,0:0|0:0,0:0:0:0:
179,63,83966,6,0,P|169:105|180:147,1,88,6|2,0:0|0:0,0:0:0:0:
235,328,84282,1,8,0:0:0:0:
235,328,84440,1,0,0:0:0:0:
280,200,84598,1,0,0:0:0:0:
387,255,84755,2,0,L|379:342,1,88,2|8,0:0|0:0,0:0:0:0:
464,198,85071,6,0,P|431:169|380:160,1,88,2|0,0:0|0:0,0:0:0:0:
456,64,85387,1,2,0:0:0:0:
455,63,85545,2,0,P|369:50|285:74,1,176,8|0,0:0|0:0,0:0:0:0:
193,206,86019,1,2,0:0:0:0:
193,206,86176,2,0,P|261:205|298:191,1,88,8|0,0:0|0:0,0:0:0:0:
368,141,86492,5,2,0:0:0:0:
154,123,86650,1,2,0:0:0:0:
190,289,86808,2,0,P|233:290|277:284,1,88,8|0,0:0|0:0,0:0:0:0:
454,225,87124,2,0,P|410:226|366:220,1,88,0|2,0:0|0:0,0:0:0:0:
265,46,87440,1,8,0:0:0:0:
193,206,87598,1,0,0:0:0:0:
78,71,87755,6,0,P|64:112|71:155,1,88,0|2,0:0|0:0,0:0:0:0:
115,316,88071,2,0,L|220:307,1,88,8|0,0:0|0:0,0:0:0:0:
352,270,88387,1,0,0:0:0:0:
193,206,88545,1,2,0:0:0:0:
326,103,88703,2,0,P|326:146|316:189,1,88,8|0,0:0|0:0,0:0:0:0:
242,68,89019,5,6,0:0:0:0:
434,97,89176,1,2,0:0:0:0:
352,270,89334,2,0,P|282:273|258:259,1,88,8|0,0:0|0:0,0:0:0:0:
436,229,89650,2,0,P|444:271|431:313,1,88,0|2,0:0|0:0,0:0:0:0:
316,189,89966,1,8,0:0:0:0:
246,345,90124,1,2,0:0:0:0:
119,250,90282,5,0,0:0:0:0:
267,265,90440,1,2,0:0:0:0:
94,274,90598,2,0,P|87:203|96:149,1,88,8|0,0:0|0:0,0:0:0:0:
242,68,90913,2,0,P|243:111|236:155,1,88,0|2,0:0|0:0,0:0:0:0:
55,94,91229,2,0,L|157:92,1,88,8|0,0:0|0:0,0:0:0:0:
331,91,91545,5,2,0:0:0:0:
300,286,91703,1,2,0:0:0:0:
431,119,91861,1,8,0:0:0:0:
387,288,92019,2,0,P|340:291|282:281,1,88,2|0,0:0|0:0,0:0:0:0:
125,188,92334,2,0,P|174:195|231:189,1,88,2|8,0:0|0:0,0:0:0:0:
416,77,92650,6,0,P|329:61|241:67,1,176,6|2,0:0|0:0,0:0:0:0:
102,111,93124,5,12,0:0:0:0:
123,311,93282,1,2,0:0:0:0:
217,123,93440,5,12,0:0:0:0:
202,301,93598,1,2,0:0:0:0:
326,161,93755,5,12,0:0:0:0:
281,305,93913,1,2,0:0:0:0:
124,187,94071,5,6,0:0:0:0:
124,187,94229,2,0,P|156:197|189:201,1,66.0000025177003,2|0,0:0|0:0,0:0:0:0:
73,275,94545,2,0,P|136:295|202:300,1,132.000005035401,8|8,0:0|0:0,0:0:0:0:
392,185,95019,5,2,0:0:0:0:
392,185,95176,2,0,L|389:268,1,66.0000025177003,2|0,0:0|0:0,0:0:0:0:
301,144,95492,2,0,L|295:303,1,132.000005035401,8|8,0:0|0:0,0:0:0:0:
210,103,95966,5,2,0:0:0:0:
200,300,96124,1,2,0:0:0:0:
200,300,96282,2,0,P|167:300|134:297,1,66.0000025177003,8|0,0:0|0:0,0:0:0:0:
63,93,96598,5,6,0:0:0:0:
63,93,96755,2,0,P|105:98|147:94,1,66.0000025177003,2|0,0:0|0:0,0:0:0:0:
87,194,97071,2,0,P|152:191|216:175,1,132.000005035401,8|8,0:0|0:0,0:0:0:0:
391,102,97545,5,2,0:0:0:0:
391,102,97703,2,0,L|388:167,1,66.0000025177003,2|0,0:0|0:0,0:0:0:0:
306,63,98019,2,0,L|300:205,1,132.000005035401,8|8,0:0|0:0,0:0:0:0:
290,361,98492,5,2,0:0:0:0:
397,270,98650,1,2,0:0:0:0:
205,243,98808,2,0,P|194:197|193:162,1,66.0000025177003,12|0,0:0|0:0,0:0:0:0:
391,102,99124,5,6,0:0:0:0:
391,102,99282,2,0,P|387:134|378:166,1,66.0000025177003,2|0,0:0|0:0,0:0:0:0:
282,82,99598,2,0,P|283:147|297:212,1,132.000005035401,8|8,0:0|0:0,0:0:0:0:
202,308,100071,5,2,0:0:0:0:
202,308,100229,2,0,L|205:230,1,66.0000025177003,2|0,0:0|0:0,0:0:0:0:
115,345,100545,2,0,L|121:204,1,132.000005035401,8|8,0:0|0:0,0:0:0:0:
130,29,101019,1,2,0:0:0:0:
273,108,101176,1,8,0:0:0:0:
110,128,101334,1,8,0:0:0:0:
229,15,101492,1,8,0:0:0:0:
257,203,101650,6,0,P|225:195|199:176,1,66.0000025177003,0|2,1:0|0:0,0:0:0:0:
334,251,101966,2,0,P|311:274|281:287,1,66.0000025177003,0|2,1:0|0:0,0:0:0:0:
148,322,102282,1,0,1:0:0:0:
100,192,102440,2,0,P|101:159|109:128,1,66.0000025177003,0|2,1:0|0:0,0:0:0:0:
229,15,102755,1,0,1:0:0:0:
365,152,102913,5,12,0:0:0:0:
180,117,103071,1,2,0:0:0:0:
343,35,103229,1,2,0:0:0:0:
257,203,103387,5,12,0:0:0:0:
353,59,103545,1,2,0:0:0:0:
358,264,103703,1,2,0:0:0:0:
148,322,103861,5,12,0:0:0:0:
318,342,104019,2,0,L|241:342,1,44,2|2,0:0|0:0,0:0:0:0:
123,338,104176,6,0,P|113:283|112:228,1,110,6|0,0:0|0:0,0:0:0:0:
215,50,104492,1,8,0:0:0:0:
255,242,104650,1,0,0:0:0:0:
113,125,104808,5,2,0:0:0:0:
350,94,104966,1,0,0:0:0:0:
111,229,105124,1,8,0:0:0:0:
356,249,105282,1,0,0:0:0:0:
232,33,105440,5,2,0:0:0:0:
232,33,105598,2,0,P|228:120|234:159,1,110,0|8,0:0|0:0,0:0:0:0:
350,94,105913,2,0,P|354:181|348:220,1,110,0|2,0:0|0:0,0:0:0:0:
118,150,106229,2,0,P|126:239|144:281,1,110,0|8,0:0|0:0,0:0:0:0:
224,351,106545,1,0,0:0:0:0:
408,254,106703,6,0,P|353:250|298:250,1,110,6|0,0:0|0:0,0:0:0:0:
132,257,107019,1,8,0:0:0:0:
232,33,107176,2,0,P|249:95|230:166,1,110,0|2,0:0|0:0,0:0:0:0:
30,212,107492,2,0,P|67:171|117:149,1,110,0|8,0:0|0:0,0:0:0:0:
287,297,107808,2,0,P|233:284|189:252,1,110,0|2,0:0|0:0,0:0:0:0:
367,133,108124,5,0,0:0:0:0:
367,133,108282,2,0,L|360:261,1,110,8|0,0:0|0:0,0:0:0:0:
172,142,108598,1,2,0:0:0:0:
206,337,108755,1,8,0:0:0:0:
303,79,108913,1,2,0:0:0:0:
287,297,109070,1,8,0:0:0:0:
63,142,109229,6,0,P|117:135|172:142,1,110,6|0,0:0|0:0,0:0:0:0:
287,297,109545,2,0,P|232:304|178:297,1,110,8|0,0:0|0:0,0:0:0:0:
280,95,109861,2,0,L|274:224,1,110,2|0,0:0|0:0,0:0:0:0:
121,230,110176,1,8,0:0:0:0:
121,230,110334,1,0,0:0:0:0:
103,38,110492,6,0,P|169:33|231:39,1,110,2|0,0:0|0:0,0:0:0:0:
63,142,110808,2,0,P|129:147|191:141,1,110,8|0,0:0|0:0,0:0:0:0:
340,53,111124,1,2,0:0:0:0:
312,235,111282,1,0,0:0:0:0:
244,121,111440,1,8,0:0:0:0:
415,165,111598,1,0,0:0:0:0:
303,323,111755,6,0,P|252:303|226:256,1,110,6|0,0:0|0:0,0:0:0:0:
230,100,112071,1,8,0:0:0:0:
130,284,112229,1,0,0:0:0:0:
53,158,112387,1,2,0:0:0:0:
53,158,112545,2,0,P|104:179|167:179,1,110,0|8,0:0|0:0,0:0:0:0:
317,163,112861,1,0,0:0:0:0:
198,327,113019,5,2,0:0:0:0:
218,84,113176,1,0,0:0:0:0:
342,244,113334,1,8,0:0:0:0:
104,279,113492,1,0,0:0:0:0:
317,163,113650,1,8,0:3:0:0:
369,161,113728,1,8,0:3:0:0:
412,192,113807,1,8,0:3:0:0:
428,245,113886,1,8,0:3:0:0:
411,296,113965,1,4,0:3:0:0:
366,329,114044,1,4,0:3:0:0:
313,330,114123,1,2,0:0:0:0:
269,300,114202,1,2,0:0:0:0:
251,250,114281,5,6,0:0:0:0:
325,46,114440,1,0,0:0:0:0:
342,244,114598,1,8,0:0:0:0:
141,271,114755,1,0,0:0:0:0:
226,53,114913,5,2,0:0:0:0:
206,340,115071,1,0,0:0:0:0:
82,141,115229,1,8,0:0:0:0:
369,161,115387,1,0,0:0:0:0:
129,293,115545,5,2,0:0:0:0:
345,353,115703,2,0,P|349:298|341:243,1,110,0|8,0:0|0:0,0:0:0:0:
170,171,116019,2,0,L|279:164,1,110,0|2,0:0|0:0,0:0:0:0:
436,68,116334,2,0,L|326:61,1,110,0|8,0:0|0:0,0:0:0:0:
145,52,116650,1,0,0:0:0:0:
145,52,116808,6,0,P|136:128|151:179,1,110,6|0,0:0|0:0,0:0:0:0:
217,314,117124,1,8,0:0:0:0:
274,190,117282,2,0,L|406:188,1,110,0|2,0:0|0:0,0:0:0:0:
153,250,117598,2,0,L|21:252,1,110,0|8,0:0|0:0,0:0:0:0:
235,340,117913,2,0,L|367:338,1,110,0|2,0:0|0:0,0:0:0:0:
245,205,118229,5,0,0:0:0:0:
381,78,118387,2,0,P|388:133|383:188,1,110,8|0,0:0|0:0,0:0:0:0:
235,340,118703,1,2,0:0:0:0:
213,131,118861,1,8,0:0:0:0:
350,279,119019,1,2,0:0:0:0:
153,250,119176,1,8,0:0:0:0:
266,52,119334,6,0,P|301:95|305:149,1,110,6|0,0:0|0:0,0:0:0:0:
448,124,119650,2,0,L|434:233,1,110,8|0,0:0|0:0,0:0:0:0:
235,340,119966,2,0,L|248:230,1,110,2|0,0:0|0:0,0:0:0:0:
418,46,120282,1,8,0:0:0:0:
374,288,120440,1,0,0:0:0:0:
153,250,120598,6,0,P|138:188|141:135,1,110,2|0,0:0|0:0,0:0:0:0:
326,55,120913,2,0,P|326:109|312:162,1,110,8|0,0:0|0:0,0:0:0:0:
235,340,121229,1,2,0:0:0:0:
223,153,121387,1,0,0:0:0:0:
350,279,121545,1,8,0:0:0:0:
153,250,121703,1,0,0:0:0:0:
374,288,121861,5,12,0:0:0:0:
127,275,122019,1,2,0:0:0:0:
261,67,122176,1,2,0:0:0:0:
231,367,122334,5,12,0:0:0:0:
42,50,122650,1,12,0:0:0:0:
482,78,122966,1,4,0:1:0:0:
256,192,123124,12,0,126913,0:0:0:0:
