osu file format v14

[General]
AudioFilename: audio.mp3
AudioLeadIn: 0
PreviewTime: 43199
Countdown: 0
SampleSet: Soft
StackLeniency: 0.7
Mode: 2
LetterboxInBreaks: 0
WidescreenStoryboard: 0

[Editor]
DistanceSpacing: 3.1
BeatDivisor: 4
GridSize: 8
TimelineZoom: 1

[Metadata]
Title:Meaning
TitleUnicode:Meaning
Artist:Shiena Nishizawa
ArtistUnicode:西沢幸奏
Creator:-Sh1n1-
Version:Salad
Source:
Tags:艦隊これくしょん -艦これ- Kantai Collection Kancolle shini jbh jbhyperion
BeatmapID:1490849
BeatmapSetID:704768

[Difficulty]
HPDrainRate:4
CircleSize:2.8
OverallDifficulty:7
ApproachRate:7
SliderMultiplier:1.2
SliderTickRate:2

[Events]
//Background and Video events
0,0,"kancolleBG.jpg",0,0
//Break Periods
2,33610,37562
2,74031,77352
2,128346,142451
2,162471,163897
//Storyboard Layer 0 (Background)
//Storyboard Layer 1 (Fail)
//Storyboard Layer 2 (Pass)
//Storyboard Layer 3 (Foreground)
//Storyboard Sound Samples

[TimingPoints]
568,315.789473684211,4,2,9,55,1,0
1831,-100,4,2,9,35,0,0
2462,-100,4,2,9,40,0,0
2778,-100,4,2,9,45,0,0
3094,-100,4,2,9,60,0,0
12883,-100,4,2,9,55,0,0
13199,-100,4,2,9,40,0,0
22357,-100,4,2,9,45,0,0
22673,-100,4,2,9,50,0,0
22989,-100,4,2,9,55,0,0
23304,-100,4,2,9,60,0,0
33410,-100,4,2,9,45,0,0
39568,-100,4,2,9,35,0,0
39725,-100,4,2,9,45,0,0
40199,-100,4,2,9,55,0,0
40357,-100,4,2,9,45,0,0
40989,-100,4,2,9,60,0,0
42568,-100,4,2,1,60,0,0
43199,-100,4,2,9,45,0,0
43515,-100,4,2,9,60,0,1
53541,-100,4,2,9,60,0,0
53620,-100,4,2,9,60,0,1
61199,-100,4,2,1,60,0,1
62462,-100,4,2,9,60,0,1
63725,-100,4,2,9,60,0,0
73831,-100,4,2,9,50,0,0
78252,-100,4,2,9,35,0,0
78883,-100,4,2,9,60,0,0
94041,-100,4,2,9,45,0,0
100989,-100,4,2,9,50,0,0
101620,-100,4,2,9,30,0,0
102883,-100,4,2,9,50,0,0
104146,-100,4,2,9,60,0,1
114173,-100,4,2,9,60,0,0
114252,-100,4,2,9,60,0,1
123015,-100,4,2,9,50,0,0
124357,-100,4,2,9,40,0,0
125620,-100,4,2,9,30,0,0
126883,-100,4,2,9,20,0,0
128146,-100,4,2,9,10,0,0
142673,322.58064516129,4,2,9,30,1,0
143351,315.789473684211,4,2,9,30,1,0
145206,315.789473684211,4,2,9,30,1,0
145837,315.789473684211,4,2,9,30,1,0
150903,315.789473684211,4,2,9,30,1,0
164797,-100,4,2,9,45,0,0
165745,-100,4,2,9,55,0,0
166052,315.789473684211,4,2,9,60,1,1
176078,-100,4,2,9,60,0,0
176157,-100,4,2,9,60,0,1
183736,-100,4,2,9,40,0,0
184841,-100,4,2,9,30,0,0
186104,-100,4,2,9,10,0,0

[Colours]
Combo1 : 255,255,128
Combo2 : 251,69,60
Combo3 : 111,111,111

[HitObjects]
103,89,568,6,0,L|27:87,2,60,0|0|0,1:0|0:0|0:0,0:0:0:0:
175,57,1041,2,0,L|256:56,2,60,0|0|0,1:0|0:0|0:0,0:0:0:0:
102,176,1515,2,0,L|175:178,1,60,0|0,1:0|0:0,0:0:0:0:
283,347,1831,6,0,B|389:333|389:333|182:330|182:330|292:299,1,420,8|8,0:0|0:0,0:0:0:0:
464,151,3094,6,0,P|504:115|465:80,1,120,6|8,0:0|0:0,0:0:0:0:
332,55,3725,2,0,B|286:70|286:70|210:56,1,120,0|10,0:0|0:0,0:0:0:0:
83,79,4357,6,0,P|43:114|83:149,1,120,0|8,0:0|0:0,0:0:0:0:
215,351,4989,2,0,L|221:288,1,60,0|0,0:0|0:0,0:0:0:0:
130,280,5304,2,0,L|124:217,1,60,8|0,0:0|0:0,0:0:0:0:
306,103,5620,6,0,P|346:67|307:32,1,120,6|8,0:0|0:0,0:0:0:0:
174,309,6252,2,0,L|230:202,1,120,0|10,0:0|0:0,0:0:0:0:
362,291,6883,6,0,L|418:184,1,120,0|8,0:0|0:0,0:0:0:0:
297,166,7515,2,0,L|326:104,1,60,4|0,0:0|0:0,0:0:0:0:
413,86,7831,2,0,L|442:24,1,60,12|0,0:0|0:0,0:0:0:0:
258,30,8146,6,0,B|200:149,1,120,6|8,0:0|0:0,0:0:0:0:
338,243,8778,2,0,P|377:279|338:314,1,120,0|10,0:0|0:0,0:0:0:0:
216,271,9410,6,0,P|176:307|215:342,1,120,0|8,0:0|0:0,0:0:0:0:
335,96,10041,1,0,0:0:0:0:
269,95,10198,1,0,0:0:0:0:
202,96,10357,1,8,0:0:0:0:
269,95,10515,1,0,0:0:0:0:
454,233,10673,6,0,P|493:197|453:162,1,120,8|0,0:0|0:0,0:0:0:0:
362,296,11146,2,0,B|293:188,1,120,8|0,0:0|0:0,0:0:0:0:
479,100,11620,6,0,P|518:64|478:29,1,120,8|0,0:0|0:0,0:0:0:0:
387,163,12094,2,0,B|318:55,1,120,8|0,0:0|0:0,0:0:0:0:
414,283,12568,6,0,L|486:283,2,60,8|8|8,0:0|0:0|0:0,0:0:0:0:
174,288,13199,5,4,0:0:0:0:
102,289,13515,1,8,0:0:0:0:
30,289,14146,1,8,0:0:0:0:
30,289,14778,1,8,0:0:0:0:
102,289,15410,1,8,0:0:0:0:
252,211,15725,5,0,0:0:0:0:
180,150,16041,1,8,0:0:0:0:
108,150,16672,1,8,0:0:0:0:
108,150,17304,1,8,0:0:0:0:
180,150,17936,1,8,0:0:0:0:
418,156,18252,5,4,0:0:0:0:
346,54,18568,1,8,0:0:0:0:
391,54,19199,1,8,0:0:0:0:
436,54,19831,1,8,0:0:0:0:
481,54,20462,1,8,0:0:0:0:
350,143,20778,5,0,0:0:0:0:
446,178,21094,2,0,P|522:259|422:332,1,240,8|8,0:0|0:0,0:0:0:0:
279,335,21883,1,4,0:0:0:0:
470,226,22357,6,0,L|476:163,1,60,8|0,0:0|0:0,0:0:0:0:
385,155,22673,2,0,L|379:92,1,60,8|0,0:0|0:0,0:0:0:0:
470,22,22989,2,0,L|476:85,1,60,8|0,0:0|0:0,0:0:0:0:
295,231,23304,6,0,B|252:243|252:243|174:232,1,120,4|8,0:0|0:0,0:0:0:0:
310,132,23936,2,0,P|349:110|307:66,1,120,0|8,0:0|0:0,0:0:0:0:
220,133,24410,2,0,P|181:111|223:67,1,120,0|0,0:0|0:0,0:0:0:0:
310,65,24883,5,8,0:0:0:0:
178,239,25199,2,0,L|109:240,2,60,0|0|8,0:0|0:0|0:0,0:0:0:0:
309,240,25831,6,0,L|432:240,1,120,0|8,0:0|0:0,0:0:0:0:
339,154,26304,2,0,L|327:24,1,120,0|0,0:0|0:0,0:0:0:0:
419,41,26778,1,8,0:0:0:0:
289,159,27094,6,0,L|277:29,1,120,0|8,0:0|0:0,0:0:0:0:
410,219,27725,2,0,P|449:197|407:153,1,120,0|8,0:0|0:0,0:0:0:0:
134,150,28357,6,0,B|90:159|90:159|14:149,1,120,4|8,0:0|0:0,0:0:0:0:
148,281,28989,2,0,B|192:272|192:272|268:282,1,120,0|8,0:0|0:0,0:0:0:0:
170,190,29462,2,0,P|131:168|173:124,1,120,0|0,0:0|0:0,0:0:0:0:
266,123,29936,5,8,0:0:0:0:
398,141,30252,1,0,0:0:0:0:
404,141,30410,1,0,0:0:0:0:
410,141,30568,1,8,0:0:0:0:
278,318,30883,6,0,L|168:248,1,120,0|8,0:0|0:0,0:0:0:0:
309,213,31515,2,0,L|199:143,1,120,0|8,0:0|0:0,0:0:0:0:
389,143,31989,2,0,L|453:32,1,120,4|0,0:0|0:0,0:0:0:0:
359,33,32462,5,8,0:0:0:0:
233,89,32778,2,0,L|215:32,1,60,8|0,0:0|0:0,0:0:0:0:
306,158,33094,2,0,L|324:215,1,60,8|0,0:0|0:0,0:0:0:0:
143,214,33410,5,6,0:0:0:0:
161,192,38462,6,0,B|281:208|281:208|401:192,1,240,6|2,0:0|0:0,0:0:0:0:
254,94,39410,2,0,L|241:31,1,60,0|4,0:0|0:3,0:0:0:0:
332,35,39725,6,0,L|516:35,2,180,4|4|0,0:3|0:3|0:0,0:0:0:0:
55,104,40989,6,0,P|14:141|56:172,1,120,8|0,0:0|0:0,0:0:0:0:
144,256,41462,2,0,L|63:353,1,120,8|0,0:0|0:0,0:0:0:0:
158,346,41936,5,8,0:0:0:0:
338,263,42094,2,0,L|419:166,1,120,0|0,0:0|0:0,0:0:0:0:
324,173,42568,1,2,0:0:0:0:
152,47,43199,5,0,0:0:0:0:
428,47,43515,6,0,B|504:148,1,120,4|8,0:0|0:0,0:0:0:0:
410,130,43989,1,0,0:0:0:0:
320,127,44146,2,0,P|279:164|321:195,1,120,0|8,0:0|0:0,0:0:0:0:
463,244,44778,6,0,L|483:374,1,120,0|8,0:0|0:0,0:0:0:0:
337,239,45410,2,0,L|337:369,1,120,0|8,0:0|0:0,0:0:0:0:
61,249,46041,6,0,P|23:208|72:198,1,120,4|8,0:0|0:0,0:0:0:0:
156,164,46515,2,0,P|194:123|145:113,1,120,0|0,0:0|0:0,0:0:0:0:
61,59,46989,1,8,0:0:0:0:
205,258,47304,6,0,L|262:370,1,120,0|8,0:0|0:0,0:0:0:0:
404,242,47936,2,0,L|370:181,1,60,0|8,0:0|0:0,0:0:0:0:
284,196,48252,2,0,L|250:135,1,60,0|8,0:0|0:0,0:0:0:0:
436,37,48568,6,0,L|513:141,2,120,4|8|0,0:0|0:0|0:0,0:0:0:0:
292,37,49515,1,8,0:0:0:0:
148,37,49831,6,0,L|219:145,1,120,0|8,0:0|0:0,0:0:0:0:
70,308,50462,1,0,0:0:0:0:
20,278,50619,1,0,0:0:0:0:
20,221,50777,1,8,0:0:0:0:
69,191,50935,1,0,0:0:0:0:
250,327,51094,6,0,L|318:215,1,120,4|8,0:0|0:0,0:0:0:0:
221,157,51568,2,0,P|183:116|232:106,1,120,0|0,0:0|0:0,0:0:0:0:
315,137,52041,1,8,0:0:0:0:
171,249,52357,6,0,L|103:361,1,120,0|8,0:0|0:0,0:0:0:0:
253,267,52989,2,0,L|287:206,1,60,8|8,0:0|0:0,0:0:0:0:
192,153,53304,2,0,L|221:100,1,60,8|8,0:0|0:0,0:0:0:0:
402,111,53620,6,0,P|440:86|398:41,1,120,4|8,0:0|0:0,0:0:0:0:
311,82,54094,1,0,0:0:0:0:
221,180,54252,2,0,L|354:178,1,120,0|8,0:0|0:0,0:0:0:0:
196,317,54883,6,0,L|179:193,1,120,0|8,0:0|0:0,0:0:0:0:
324,317,55515,2,0,L|341:193,1,120,0|8,0:0|0:0,0:0:0:0:
64,160,56146,6,0,L|47:36,1,120,4|8,0:0|0:0,0:0:0:0:
139,31,56620,2,0,L|156:155,1,120,0|0,0:0|0:0,0:0:0:0:
64,254,57094,1,8,0:0:0:0:
208,322,57410,6,0,L|258:211,1,120,0|8,0:0|0:0,0:0:0:0:
113,197,58041,2,0,L|147:128,1,60,0|8,0:0|0:0,0:0:0:0:
230,93,58357,2,0,L|264:24,1,60,0|8,0:0|0:0,0:0:0:0:
438,167,58673,6,0,L|371:268,2,120,4|8|0,0:0|0:0|0:0,0:0:0:0:
294,160,59620,1,8,0:0:0:0:
150,62,59936,6,0,L|272:63,1,120,0|8,0:0|0:0,0:0:0:0:
126,232,60568,1,0,0:0:0:0:
66,232,60725,1,0,0:0:0:0:
6,232,60883,1,8,0:0:0:0:
66,232,61041,1,0,0:0:0:0:
126,234,61199,5,2,0:0:0:0:
286,363,62462,5,0,0:2:0:0:
166,363,62777,1,0,0:0:0:0:
299,242,63094,2,0,L|320:186,1,60,8|8,0:0|0:0,0:0:0:0:
229,152,63410,2,0,L|228:78,1,60,8|8,0:0|0:0,0:0:0:0:
48,233,63725,6,0,P|8:269|47:304,1,120,6|8,0:0|0:0,0:0:0:0:
178,329,64357,2,0,B|224:314|224:314|300:328,1,120,0|10,0:0|0:0,0:0:0:0:
162,202,64989,6,0,P|122:167|162:132,1,120,0|8,0:0|0:0,0:0:0:0:
295,35,65620,2,0,L|298:97,1,60
388,106,65936,2,0,L|385:168,1,60,8|0,0:0|0:0,0:0:0:0:
204,281,66252,6,0,P|164:317|203:352,1,120,6|8,0:0|0:0,0:0:0:0:
324,74,66883,2,0,L|268:181,1,120,0|10,0:0|0:0,0:0:0:0:
136,93,67515,6,0,L|80:200,1,120,0|8,0:0|0:0,0:0:0:0:
201,218,68146,2,0,L|172:280,1,60,4|0,0:0|0:0,0:0:0:0:
85,298,68462,2,0,L|56:360,1,60,12|0,0:0|0:0,0:0:0:0:
240,338,68778,6,0,B|280:351|280:351|356:338,1,120,6|8,0:0|0:0,0:0:0:0:
224,190,69409,2,0,P|185:154|224:119,1,120,0|10,0:0|0:0,0:0:0:0:
346,190,70041,6,0,P|386:154|347:119,1,120,0|8,0:0|0:0,0:0:0:0:
226,289,70672,1,0,0:0:0:0:
286,290,70831,1,0,0:0:0:0:
347,289,70988,1,8,0:0:0:0:
286,290,71146,1,0,0:0:0:0:
106,173,71304,6,0,L|89:49,1,120,8|0,0:0|0:0,0:0:0:0:
181,44,71778,2,0,L|198:168,1,120,8|0,0:0|0:0,0:0:0:0:
379,280,72252,6,0,L|396:156,1,120,8|0,0:0|0:0,0:0:0:0:
304,151,72726,2,0,L|287:275,1,120,8|0,0:0|0:0,0:0:0:0:
378,348,73199,6,0,L|450:348,2,60,8|8|8,0:0|0:0|0:0,0:0:0:0:
101,228,73831,5,0,0:0:0:0:
357,146,78252,6,0,L|417:145,2,60,0|0|0,1:0|0:0|1:0,0:0:0:0:
81,256,78883,6,0,L|48:137,1,120,4|8,0:0|0:0,0:0:0:0:
140,70,79357,2,0,L|173:189,1,120,0|0,0:0|0:0,0:0:0:0:
81,256,79831,1,8,0:0:0:0:
213,311,80146,6,0,L|299:222,1,120,0|8,0:0|0:0,0:0:0:0:
387,311,80620,2,0,L|301:222,1,120,0|0,0:0|0:0,0:0:0:0:
213,170,81094,1,8,0:0:0:0:
345,110,81410,6,0,L|412:108,2,60,0|0|8,0:0|0:0|0:0,0:0:0:0:
213,57,82041,2,0,L|135:59,2,60,0|0|8,0:0|0:0|0:0,0:0:0:0:
394,213,82515,6,0,B|451:104,1,120,4|0,0:0|0:0,0:0:0:0:
359,105,82989,1,8,0:0:0:0:
180,173,83146,1,4,0:0:0:0:
306,105,83620,2,0,L|268:57,1,60,8|8,0:0|0:0,0:0:0:0:
87,154,83936,6,0,L|14:59,1,120,4|8,0:0|0:0,0:0:0:0:
74,59,84410,1,0,0:0:0:0:
134,59,84568,1,0,0:0:0:0:
254,167,84883,1,8,0:0:0:0:
164,247,85041,2,0,P|125:222|170:180,1,120,0|0,0:0|0:0,0:0:0:0:
254,167,85515,1,8,0:0:0:0:
386,274,85831,6,0,L|445:273,2,60,0|0|8,0:0|0:0|0:0,0:0:0:0:
258,270,86462,2,0,P|216:238|262:216,1,120,0|8,0:0|0:0,0:0:0:0:
349,175,86936,2,0,P|391:143|345:121,1,120,0|0,0:0|0:0,0:0:0:0:
258,123,87410,1,8,0:0:0:0:
126,201,87725,6,0,L|82:86,1,120,0|8,0:0|0:0,0:0:0:0:
174,65,88199,2,0,L|218:180,1,120,0|0,0:0|0:0,0:0:0:0:
126,297,88673,1,8,0:0:0:0:
402,202,88989,6,0,L|466:201,2,60,4|0|8,0:0|0:0|0:0,0:0:0:0:
271,179,89620,2,0,L|186:65,1,120,0|8,0:0|0:0,0:0:0:0:
290,45,90094,2,0,L|375:159,1,120,0|0,0:0|0:0,0:0:0:0:
271,179,90568,1,8,0:0:0:0:
151,300,90883,5,0,0:0:0:0:
217,300,91041,1,0,0:0:0:0:
283,300,91199,1,8,0:0:0:0:
151,124,91515,2,0,L|70:123,2,60,0|0|8,0:0|0:0|0:0,0:0:0:0:
242,151,91989,2,0,L|285:35,1,120,0|0,0:0|0:0,0:0:0:0:
194,48,92462,1,8,0:0:0:0:
20,51,92620,5,4,0:0:0:0:
201,151,93094,2,0,L|224:220,1,60,8|0,0:0|0:0,0:0:0:0:
129,216,93410,2,0,L|141:288,1,60,8|0,0:0|0:0,0:0:0:0:
49,274,93725,2,0,L|46:336,1,60,8|0,0:0|0:0,0:0:0:0:
222,335,94041,6,0,L|225:273,1,60,4|0,0:0|0:0,0:0:0:0:
116,166,94515,2,0,L|86:48,1,120,8|8,0:0|0:0,0:0:0:0:
195,97,94989,2,0,L|198:35,1,60
312,322,95462,6,0,L|342:204,1,120,8|8,0:0|0:0,0:0:0:0:
233,253,95936,2,0,L|230:191,1,60
321,139,96252,1,8,0:0:0:0:
81,126,96568,6,0,L|78:64,1,60,0|0,0:0|0:0,0:0:0:0:
186,359,97041,2,0,L|216:241,1,120,8|8,0:0|0:0,0:0:0:0:
107,290,97515,2,0,L|83:229,1,60
194,151,97989,6,0,L|153:39,1,120,8|8,0:0|0:0,0:0:0:0:
262,134,98463,2,0,L|273:72,1,60
182,20,98779,1,8,0:0:0:0:
445,315,99094,6,0,L|456:253,1,60,4|0,0:0|0:0,0:0:0:0:
347,164,99568,2,0,L|293:51,1,120,8|8,0:0|0:0,0:0:0:0:
404,97,100041,2,0,L|424:38,1,60
315,326,100515,6,0,L|369:213,1,120,8|8,0:0|0:0,0:0:0:0:
276,202,100989,2,0,L|272:129,1,60,8|8,0:0|0:0,0:0:0:0:
185,167,101305,2,0,L|170:95,1,60,8|8,0:0|0:0,0:0:0:0:
90,141,101620,5,0,0:0:0:0:
403,144,102883,6,0,P|438:194|385:223,1,120,8|0,0:0|0:0,0:0:0:0:
312,226,103357,2,0,P|275:185|311:144,1,120,8|0,0:0|0:0,0:0:0:0:
403,144,103831,1,8,0:0:0:0:
128,46,104146,6,0,B|59:153,1,120,4|8,0:0|0:0,0:0:0:0:
154,152,104620,1,0,0:0:0:0:
244,149,104778,2,0,P|285:186|243:217,1,120,0|8,0:0|0:0,0:0:0:0:
113,234,105409,6,0,L|64:363,1,120,0|8,0:0|0:0,0:0:0:0:
203,241,106041,2,0,L|190:366,1,120,0|8,0:0|0:0,0:0:0:0:
467,249,106673,6,0,P|505:208|456:198,1,120,4|8,0:0|0:0,0:0:0:0:
372,164,107146,2,0,L|317:52,1,120,0|0,0:0|0:0,0:0:0:0:
410,55,107620,1,8,0:0:0:0:
278,312,107936,6,0,L|221:200,1,120,0|8,0:0|0:0,0:0:0:0:
356,173,108567,2,0,L|390:112,1,60,0|8,0:0|0:0,0:0:0:0:
476,127,108883,2,0,L|510:66,1,60,0|8,0:0|0:0,0:0:0:0:
324,33,109199,6,0,L|189:32,2,120,4|8|0,0:0|0:0|0:0,0:0:0:0:
192,118,110146,1,8,0:0:0:0:
336,118,110462,6,0,L|265:226,1,120,0|8,0:0|0:0,0:0:0:0:
403,299,111094,2,0,L|469:298,2,60,0|0|8,0:0|0:0|0:0,0:0:0:0:
342,299,111568,1,0,0:0:0:0:
163,274,111725,6,0,P|118:248|159:217,1,120,4|8,0:0|0:0,0:0:0:0:
250,157,112199,2,0,P|288:116|239:106,1,120,0|0,0:0|0:0,0:0:0:0:
156,137,112672,1,8,0:0:0:0:
288,254,112988,6,0,L|356:366,1,120,0|8,0:0|0:0,0:0:0:0:
218,196,113620,2,0,L|184:135,1,60,8|8,0:0|0:0,0:0:0:0:
279,82,113936,2,0,L|250:29,1,60,8|8,0:0|0:0,0:0:0:0:
69,198,114252,6,0,P|31:173|73:128,1,120,4|8,0:0|0:0,0:0:0:0:
161,165,114725,1,0,0:0:0:0:
251,159,114883,2,0,L|285:37,1,120,0|8,0:0|0:0,0:0:0:0:
151,366,115515,6,0,L|185:244,1,120,0|8,0:0|0:0,0:0:0:0:
316,335,116146,2,0,L|350:213,1,120,0|8,0:0|0:0,0:0:0:0:
70,170,116778,6,0,L|104:48,1,120,4|8,0:0|0:0,0:0:0:0:
193,56,117252,2,0,L|159:178,1,120,0|0,0:0|0:0,0:0:0:0:
71,255,117725,1,8,0:0:0:0:
203,318,118041,6,0,P|242:282|204:244,1,120,0|8,0:0|0:0,0:0:0:0:
72,197,118673,2,0,L|106:128,1,60,0|8,0:0|0:0,0:0:0:0:
189,93,118988,2,0,L|223:24,1,60,0|8,0:0|0:0,0:0:0:0:
397,167,119304,6,0,L|492:243,2,120,4|8|0,0:0|0:0|0:0,0:0:0:0:
265,160,120251,1,8,0:0:0:0:
133,99,120567,6,0,L|229:22,1,120,0|8,0:0|0:0,0:0:0:0:
359,319,121199,1,0,0:0:0:0:
409,289,121356,1,0,0:0:0:0:
409,232,121514,1,8,0:0:0:0:
360,202,121672,1,0,0:0:0:0:
179,248,121831,6,0,L|152:183,1,60,8|0,0:0|0:0,0:0:0:0:
288,88,122304,1,8,0:0:0:0:
132,88,122620,1,8,0:0:0:0:
408,44,122936,5,4,0:0:0:0:
256,192,123252,12,0,128146,0:0:0:0:
256,224,143351,6,0,B|302:247|302:247|432:224,2,180,0|0|2,0:0|0:0|0:0,0:0:0:0:
360,90,145206,1,0,0:0:0:0:
169,82,145837,6,0,B|215:95|215:95|290:75|290:75|352:86,2,180,2|0|2,0:0|0:0|0:0,0:0:0:0:
295,199,147100,1,2,0:0:0:0:
163,281,148047,1,0,0:0:0:0:
307,326,148363,6,0,B|353:339|353:339|428:319|428:319|490:330,2,180,2|0|2,0:0|0:0|0:0,0:0:0:0:
123,112,150903,6,0,B|211:130|211:92|317:113,2,180,2|0|2,0:0|0:0|0:0,0:0:0:0:
303,246,152166,2,0,B|215:264|215:227|109:247,2,180,2|0|2,0:0|0:0|0:0,0:0:0:0:
51,145,153429,6,0,P|13:103|57:72,1,120,2|0,0:0|0:0,0:0:0:0:
137,108,153903,1,2,0:0:0:0:
269,100,154218,2,0,L|329:99,2,60,0|2|2,0:0|0:0|0:0,0:0:0:0:
426,292,154850,6,0,L|464:171,1,120,2|2,0:0|0:0,0:0:0:0:
377,164,155324,2,0,L|402:109,1,60,2|0,0:0|0:0,0:0:0:0:
486,90,155639,2,0,L|461:35,1,60,0|0,0:0|0:0,0:0:0:0:
286,51,155955,6,0,P|246:87|284:124,1,120,2|0,0:0|0:0,0:0:0:0:
369,87,156429,1,2,0:0:0:0:
237,202,156745,2,0,L|177:203,2,60,2|0|0,0:0|0:0|0:0,0:0:0:0:
394,202,157377,6,0,L|335:306,1,120,2|2,0:0|0:0,0:0:0:0:
421,128,157851,2,0,L|422:47,1,60,2|2,0:0|0:0,0:0:0:0:
506,74,158166,2,0,L|496:11,1,60,2|0,0:0|0:0,0:0:0:0:
322,303,158481,6,0,L|252:197,1,120,2|0,0:0|0:0,0:0:0:0:
341,203,158955,1,2,0:0:0:0:
209,87,159271,2,0,L|149:88,2,60,2|2|2,0:0|0:0|0:0,0:0:0:0:
53,321,159903,6,0,L|-1:205,1,120,2|2,0:0|0:0,0:0:0:0:
87,178,160377,2,0,L|120:123,1,60,0|2,0:0|0:0,0:0:0:0:
34,88,160692,2,0,L|67:33,1,60,2|0,0:0|0:0,0:0:0:0:
240,329,161008,6,0,L|138:255,1,120,2|0,0:0|0:0,0:0:0:0:
227,206,161481,1,2,0:0:0:0:
360,120,161798,2,0,L|420:121,2,60,2|2|2,0:0|0:0|0:0,0:0:0:0:
300,120,162271,5,0,0:0:0:0:
135,290,164797,6,0,B|44:279|44:279|222:275|222:275|126:242,1,360,0|0,0:0|0:0,0:0:0:0:
406,208,166052,6,0,P|445:172|404:139,1,120,4|8,0:0|0:0,0:0:0:0:
314,142,166524,1,0,0:0:0:0:
223,137,166683,2,0,B|288:36,1,120,0|8,0:0|0:0,0:0:0:0:
421,330,167315,6,0,B|356:229,1,120,0|8,0:0|0:0,0:0:0:0:
224,331,167946,2,0,B|159:230,1,120,0|8,0:0|0:0,0:0:0:0:
436,214,168578,6,0,P|474:173|425:163,1,120,4|8,0:0|0:0,0:0:0:0:
341,146,169052,2,0,P|303:105|352:95,1,120,0|0,0:0|0:0,0:0:0:0:
436,49,169526,1,8,0:0:0:0:
304,335,169841,6,0,L|247:223,1,120,0|8,0:0|0:0,0:0:0:0:
382,197,170473,2,0,L|416:136,1,60,0|8,0:0|0:0,0:0:0:0:
320,93,170789,2,0,L|320:30,1,60,0|8,0:0|0:0,0:0:0:0:
139,50,171105,6,0,L|4:49,2,120,4|8|0,0:0|0:0|0:0,0:0:0:0:
271,140,172052,1,8,0:0:0:0:
115,140,172368,6,0,L|186:248,1,120,0|8,0:0|0:0,0:0:0:0:
314,344,173000,1,0,0:0:0:0:
255,343,173157,1,0,0:0:0:0:
195,340,173315,1,8,0:0:0:0:
136,339,173472,1,0,0:0:0:0:
317,267,173631,6,0,P|362:241|321:210,1,120,4|8,0:0|0:0,0:0:0:0:
230,150,174105,2,0,P|192:109|241:99,1,120,0|0,0:0|0:0,0:0:0:0:
324,130,174578,1,8,0:0:0:0:
192,254,174894,6,0,L|124:366,1,120,0|8,0:0|0:0,0:0:0:0:
261,196,175526,2,0,L|295:135,1,60,8|8,0:0|0:0,0:0:0:0:
200,82,175841,2,0,L|229:29,1,60,8|8,0:0|0:0,0:0:0:0:
410,198,176157,6,0,P|448:173|406:128,1,120,4|8,0:0|0:0,0:0:0:0:
319,165,176631,1,0,0:0:0:0:
229,154,176788,2,0,L|290:48,1,120,0|8,0:0|0:0,0:0:0:0:
157,127,177420,6,0,L|218:21,1,120,0|8,0:0|0:0,0:0:0:0:
349,319,178052,2,0,L|410:213,1,120,0|8,0:0|0:0,0:0:0:0:
133,222,178683,6,0,P|94:186|135:153,1,120,4|8,0:0|0:0,0:0:0:0:
225,156,179157,1,0,0:0:0:0:
316,151,179314,2,0,B|251:50,1,120,0|8,0:0|0:0,0:0:0:0:
118,330,179947,6,0,P|79:294|117:256,1,120,0|8,0:0|0:0,0:0:0:0:
249,209,180578,2,0,L|215:140,1,60,0|8,0:0|0:0,0:0:0:0:
132,105,180894,2,0,L|98:36,1,60,0|8,0:0|0:0,0:0:0:0:
287,54,181210,6,0,L|414:54,2,120,4|8|0,0:0|0:0|0:0,0:0:0:0:
155,226,182157,1,8,0:0:0:0:
311,201,182473,6,0,L|215:124,1,120,0|8,0:0|0:0,0:0:0:0:
350,317,183105,1,0,0:0:0:0:
400,287,183262,1,0,0:0:0:0:
400,230,183420,1,8,0:0:0:0:
351,200,183578,1,0,0:0:0:0:
235,174,183737,6,0,L|259:230,1,60
379,70,184209,1,0,0:0:0:0:
235,70,184525,1,0,0:0:0:0:
403,44,184841,6,0,P|259:143|410:352,1,480,0|0,0:0|0:0,0:0:0:0:
