osu file format v14

[General]
AudioFilename: audio.mp3
AudioLeadIn: 0
PreviewTime: 43199
Countdown: 0
SampleSet: Soft
StackLeniency: 0.7
Mode: 2
LetterboxInBreaks: 0
WidescreenStoryboard: 0

[Editor]
DistanceSpacing: 3.1
BeatDivisor: 4
GridSize: 8
TimelineZoom: 1.8

[Metadata]
Title:Meaning
TitleUnicode:Meaning
Artist:Shiena Nishizawa
ArtistUnicode:西沢幸奏
Creator:-Sh1n1-
Version:Diluvio
Source:
Tags:艦隊これくしょん -艦これ- Kantai Collection Kancolle shini jbh jbhyperion
BeatmapID:1490845
BeatmapSetID:704768

[Difficulty]
HPDrainRate:7
CircleSize:4.2
OverallDifficulty:9.4
ApproachRate:9.4
SliderMultiplier:1.8
SliderTickRate:2

[Events]
//Background and Video events
0,0,"kancolleBG.jpg",0,0
//Break Periods
2,74031,77712
2,128346,142133
//Storyboard Layer 0 (Background)
//Storyboard Layer 1 (Fail)
//Storyboard Layer 2 (Pass)
//Storyboard Layer 3 (Foreground)
//Storyboard Sound Samples

[TimingPoints]
568,315.789473684211,4,2,9,55,1,0
1831,-100,4,2,9,35,0,0
2462,-100,4,2,9,40,0,0
2778,-100,4,2,9,45,0,0
3094,-100,4,2,9,60,0,0
12883,-100,4,2,9,55,0,0
13041,-100,4,2,9,50,0,0
13199,-100,4,2,9,40,0,0
22357,-100,4,2,9,45,0,0
22673,-100,4,2,9,50,0,0
22989,-100,4,2,9,55,0,0
23304,-100,4,2,9,60,0,0
33410,-100,4,2,9,45,0,0
39568,-100,4,2,9,35,0,0
39725,-100,4,2,9,45,0,0
40199,-100,4,2,9,55,0,0
40357,-100,4,2,9,45,0,0
40989,-100,4,2,9,60,0,0
42568,-100,4,2,1,60,0,0
43199,-100,4,2,9,45,0,0
43515,-100,4,2,9,60,0,1
53541,-100,4,2,9,60,0,0
53620,-100,4,2,9,60,0,1
61199,-100,4,2,1,60,0,1
62462,-100,4,2,9,60,0,1
63725,-100,4,2,9,60,0,0
73831,-100,4,2,9,50,0,0
78252,-100,4,2,9,35,0,0
78883,-100,4,2,9,60,0,0
94041,-100,4,2,9,45,0,0
100989,-100,4,2,9,50,0,0
101620,-100,4,2,9,30,0,0
102883,-100,4,2,9,50,0,0
104146,-100,4,2,9,60,0,1
114173,-100,4,2,9,60,0,0
114252,-100,4,2,9,60,0,1
123015,-100,4,2,9,50,0,0
124357,-100,4,2,9,40,0,0
125620,-100,4,2,9,30,0,0
126883,-100,4,2,9,20,0,0
128146,-100,4,2,9,10,0,0
142673,322.58064516129,4,2,9,30,1,0
143351,315.789473684211,4,2,9,30,1,0
145206,315.789473684211,4,2,9,30,1,0
145837,315.789473684211,4,2,9,30,1,0
150903,315.789473684211,4,2,9,30,1,0
164797,-100,4,2,9,45,0,0
165745,-100,4,2,9,55,0,0
166052,315.789473684211,4,2,9,60,1,1
176078,-100,4,2,9,60,0,0
176157,-100,4,2,9,60,0,1
183736,-100,4,2,9,40,0,0
184446,-100,4,2,9,5,0,0
184525,-100,4,2,9,40,0,0
184762,-100,4,2,9,5,0,0
184841,-100,4,2,9,30,0,0
186104,-100,4,2,9,10,0,0

[Colours]
Combo1 : 255,255,128
Combo2 : 251,69,60
Combo3 : 111,111,111

[HitObjects]
171,316,568,5,0,1:0:0:0:
278,316,725,1,0,0:0:0:0:
120,316,883,1,0,0:0:0:0:
381,202,1041,1,0,1:0:0:0:
273,202,1199,1,0,0:0:0:0:
430,202,1357,1,0,0:0:0:0:
113,66,1515,2,0,L|23:66,1,90,0|0,1:0|0:0,0:0:0:0:
280,276,1831,5,8,0:0:0:0:
322,259,1909,1,8,0:0:0:0:
94,242,1989,1,8,0:0:0:0:
136,225,2067,1,8,0:0:0:0:
361,276,2146,1,8,0:0:0:0:
403,259,2224,1,8,0:0:0:0:
152,242,2304,1,8,0:0:0:0:
194,225,2382,1,8,0:0:0:0:
468,142,2462,5,0,1:0:0:0:
507,124,2541,1,0,1:0:0:0:
508,82,2620,1,0,1:0:0:0:
470,63,2699,1,0,1:0:0:0:
219,132,2778,1,8,0:0:0:0:
176,115,2856,1,0,1:0:0:0:
428,259,2936,1,8,0:0:0:0:
470,242,3015,1,0,1:0:0:0:
182,312,3094,6,0,P|128:255|196:216,1,180,6|8,0:0|0:0,0:0:0:0:
305,213,3568,1,2,0:0:0:0:
412,213,3725,2,0,L|346:147,1,90
92,113,4041,2,0,L|175:48,1,90,10|0,0:0|0:0,0:0:0:0:
343,263,4357,6,0,L|410:186,1,90,0|2,0:0|0:0,0:0:0:0:
81,263,4673,2,0,L|18:335,1,90,8|0,0:0|0:0,0:0:0:0:
297,199,4989,1,0,0:0:0:0:
190,199,5146,1,0,0:0:0:0:
429,143,5304,1,8,0:0:0:0:
132,143,5462,1,0,0:0:0:0:
465,46,5620,6,0,B|422:63|422:63|290:45,1,180,6|8,0:0|0:0,0:0:0:0:
181,38,6094,1,2,0:0:0:0:
362,129,6252,2,0,L|416:203,1,90
157,207,6568,2,0,L|100:282,1,90,10|0,0:0|0:0,0:0:0:0:
390,294,6883,5,0,0:0:0:0:
480,254,7041,1,2,0:0:0:0:
363,219,7199,1,8,0:0:0:0:
507,179,7357,1,2,0:0:0:0:
230,185,7515,2,0,L|85:185,1,135,4|0,0:0|0:0,0:0:0:0:
369,95,7831,2,0,L|511:95,1,135,12|0,0:0|0:0,0:0:0:0:
189,254,8146,6,0,L|5:255,1,180,6|8,0:0|0:0,0:0:0:0:
118,163,8620,1,2,0:0:0:0:
217,163,8778,1,0,0:0:0:0:
118,163,8936,1,0,0:0:0:0:
357,135,9094,2,0,L|252:135,1,90,10|0,0:0|0:0,0:0:0:0:
448,106,9410,6,0,L|508:32,1,90,0|2,0:0|0:0,0:0:0:0:
248,324,9725,1,8,0:0:0:0:
355,324,9883,1,0,0:0:0:0:
110,260,10041,1,0,0:0:0:0:
405,260,10199,1,0,0:0:0:0:
97,143,10357,2,0,L|62:60,1,90,8|0,0:0|0:0,0:0:0:0:
334,216,10673,5,8,0:0:0:0:
36,224,10831,2,0,L|36:324,1,90
287,74,11146,2,0,L|287:164,1,90,8|0,0:0|0:0,0:0:0:0:
414,243,11462,1,0,0:0:0:0:
117,114,11620,5,8,0:0:0:0:
441,142,11778,2,0,L|443:232,1,90
127,29,12094,1,8,0:0:0:0:
235,29,12252,1,0,0:0:0:0:
100,29,12410,1,0,0:0:0:0:
344,56,12568,6,0,L|403:56,1,45,8|0,0:0|0:0,0:0:0:0:
150,146,12725,2,0,L|132:94,1,45,8|8,0:0|0:0,0:0:0:0:
377,177,12883,2,0,L|436:177,1,45,8|8,0:0|0:0,0:0:0:0:
138,272,13041,2,0,L|120:220,1,45,8|8,0:0|0:0,0:0:0:0:
395,343,13199,6,0,L|498:344,1,90,4|0,0:0|0:0,0:0:0:0:
130,273,13515,1,8,0:0:0:0:
310,212,14146,1,8,0:0:0:0:
58,165,14778,1,8,0:0:0:0:
400,182,15410,1,8,0:0:0:0:
220,97,15725,6,0,L|116:97,1,90
384,276,16041,1,8,0:0:0:0:
199,258,16673,1,8,0:0:0:0:
451,175,17304,1,8,0:0:0:0:
114,185,17936,1,8,0:0:0:0:
295,87,18252,6,0,L|399:87,1,90,4|0,0:0|0:0,0:0:0:0:
131,87,18568,1,8,0:0:0:0:
21,139,19199,1,8,0:0:0:0:
310,191,19831,1,8,0:0:0:0:
131,297,20462,1,8,0:0:0:0:
312,112,20778,6,0,L|205:112,1,90
476,112,21094,1,8,0:0:0:0:
377,111,21252,2,0,P|316:145|383:199,1,180,0|0,0:0|0:0,0:0:0:0:
477,199,21725,1,8,0:0:0:0:
56,301,21883,6,0,P|4:268|72:191,1,180,4|0,0:0|0:0,0:0:0:0:
298,221,22357,1,8,0:0:0:0:
190,169,22515,1,0,0:0:0:0:
429,184,22673,1,8,0:0:0:0:
87,143,22831,1,0,0:0:0:0:
326,166,22989,1,8,0:0:0:0:
218,114,23146,1,0,0:0:0:0:
472,109,23304,6,0,L|513:20,1,90,4|0,0:0|0:0,0:0:0:0:
192,32,23620,2,0,L|151:121,1,90,8|0,0:0|0:0,0:0:0:0:
331,166,23936,1,0,0:0:0:0:
241,166,24094,1,0,0:0:0:0:
376,166,24252,1,8,0:0:0:0:
115,342,24410,6,0,P|57:316|117:253,1,180,0|0,0:0|0:0,0:0:0:0:
396,212,24883,2,0,L|444:132,1,90,8|0,0:0|0:0,0:0:0:0:
324,85,25199,1,0,0:0:0:0:
468,85,25357,1,0,0:0:0:0:
198,191,25515,2,0,L|198:101,1,90,8|0,0:0|0:0,0:0:0:0:
379,212,25831,6,0,L|379:302,1,90,0|0,0:0|0:0,0:0:0:0:
118,359,26146,1,8,0:0:0:0:
44,316,26304,1,0,0:0:0:0:
51,231,26462,1,0,0:0:0:0:
130,201,26620,1,0,0:0:0:0:
221,201,26778,1,8,0:0:0:0:
86,118,26936,1,0,0:0:0:0:
356,33,27094,5,0,0:0:0:0:
266,33,27252,1,0,0:0:0:0:
175,33,27410,1,8,0:0:0:0:
463,229,27568,2,0,L|492:141,1,90,0|0,0:0|0:0,0:0:0:0:
383,125,27883,1,0,0:0:0:0:
113,161,28041,2,0,L|84:73,1,90,8|0,0:0|0:0,0:0:0:0:
352,221,28357,6,0,L|352:311,1,90,4|0,0:0|0:0,0:0:0:0:
80,234,28673,2,0,P|17:273|78:326,1,180,8|0,0:0|0:0,0:0:0:0:
186,276,29146,1,0,0:0:0:0:
15,143,29304,2,0,L|111:143,1,90,8|0,0:0|0:0,0:0:0:0:
277,72,29620,6,0,L|181:72,1,90
442,234,29936,2,0,P|504:273|443:326,1,180,8|0,0:0|0:0,0:0:0:0:
335,285,30410,1,0,0:0:0:0:
155,255,30568,2,0,L|156:161,1,90,8|0,0:0|0:0,0:0:0:0:
336,137,30883,5,0,0:0:0:0:
228,137,31041,1,0,0:0:0:0:
363,116,31199,1,8,0:0:0:0:
120,63,31357,2,0,L|24:63,1,90,0|0,0:0|0:0,0:0:0:0:
148,136,31673,1,0,0:0:0:0:
4,136,31831,1,8,0:0:0:0:
319,262,31989,6,0,B|365:248|365:248|503:262,1,180,4|0,0:0|0:0,0:0:0:0:
208,333,32462,2,0,L|118:333,1,90,8|0,0:0|0:0,0:0:0:0:
363,299,32778,1,8,0:0:0:0:
255,234,32936,1,0,0:0:0:0:
390,191,33094,1,8,0:0:0:0:
82,133,33252,1,0,0:0:0:0:
415,103,33410,6,0,P|477:63|416:10,1,180,6|0,0:0|0:0,0:0:0:0:
316,60,33883,1,0,0:0:0:0:
415,95,34041,1,2,0:0:0:0:
512,130,34199,1,0,0:0:0:0:
269,240,34357,2,0,L|165:240,1,90,0|0,0:0|0:0,0:0:0:0:
351,324,34673,5,2,0:0:0:0:
415,266,34831,1,0,0:0:0:0:
410,179,34989,1,0,0:0:0:0:
339,129,35146,1,0,0:0:0:0:
168,179,35304,2,0,L|219:103,1,90,2|0,0:0|0:0,0:0:0:0:
390,179,35620,2,0,L|441:103,1,90
195,265,35936,6,0,B|151:285|151:285|11:262,1,180,2|0,0:0|0:0,0:0:0:0:
121,190,36410,1,0,0:0:0:0:
292,175,36568,2,0,L|301:72,1,90,2|0,0:0|0:0,0:0:0:0:
57,51,36883,2,0,P|-5:91|65:136,1,180,0|2,0:0|0:0,0:0:0:0:
158,214,37357,5,0,0:0:0:0:
329,214,37515,2,0,L|225:214,2,90,0|0|2,0:0|0:0|0:0,0:0:0:0:
420,214,37989,1,0,0:0:0:0:
250,303,38146,2,0,L|343:303,1,90
86,224,38462,6,0,B|280:222,1,180,6|0,0:0|0:0,0:0:0:0:
166,161,38936,1,0,0:0:0:0:
4,89,39094,2,0,L|69:22,1,90,2|0,0:0|0:0,0:0:0:0:
313,120,39410,2,0,L|378:53,1,90,0|4,0:0|0:3,0:0:0:0:
344,45,39646,1,4,0:3:0:0:
96,192,39725,5,4,0:3:0:0:
186,192,39883,1,0,0:0:0:0:
51,192,40041,1,0,0:0:0:0:
294,290,40199,1,4,0:3:0:0:
384,290,40357,1,0,0:0:0:0:
249,290,40515,1,0,0:0:0:0:
429,188,40673,2,0,L|453:102,1,90,0|0,0:0|0:0,0:0:0:0:
181,351,40989,6,0,L|167:253,1,90,8|0,0:0|0:0,0:0:0:0:
411,161,41304,1,0,0:0:0:0:
115,79,41462,1,8,0:0:0:0:
205,46,41620,1,0,0:0:0:0:
295,48,41778,1,0,0:0:0:0:
43,161,41936,1,8,0:0:0:0:
376,310,42094,2,0,P|428:235|350:241,1,180,2|0,0:0|0:0,0:0:0:0:
77,192,42568,5,2,0:0:0:0:
277,131,43199,6,0,B|312:121|312:121|417:133,1,135
90,233,43515,6,0,P|31:169|104:158,1,180,4|8,0:0|0:0,0:0:0:0:
269,164,43989,1,0,0:0:0:0:
179,119,44146,1,0,0:0:0:0:
314,80,44304,1,0,0:0:0:0:
125,338,44462,2,0,L|87:238,1,90,8|0,0:0|0:0,0:0:0:0:
365,187,44778,6,0,L|403:287,1,90,0|0,0:0|0:0,0:0:0:0:
107,338,45094,2,0,L|69:238,1,90,8|0,0:0|0:0,0:0:0:0:
238,193,45410,1,0,0:0:0:0:
139,193,45568,1,0,0:0:0:0:
309,103,45725,1,8,0:0:0:0:
192,103,45883,1,0,0:0:0:0:
468,186,46041,6,0,L|506:86,1,90,4|0,0:0|0:0,0:0:0:0:
391,94,46357,1,8,0:0:0:0:
139,175,46515,2,0,L|101:275,1,90,0|0,0:0|0:0,0:0:0:0:
216,267,46831,1,0,0:0:0:0:
36,97,46989,2,0,L|-2:197,1,90,8|0,0:0|0:0,0:0:0:0:
319,174,47304,6,0,L|357:74,1,90,0|0,0:0|0:0,0:0:0:0:
106,144,47620,2,0,L|137:59,1,90,8|0,0:0|0:0,0:0:0:0:
382,308,47936,1,0,0:0:0:0:
283,278,48094,1,8,0:0:0:0:
418,244,48252,1,0,0:0:0:0:
112,244,48410,1,8,0:0:0:0:
465,160,48568,6,0,L|512:76,1,90,4|0,0:0|0:0,0:0:0:0:
239,207,48883,2,0,L|208:112,1,90,8|0,0:0|0:0,0:0:0:0:
338,128,49199,2,0,L|359:29,1,90,0|0,0:0|0:0,0:0:0:0:
175,240,49515,2,0,L|124:162,1,90,8|0,0:0|0:0,0:0:0:0:
452,214,49831,6,0,L|401:292,1,90
223,91,50146,2,0,L|274:13,1,90,8|0,0:0|0:0,0:0:0:0:
154,154,50462,1,0,0:0:0:0:
298,154,50620,1,0,0:0:0:0:
50,234,50778,2,0,L|-1:312,1,90,8|0,0:0|0:0,0:0:0:0:
309,213,51094,6,0,L|403:210,2,90,4|0|8,0:0|0:0|0:0,0:0:0:0:
119,145,51568,2,0,L|25:148,2,90,0|0|0,0:0|0:0|0:0,0:0:0:0:
389,95,52041,2,0,L|479:95,1,90,8|0,0:0|0:0,0:0:0:0:
225,288,52357,6,0,P|245:230|319:223,1,135,0|0,0:0|0:0,0:0:0:0:
425,235,52673,2,0,P|457:212|426:190,1,90,8|0,0:0|0:0,0:0:0:0:
181,160,52989,6,0,L|133:159,1,45,8|8,0:0|0:0,0:0:0:0:
361,122,53146,2,0,L|313:121,1,45,8|8,0:0|0:0,0:0:0:0:
95,76,53304,2,0,L|47:75,1,45,8|8,0:0|0:0,0:0:0:0:
324,31,53462,2,0,L|372:30,1,45,8|8,0:0|0:0,0:0:0:0:
72,28,53620,6,0,P|23:89|93:122,1,180,4|8,0:0|0:0,0:0:0:0:
338,75,54094,1,0,0:0:0:0:
84,365,54252,1,0,0:0:0:0:
10,307,54410,1,0,0:0:0:0:
15,220,54568,1,8,0:0:0:0:
96,170,54725,1,0,0:0:0:0:
390,149,54883,6,0,L|339:71,1,90
28,74,55199,2,0,L|79:152,1,90,8|0,0:0|0:0,0:0:0:0:
349,87,55515,2,0,L|400:165,1,90,0|0,0:0|0:0,0:0:0:0:
280,206,55831,1,8,0:0:0:0:
424,206,55989,1,0,0:0:0:0:
84,195,56146,6,0,L|26:105,1,90,4|0,0:0|0:0,0:0:0:0:
153,101,56462,1,8,0:0:0:0:
397,206,56620,1,0,0:0:0:0:
325,145,56777,1,0,0:0:0:0:
217,133,56935,1,0,0:0:0:0:
352,57,57093,1,8,0:0:0:0:
172,57,57251,1,0,0:0:0:0:
419,325,57410,5,0,0:0:0:0:
493,267,57568,1,0,0:0:0:0:
488,180,57725,1,8,0:0:0:0:
407,130,57883,1,0,0:0:0:0:
150,153,58041,1,0,0:0:0:0:
240,141,58199,1,8,0:0:0:0:
123,69,58357,1,0,0:0:0:0:
393,36,58515,1,8,0:0:0:0:
78,317,58673,6,0,L|136:237,1,90,4|0,0:0|0:0,0:0:0:0:
430,317,58989,2,0,L|372:237,1,90,8|0,0:0|0:0,0:0:0:0:
512,224,59304,2,0,L|454:144,1,90,0|0,0:0|0:0,0:0:0:0:
141,98,59620,2,0,L|41:98,1,90,8|0,0:0|0:0,0:0:0:0:
323,167,59936,6,0,L|364:86,1,90,0|0,0:0|0:0,0:0:0:0:
182,17,60252,2,0,L|142:97,1,90,8|0,0:0|0:0,0:0:0:0:
404,288,60568,1,0,0:0:0:0:
314,288,60725,1,0,0:0:0:0:
404,288,60883,1,8,0:0:0:0:
494,288,61041,1,0,0:0:0:0:
188,234,61199,5,2,0:0:0:0:
257,287,62462,5,0,0:2:0:0:
113,197,62778,1,0,0:0:0:0:
295,150,63094,5,8,0:0:0:0:
43,106,63252,2,0,L|95:86,1,45,8|8,0:0|0:0,0:0:0:0:
249,106,63410,2,0,L|302:86,1,45,8|8,0:0|0:0,0:0:0:0:
455,106,63568,2,0,L|507:86,1,45,8|8,0:0|0:0,0:0:0:0:
157,309,63725,6,0,P|95:268|163:219,1,180,6|8,0:0|0:0,0:0:0:0:
266,213,64199,1,2,0:0:0:0:
373,213,64357,2,0,L|415:124,1,90
179,121,64673,2,0,L|160:29,1,90,10|0,0:0|0:0,0:0:0:0:
342,175,64989,6,0,L|316:266,1,90,0|2,0:0|0:0,0:0:0:0:
42,263,65304,2,0,L|18:350,1,90,8|0,0:0|0:0,0:0:0:0:
258,199,65620,1,0,0:0:0:0:
151,199,65778,1,0,0:0:0:0:
390,143,65936,1,8,0:0:0:0:
93,143,66094,1,0,0:0:0:0:
449,46,66252,6,0,P|510:96|441:147,1,180,6|8,0:0|0:0,0:0:0:0:
342,48,66725,1,2,0:0:0:0:
234,51,66883,2,0,L|338:53,1,90,0|0,0:0|0:0,0:0:0:0:
88,315,67199,2,0,L|-8:317,1,90,10|0,0:0|0:0,0:0:0:0:
359,294,67515,5,0,0:0:0:0:
449,254,67673,1,2,0:0:0:0:
332,219,67831,1,8,0:0:0:0:
476,179,67989,1,2,0:0:0:0:
199,185,68146,2,0,L|54:185,1,135,4|0,0:0|0:0,0:0:0:0:
338,95,68462,2,0,L|480:95,1,135,12|0,0:0|0:0,0:0:0:0:
154,261,68778,6,0,P|97:279|158:339,1,180,6|8,0:0|0:0,0:0:0:0:
265,180,69252,2,0,L|171:179,1,90,2|0,0:0|0:0,0:0:0:0:
66,180,69568,1,0,0:0:0:0:
303,111,69725,2,0,L|283:23,1,90,10|0,0:0|0:0,0:0:0:0:
465,38,70041,6,0,L|485:126,1,90,0|2,0:0|0:0,0:0:0:0:
228,324,70357,1,8,0:0:0:0:
335,324,70515,1,0,0:0:0:0:
96,260,70673,1,0,0:0:0:0:
385,260,70831,1,0,0:0:0:0:
74,143,70989,2,0,L|39:60,1,90,8|0,0:0|0:0,0:0:0:0:
354,216,71304,5,8,0:0:0:0:
56,224,71462,2,0,L|56:324,1,90,0|0,0:0|0:0,0:0:0:0:
307,74,71778,2,0,L|211:75,1,90,8|0,0:0|0:0,0:0:0:0:
353,145,72094,1,0,0:0:0:0:
110,114,72252,5,8,0:0:0:0:
443,142,72410,2,0,L|445:232,1,90,0|0,0:0|0:0,0:0:0:0:
202,29,72725,1,8,0:0:0:0:
310,29,72883,1,0,0:0:0:0:
418,29,73041,1,0,0:0:0:0:
175,160,73199,6,0,L|127:159,1,45,8|0,0:0|0:0,0:0:0:0:
333,122,73357,2,0,L|285:121,1,45,8|8,0:0|0:0,0:0:0:0:
83,76,73515,2,0,L|35:75,1,45,8|8,0:0|0:0,0:0:0:0:
277,31,73673,2,0,L|325:30,1,45,8|8,0:0|0:0,0:0:0:0:
45,28,73831,5,0,0:0:0:0:
105,239,78252,6,0,L|105:191,1,45,0|0,1:0|0:0,0:0:0:0:
260,288,78410,2,0,L|260:240,1,45,0|0,0:0|0:0,0:0:0:0:
415,194,78568,2,0,P|460:154|405:131,1,135,0|0,1:0|0:0,0:0:0:0:
141,53,78883,6,0,L|96:144,1,90,4|0,0:0|0:0,0:0:0:0:
228,137,79199,1,8,0:0:0:0:
48,195,79357,2,0,L|3:286,1,90,0|0,0:0|0:0,0:0:0:0:
135,279,79673,1,0,0:0:0:0:
378,288,79831,2,0,L|423:197,1,90,8|0,0:0|0:0,0:0:0:0:
238,112,80146,6,0,L|142:112,2,90,0|0|8,0:0|0:0|0:0,0:0:0:0:
419,37,80620,2,0,L|323:37,2,90,0|0|0,0:0|0:0|0:0,0:0:0:0:
174,199,81094,2,0,L|132:284,1,90,8|0,0:0|0:0,0:0:0:0:
434,306,81410,6,0,L|476:221,1,90,0|0,0:0|0:0,0:0:0:0:
204,38,81725,2,0,L|162:123,1,90,8|0,0:0|0:0,0:0:0:0:
355,144,82041,1,0,0:0:0:0:
265,144,82199,1,0,0:0:0:0:
382,144,82357,1,8,0:0:0:0:
67,235,82515,6,0,P|8:264|79:324,1,180,4|0,0:0|0:0,0:0:0:0:
157,283,82989,1,8,0:0:0:0:
417,207,83146,2,0,B|231:207,1,180,4|0,0:0|0:0,0:0:0:0:
477,118,83620,2,0,L|514:30,1,90,8|8,0:0|0:0,0:0:0:0:
480,34,83857,1,8,0:0:0:0:
255,110,83936,6,0,L|351:110,1,90,4|0,0:0|0:0,0:0:0:0:
36,51,84252,2,0,L|2:133,1,90,8|0,0:0|0:0,0:0:0:0:
174,227,84568,2,0,L|294:229,2,90,0|0|8,0:0|0:0|0:0,0:0:0:0:
444,328,85041,6,0,P|357:308|266:330,1,180,0|0,0:0|0:0,0:0:0:0:
451,224,85515,2,0,L|498:136,1,90,8|0,0:0|0:0,0:0:0:0:
376,74,85831,1,0,0:0:0:0:
512,74,85989,1,0,0:0:0:0:
199,62,86146,2,0,L|152:150,1,90,8|0,0:0|0:0,0:0:0:0:
438,222,86462,6,0,L|391:310,1,90
214,233,86778,1,8,0:0:0:0:
304,233,86936,1,0,0:0:0:0:
214,233,87094,1,0,0:0:0:0:
124,233,87252,1,0,0:0:0:0:
314,148,87410,2,0,L|348:60,1,90,8|0,0:0|0:0,0:0:0:0:
76,75,87725,5,0,0:0:0:0:
166,75,87883,1,0,0:0:0:0:
256,75,88041,1,8,0:0:0:0:
67,276,88199,2,0,L|33:188,1,90
143,192,88515,1,0,0:0:0:0:
413,191,88673,2,0,L|378:99,1,90,8|0,0:0|0:0,0:0:0:0:
64,112,88989,6,0,L|31:27,1,90,4|0,0:0|0:0,0:0:0:0:
212,99,89304,1,8,0:0:0:0:
276,157,89462,1,0,0:0:0:0:
271,244,89620,1,0,0:0:0:0:
200,294,89778,1,0,0:0:0:0:
19,224,89936,2,0,L|119:224,1,90,8|0,0:0|0:0,0:0:0:0:
354,173,90252,6,0,L|450:173,1,90,0|0,0:0|0:0,0:0:0:0:
326,125,90568,1,8,0:0:0:0:
469,125,90725,1,0,0:0:0:0:
181,173,90883,2,0,L|85:173,1,90,0|0,0:0|0:0,0:0:0:0:
209,125,91199,1,8,0:0:0:0:
66,125,91357,1,0,0:0:0:0:
329,290,91515,6,0,L|421:291,2,90,0|0|8,0:0|0:0|0:0,0:0:0:0:
166,272,91989,2,0,L|166:177,1,90,0|0,0:0|0:0,0:0:0:0:
346,160,92304,2,0,L|346:65,1,90,0|8,0:0|0:0,0:0:0:0:
63,112,92620,6,0,P|4:56|70:49,1,180,4|0,0:0|0:0,0:0:0:0:
335,168,93094,2,0,L|414:98,1,90,8|0,0:0|0:0,0:0:0:0:
149,257,93410,2,0,L|70:187,1,90,8|0,0:0|0:0,0:0:0:0:
334,76,93725,1,8,0:0:0:0:
46,71,93883,1,0,0:0:0:0:
361,245,94041,5,4,0:0:0:0:
397,245,94199,1,0,0:0:0:0:
180,151,94515,1,8,0:0:0:0:
270,151,94673,1,0,0:0:0:0:
360,151,94831,1,8,0:0:0:0:
55,39,94989,5,0,0:0:0:0:
19,39,95146,1,0,0:0:0:0:
218,288,95462,2,0,L|307:288,2,90,8|0|8,0:0|0:0|0:0,0:0:0:0:
463,195,95936,5,0,0:0:0:0:
499,195,96094,1,0,0:0:0:0:
310,144,96252,1,8,0:0:0:0:
472,98,96568,5,0,0:0:0:0:
508,98,96725,1,0,0:0:0:0:
291,17,97041,1,8,0:0:0:0:
381,17,97199,1,0,0:0:0:0:
471,17,97357,1,8,0:0:0:0:
201,127,97515,5,0,0:0:0:0:
165,127,97673,1,0,0:0:0:0:
382,232,97989,2,0,L|286:232,2,90,8|0|8,0:0|0:0|0:0,0:0:0:0:
112,195,98462,5,0,0:0:0:0:
76,195,98620,1,0,0:0:0:0:
265,144,98778,1,8,0:0:0:0:
112,195,99094,5,4,0:0:0:0:
76,195,99252,1,0,0:0:0:0:
293,55,99568,1,8,0:0:0:0:
203,55,99725,1,0,0:0:0:0:
113,55,99883,1,8,0:0:0:0:
382,195,100041,5,0,0:0:0:0:
418,195,100199,1,0,0:0:0:0:
201,242,100515,2,0,L|105:242,2,90,8|0|8,0:0|0:0|0:0,0:0:0:0:
446,213,100989,5,8,0:0:0:0:
482,213,101146,1,8,0:0:0:0:
293,109,101304,2,0,L|193:109,1,90,8|8,0:0|0:0,0:0:0:0:
384,109,101620,6,0,L|476:109,2,90,0|0|0,0:0|0:0|0:0,0:0:0:0:
294,109,102094,1,0,0:0:0:0:
204,109,102252,1,0,0:0:0:0:
393,183,102410,2,0,P|456:227|370:244,1,180,0|0,0:0|0:0,0:0:0:0:
130,335,102883,6,0,L|85:335,1,45,8|0,0:0|0:0,0:0:0:0:
313,237,103041,1,0,0:0:0:0:
353,224,103120,1,0,0:0:0:0:
352,182,103199,1,0,0:0:0:0:
312,171,103278,1,0,0:0:0:0:
107,129,103357,6,0,L|62:129,1,45,8|0,0:0|0:0,0:0:0:0:
336,100,103515,1,0,0:0:0:0:
376,87,103594,1,0,0:0:0:0:
375,45,103673,1,0,0:0:0:0:
335,34,103752,1,0,0:0:0:0:
100,212,103831,6,0,L|136:176,1,45,8|0,0:0|0:0,0:0:0:0:
360,101,103989,2,0,L|396:65,1,45,8|8,0:0|0:0,0:0:0:0:
95,112,104146,6,0,P|36:48|109:37,1,180,4|8,0:0|0:0,0:0:0:0:
365,39,104620,1,0,0:0:0:0:
77,340,104778,1,0,0:0:0:0:
4,282,104936,1,0,0:0:0:0:
9,195,105094,1,8,0:0:0:0:
89,145,105252,1,0,0:0:0:0:
358,187,105410,6,0,L|396:287,1,90,0|0,0:0|0:0,0:0:0:0:
80,338,105725,2,0,L|42:238,1,90,8|0,0:0|0:0,0:0:0:0:
211,193,106041,2,0,L|199:100,1,90,0|0,0:0|0:0,0:0:0:0:
363,110,106357,2,0,L|376:4,1,90,8|0,0:0|0:0,0:0:0:0:
44,186,106673,6,0,L|6:86,1,90,4|0,0:0|0:0,0:0:0:0:
121,94,106989,1,8,0:0:0:0:
373,175,107146,2,0,L|411:275,1,90,0|0,0:0|0:0,0:0:0:0:
296,267,107462,1,0,0:0:0:0:
476,97,107620,2,0,L|514:197,1,90,8|0,0:0|0:0,0:0:0:0:
184,160,107936,6,0,L|222:60,1,90,0|0,0:0|0:0,0:0:0:0:
461,105,108252,2,0,L|492:20,1,90,8|0,0:0|0:0,0:0:0:0:
166,308,108568,1,0,0:0:0:0:
265,278,108725,1,8,0:0:0:0:
130,244,108883,1,0,0:0:0:0:
400,244,109041,1,8,0:0:0:0:
47,160,109199,6,0,L|0:76,1,90,4|0,0:0|0:0,0:0:0:0:
273,207,109515,2,0,L|304:112,1,90,8|0,0:0|0:0,0:0:0:0:
174,128,109831,2,0,L|153:29,1,90,0|0,0:0|0:0,0:0:0:0:
337,240,110146,2,0,L|388:162,1,90,8|0,0:0|0:0,0:0:0:0:
60,214,110462,6,0,L|111:292,1,90
289,91,110778,2,0,L|340:169,1,90,8|0,0:0|0:0,0:0:0:0:
248,88,111094,1,0,0:0:0:0:
158,93,111252,1,0,0:0:0:0:
462,234,111410,2,0,L|513:312,1,90,8|0,0:0|0:0,0:0:0:0:
203,213,111725,6,0,L|109:210,2,90,4|0|8,0:0|0:0|0:0,0:0:0:0:
384,145,112199,2,0,L|478:148,2,90,0|0|0,0:0|0:0|0:0,0:0:0:0:
91,80,112673,2,0,L|1:80,1,90,8|0,0:0|0:0,0:0:0:0:
246,285,112989,6,0,P|208:241|125:231,1,135
23,258,113304,2,0,L|8:162,1,90,8|0,0:0|0:0,0:0:0:0:
258,144,113620,6,0,L|317:144,1,45,8|8,0:0|0:0,0:0:0:0:
478,100,113778,2,0,L|419:100,1,45,8|8,0:0|0:0,0:0:0:0:
200,59,113936,2,0,L|152:59,1,45,8|8,0:0|0:0,0:0:0:0:
436,25,114094,2,0,L|484:25,1,45,8|8,0:0|0:0,0:0:0:0:
171,16,114252,6,0,P|109:62|181:102,1,180,4|8,0:0|0:0,0:0:0:0:
354,96,114725,1,0,0:0:0:0:
264,51,114883,1,0,0:0:0:0:
399,12,115041,1,0,0:0:0:0:
100,308,115199,2,0,L|150:232,1,90,8|0,0:0|0:0,0:0:0:0:
391,310,115515,6,0,L|341:234,1,90
46,74,115831,2,0,L|97:152,1,90,8|0,0:0|0:0,0:0:0:0:
349,87,116146,2,0,L|400:165,1,90,0|0,0:0|0:0,0:0:0:0:
280,206,116462,1,8,0:0:0:0:
424,206,116620,1,0,0:0:0:0:
99,195,116778,6,0,L|41:105,1,90,4|0,0:0|0:0,0:0:0:0:
168,101,117094,1,8,0:0:0:0:
407,294,117252,2,0,L|498:294,2,90,0|0|0,0:0|0:0|0:0,0:0:0:0:
226,209,117725,2,0,L|180:127,1,90,8|0,0:0|0:0,0:0:0:0:
434,325,118041,5,0,0:0:0:0:
510,267,118199,1,0,0:0:0:0:
505,180,118357,1,8,0:0:0:0:
424,129,118515,1,0,0:0:0:0:
177,153,118673,1,0,0:0:0:0:
267,141,118831,1,8,0:0:0:0:
150,69,118989,1,0,0:0:0:0:
420,36,119146,1,8,0:0:0:0:
105,323,119304,6,0,L|155:243,1,90,4|0,0:0|0:0,0:0:0:0:
417,320,119620,2,0,L|429:227,1,90,8|0,0:0|0:0,0:0:0:0:
248,225,119936,2,0,L|249:129,1,90,0|0,0:0|0:0,0:0:0:0:
68,161,120252,2,0,L|47:70,1,90,8|0,0:0|0:0,0:0:0:0:
323,167,120568,5,0,0:0:0:0:
287,96,120725,1,0,0:0:0:0:
206,71,120883,1,8,0:0:0:0:
98,73,121041,1,0,0:0:0:0:
415,310,121199,1,0,0:0:0:0:
325,289,121357,1,0,0:0:0:0:
325,205,121515,1,8,0:0:0:0:
414,183,121673,1,0,0:0:0:0:
151,259,121831,5,8,0:0:0:0:
241,219,121989,1,0,0:0:0:0:
134,177,122146,1,0,0:0:0:0:
404,123,122304,2,0,L|266:123,1,135,8|0,0:0|0:0,0:0:0:0:
41,123,122620,2,0,L|179:123,1,135,8|0,0:0|0:0,0:0:0:0:
450,24,122936,5,4,0:0:0:0:
256,192,123015,12,0,128146,0:0:0:0:
119,29,142673,5,0,0:0:0:0:
164,89,142834,1,0,0:0:0:0:
245,126,142995,1,0,0:0:0:0:
344,128,143156,1,0,0:0:0:0:
136,276,143318,6,0,P|79:217|135:157,1,180,2|0,0:0|0:0,0:0:0:0:
269,185,143824,2,0,P|326:126|270:66,1,180
112,53,144298,1,2,0:0:0:0:
369,205,145206,6,0,L|384:109,1,90
248,126,145521,2,0,L|243:31,1,90,0|0,0:0|0:0,0:0:0:0:
452,169,145837,6,0,P|507:229|450:287,1,180,2|0,0:0|0:0,0:0:0:0:
314,230,146310,2,0,B|266:246|266:246|130:229,1,180,0|0,0:0|0:0,0:0:0:0:
296,143,146784,1,2,0:0:0:0:
80,143,147100,6,0,P|-5:201|132:338,1,360,2|0,0:0|0:0,0:0:0:0:
350,55,148047,2,0,L|400:145,1,90
186,136,148363,6,0,B|96:116|96:154|6:138,1,180,2|0,0:0|0:0,0:0:0:0:
144,251,148837,2,0,B|234:271|234:233|324:249,1,180,0|0,0:0|0:0,0:0:0:0:
165,136,149310,1,2,0:0:0:0:
382,258,149626,6,0,L|398:77,1,180,0|0,0:0|0:0,0:0:0:0:
262,240,150100,2,0,L|250:51,1,180,0|0,0:0|0:0,0:0:0:0:
350,53,150573,1,0,0:0:0:0:
449,47,150731,1,0,0:0:0:0:
253,224,150903,6,0,P|181:172|161:86,1,180,2|0,0:0|0:0,0:0:0:0:
302,291,151376,2,0,B|196:291|196:291|168:305|121:290,1,180,0|0,0:0|0:0,0:0:0:0:
282,198,151850,1,2,0:0:0:0:
498,77,152166,6,0,B|449:87|449:87|317:71,1,180,2|0,0:0|0:0,0:0:0:0:
185,158,152639,2,0,B|234:148|234:148|366:164,1,180,0|0,0:0|0:0,0:0:0:0:
499,258,153113,2,0,L|406:247,1,90,2|0,0:0|0:0,0:0:0:0:
107,289,153429,6,0,L|13:290,2,90,2|2|0,0:0|0:0|0:0,0:0:0:0:
261,264,153903,2,0,P|305:252|240:178,1,180,2|0,0:0|0:0,0:0:0:0:
169,175,154376,1,2,0:0:0:0:
16,114,154534,6,0,L|66:35,1,90,2|0,0:0|0:0,0:0:0:0:
318,45,154850,2,0,L|368:124,1,90,2|0,0:0|0:0,0:0:0:0:
275,132,155166,1,2,0:0:0:0:
122,212,155324,6,0,B|154:220|154:220|226:212,1,90,2|0,0:0|0:0,0:0:0:0:
364,315,155639,2,0,B|395:323|395:323|468:314,1,90,0|0,0:0|0:0,0:0:0:0:
206,264,155955,5,2,0:0:0:0:
278,185,156113,1,2,0:0:0:0:
386,117,156271,1,0,0:0:0:0:
232,142,156429,2,0,P|187:130|252:56,1,180,2|2,0:0|0:0,0:0:0:0:
389,313,156903,5,0,0:0:0:0:
317,279,157060,1,0,0:0:0:0:
209,287,157218,1,0,0:0:0:0:
454,218,157376,2,0,L|262:218,1,180,2|2,0:0|0:0,0:0:0:0:
428,117,157850,6,0,L|382:31,1,90,2|2,0:0|0:0,0:0:0:0:
231,113,158166,2,0,L|185:27,1,90,2|0,0:0|0:0,0:0:0:0:
434,227,158481,6,0,L|339:225,2,90,2|2|0,0:0|0:0|0:0,0:0:0:0:
280,329,158955,2,0,B|231:342|231:342|96:329,1,180,2|2,0:0|0:0,0:0:0:0:
192,269,159429,1,2,0:0:0:0:
345,237,159587,6,0,L|301:152,1,90,2|0,0:0|0:0,0:0:0:0:
48,134,159903,2,0,L|4:49,1,90,2|0,0:0|0:0,0:0:0:0:
106,48,160218,1,2,0:0:0:0:
259,235,160376,6,0,L|215:150,1,90,0|2,0:0|0:0,0:0:0:0:
381,199,160692,2,0,L|425:114,1,90,2|0,0:0|0:0,0:0:0:0:
169,44,161008,6,0,L|79:44,2,90,2|2|0,0:0|0:0|0:0,0:0:0:0:
322,324,161481,2,0,P|386:279|321:238,1,180,2|2,0:0|0:0,0:0:0:0:
170,241,161955,6,0,L|147:152,1,90,2|2,0:0|0:0,0:0:0:0:
256,151,162271,1,0,0:0:0:0:
184,317,164797,6,0,B|69:280|69:280|290:278|290:278|180:263,1,450
428,263,165745,2,0,P|475:225|420:199,1,135
107,112,166052,6,0,P|44:56|121:37,1,180,4|8,0:0|0:0,0:0:0:0:
374,39,166525,1,0,0:0:0:0:
59,333,166683,2,0,L|95:230,1,90,0|0,0:0|0:0,0:0:0:0:
270,207,166999,2,0,L|306:104,1,90,8|0,0:0|0:0,0:0:0:0:
46,179,167315,6,0,L|8:279,1,90,0|0,0:0|0:0,0:0:0:0:
324,330,167630,2,0,L|362:230,1,90,8|0,0:0|0:0,0:0:0:0:
193,185,167946,2,0,L|205:92,1,90,0|0,0:0|0:0,0:0:0:0:
41,102,168262,2,0,L|28:-4,1,90,8|0,0:0|0:0,0:0:0:0:
282,198,168578,6,0,L|335:107,1,90,4|0,0:0|0:0,0:0:0:0:
191,120,168894,1,8,0:0:0:0:
457,329,169052,2,0,L|495:229,1,90,0|0,0:0|0:0,0:0:0:0:
380,237,169367,1,0,0:0:0:0:
200,233,169525,2,0,L|231:148,1,90,8|0,0:0|0:0,0:0:0:0:
475,152,169841,6,0,L|437:52,1,90,0|0,0:0|0:0,0:0:0:0:
98,97,170157,2,0,L|67:12,1,90,8|0,0:0|0:0,0:0:0:0:
312,308,170473,1,0,0:0:0:0:
213,278,170630,1,8,0:0:0:0:
452,243,170788,1,0,0:0:0:0:
119,217,170946,1,8,0:0:0:0:
465,160,171104,6,0,L|512:76,1,90,4|0,0:0|0:0,0:0:0:0:
212,207,171420,2,0,L|266:127,1,90,8|0,0:0|0:0,0:0:0:0:
444,96,171736,2,0,L|493:9,1,90,0|0,0:0|0:0,0:0:0:0:
187,344,172052,2,0,L|145:262,1,90,8|0,0:0|0:0,0:0:0:0:
436,325,172367,6,0,L|482:243,1,90
218,91,172683,2,0,L|125:91,1,90,8|0,0:0|0:0,0:0:0:0:
218,91,172999,1,0,0:0:0:0:
308,90,173157,1,0,0:0:0:0:
50,234,173315,2,0,L|-1:312,1,90,8|0,0:0|0:0,0:0:0:0:
291,213,173630,6,0,L|385:210,2,90,4|0|8,0:0|0:0|0:0,0:0:0:0:
146,145,174104,2,0,L|240:142,2,90,0|0|0,0:0|0:0|0:0,0:0:0:0:
422,95,174578,2,0,L|512:95,1,90,8|0,0:0|0:0,0:0:0:0:
266,310,174894,6,0,L|262:175,1,135,0|0,0:0|0:0,0:0:0:0:
374,256,175209,2,0,L|406:160,1,90,8|0,0:0|0:0,0:0:0:0:
131,139,175525,6,0,L|83:139,1,45,8|8,0:0|0:0,0:0:0:0:
314,102,175683,2,0,L|362:102,1,45,8|8,0:0|0:0,0:0:0:0:
104,47,175841,2,0,L|56:47,1,45,8|8,0:0|0:0,0:0:0:0:
342,13,175999,2,0,L|390:13,1,45,8|8,0:0|0:0,0:0:0:0:
73,227,176157,6,0,P|11:273|83:312,1,180,4|8,0:0|0:0,0:0:0:0:
365,96,176630,1,0,0:0:0:0:
275,51,176788,1,0,0:0:0:0:
410,12,176946,1,0,0:0:0:0:
151,317,177104,2,0,L|101:241,1,90,8|0,0:0|0:0,0:0:0:0:
283,315,177420,6,0,L|333:239,1,90
46,74,177736,2,0,L|97:152,1,90,8|0,0:0|0:0,0:0:0:0:
340,87,178052,2,0,L|391:165,1,90,0|0,0:0|0:0,0:0:0:0:
271,206,178367,1,8,0:0:0:0:
415,206,178525,1,0,0:0:0:0:
111,195,178683,6,0,L|53:105,1,90,4|0,0:0|0:0,0:0:0:0:
180,101,178999,1,8,0:0:0:0:
441,294,179157,2,0,L|513:224,2,90,0|0|0,0:0|0:0|0:0,0:0:0:0:
260,215,179630,2,0,L|326:154,1,90,8|0,0:0|0:0,0:0:0:0:
77,325,179946,5,0,0:0:0:0:
2,267,180104,1,0,0:0:0:0:
7,180,180262,1,8,0:0:0:0:
89,130,180420,1,0,0:0:0:0:
332,153,180578,1,0,0:0:0:0:
224,153,180736,1,8,0:0:0:0:
467,78,180894,1,0,0:0:0:0:
141,45,181052,1,8,0:0:0:0:
474,315,181209,6,0,L|425:238,1,90,4|0,0:0|0:0,0:0:0:0:
129,323,181525,2,0,L|83:245,1,90,8|0,0:0|0:0,0:0:0:0:
264,225,181841,2,0,L|263:129,1,90,0|0,0:0|0:0,0:0:0:0:
444,161,182157,2,0,L|465:70,1,90,8|0,0:0|0:0,0:0:0:0:
211,167,182473,6,0,L|170:86,1,90,0|0,0:0|0:0,0:0:0:0:
352,17,182788,2,0,L|392:97,1,90,8|0,0:0|0:0,0:0:0:0:
99,288,183104,1,0,0:0:0:0:
25,230,183262,1,0,0:0:0:0:
30,143,183420,1,8,0:0:0:0:
111,93,183578,1,0,0:0:0:0:
426,264,183736,5,0,0:0:0:0:
336,224,183894,1,0,0:0:0:0:
443,182,184052,1,0,0:0:0:0:
263,129,184209,2,0,P|213:103|273:87,1,135,0|0,0:0|0:0,0:0:0:0:
377,129,184525,2,0,P|427:103|367:87,1,135,0|0,0:0|0:0,0:0:0:0:
261,327,184841,6,0,B|149:407|5:247|149:71|261:151|261:151|189:199|189:199|101:135|-11:159,1,720
