osu file format v14

[General]
AudioFilename: audio.mp3
AudioLeadIn: 0
PreviewTime: 43199
Countdown: 0
SampleSet: Soft
StackLeniency: 0.7
Mode: 2
LetterboxInBreaks: 0
WidescreenStoryboard: 0

[Editor]
DistanceSpacing: 3.1
BeatDivisor: 2
GridSize: 8
TimelineZoom: 1

[Metadata]
Title:Meaning
TitleUnicode:Meaning
Artist:Shiena Nishizawa
ArtistUnicode:西沢幸奏
Creator:-Sh1n1-
Version:Cup
Source:
Tags:艦隊これくしょん -艦これ- Kantai Collection Kancolle shini jbh jbhyperion
BeatmapID:1490844
BeatmapSetID:704768

[Difficulty]
HPDrainRate:3
CircleSize:2
OverallDifficulty:6
ApproachRate:6
SliderMultiplier:1
SliderTickRate:1

[Events]
//Background and Video events
0,0,"kancolleBG.jpg",0,0
//Break Periods
2,33610,37412
2,74030,77202
2,128346,142301
2,162471,163747
//Storyboard Layer 0 (Background)
//Storyboard Layer 1 (Fail)
//Storyboard Layer 2 (Pass)
//Storyboard Layer 3 (Foreground)
//Storyboard Sound Samples

[TimingPoints]
568,315.789473684211,4,2,9,55,1,0
1831,-100,4,2,9,35,0,0
2462,-100,4,2,9,40,0,0
2778,-100,4,2,9,45,0,0
3094,-100,4,2,9,60,0,0
12883,-100,4,2,9,55,0,0
13199,-100,4,2,9,40,0,0
22357,-100,4,2,9,45,0,0
22673,-100,4,2,9,50,0,0
22989,-100,4,2,9,55,0,0
23304,-100,4,2,9,60,0,0
33410,-100,4,2,9,45,0,0
39725,-100,4,2,9,45,0,0
40199,-100,4,2,9,55,0,0
40357,-100,4,2,9,45,0,0
40989,-100,4,2,9,60,0,0
42568,-100,4,2,1,60,0,0
43199,-100,4,2,9,45,0,0
43515,-100,4,2,9,60,0,1
53541,-100,4,2,9,60,0,0
53620,-100,4,2,9,60,0,1
61199,-100,4,2,1,60,0,1
62462,-100,4,2,9,60,0,1
63725,-100,4,2,9,60,0,0
73831,-100,4,2,9,50,0,0
78252,-100,4,2,9,35,0,0
78883,-100,4,2,9,60,0,0
94041,-100,4,2,9,45,0,0
100989,-100,4,2,9,50,0,0
101620,-100,4,2,9,30,0,0
102883,-100,4,2,9,50,0,0
104146,-100,4,2,9,60,0,1
114173,-100,4,2,9,60,0,0
114252,-100,4,2,9,60,0,1
123015,-100,4,2,9,50,0,0
124357,-100,4,2,9,40,0,0
125620,-100,4,2,9,30,0,0
126883,-100,4,2,9,20,0,0
128146,-100,4,2,9,10,0,0
142673,322.58064516129,4,2,9,30,1,0
143351,315.789473684211,4,2,9,30,1,0
145206,315.789473684211,4,2,9,30,1,0
145837,315.789473684211,4,2,9,30,1,0
150903,315.789473684211,4,2,9,30,1,0
164797,-100,4,2,9,45,0,0
165745,-100,4,2,9,55,0,0
166052,315.789473684211,4,2,9,60,1,1
176078,-100,4,2,9,60,0,0
176157,-100,4,2,9,60,0,1
183736,-100,4,2,9,40,0,0
184841,-100,4,2,9,30,0,0
186104,-100,4,2,9,10,0,0

[Colours]
Combo1 : 255,255,128
Combo2 : 251,69,60
Combo3 : 111,111,111

[HitObjects]
376,141,568,6,0,L|215:139,2,150,0|0|0,1:0|1:0|1:0,0:0:0:0:
246,367,1831,2,0,P|172:274|264:137,1,300,8|8,0:0|0:0,0:0:0:0:
419,166,3094,6,0,L|447:67,1,100,6|8,0:0|0:0,0:0:0:0:
346,311,3725,2,0,B|317:204,1,100,0|10,0:0|0:0,0:0:0:0:
219,163,4357,1,0,0:0:0:0:
119,123,4674,2,0,L|14:124,2,100,8|0|8,0:0|0:0|0:0,0:0:0:0:
279,179,5621,6,0,L|240:87,1,100,6|8,0:0|0:0,0:0:0:0:
140,330,6252,2,0,L|101:238,1,100,0|10,0:0|0:0,0:0:0:0:
201,216,6883,2,0,L|240:124,1,100,0|8,0:0|0:0,0:0:0:0:
138,55,7515,1,4,0:0:0:0:
268,83,7831,1,12,0:0:0:0:
108,154,8147,6,0,L|82:250,1,100,6|8,0:0|0:0,0:0:0:0:
182,240,8778,2,0,L|208:336,1,100,0|10,0:0|0:0,0:0:0:0:
108,336,9410,1,0,0:0:0:0:
208,336,9725,1,8,0:0:0:0:
308,336,10042,1,0,0:0:0:0:
408,336,10357,1,8,0:0:0:0:
248,165,10673,6,0,L|97:165,3,150,8|8|8|8,0:0|0:0|0:0|0:0,0:0:0:0:
248,124,12568,2,0,L|354:124,1,100,8|8,0:0|0:0,0:0:0:0:
198,235,13199,5,4,0:0:0:0:
98,274,13515,1,8,0:0:0:0:
218,321,14146,1,8,0:0:0:0:
339,253,14778,1,8,0:0:0:0:
219,168,15410,1,8,0:0:0:0:
309,168,15725,5,0,0:0:0:0:
199,168,16041,1,8,0:0:0:0:
79,172,16672,1,8,0:0:0:0:
200,170,17304,1,8,0:0:0:0:
321,170,17936,1,8,0:0:0:0:
231,148,18252,5,4,0:0:0:0:
341,84,18568,1,8,0:0:0:0:
222,72,19199,1,8,0:0:0:0:
343,80,19831,1,8,0:0:0:0:
223,71,20462,1,8,0:0:0:0:
133,72,20778,5,0,0:0:0:0:
233,180,21094,2,0,P|327:245|304:331,1,200,8|8,0:0|0:0,0:0:0:0:
230,277,21883,1,4,0:0:0:0:
115,135,22357,5,8,0:0:0:0:
225,85,22673,1,8,0:0:0:0:
95,38,22989,1,8,0:0:0:0:
255,331,23304,6,0,B|354:331,1,100,4|8,0:0|0:0,0:0:0:0:
255,224,23936,2,0,L|87:224,2,150,0|0|8,0:0|0:0|0:0,0:0:0:0:
355,162,25199,2,0,L|401:64,1,100,0|8,0:0|0:0,0:0:0:0:
297,24,25831,6,0,L|251:122,1,100,0|8,0:0|0:0,0:0:0:0:
154,157,26462,2,0,L|200:255,1,100,0|8,0:0|0:0,0:0:0:0:
297,330,27094,2,0,L|129:330,2,150,0|0|8,0:0|0:0|0:0,0:0:0:0:
457,229,28357,6,0,B|351:229,1,100,4|8,0:0|0:0,0:0:0:0:
257,130,28989,2,0,L|97:130,2,150,0|0|8,0:0|0:0|0:0,0:0:0:0:
357,133,30252,2,0,L|357:33,1,100,0|8,0:0|0:0,0:0:0:0:
257,130,30883,6,0,B|257:18,1,100,0|8,0:0|0:0,0:0:0:0:
357,29,31515,1,0,0:0:0:0:
207,310,31989,2,0,P|159:282|214:230,1,150,4|8,0:0|0:0,0:0:0:0:
309,271,32778,2,0,L|421:271,1,100,8|8,0:0|0:0,0:0:0:0:
248,122,33410,5,6,0:0:0:0:
242,269,38462,6,0,B|290:285|290:285|450:269,1,200,6|2,0:0|0:0,0:0:0:0:
338,153,39410,1,0,0:0:0:0:
238,98,39725,2,0,B|183:88|183:88|81:101,2,150,4|4|0,0:3|0:3|0:0,0:0:0:0:
77,216,40989,6,0,P|43:288|89:287,1,150,8|8,0:0|0:0,0:0:0:0:
227,254,41936,1,8,0:0:0:0:
312,146,42094,2,0,L|158:146,1,150,0|2,0:0|0:0,0:0:0:0:
263,51,43199,5,0,0:0:0:0:
103,249,43515,6,0,B|312:248,1,200,4|0,0:0|0:0,0:0:0:0:
203,151,44462,1,8,0:0:0:0:
103,134,44778,2,0,L|157:48,1,100,0|8,0:0|0:0,0:0:0:0:
257,255,45410,2,0,L|311:169,1,100,0|8,0:0|0:0,0:0:0:0:
150,202,46041,6,0,L|96:288,1,100,4|8,0:0|0:0,0:0:0:0:
197,292,46673,1,0,0:0:0:0:
297,293,46989,1,8,0:0:0:0:
197,292,47304,2,0,L|93:291,2,100,0|8|0,0:0|0:0|0:0,0:0:0:0:
328,221,48252,1,8,0:0:0:0:
168,154,48568,6,0,P|102:101|184:43,1,200,4|0,0:0|0:0,0:0:0:0:
269,34,49515,1,8,0:0:0:0:
369,40,49831,2,0,L|262:40,1,100,0|8,0:0|0:0,0:0:0:0:
369,124,50462,1,0,0:0:0:0:
469,127,50778,1,8,0:0:0:0:
309,246,51094,6,0,L|475:246,2,150,4|0|8,0:0|0:0|0:0,0:0:0:0:
209,246,52357,2,0,L|163:157,1,100,0|8,0:0|0:0,0:0:0:0:
263,124,52989,1,8,0:0:0:0:
133,123,53304,1,8,0:0:0:0:
293,127,53620,6,0,P|360:147|276:199,1,200,4|0,0:0|0:0,0:0:0:0:
197,217,54567,1,8,0:0:0:0:
297,39,54883,2,0,L|324:143,1,100,0|8,0:0|0:0,0:0:0:0:
222,345,55515,2,0,L|195:241,1,100,0|8,0:0|0:0,0:0:0:0:
357,225,56146,5,4,0:0:0:0:
441,183,56461,1,8,0:0:0:0:
439,88,56777,1,0,0:0:0:0:
352,50,57093,1,8,0:0:0:0:
252,106,57409,2,0,L|132:108,2,100,0|8|0,0:0|0:0|0:0,0:0:0:0:
122,181,58357,1,8,0:0:0:0:
282,259,58673,6,0,L|482:259,1,200,4|0,0:0|0:0,0:0:0:0:
382,165,59620,1,8,0:0:0:0:
282,165,59936,2,0,L|169:164,1,100,0|8,0:0|0:0,0:0:0:0:
282,68,60567,1,0,0:0:0:0:
382,68,60883,1,8,0:0:0:0:
252,309,61199,6,0,L|96:307,2,150,2|0|0,0:0|0:0|0:0,0:0:0:0:
382,250,62462,6,0,L|488:250,1,100,0|0,0:2|0:0,0:0:0:0:
382,157,63094,1,8,0:0:0:0:
502,157,63410,1,8,0:0:0:0:
352,155,63725,6,0,L|311:61,1,100,6|8,0:0|0:0,0:0:0:0:
412,27,64357,2,0,L|453:121,1,100,0|10,0:0|0:0,0:0:0:0:
352,213,64988,1,0,0:0:0:0:
252,172,65305,2,0,L|149:171,2,100,8|0|8,0:0|0:0|0:0,0:0:0:0:
412,347,66252,6,0,L|371:253,1,100,6|8,0:0|0:0,0:0:0:0:
272,290,66883,2,0,L|231:196,1,100,0|10,0:0|0:0,0:0:0:0:
332,155,67515,2,0,L|373:61,1,100,0|8,0:0|0:0,0:0:0:0:
272,31,68146,1,4,0:0:0:0:
402,14,68462,1,12,0:0:0:0:
242,217,68778,6,0,L|283:123,1,100,6|8,0:0|0:0,0:0:0:0:
382,256,69410,2,0,L|423:162,1,100,0|10,0:0|0:0,0:0:0:0:
322,341,70041,1,0,0:0:0:0:
222,323,70358,2,0,L|119:323,2,100,8|0|8,0:0|0:0|0:0,0:0:0:0:
382,190,71304,6,0,L|231:190,3,150,8|8|8|8,0:0|0:0|0:0|0:0,0:0:0:0:
382,331,73199,2,0,L|496:329,1,100,8|8,0:0|0:0,0:0:0:0:
322,262,73830,5,0,0:0:0:0:
315,225,78252,6,0,L|425:227,1,100,0|0,1:0|1:0,0:0:0:0:
255,152,78883,6,0,P|193:80|284:67,1,200,4|0,0:0|0:0,0:0:0:0:
362,230,79831,1,8,0:0:0:0:
262,271,80146,2,0,L|62:206,1,200,0|0,0:0|0:0,0:0:0:0:
172,174,81094,1,8,0:0:0:0:
272,176,81410,6,0,L|377:178,1,100,0|8,0:0|0:0,0:0:0:0:
272,92,82041,1,0,0:0:0:0:
422,62,82515,1,4,0:0:0:0:
202,53,83146,1,4,0:0:0:0:
277,106,83620,1,8,0:0:0:0:
117,273,83936,6,0,P|55:201|146:188,1,200,4|0,0:0|0:0,0:0:0:0:
224,224,84883,1,8,0:0:0:0:
324,164,85199,2,0,L|276:66,1,100,0|8,0:0|0:0,0:0:0:0:
180,134,85831,2,0,L|228:232,1,100,0|8,0:0|0:0,0:0:0:0:
384,338,86462,6,0,P|446:266|355:253,1,200,0|0,0:0|0:0,0:0:0:0:
277,289,87409,1,8,0:0:0:0:
177,163,87725,2,0,L|331:156,2,150,0|0|8,0:0|0:0|0:0,0:0:0:0:
338,23,88989,6,0,L|510:124,1,200,4|0,0:0|0:0,0:0:0:0:
410,240,89936,1,8,0:0:0:0:
310,233,90252,2,0,L|310:129,1,100,0|8,0:0|0:0,0:0:0:0:
210,299,90883,2,0,L|192:192,1,100,0|8,0:0|0:0,0:0:0:0:
93,300,91515,6,0,P|43:255|107:236,1,150,0|0,0:0|0:0,0:0:0:0:
197,199,92304,1,0,0:0:0:0:
360,300,92620,2,0,B|313:315|313:315|202:298,1,150,4|8,0:0|0:0,0:0:0:0:
314,193,93410,2,0,L|411:145,1,100,8|8,0:0|0:0,0:0:0:0:
244,117,94041,5,4,0:0:0:0:
92,166,94515,2,0,L|91:58,1,100,8|8,0:0|0:0,0:0:0:0:
177,52,94989,1,0,0:0:0:0:
327,306,95462,6,0,L|328:198,1,100,8|8,0:0|0:0,0:0:0:0:
242,192,95936,1,0,0:0:0:0:
157,190,96252,1,8,0:0:0:0:
317,95,96568,5,0,0:0:0:0:
167,189,97041,2,0,L|168:81,1,100,8|8,0:0|0:0,0:0:0:0:
82,75,97515,1,0,0:0:0:0:
232,329,97989,6,0,L|231:221,1,100,8|8,0:0|0:0,0:0:0:0:
317,215,98463,1,0,0:0:0:0:
402,221,98778,1,8,0:0:0:0:
242,133,99094,5,4,0:0:0:0:
392,169,99568,2,0,L|391:61,1,100,8|8,0:0|0:0,0:0:0:0:
477,55,100042,1,0,0:0:0:0:
327,342,100515,6,0,L|328:234,1,100,8|8,0:0|0:0,0:0:0:0:
242,228,100989,1,8,0:0:0:0:
157,224,101304,1,8,0:0:0:0:
242,228,101620,5,0,0:0:0:0:
381,33,102883,2,0,L|223:32,2,150,8|8|8,0:0|0:0|0:0,0:0:0:0:
221,127,104146,6,0,P|154:147|238:199,1,200,4|0,0:0|0:0,0:0:0:0:
317,217,105093,1,8,0:0:0:0:
217,39,105409,2,0,L|190:143,1,100,0|8,0:0|0:0,0:0:0:0:
292,345,106041,2,0,L|319:241,1,100,0|8,0:0|0:0,0:0:0:0:
157,225,106673,5,4,0:0:0:0:
73,183,106989,1,8,0:0:0:0:
75,88,107304,1,0,0:0:0:0:
162,50,107620,1,8,0:0:0:0:
262,106,107936,2,0,L|382:108,2,100,0|8|0,0:0|0:0|0:0,0:0:0:0:
392,181,108883,1,0,0:0:0:0:
232,259,109199,6,0,L|32:259,1,200,4|0,0:0|0:0,0:0:0:0:
132,165,110146,1,8,0:0:0:0:
232,165,110462,2,0,L|345:164,1,100,0|8,0:0|0:0,0:0:0:0:
232,68,111093,1,0,0:0:0:0:
132,68,111409,1,8,0:0:0:0:
292,309,111725,6,0,L|448:307,2,150,4|0|8,0:0|0:0|0:0,0:0:0:0:
192,250,112988,2,0,L|86:250,1,100,0|8,0:0|0:0,0:0:0:0:
192,157,113620,1,8,0:0:0:0:
62,157,113936,1,8,0:0:0:0:
222,244,114252,6,0,B|431:243,1,200,4|0,0:0|0:0,0:0:0:0:
322,146,115199,1,8,0:0:0:0:
222,129,115515,2,0,L|276:43,1,100,0|8,0:0|0:0,0:0:0:0:
376,250,116147,2,0,L|430:164,1,100,0|8,0:0|0:0,0:0:0:0:
269,197,116778,6,0,L|215:283,1,100,4|8,0:0|0:0,0:0:0:0:
316,287,117410,1,0,0:0:0:0:
416,288,117726,1,8,0:0:0:0:
316,287,118041,2,0,L|212:286,2,100,0|8|0,0:0|0:0|0:0,0:0:0:0:
446,196,118989,1,8,0:0:0:0:
286,149,119305,6,0,P|220:96|302:38,1,200,4|0,0:0|0:0,0:0:0:0:
387,29,120252,1,8,0:0:0:0:
487,35,120568,2,0,L|380:35,1,100,0|8,0:0|0:0,0:0:0:0:
287,32,121199,1,0,0:0:0:0:
187,32,121515,1,8,0:0:0:0:
347,154,121831,6,0,L|181:154,1,150,8|8,0:0|0:0,0:0:0:0:
327,270,122620,1,8,0:0:0:0:
167,284,122936,1,4,0:0:0:0:
256,192,123252,12,0,128146,0:0:0:0:
285,217,143351,6,0,B|331:203|331:203|427:134,2,150,0|0|2,0:0|0:0|0:0,0:0:0:0:
180,73,145837,6,0,B|213:100|213:100|272:115|272:115|308:147,2,150,2|0|2,0:0|0:0|0:0,0:0:0:0:
280,192,147100,1,2,0:0:0:0:
400,320,148363,6,0,B|358:304|358:304|316:261|316:261|269:245,2,150,2|0|2,0:0|0:0|0:0,0:0:0:0:
196,82,150903,6,0,B|230:110|230:110|288:125|288:125|325:157,2,150,2|0|2,0:0|0:0|0:0,0:0:0:0:
306,196,152166,2,0,B|340:224|340:224|398:239|398:239|435:271,2,150,2|0|2,0:0|0:0|0:0,0:0:0:0:
156,298,153429,6,0,B|112:305|112:305|54:289|54:289|6:299,2,150,2|2|2,0:0|0:0|0:0,0:0:0:0:
321,142,154850,2,0,L|158:142,1,150,2|2,0:0|0:0,0:0:0:0:
271,47,155639,1,0,0:0:0:0:
421,242,155955,6,0,L|265:240,2,150,2|2|0,0:0|0:0|0:0,0:0:0:0:
270,139,157377,2,0,P|222:121|275:69,1,150,2|2,0:0|0:0,0:0:0:0:
370,101,158166,1,2,0:0:0:0:
220,242,158482,6,0,B|178:234|178:234|58:247,2,150,2|2|2,0:0|0:0|0:0,0:0:0:0:
370,285,159903,2,0,L|495:190,1,150,2|0,0:0|0:0,0:0:0:0:
389,133,160692,1,2,0:0:0:0:
239,80,161008,6,0,L|84:80,2,150,2|2|2,0:0|0:0|0:0,0:0:0:0:
339,38,162271,1,0,0:0:0:0:
245,332,164797,6,0,P|157:274|288:209,1,300,0|0,0:0|0:0,0:0:0:0:
442,60,166052,6,0,B|235:59,1,200,4|0,0:0|0:0,0:0:0:0:
342,159,166999,1,8,0:0:0:0:
242,169,167315,2,0,L|272:273,1,100,0|8,0:0|0:0,0:0:0:0:
370,255,167946,2,0,L|340:359,1,100,0|8,0:0|0:0,0:0:0:0:
172,145,168578,5,4,0:0:0:0:
272,145,168894,1,8,0:0:0:0:
372,145,169209,1,0,0:0:0:0:
472,145,169525,1,8,0:0:0:0:
372,145,169841,2,0,L|272:145,2,100,0|8|0,0:0|0:0|0:0,0:0:0:0:
241,239,170789,1,8,0:0:0:0:
411,331,171105,6,0,L|211:331,1,200,4|0,0:0|0:0,0:0:0:0:
311,233,172052,1,8,0:0:0:0:
411,200,172368,2,0,L|375:106,1,100,0|8,0:0|0:0,0:0:0:0:
275,126,172999,2,0,L|239:32,1,100,0|8,0:0|0:0,0:0:0:0:
69,262,173631,6,0,L|227:257,2,150,4|0|8,0:0|0:0|0:0,0:0:0:0:
169,159,174894,2,0,L|169:47,1,100,0|8,0:0|0:0,0:0:0:0:
69,44,175526,1,8,0:0:0:0:
169,59,175841,1,8,0:0:0:0:
339,38,176157,6,0,P|406:58|322:110,1,200,4|0,0:0|0:0,0:0:0:0:
243,163,177104,1,8,0:0:0:0:
143,197,177420,2,0,L|179:291,1,100,0|8,0:0|0:0,0:0:0:0:
279,269,178052,2,0,L|315:363,1,100,0|8,0:0|0:0,0:0:0:0:
145,116,178683,5,4,0:0:0:0:
45,116,178999,1,8,0:0:0:0:
145,116,179315,1,0,0:0:0:0:
245,116,179630,1,8,0:0:0:0:
145,116,179946,2,0,L|45:116,2,100,0|8|0,0:0|0:0|0:0,0:0:0:0:
275,116,180894,1,8,0:0:0:0:
105,217,181209,6,0,P|38:237|122:289,1,200,4|0,0:0|0:0,0:0:0:0:
202,262,182157,1,8,0:0:0:0:
302,267,182473,2,0,L|406:267,1,100,0|8,0:0|0:0,0:0:0:0:
302,172,183104,1,0,0:0:0:0:
432,172,183420,1,8,0:0:0:0:
272,101,183736,6,0,P|218:74|279:44,1,150,0|0,0:0|0:0,0:0:0:0:
371,72,184526,1,0,0:0:0:0:
211,188,184841,2,0,P|173:366|256:313,1,400,0|0,0:0|0:0,0:0:0:0:
