osu file format v14

[General]
AudioFilename: audio.mp3
AudioLeadIn: 0
PreviewTime: 74057
Countdown: 0
SampleSet: Normal
StackLeniency: 0.7
Mode: 0
LetterboxInBreaks: 0
WidescreenStoryboard: 1

[Editor]
DistanceSpacing: 1.8
BeatDivisor: 4
GridSize: 8
TimelineZoom: 1

[Metadata]
Title:Just One
TitleUnicode:Just One
Artist:Shiena Nishizawa
ArtistUnicode:西沢幸奏
Creator:Deception2011
Version:Very Hard
Source:
Tags:Kantai Collection Movie Fubuki Yuudachi Battleships Sea
BeatmapID:1175823
BeatmapSetID:555557

[Difficulty]
HPDrainRate:6
CircleSize:4
OverallDifficulty:6
ApproachRate:8
SliderMultiplier:1.4
SliderTickRate:1

[Events]
//Background and Video events
0,0,"Kantai Collection KanColle U-511 under water..jpg",0,0
//Break Periods
2,126159,133675
//Storyboard Layer 0 (Background)
//Storyboard Layer 1 (Fail)
//Storyboard Layer 2 (Pass)
//Storyboard Layer 3 (Foreground)
//Storyboard Sound Samples

[TimingPoints]
24180,368.098159509202,4,1,0,60,1,0
35959,-125,4,1,0,60,0,0
53259,-166.666666666667,4,1,0,60,0,0
53995,-125,4,1,0,60,0,0
71296,-166.666666666667,4,1,0,60,0,0
77186,-100,4,1,0,60,0,1
100560,-125,4,1,0,60,0,0
134609,-100,4,1,0,60,0,1
158167,-100,4,1,0,60,0,0
160376,-100,4,1,0,60,0,1
184670,-100,4,1,0,60,0,0
221480,-100,4,1,0,60,0,1
230314,-125,4,1,0,60,0,0

[HitObjects]
160,120,35959,5,0,0:0:0:0:
272,216,36143,1,0,0:0:0:0:
232,64,36327,1,0,0:0:0:0:
360,128,36511,2,0,L|400:128,2,28
200,192,36879,1,0,0:0:0:0:
320,248,37063,1,0,0:0:0:0:
184,264,37247,6,0,L|64:272,1,112
120,144,37799,1,0,0:0:0:0:
240,208,37983,2,0,L|248:256,2,28
176,88,38351,1,0,0:0:0:0:
296,152,38535,1,0,0:0:0:0:
256,280,38903,5,0,0:0:0:0:
368,200,39087,1,0,0:0:0:0:
392,336,39272,1,0,0:0:0:0:
280,208,39640,2,0,L|272:168,2,28
400,264,40008,2,0,P|368:288|288:320,1,112
208,328,40560,5,0,0:0:0:0:
128,280,40744,1,0,0:0:0:0:
80,208,40928,1,0,0:0:0:0:
160,160,41112,1,0,0:0:0:0:
160,160,41204,1,0,0:0:0:0:
160,160,41296,1,0,0:0:0:0:
160,160,41388,1,0,0:0:0:0:
160,160,41480,2,0,L|176:200,4,28
320,152,42032,5,0,0:0:0:0:
240,264,42216,2,0,P|304:280|360:272,1,112
416,168,42768,1,0,0:0:0:0:
320,88,42953,2,0,L|200:96,1,112
136,192,43505,1,0,0:0:0:0:
216,288,43689,2,0,L|224:168,1,112
288,72,44241,5,0,0:0:0:0:
368,160,44425,2,0,L|360:296,1,112
264,344,44977,1,0,0:0:0:0:
184,248,45161,1,0,0:0:0:0:
288,184,45345,1,0,0:0:0:0:
168,144,45529,2,0,L|96:152,2,56
272,72,46081,5,0,0:0:0:0:
376,144,46265,2,0,L|384:216,1,56
344,304,46633,2,0,L|336:224,1,56
256,152,47002,1,0,0:0:0:0:
200,264,47186,1,0,0:0:0:0:
144,152,47370,2,0,L|136:32,2,112
80,280,48290,5,0,0:0:0:0:
192,336,48474,2,0,L|320:328,1,112
408,264,49026,1,0,0:0:0:0:
344,160,49210,2,0,P|296:200|280:256,1,112
376,336,49762,1,0,0:0:0:0:
448,232,49946,2,0,L|440:152,2,56
336,280,50499,5,0,0:0:0:0:
248,168,50683,2,0,L|360:168,1,112
456,96,51235,1,0,0:0:0:0:
344,48,51419,2,0,L|272:56,1,56
200,112,51787,2,0,L|192:176,1,56
232,264,52155,2,0,L|240:200,2,56
144,336,52707,5,0,0:0:0:0:
264,352,52891,2,0,L|320:344,3,56
368,240,53627,1,0,0:0:0:0:
312,104,53995,6,0,P|240:120|200:152,1,112
216,264,54548,1,0,0:0:0:0:
144,168,54732,1,0,0:0:0:0:
264,184,54916,1,0,0:0:0:0:
256,328,55100,6,0,P|320:344|376:328,1,112
376,208,55652,1,0,0:0:0:0:
440,312,55836,1,0,0:0:0:0:
480,192,56020,1,0,0:0:0:0:
352,272,56204,2,0,L|224:280,1,112
136,216,56756,5,0,0:0:0:0:
216,120,56940,2,0,P|248:96|272:88,1,56
352,112,57308,2,0,P|328:136|296:144,1,56
232,200,57676,2,0,B|224:248|248:272|232:320,1,112
112,304,58229,5,0,0:0:0:0:
48,200,58413,2,0,P|104:136|128:120,1,112
208,72,58965,1,0,0:0:0:0:
184,192,59149,1,0,0:0:0:0:
280,112,59333,1,0,0:0:0:0:
280,112,59425,1,0,0:0:0:0:
280,112,59517,1,0,0:0:0:0:
160,128,59701,1,0,0:0:0:0:
264,200,59885,6,0,B|304:216|328:184|352:216|384:200,2,112
168,272,60805,1,0,0:0:0:0:
288,312,60989,2,0,B|336:320|336:320|368:320|416:288,1,112
424,208,61541,1,0,0:0:0:0:
344,240,61726,2,0,B|304:224|304:224|272:224|216:240,1,112
208,312,62278,5,0,0:0:0:0:
128,216,62462,2,0,L|120:96,1,112
224,40,63014,1,0,0:0:0:0:
304,136,63198,2,0,L|312:256,1,112
320,336,63750,5,0,0:0:0:0:
232,256,63934,1,0,0:0:0:0:
232,344,64118,1,0,0:0:0:0:
344,264,64302,1,0,0:0:0:0:
248,192,64486,1,0,0:0:0:0:
248,192,64578,1,0,0:0:0:0:
248,192,64670,1,0,0:0:0:0:
320,336,64854,5,0,0:0:0:0:
392,320,65038,1,0,0:0:0:0:
440,272,65222,1,0,0:0:0:0:
472,208,65406,1,0,0:0:0:0:
472,208,65499,1,0,0:0:0:0:
472,208,65591,2,0,L|480:176,6,28
384,120,66327,5,0,0:0:0:0:
304,216,66695,2,0,L|264:96,1,112
256,72,67247,1,0,0:0:0:0:
248,48,67431,1,0,0:0:0:0:
240,24,67615,1,0,0:0:0:0:
128,72,67799,6,0,P|160:96|168:112,1,56
192,168,68167,1,0,0:0:0:0:
240,224,68351,1,0,0:0:0:0:
240,224,68443,1,0,0:0:0:0:
240,224,68535,2,0,L|272:248,2,28
336,288,68903,2,0,L|392:312,1,56
472,288,69272,1,0,0:0:0:0:
376,200,69640,6,0,B|352:168|352:168|320:168|272:144,1,112
176,88,70192,1,0,0:0:0:0:
296,64,70376,1,0,0:0:0:0:
224,160,70560,1,0,0:0:0:0:
224,40,70744,1,0,0:0:0:0:
224,40,70836,1,0,0:0:0:0:
224,40,70928,2,0,L|224:80,4,28
224,48,74057,5,0,0:0:0:0:
304,136,74241,2,0,L|344:176,2,41.9999987182618
264,208,74793,2,0,L|248:256,2,41.9999987182618
168,216,75345,2,0,P|136:184|120:144,1,83.9999974365235
72,64,75897,1,0,0:0:0:0:
184,128,76081,1,0,0:0:0:0:
160,32,76265,1,0,0:0:0:0:
256,120,77186,6,0,L|336:112,2,70
184,192,77738,1,0,0:0:0:0:
304,168,77922,2,0,L|384:160,2,70
240,264,78474,1,0,0:0:0:0:
376,248,78658,5,0,0:0:0:0:
256,344,78842,1,0,0:0:0:0:
256,344,79026,1,0,0:0:0:0:
408,320,79210,1,0,0:0:0:0:
280,232,79394,1,0,0:0:0:0:
280,232,79578,1,0,0:0:0:0:
376,136,79762,6,0,P|368:184|352:208,1,70
224,168,80130,2,0,L|152:168,2,70
312,88,80683,1,0,0:0:0:0:
312,112,80867,2,0,B|312:168|312:168|296:192|296:192|296:256,1,140
296,328,81419,1,0,0:0:0:0:
152,272,81603,6,0,P|112:248|96:224,2,70
240,264,82155,1,0,0:0:0:0:
152,208,82339,2,0,P|112:168|104:152,2,70
256,184,82891,1,0,0:0:0:0:
256,184,82983,1,0,0:0:0:0:
256,184,83075,1,0,0:0:0:0:
176,88,83259,5,0,0:0:0:0:
304,120,83443,2,0,P|328:160|336:192,1,70
192,248,83811,1,0,0:0:0:0:
344,264,83995,1,0,0:0:0:0:
344,264,84179,1,0,0:0:0:0:
200,328,84364,1,0,0:0:0:0:
272,240,84548,6,0,B|224:192|320:152|256:128|272:88,1,140
184,40,85100,1,0,0:0:0:0:
184,40,85284,1,0,0:0:0:0:
336,64,85468,1,0,0:0:0:0:
192,128,85652,1,0,0:0:0:0:
328,200,85836,1,0,0:0:0:0:
328,200,85928,1,0,0:0:0:0:
328,200,86020,1,0,0:0:0:0:
192,280,86204,6,0,L|192:200,1,70
136,144,86572,1,0,0:0:0:0:
264,232,86756,2,0,P|296:256|352:272,1,70
416,304,87124,2,0,P|392:256|368:232,1,70
336,184,87492,5,0,0:0:0:0:
328,176,87584,1,0,0:0:0:0:
320,168,87676,1,0,0:0:0:0:
312,160,87768,1,0,0:0:0:0:
304,152,87860,2,0,L|256:104,5,35
256,112,88413,6,0,L|200:112,6,35
152,168,89149,1,0,0:0:0:0:
248,256,89333,2,0,P|288:272|320:272,2,70
112,232,89885,1,0,0:0:0:0:
240,176,90069,1,0,0:0:0:0:
176,304,90253,1,0,0:0:0:0:
176,304,90345,1,0,0:0:0:0:
176,304,90437,6,0,L|240:256,1,70
248,312,90805,2,0,L|312:256,1,70
408,240,91173,1,0,0:0:0:0:
464,104,91357,1,0,0:0:0:0:
360,120,91541,1,0,0:0:0:0:
480,192,91726,1,0,0:0:0:0:
328,160,91910,6,0,L|320:240,1,70
272,208,92278,2,0,L|264:288,1,70
176,336,92646,2,0,P|144:288|136:176,1,140
112,104,93198,1,0,0:0:0:0:
112,104,93290,1,0,0:0:0:0:
112,104,93382,1,0,0:0:0:0:
184,176,93566,5,0,0:0:0:0:
176,40,93750,1,0,0:0:0:0:
176,40,93934,1,0,0:0:0:0:
272,144,94118,1,0,0:0:0:0:
136,104,94302,1,0,0:0:0:0:
136,104,94486,1,0,0:0:0:0:
264,40,94670,6,0,L|320:88,1,70
392,168,95038,1,0,0:0:0:0:
264,112,95222,2,0,L|320:160,1,70
384,256,95591,1,0,0:0:0:0:
304,328,95775,1,0,0:0:0:0:
304,224,95959,1,0,0:0:0:0:
368,328,96143,1,0,0:0:0:0:
240,312,96327,6,0,L|192:248,1,70
144,160,96695,1,0,0:0:0:0:
256,256,96879,2,0,L|208:192,1,70
192,96,97247,1,0,0:0:0:0:
344,96,97431,2,0,L|256:104,2,70
448,144,97983,1,0,0:0:0:0:
328,200,98167,2,0,P|352:240|376:256,1,70
432,328,98535,1,0,0:0:0:0:
432,328,98719,5,0,0:0:0:0:
280,256,98903,2,0,L|208:264,1,70
72,272,99272,2,0,B|40:256|40:256|32:216,4,70
160,304,100192,1,0,0:0:0:0:
248,320,100376,1,0,0:0:0:0:
336,296,100560,1,0,0:0:0:0:
336,288,101664,6,0,L|336:316,2,28
312,200,102032,1,0,0:0:0:0:
256,120,102216,2,0,P|232:88|208:72,1,56
136,80,102584,2,0,P|168:120|192:128,1,56
240,184,102953,2,0,P|280:224|288:240,1,56
328,304,103321,1,0,0:0:0:0:
368,200,103505,5,0,0:0:0:0:
368,200,103597,1,0,0:0:0:0:
368,200,103689,1,0,0:0:0:0:
448,280,103873,1,0,0:0:0:0:
440,168,104057,6,0,L|416:112,1,56
336,80,104425,2,0,L|360:136,1,56
392,224,104793,1,0,0:0:0:0:
288,192,104977,1,0,0:0:0:0:
328,296,105161,2,0,B|288:312|288:312|208:312,1,112
120,272,105713,1,0,0:0:0:0:
120,160,105897,6,0,P|160:128|176:128,1,56
272,112,106265,1,0,0:0:0:0:
224,216,106449,1,0,0:0:0:0:
224,216,106541,1,0,0:0:0:0:
224,216,106633,1,0,0:0:0:0:
320,152,106818,1,0,0:0:0:0:
368,256,107002,6,0,P|400:224|408:200,1,56
464,120,107370,2,0,L|464:192,2,56
392,48,107922,1,0,0:0:0:0:
376,160,108106,2,0,B|344:120|312:104|312:104|272:88,1,112
136,120,108842,6,0,L|192:120,1,56
296,168,109210,1,0,0:0:0:0:
192,208,109394,1,0,0:0:0:0:
192,208,109486,1,0,0:0:0:0:
192,208,109578,1,0,0:0:0:0:
296,256,109762,1,0,0:0:0:0:
360,168,109946,6,0,P|360:208|352:232,1,56
280,320,110314,1,0,0:0:0:0:
392,288,110499,6,0,L|464:296,3,56
456,208,111235,1,0,0:0:0:0:
384,120,111419,2,0,L|256:112,1,112
192,144,111971,1,0,0:0:0:0:
296,216,112155,1,0,0:0:0:0:
200,264,112339,1,0,0:0:0:0:
200,264,112431,1,0,0:0:0:0:
200,264,112523,1,0,0:0:0:0:
208,176,112707,5,0,0:0:0:0:
296,296,112891,2,0,P|328:296|400:248,1,112
464,168,113443,2,0,L|480:136,2,28
448,72,113811,2,0,L|408:88,2,28
368,128,114364,6,0,P|336:136|248:144,1,112
152,120,114916,1,0,0:0:0:0:
216,216,115100,2,0,P|264:232|280:232,1,56
288,232,115376,1,0,0:0:0:0:
312,232,115468,1,0,0:0:0:0:
416,224,115652,5,0,0:0:0:0:
352,296,115836,2,0,P|304:320|240:320,1,112
152,304,116388,1,0,0:0:0:0:
88,208,116572,2,0,L|168:216,1,56
240,240,116940,2,0,P|304:248|352:232,1,112
440,168,117492,5,0,0:0:0:0:
360,88,117676,2,0,L|352:160,1,56
408,272,118045,1,0,0:0:0:0:
296,192,118229,1,0,0:0:0:0:
296,192,118321,1,0,0:0:0:0:
296,192,118413,1,0,0:0:0:0:
320,304,118597,5,0,0:0:0:0:
208,280,118781,2,0,P|192:248|184:224,1,56
208,120,119149,2,0,P|224:152|232:176,1,56
312,248,119517,1,0,0:0:0:0:
352,144,119701,1,0,0:0:0:0:
376,288,119885,1,0,0:0:0:0:
440,176,120253,6,0,L|304:184,1,112
232,240,120805,1,0,0:0:0:0:
152,160,120989,2,0,P|192:136|216:128,1,56
224,120,121265,1,0,0:0:0:0:
240,112,121357,1,0,0:0:0:0:
272,40,121541,1,0,0:0:0:0:
312,144,121726,6,0,P|304:176|280:200,1,56
216,264,122094,2,0,L|208:336,2,56
168,176,122646,1,0,0:0:0:0:
280,200,122830,2,0,B|272:144|240:104|224:88,1,112
120,120,123382,1,0,0:0:0:0:
88,224,123566,2,0,B|56:192|40:152|32:128,1,112
88,40,124118,5,0,0:0:0:0:
88,40,124210,1,0,0:0:0:0:
88,40,124302,1,0,0:0:0:0:
192,80,124486,1,0,0:0:0:0:
136,176,124670,2,0,L|152:240,1,56
208,296,125038,2,0,L|240:224,1,56
232,152,125406,5,0,0:0:0:0:
232,152,125499,1,0,0:0:0:0:
232,152,125591,1,0,0:0:0:0:
232,152,125683,1,0,0:0:0:0:
232,152,125775,2,0,L|264:88,1,56
256,96,134425,5,0,0:0:0:0:
384,112,134609,2,0,L|464:120,1,70
232,160,134977,1,0,0:0:0:0:
368,192,135161,1,0,0:0:0:0:
280,272,135345,2,0,L|360:280,1,70
464,344,135713,2,0,L|304:352,1,140
240,264,136265,5,0,0:0:0:0:
128,328,136449,1,0,0:0:0:0:
136,200,136633,1,0,0:0:0:0:
192,312,136818,2,0,P|224:336|264:344,1,70
280,344,137094,5,0,0:0:0:0:
296,344,137186,1,0,0:0:0:0:
312,344,137278,1,0,0:0:0:0:
328,344,137370,1,0,0:0:0:0:
344,344,137462,1,0,0:0:0:0:
360,344,137554,2,0,L|440:344,1,70
456,232,137922,6,0,L|376:208,1,70
280,216,138290,1,0,0:0:0:0:
280,216,138474,1,0,0:0:0:0:
344,120,138658,2,0,L|192:120,1,140
112,184,139210,1,0,0:0:0:0:
112,184,139394,1,0,0:0:0:0:
192,264,139578,1,0,0:0:0:0:
232,184,139762,6,0,L|240:264,1,70
312,336,140130,2,0,L|304:256,1,70
360,192,140499,2,0,P|352:144|336:120,2,70
392,296,141051,1,0,0:0:0:0:
464,216,141235,2,0,L|472:144,1,70
464,72,141603,6,0,B|432:104|400:104|400:104|328:104,1,140
224,136,142155,1,0,0:0:0:0:
224,136,142339,1,0,0:0:0:0:
136,72,142523,1,0,0:0:0:0:
248,48,142707,1,0,0:0:0:0:
248,48,142891,1,0,0:0:0:0:
312,144,143075,6,0,B|296:240|296:240|256:208,1,140
160,168,143627,1,0,0:0:0:0:
208,272,143811,2,0,P|240:296|288:296,1,70
272,232,144179,2,0,P|312:248|336:272,1,70
368,328,144548,2,0,P|328:352|296:352,2,70
416,240,145100,5,0,0:0:0:0:
328,192,145284,2,0,P|344:160|376:136,1,70
456,64,145652,2,0,L|368:72,1,70
280,96,146020,6,0,B|256:192|256:192|216:152,1,140
136,72,146572,1,0,0:0:0:0:
104,184,146756,2,0,L|96:264,2,70
56,80,147308,1,0,0:0:0:0:
160,128,147492,1,0,0:0:0:0:
160,128,147676,1,0,0:0:0:0:
232,48,147860,6,0,L|240:128,2,70
328,104,148413,1,0,0:0:0:0:
328,104,148597,1,0,0:0:0:0:
304,216,148781,1,0,0:0:0:0:
304,216,148965,1,0,0:0:0:0:
408,176,149149,1,0,0:0:0:0:
408,176,149241,1,0,0:0:0:0:
408,176,149333,2,0,B|408:256|408:256|384:280|328:288,1,140
256,328,149885,5,0,0:0:0:0:
152,288,150069,2,0,L|208:224,1,70
144,216,150437,2,0,L|200:160,1,70
136,152,150805,1,0,0:0:0:0:
136,152,150989,1,0,0:0:0:0:
200,40,151173,5,0,0:0:0:0:
280,144,151357,1,0,0:0:0:0:
280,144,151541,1,0,0:0:0:0:
368,56,151726,1,0,0:0:0:0:
424,168,151910,2,0,P|376:184|336:184,1,70
400,232,152278,2,0,P|352:240|320:232,1,70
352,288,152646,2,0,P|304:288|208:256,1,140
128,168,153198,5,0,0:0:0:0:
240,112,153382,2,0,L|232:184,2,70
360,64,153934,1,0,0:0:0:0:
480,32,154118,2,0,B|472:128|472:128|456:136|416:144,1,140
320,152,154670,1,0,0:0:0:0:
320,152,154854,1,0,0:0:0:0:
408,216,155222,6,0,L|256:288,1,140
152,280,155775,1,0,0:0:0:0:
200,160,155959,2,0,P|224:128|256:112,1,70
368,160,156327,2,0,L|312:216,2,70
400,80,156879,1,0,0:0:0:0:
392,208,157063,2,0,L|336:272,2,70
440,144,157615,1,0,0:0:0:0:
416,272,157799,2,0,B|368:328|368:328|328:336|280:336,2,140
472,208,158719,5,0,0:0:0:0:
360,144,158903,2,0,L|272:152,1,70
168,160,159272,2,0,P|128:192|144:288,1,140
200,328,159824,1,0,0:0:0:0:
304,344,160008,1,0,0:0:0:0:
400,328,160192,1,0,0:0:0:0:
