osu file format v14

[General]
AudioFilename: audio.mp3
AudioLeadIn: 0
PreviewTime: 58746
Countdown: 0
SampleSet: None
StackLeniency: 0.7
Mode: 0
LetterboxInBreaks: 0
WidescreenStoryboard: 0

[Editor]
Bookmarks: 12746,15079,16746,17746,19912,21746,23246,23746,34412,35412,35579,36412,39079,44912,45079,50079,51746,57246,58662,59412,64412,66190,67246,68079,70412,73079,74579,83079
DistanceSpacing: 1
BeatDivisor: 12
GridSize: 4
TimelineZoom: 3.099999

[Metadata]
Title:FUBUKI
TitleUnicode:吹雪
Artist:Shiena Nishizawa
ArtistUnicode:西沢幸奏
Creator:SevenFrenzy
Version:Insane
Source:Fleet Girls Collection KanColle Animation Sequence
Tags:艦隊これくしょん 艦これ Ending ED jump Kantai Collection Kan Colle
BeatmapID:1356808
BeatmapSetID:639770

[Difficulty]
HPDrainRate:7
CircleSize:4
OverallDifficulty:8
ApproachRate:9
SliderMultiplier:1.8
SliderTickRate:1

[Events]
//Background and Video events
Video,0,"Stolen Vid.avi"
0,0,"Kancolle.jpg",0,0
//Break Periods
//Storyboard Layer 0 (Background)
//Storyboard Layer 1 (Fail)
//Storyboard Layer 2 (Pass)
//Storyboard Layer 3 (Foreground)
//Storyboard Sound Samples
Sample,14412,0,"soft-hitclap.wav",55
Sample,15079,0,"soft-hitclap.wav",55
Sample,15746,0,"soft-hitclap.wav",55
Sample,16412,0,"soft-hitclap.wav",55
Sample,17079,0,"soft-hitclap.wav",55
Sample,17746,0,"soft-hitclap.wav",55
Sample,18412,0,"soft-hitclap.wav",55
Sample,19079,0,"soft-hitclap.wav",55
Sample,19746,0,"soft-hitclap.wav",55
Sample,20412,0,"soft-hitclap.wav",55
Sample,21079,0,"soft-hitclap.wav",55
Sample,21746,0,"soft-hitclap.wav",55
Sample,22412,0,"soft-hitclap.wav",55
Sample,23079,0,"soft-hitclap.wav",55
Sample,23746,0,"soft-hitclap.wav",55
Sample,24412,0,"soft-hitclap.wav",55
Sample,25079,0,"soft-hitclap.wav",55
Sample,25746,0,"soft-hitclap.wav",55
Sample,26412,0,"soft-hitclap.wav",55
Sample,27079,0,"soft-hitclap.wav",55
Sample,27746,0,"soft-hitclap.wav",55
Sample,28412,0,"soft-hitclap.wav",55
Sample,29079,0,"soft-hitclap.wav",55
Sample,29746,0,"soft-hitclap.wav",55
Sample,30412,0,"soft-hitclap.wav",55
Sample,31079,0,"soft-hitclap.wav",55
Sample,31746,0,"soft-hitclap.wav",55
Sample,32412,0,"soft-hitclap.wav",55
Sample,33079,0,"soft-hitclap.wav",55
Sample,33746,0,"soft-hitclap.wav",55
Sample,34412,0,"soft-hitclap.wav",55
Sample,35079,0,"soft-hitclap.wav",55
Sample,35746,0,"soft-hitclap.wav",55
Sample,36412,0,"soft-hitclap.wav",55
Sample,37079,0,"soft-hitclap.wav",55
Sample,37746,0,"soft-hitclap.wav",55
Sample,38412,0,"soft-hitclap.wav",55
Sample,39079,0,"soft-hitclap.wav",55
Sample,39746,0,"soft-hitclap.wav",55
Sample,40412,0,"soft-hitclap.wav",55
Sample,41079,0,"soft-hitclap.wav",55
Sample,41746,0,"soft-hitclap.wav",55
Sample,42412,0,"soft-hitclap.wav",55
Sample,43079,0,"soft-hitclap.wav",55
Sample,43746,0,"soft-hitclap.wav",55
Sample,44412,0,"soft-hitclap.wav",55
Sample,45079,0,"soft-hitclap.wav",55
Sample,45412,0,"soft-hitclap.wav",55
Sample,45746,0,"soft-hitclap.wav",55
Sample,51746,0,"soft-hitclap.wav",55
Sample,52412,0,"soft-hitclap.wav",55
Sample,53079,0,"soft-hitclap.wav",55
Sample,53746,0,"soft-hitclap.wav",55
Sample,59746,0,"soft-hitclap.wav",55
Sample,60412,0,"soft-hitclap.wav",55
Sample,61079,0,"soft-hitclap.wav",55
Sample,61746,0,"soft-hitclap.wav",55
Sample,62412,0,"soft-hitclap.wav",55
Sample,63079,0,"soft-hitclap.wav",55
Sample,63746,0,"soft-hitclap.wav",55
Sample,64412,0,"soft-hitclap.wav",55
Sample,66079,0,"soft-hitclap.wav",55
Sample,66412,0,"soft-hitclap.wav",55
Sample,66746,0,"soft-hitclap.wav",55
Sample,67079,0,"soft-hitclap.wav",55
Sample,68412,0,"soft-hitclap.wav",55
Sample,68746,0,"soft-hitclap.wav",55
Sample,69079,0,"soft-hitclap.wav",55
Sample,69246,0,"soft-hitclap.wav",55
Sample,70412,0,"soft-hitclap.wav",55
Sample,71079,0,"soft-hitclap.wav",55
Sample,71746,0,"soft-hitclap.wav",55
Sample,72412,0,"soft-hitclap.wav",55
Sample,73079,0,"soft-hitclap.wav",55
Sample,73746,0,"soft-hitclap.wav",55
Sample,74412,0,"soft-hitclap.wav",55
Sample,75079,0,"soft-hitclap.wav",55
Sample,76079,0,"soft-hitclap.wav",55
Sample,76412,0,"soft-hitclap.wav",55
Sample,77412,0,"soft-hitclap.wav",55
Sample,78412,0,"soft-hitclap.wav",55
Sample,79079,0,"soft-hitclap.wav",55
Sample,79746,0,"soft-hitclap.wav",55
Sample,80412,0,"soft-hitclap.wav",55
Sample,81079,0,"soft-hitclap.wav",55
Sample,81746,0,"soft-hitclap.wav",55
Sample,82412,0,"soft-hitclap.wav",55
Sample,83079,0,"soft-hitclap.wav",55

[TimingPoints]
-587,333.333333333333,4,2,1,100,1,0
746,-133.333333333333,4,2,1,50,0,0
1412,-133.333333333333,4,2,1,70,0,0
11274,-100,4,2,1,70,0,0
12440,-100,4,2,1,5,0,0
12746,-100,4,2,1,70,0,0
13996,-100,4,2,1,70,0,0
30079,-200,4,2,1,70,0,0
30746,-125,4,2,1,70,0,0
31412,-90.9090909090909,4,2,1,70,0,0
33412,-125,4,2,1,70,0,0
34079,-200,4,2,1,70,0,0
34912,-100,4,2,1,70,0,0
40746,-200,4,2,1,70,0,0
41412,-125,4,2,1,70,0,0
42079,-90.9090909090909,4,2,1,70,0,0
44079,-125,4,2,1,60,0,0
45079,-90.9090909090909,4,2,1,60,0,0
45412,-125,4,2,1,60,0,0
45746,-200,4,2,1,60,0,0
49246,-100,4,2,1,60,0,0
49996,-200,4,2,1,25,0,0
50079,-133.333333333333,4,2,1,60,0,0
51412,-133.333333333333,4,2,1,70,0,0
53079,-100,4,2,1,70,0,0
53412,-80,4,2,1,70,0,0
53746,-66.6666666666667,4,2,1,70,0,0
57912,-100,4,2,1,70,0,0
58746,-166.666666666667,4,2,1,70,0,0
59412,-100,4,2,1,75,0,1
75412,-80,4,2,1,75,0,0
76079,-111.111111111111,4,2,1,75,0,0
76746,-80,4,2,1,75,0,0
77412,-111.111111111111,4,2,1,75,0,0

[HitObjects]
80,192,746,5,4,0:0:0:0:
236,144,1412,2,0,P|284:152|308:168,1,67.5000025749208
312,268,1746,2,0,P|264:260|240:244,1,67.5000025749208
168,192,2079,1,0,0:0:0:0:
256,60,2746,6,0,P|304:60|400:100,1,135.000005149842
412,192,3246,1,0,0:0:0:0:
412,192,3329,1,0,0:0:0:0:
412,192,3412,2,0,B|368:192|368:192|320:160|320:160|280:192|280:192|224:192,1,202.500007724762
92,200,4079,1,0,0:0:0:0:
92,200,4246,2,0,P|104:252|140:276,1,67.5000025749208
256,292,4579,1,0,0:0:0:0:
256,292,4746,2,0,L|400:292,1,135.000005149842,4|0,0:0|0:0,0:0:0:0:
396,292,5412,1,0,0:0:0:0:
396,292,5746,1,0,0:0:0:0:
448,192,5912,5,0,0:0:0:0:
448,192,5995,1,0,0:0:0:0:
448,192,6079,2,0,P|392:192|356:180,1,90.0000034332277,4|0,0:0|0:0,0:0:0:0:
256,124,6524,1,0,0:0:0:0:
108,160,6746,2,0,L|64:180,2,45.0000017166138
148,220,7079,2,0,L|108:248,2,45.0000017166138
180,252,7412,6,0,B|192:296|192:296|236:300,1,90.0000034332277
280,292,7746,2,0,B|312:296|312:296|360:340,1,90.0000034332277
388,328,8079,2,0,B|424:324|424:324|468:228,1,135.000005149842
356,172,8634,1,0,0:0:0:0:
356,132,8746,6,0,L|392:96,2,45.0000017166138
284,92,9079,2,0,L|304:44,2,45.0000017166138
260,92,9412,2,0,P|208:72|184:72,1,78.7500030040742
96,144,9746,2,0,P|148:164|172:164,1,78.7500030040742
272,168,10079,1,0,0:0:0:0:
336,180,10412,1,0,0:0:0:0:
400,192,10746,5,0,0:0:0:0:
360,292,11079,1,0,0:0:0:0:
360,292,11274,2,0,P|344:296|280:288,1,75,0|4,0:0|0:0,0:0:0:0:
256,192,11524,12,0,12440,0:0:0:0:
172,272,12746,5,8,0:0:0:0:
144,264,12829,1,8,0:0:0:0:
116,244,12912,1,8,0:0:0:0:
100,220,12996,1,8,0:0:0:0:
88,188,13079,1,8,0:0:0:0:
88,156,13162,1,8,0:0:0:0:
100,124,13246,1,8,0:0:0:0:
112,96,13329,2,8,L|144:56,4,45
228,72,13746,6,8,L|200:112,1,45
232,192,13912,6,8,L|264:148,1,45
320,88,14079,6,0,P|376:100|456:208,1,180,4|0,0:0|0:0,0:0:0:0:
464,324,14579,1,0,0:0:0:0:
332,324,14746,2,0,L|228:324,1,90
108,324,15079,1,0,0:0:0:0:
228,180,15246,1,0,0:0:0:0:
228,180,15329,1,0,0:0:0:0:
228,180,15412,6,0,P|200:104|100:72,1,180
136,240,15912,1,0,0:0:0:0:
224,296,16079,2,0,L|324:296,1,90
448,112,16412,2,0,L|416:252,1,135
360,248,16746,6,0,L|324:144,1,90,4|0,0:0|0:0,0:0:0:0:
268,32,17079,1,0,0:0:0:0:
104,128,17246,1,0,0:0:0:0:
104,128,17329,1,0,0:0:0:0:
104,128,17412,2,0,L|200:128,1,90
24,272,17746,1,0,0:0:0:0:
168,328,17912,5,0,0:0:0:0:
188,324,17996,1,0,0:0:0:0:
208,320,18079,1,0,0:0:0:0:
124,192,18246,5,0,0:0:0:0:
332,192,18412,1,0,0:0:0:0:
144,124,18579,1,0,0:0:0:0:
336,4,18746,5,0,0:0:0:0:
152,88,18912,1,0,0:0:0:0:
308,164,19079,1,0,0:0:0:0:
72,84,19246,1,0,0:0:0:0:
60,88,19329,1,0,0:0:0:0:
48,92,19412,6,0,L|48:284,1,180,4|0,0:0|0:0,0:0:0:0:
212,224,19912,1,0,0:0:0:0:
84,308,20079,2,0,L|176:320,1,90
324,220,20412,1,0,0:0:0:0:
432,324,20579,2,0,L|432:276,1,45
432,128,20746,6,0,P|360:92|340:88,1,90
192,48,21079,1,0,0:0:0:0:
92,176,21246,1,0,0:0:0:0:
92,176,21329,1,0,0:0:0:0:
92,176,21413,2,0,L|128:268,1,90
244,340,21746,2,0,L|208:248,1,90
172,92,22079,6,0,P|224:80|360:84,1,180,4|0,0:0|0:0,0:0:0:0:
308,192,22579,1,0,0:0:0:0:
436,144,22746,1,0,0:0:0:0:
336,264,22912,1,0,0:0:0:0:
468,212,23079,1,0,0:0:0:0:
352,340,23246,1,0,0:0:0:0:
352,340,23329,5,0,0:0:0:0:
352,340,23412,2,0,P|300:344|244:336,1,90
208,248,23746,2,0,P|156:244|112:252,1,90
40,184,24079,6,0,L|64:140,1,45
124,72,24246,1,0,0:0:0:0:
152,60,24329,1,0,0:0:0:0:
184,64,24412,1,0,0:0:0:0:
212,80,24496,1,0,0:0:0:0:
244,88,24579,1,0,0:0:0:0:
276,84,24662,1,0,0:0:0:0:
304,76,24746,2,0,P|376:92|452:176,1,180,4|0,0:0|0:0,0:0:0:0:
447,166,25246,5,0,0:0:0:0:
440,280,25412,2,0,L|332:296,1,90
220,212,25746,2,0,L|328:200,1,90
176,308,26079,2,0,P|132:268|104:144,1,180
168,56,26579,2,0,P|216:48|280:52,1,90
228,140,26912,1,0,0:0:0:0:
228,140,27079,1,0,0:0:0:0:
412,140,27245,5,0,0:0:0:0:
412,140,27329,1,0,0:0:0:0:
412,140,27412,2,0,B|368:156|368:156|316:216|316:216|264:240,1,180,4|0,0:0|0:0,0:0:0:0:
96,248,27912,5,0,0:0:0:0:
183,270,28079,2,0,L|91:246,1,90
136,336,28412,2,0,L|228:364,1,90
368,328,28746,2,0,P|400:280|412:236,1,90
416,60,29079,5,0,0:0:0:0:
268,108,29246,1,0,0:0:0:0:
384,192,29412,1,0,0:0:0:0:
240,108,29579,1,0,0:0:0:0:
416,28,29746,1,0,0:0:0:0:
304,140,29912,1,0,0:0:0:0:
288,160,29996,1,0,0:0:0:0:
276,176,30079,6,0,L|276:280,1,90,6|0,0:0|0:0,0:0:0:0:
356,288,30579,1,0,0:0:0:0:
188,176,30746,6,0,L|188:336,1,144,2|0,0:0|0:0,0:0:0:0:
356,288,31246,1,0,0:0:0:0:
96,172,31412,6,0,L|96:380,1,198.000006042481,2|0,0:0|0:0,0:0:0:0:
256,96,31912,1,0,0:0:0:0:
256,96,32079,6,0,P|316:84|368:100,2,99.0000030212403
352,288,32579,1,0,0:0:0:0:
96,172,32746,6,0,L|96:380,1,198.000006042481,6|0,0:0|0:0,0:0:0:0:
352,288,33246,1,0,0:0:0:0:
188,176,33412,6,0,L|188:336,1,144,2|0,0:0|0:0,0:0:0:0:
352,288,33912,1,0,0:0:0:0:
276,176,34079,6,0,L|276:280,1,90,2|0,0:0|0:0,0:0:0:0:
436,132,34579,1,0,0:0:0:0:
436,132,34663,1,0,0:0:0:0:
436,132,34746,1,0,0:0:0:0:
256,48,34912,1,0,0:0:0:0:
116,104,35079,2,0,L|244:188,1,135
216,220,35412,6,0,L|48:116,1,180,4|0,0:0|0:0,0:0:0:0:
56,232,35912,1,0,0:0:0:0:
56,232,36079,2,0,P|88:276|128:292,1,90
256,192,36412,2,0,L|256:92,1,90
128,264,36746,1,0,0:0:0:0:
256,344,36912,1,0,0:0:0:0:
408,260,37079,6,0,P|456:220|480:188,1,90
464,44,37412,2,0,P|416:84|392:116,1,90
304,200,37746,1,0,0:0:0:0:
252,68,37912,1,0,0:0:0:0:
252,68,37996,1,0,0:0:0:0:
252,68,38079,6,0,P|192:68|128:168,1,180,4|0,0:0|0:0,0:0:0:0:
284,200,38579,1,0,0:0:0:0:
236,312,38745,2,0,L|156:252,1,90
308,258,39079,2,0,L|228:318,1,90
380,312,39412,2,0,L|300:252,1,90
440,192,39746,5,0,0:0:0:0:
288,128,39912,1,0,0:0:0:0:
436,4,40079,1,0,0:0:0:0:
272,96,40246,2,0,P|220:100|180:88,1,90
164,168,40579,1,0,0:0:0:0:
176,180,40662,1,0,0:0:0:0:
188,192,40746,6,0,L|288:192,1,90,6|0,0:0|0:0,0:0:0:0:
452,76,41246,1,0,0:0:0:0:
452,152,41412,6,0,L|452:300,1,144,2|0,0:0|0:0,0:0:0:0:
324,316,41912,1,0,0:0:0:0:
252,316,42079,6,0,L|52:316,1,198.000006042481,2|0,0:0|0:0,0:0:0:0:
148,176,42579,1,0,0:0:0:0:
148,176,42746,6,0,P|188:128|244:112,2,99.0000030212403,2|0|0,0:0|0:0|0:0,0:0:0:0:
56,320,43246,1,0,0:0:0:0:
128,320,43412,6,0,L|336:320,1,198.000006042481,6|0,0:0|0:0,0:0:0:0:
456,300,43912,1,0,0:0:0:0:
456,228,44079,6,0,L|456:84,1,144,2|0,0:0|0:0,0:0:0:0:
280,192,44579,1,0,0:0:0:0:
280,192,44662,1,0,0:0:0:0:
280,192,44746,6,0,B|240:192|160:192,1,108,4|0,0:0|0:0,0:0:0:0:
92,192,45079,2,0,P|48:152|108:88,1,148.50000453186,4|0,0:0|0:0,0:0:0:0:
168,84,45412,2,0,L|280:84,1,108,4|0,0:0|0:0,0:0:0:0:
348,88,45746,2,0,B|348:112|348:112|316:172,1,90,4|0,0:0|0:0,0:0:0:0:
108,264,46579,5,0,0:0:0:0:
108,264,46746,2,0,P|160:284|200:292,1,90
252,340,47246,1,0,0:0:0:0:
252,340,47412,1,0,0:0:0:0:
400,268,47913,1,0,0:0:0:0:
400,268,48079,6,0,P|400:208|372:172,1,90
256,88,48579,1,0,0:0:0:0:
256,88,48662,1,0,0:0:0:0:
256,88,48746,1,4,0:0:0:0:
104,108,49246,2,0,P|80:140|72:192,1,90
256,192,49746,1,0,0:0:0:0:
376,76,49912,1,0,0:0:0:0:
376,76,49996,5,0,0:0:0:0:
376,76,50079,2,0,L|376:156,1,67.5000025749208,4|0,0:0|0:0,0:0:0:0:
376,216,50412,2,0,L|376:136,1,67.5000025749208
276,76,50746,2,0,L|276:156,1,67.5000025749208,4|0,0:0|0:0,0:0:0:0:
276,156,50996,1,0,0:0:0:0:
276,176,51079,1,0,0:0:0:0:
276,304,51246,5,0,0:0:0:0:
144,300,51412,2,0,L|84:244,1,67.5000025749208,4|0,0:0|0:0,0:0:0:0:
124,164,51746,2,0,L|180:212,1,67.5000025749208
304,288,52079,2,0,P|340:280|384:256,1,67.5000025749208
400,124,52412,1,0,0:0:0:0:
208,64,52579,1,0,0:0:0:0:
192,76,52662,1,0,0:0:0:0:
180,84,52746,6,0,P|216:116|248:132,1,67.5000025749208
436,128,53079,2,0,P|400:96|352:68,1,90
164,100,53412,2,0,P|200:132|264:156,1,112.5
452,112,53746,2,0,P|416:80|336:40,1,135.000005149842
112,48,54079,5,12,0:0:0:0:
128,64,54246,1,0,0:0:0:0:
96,192,54412,1,0,0:0:0:0:
80,212,54579,1,8,0:0:0:0:
152,312,54746,1,0,0:0:0:0:
168,328,54913,1,0,0:0:0:0:
336,240,55079,5,8,0:0:0:0:
392,304,55246,1,0,0:0:0:0:
256,160,55412,1,12,0:0:0:0:
192,216,55579,1,0,0:0:0:0:
336,44,55746,1,0,0:0:0:0:
408,96,55912,1,8,0:0:0:0:
324,288,56079,5,0,0:0:0:0:
252,72,56246,1,0,0:0:0:0:
168,292,56412,1,8,0:0:0:0:
364,176,56579,1,0,0:0:0:0:
128,176,56746,1,12,0:0:0:0:
256,332,56912,5,0,0:0:0:0:
388,84,57079,1,0,0:0:0:0:
128,84,57246,1,8,0:0:0:0:
388,192,57412,1,0,0:0:0:0:
128,60,57579,1,0,0:0:0:0:
128,312,57746,1,8,0:0:0:0:
360,300,57912,5,8,0:0:0:0:
212,152,58079,1,8,0:0:0:0:
284,232,58246,1,8,0:0:0:0:
144,84,58412,1,8,0:0:0:0:
356,64,58746,6,0,P|424:48|412:132,1,161.999995056153
376,180,59412,6,0,L|296:232,1,90
120,248,59746,1,4,0:0:0:0:
256,96,59912,1,0,0:0:0:0:
256,96,59996,1,0,0:0:0:0:
256,96,60079,1,0,0:0:0:0:
340,280,60246,1,0,0:0:0:0:
120,248,60412,1,0,0:0:0:0:
312,192,60579,1,0,0:0:0:0:
120,128,60746,6,0,P|136:72|176:48,1,90
348,44,61079,1,0,0:0:0:0:
452,196,61246,1,0,0:0:0:0:
452,196,61329,1,0,0:0:0:0:
452,196,61412,1,0,0:0:0:0:
316,264,61579,1,0,0:0:0:0:
116,260,61746,2,0,P|172:244|224:260,1,90
40,272,62079,6,0,P|48:188|128:108,1,180,4|0,0:0|0:0,0:0:0:0:
256,188,62579,1,0,0:0:0:0:
320,40,62746,6,0,P|404:48|484:128,1,180,4|0,0:0|0:0,0:0:0:0:
256,188,63246,1,0,0:0:0:0:
472,248,63412,6,0,P|452:296|416:320,1,90,4|0,0:0|0:0,0:0:0:0:
252,308,63746,1,0,0:0:0:0:
368,192,63912,1,0,0:0:0:0:
256,68,64079,2,0,L|256:168,1,90
252,240,64412,2,0,P|208:280|148:296,1,120,4|0,0:0|0:0,0:0:0:0:
44,208,64746,5,8,0:0:0:0:
120,168,64857,1,0,0:0:0:0:
52,208,64968,5,0,0:0:0:0:
104,168,65079,1,8,0:0:0:0:
60,208,65189,5,0,0:0:0:0:
88,168,65301,1,0,0:0:0:0:
68,208,65413,5,8,0:0:0:0:
72,168,65524,1,0,0:0:0:0:
80,208,65635,5,0,0:0:0:0:
56,168,65746,1,8,0:0:0:0:
92,208,65857,5,0,0:0:0:0:
40,168,65968,1,0,0:0:0:0:
96,264,66079,2,0,P|112:292|248:344,1,180
420,252,66635,1,0,0:0:0:0:
420,252,66746,2,0,P|404:192|364:136,1,120
252,152,67079,2,0,P|288:172|332:248,1,120
256,312,67412,5,8,0:0:0:0:
192,356,67524,2,0,L|152:304,1,60
76,192,67746,1,8,0:0:0:0:
152,180,67857,2,0,L|140:244,1,60
116,352,68079,1,8,0:0:0:0:
56,308,68190,2,0,L|112:264,1,60
220,228,68412,6,0,P|264:196|296:152,1,90
256,48,68746,2,0,P|204:56|92:120,1,180
84,296,69246,1,0,0:0:0:0:
260,312,69412,5,8,0:0:0:0:
280,300,69496,1,8,0:0:0:0:
292,312,69579,1,8,0:0:0:0:
312,300,69662,1,8,0:0:0:0:
328,312,69746,1,8,0:0:0:0:
344,300,69829,1,8,0:0:0:0:
360,312,69912,1,8,0:0:0:0:
376,300,69996,1,8,0:0:0:0:
392,312,70079,6,0,P|428:268|424:144,1,180,4|0,0:0|0:0,0:0:0:0:
256,192,70579,1,0,0:0:0:0:
208,56,70746,6,0,P|92:116|72:176,1,180
256,192,71246,1,0,0:0:0:0:
256,192,71329,1,0,0:0:0:0:
256,192,71412,1,4,0:0:0:0:
128,304,71579,2,0,L|116:208,1,90
208,264,71912,2,0,L|220:364,1,90
332,236,72246,5,0,0:0:0:0:
428,332,72412,1,0,0:0:0:0:
332,236,72579,2,0,P|272:188|256:156,1,90,0|4,0:0|0:0,0:0:0:0:
256,24,72912,5,0,0:0:0:0:
180,192,73079,1,0,0:0:0:0:
352,96,73246,1,0,0:0:0:0:
156,96,73412,1,4,0:0:0:0:
324,192,73579,1,0,0:0:0:0:
312,316,73746,1,0,0:0:0:0:
96,304,73912,1,0,0:0:0:0:
96,304,74079,6,0,P|80:244|88:200,1,90,4|0,0:0|0:0,0:0:0:0:
200,44,74413,1,0,0:0:0:0:
152,192,74579,1,0,0:0:0:0:
276,104,74746,1,0,0:0:0:0:
120,104,74912,1,0,0:0:0:0:
256,192,75079,2,0,P|312:192|352:176,1,90
296,120,75412,6,8,B|284:84|284:84|300:48,2,75
432,192,75746,6,8,B|444:228|444:228|428:264,2,75
344,192,76079,2,0,P|332:224|344:352,1,161.999995056153
256,300,76635,5,0,0:0:0:0:
256,300,76746,6,8,B|216:300|216:300|176:280,2,75
404,264,77079,2,8,B|444:264|444:264|484:284,2,75
342,348,77412,2,0,P|332:300|348:184,1,161.999995056153
408,84,77968,5,0,0:0:0:0:
392,60,78079,2,0,P|348:48|232:60,1,161.999995056153,4|0,0:0|0:0,0:0:0:0:
88,192,78579,1,0,0:0:0:0:
252,128,78746,1,0,0:0:0:0:
164,252,78912,1,0,0:0:0:0:
144,96,79079,1,0,0:0:0:0:
244,208,79246,1,0,0:0:0:0:
132,284,79412,6,0,P|160:324|204:340,1,80.9999975280763
312,332,79746,2,0,P|288:292|244:272,1,80.9999975280763
108,196,80079,1,0,0:0:0:0:
208,88,80246,5,0,0:0:0:0:
232,76,80329,1,0,0:0:0:0:
260,72,80412,1,0,0:0:0:0:
288,80,80496,1,0,0:0:0:0:
316,88,80579,1,0,0:0:0:0:
348,84,80662,1,0,0:0:0:0:
376,68,80746,1,4,0:0:0:0:
460,144,80912,6,0,P|432:188|396:220,1,80.9999975280763
256,232,81246,2,0,P|284:184|320:156,1,80.9999975280763
312,300,81579,1,0,0:0:0:0:
176,272,81746,1,0,0:0:0:0:
128,112,81912,2,0,P|76:144|60:172,1,80.9999975280763
204,160,82246,1,0,0:0:0:0:
152,28,82412,1,0,0:0:0:0:
256,36,82579,6,0,P|300:40|344:56,1,80.9999975280763
432,128,82912,1,0,0:0:0:0:
432,128,83079,1,0,0:0:0:0:
436,240,83246,2,0,P|416:288|384:308,1,80.9999975280763,0|4,0:0|0:0,0:0:0:0:
364,312,83496,5,0,0:0:0:0:
336,312,83579,1,0,0:0:0:0:
304,304,83662,1,0,0:0:0:0:
276,288,83746,1,0,0:0:0:0:
256,264,83829,1,0,0:0:0:0:
232,248,83912,1,0,0:0:0:0:
200,248,83996,5,0,0:0:0:0:
172,240,84079,1,0,0:0:0:0:
148,216,84162,1,0,0:0:0:0:
136,184,84246,1,0,0:0:0:0:
136,152,84329,1,0,0:0:0:0:
148,124,84412,1,0,0:0:0:0:
168,100,84496,5,0,0:0:0:0:
196,84,84579,1,0,0:0:0:0:
224,80,84662,1,0,0:0:0:0:
256,80,84746,1,0,0:0:0:0:
284,72,84829,1,0,0:0:0:0:
308,56,84912,1,0,0:0:0:0:
332,40,84996,5,0,0:0:0:0:
364,40,85079,1,0,0:0:0:0:
392,56,85162,1,0,0:0:0:0:
420,76,85246,1,0,0:0:0:0:
436,104,85329,1,0,0:0:0:0:
440,136,85412,1,0,0:0:0:0:
440,164,85496,6,0,L|440:204,3,40.4999987640381
368,188,85829,2,0,L|368:228,3,40.4999987640381,0|0|0|4,0:0|0:0|0:0|0:0,0:0:0:0:
