osu file format v14

[General]
AudioFilename: FUBUKI.mp3
AudioLeadIn: 0
PreviewTime: 58662
Countdown: 0
SampleSet: Normal
StackLeniency: 0.7
Mode: 1
LetterboxInBreaks: 0
WidescreenStoryboard: 0

[Editor]
Bookmarks: 35412
DistanceSpacing: 0.1
BeatDivisor: 4
GridSize: 32
TimelineZoom: 2.1

[Metadata]
Title:FUBUKI
TitleUnicode:吹雪
Artist:Shiena Nishizawa
ArtistUnicode:西沢幸奏
Creator:Nardoxyribonucleic
Version:yzrin's Oni
Source:艦隊これくしょん -艦これ-
Tags:Taiko Kantai Collection -KanColle- Ending TV Size yuzu__rinrin
BeatmapID:1549619
BeatmapSetID:729605

[Difficulty]
HPDrainRate:6
CircleSize:2
OverallDifficulty:5
ApproachRate:10
SliderMultiplier:1.4
SliderTickRate:1

[Events]
//Background and Video events
0,0,"Fubuki.jpg",0,0
//Break Periods
//Storyboard Layer 0 (Background)
//Storyboard Layer 1 (Fail)
//Storyboard Layer 2 (Pass)
//Storyboard Layer 3 (Foreground)
//Storyboard Sound Samples

[TimingPoints]
-587,333.333333333333,4,1,0,70,1,0
14079,-100,4,1,0,90,0,0
24746,-100,4,1,0,80,0,0
46079,-100,4,1,0,60,0,0
46579,-125,4,1,0,60,0,0
50079,-111.111111111111,4,1,0,60,0,0
51412,-100,4,1,0,80,0,0
59412,-100,4,1,0,90,0,1
75412,-100,4,1,0,90,0,0

[HitObjects]
256,192,79,5,0,0:0:0:0:
256,192,746,1,12,0:0:0:0:
256,192,1412,1,8,0:0:0:0:
256,192,2079,1,0,0:0:0:0:
256,192,2746,1,0,0:0:0:0:
256,192,3246,1,0,0:0:0:0:
256,192,3412,1,8,0:0:0:0:
256,192,4079,1,8,0:0:0:0:
256,192,4579,1,8,0:0:0:0:
256,192,4746,1,0,0:0:0:0:
256,192,5746,1,8,0:0:0:0:
256,192,6079,1,0,0:0:0:0:
256,192,6301,1,0,0:0:0:0:
256,192,6412,1,8,0:0:0:0:
256,192,6524,1,0,0:0:0:0:
256,192,6635,1,0,0:0:0:0:
256,192,6746,1,8,0:0:0:0:
256,192,6968,1,0,0:0:0:0:
256,192,7079,1,8,0:0:0:0:
256,192,7301,1,8,0:0:0:0:
256,192,7412,1,0,0:0:0:0:
256,192,7746,1,0,0:0:0:0:
256,192,7968,1,0,0:0:0:0:
256,192,8079,1,8,0:0:0:0:
256,192,8412,1,8,0:0:0:0:
256,192,8635,1,8,0:0:0:0:
256,192,8746,1,0,0:0:0:0:
256,192,8968,1,0,0:0:0:0:
256,192,9079,1,8,0:0:0:0:
256,192,9190,1,8,0:0:0:0:
256,192,9301,1,0,0:0:0:0:
256,192,9412,1,8,0:0:0:0:
256,192,9635,1,0,0:0:0:0:
256,192,9746,1,8,0:0:0:0:
256,192,9968,1,8,0:0:0:0:
256,192,10079,1,0,0:0:0:0:
256,192,10412,1,8,0:0:0:0:
256,192,10635,1,8,0:0:0:0:
256,192,10746,1,0,0:0:0:0:
256,192,11079,1,0,0:0:0:0:
256,192,11301,1,0,0:0:0:0:
256,192,11412,1,8,0:0:0:0:
256,192,12746,1,8,0:0:0:0:
256,192,12829,1,8,0:0:0:0:
256,192,12912,1,0,0:0:0:0:
256,192,12996,1,0,0:0:0:0:
256,192,13079,1,8,0:0:0:0:
256,192,13246,1,0,0:0:0:0:
256,192,13329,1,0,0:0:0:0:
256,192,13412,1,8,0:0:0:0:
256,192,13579,1,0,0:0:0:0:
256,192,13662,1,0,0:0:0:0:
256,192,13746,1,8,0:0:0:0:
256,192,13829,1,8,0:0:0:0:
256,192,13912,1,0,0:0:0:0:
256,192,14079,1,4,0:0:0:0:
256,192,14412,1,8,0:0:0:0:
256,192,14579,1,0,0:0:0:0:
256,192,14662,1,0,0:0:0:0:
256,192,14746,1,8,0:0:0:0:
256,192,14912,1,0,0:0:0:0:
256,192,15079,1,8,0:0:0:0:
256,192,15246,1,0,0:0:0:0:
256,192,15329,1,8,0:0:0:0:
256,192,15412,1,8,0:0:0:0:
256,192,15579,1,0,0:0:0:0:
256,192,15746,1,8,0:0:0:0:
256,192,15912,1,8,0:0:0:0:
256,192,15996,1,8,0:0:0:0:
256,192,16079,1,0,0:0:0:0:
256,192,16246,1,0,0:0:0:0:
256,192,16412,1,8,0:0:0:0:
256,192,16746,1,0,0:0:0:0:
256,192,17079,1,8,0:0:0:0:
256,192,17246,1,0,0:0:0:0:
256,192,17329,1,0,0:0:0:0:
256,192,17412,1,8,0:0:0:0:
256,192,17579,1,0,0:0:0:0:
256,192,17746,1,8,0:0:0:0:
256,192,17912,1,0,0:0:0:0:
256,192,17996,1,8,0:0:0:0:
256,192,18079,1,8,0:0:0:0:
256,192,18246,1,0,0:0:0:0:
256,192,18412,1,8,0:0:0:0:
256,192,18579,1,0,0:0:0:0:
256,192,18662,1,8,0:0:0:0:
256,192,18746,1,0,0:0:0:0:
256,192,18912,1,0,0:0:0:0:
256,192,19079,1,8,0:0:0:0:
256,192,19412,1,12,0:0:0:0:
256,192,19746,1,0,0:0:0:0:
256,192,19912,1,0,0:0:0:0:
256,192,19996,1,0,0:0:0:0:
256,192,20079,1,8,0:0:0:0:
256,192,20246,1,0,0:0:0:0:
256,192,20412,1,8,0:0:0:0:
256,192,20579,1,0,0:0:0:0:
256,192,20662,1,8,0:0:0:0:
256,192,20746,1,8,0:0:0:0:
256,192,20912,1,0,0:0:0:0:
256,192,21079,1,8,0:0:0:0:
256,192,21246,1,8,0:0:0:0:
256,192,21329,1,8,0:0:0:0:
256,192,21412,1,0,0:0:0:0:
256,192,21579,1,0,0:0:0:0:
256,192,21746,1,8,0:0:0:0:
256,192,22079,1,0,0:0:0:0:
256,192,22412,1,8,0:0:0:0:
256,192,22579,1,0,0:0:0:0:
256,192,22662,1,0,0:0:0:0:
256,192,22746,1,8,0:0:0:0:
256,192,22912,1,0,0:0:0:0:
256,192,23079,1,8,0:0:0:0:
256,192,23246,1,0,0:0:0:0:
256,192,23329,1,8,0:0:0:0:
256,192,23412,1,8,0:0:0:0:
256,192,23662,1,8,0:0:0:0:
256,192,23746,1,0,0:0:0:0:
256,192,23912,1,8,0:0:0:0:
256,192,24079,1,0,0:0:0:0:
256,192,24246,1,0,0:0:0:0:
256,192,24329,1,0,0:0:0:0:
256,192,24412,1,8,0:0:0:0:
256,192,24579,1,8,0:0:0:0:
256,192,24746,1,4,0:0:0:0:
256,192,25079,1,8,0:0:0:0:
256,192,25412,1,0,0:0:0:0:
256,192,25579,1,0,0:0:0:0:
256,192,25746,1,8,0:0:0:0:
256,192,25912,1,0,0:0:0:0:
256,192,26079,1,8,0:0:0:0:
256,192,26412,1,8,0:0:0:0:
256,192,26579,1,0,0:0:0:0:
256,192,26746,1,0,0:0:0:0:
256,192,26912,1,0,0:0:0:0:
256,192,27079,1,8,0:0:0:0:
256,192,27246,1,8,0:0:0:0:
256,192,27412,1,0,0:0:0:0:
256,192,27746,1,8,0:0:0:0:
256,192,28079,1,0,0:0:0:0:
256,192,28246,1,0,0:0:0:0:
256,192,28412,1,8,0:0:0:0:
256,192,28746,1,0,0:0:0:0:
256,192,29079,1,8,0:0:0:0:
256,192,29412,1,0,0:0:0:0:
256,192,29579,1,0,0:0:0:0:
256,192,29746,1,8,0:0:0:0:
256,192,29912,1,8,0:0:0:0:
256,192,30079,1,0,0:0:0:0:
256,192,30412,1,8,0:0:0:0:
256,192,30579,1,0,0:0:0:0:
256,192,30746,1,0,0:0:0:0:
256,192,31079,1,8,0:0:0:0:
256,192,31246,1,0,0:0:0:0:
256,192,31329,1,0,0:0:0:0:
256,192,31412,1,0,0:0:0:0:
256,192,31746,1,8,0:0:0:0:
256,192,31912,1,8,0:0:0:0:
256,192,32079,1,0,0:0:0:0:
256,192,32246,1,0,0:0:0:0:
256,192,32412,1,8,0:0:0:0:
256,192,32746,1,0,0:0:0:0:
256,192,33079,1,8,0:0:0:0:
256,192,33246,1,0,0:0:0:0:
256,192,33412,1,0,0:0:0:0:
256,192,33579,1,0,0:0:0:0:
256,192,33746,1,8,0:0:0:0:
256,192,33912,1,0,0:0:0:0:
256,192,33996,1,0,0:0:0:0:
256,192,34079,1,0,0:0:0:0:
256,192,34412,1,8,0:0:0:0:
256,192,34579,1,8,0:0:0:0:
256,192,34746,1,0,0:0:0:0:
256,192,34912,1,0,0:0:0:0:
256,192,35079,1,8,0:0:0:0:
256,192,35412,1,4,0:0:0:0:
256,192,35746,1,8,0:0:0:0:
256,192,36079,1,0,0:0:0:0:
256,192,36246,1,0,0:0:0:0:
256,192,36412,1,8,0:0:0:0:
256,192,36579,1,0,0:0:0:0:
256,192,36746,1,8,0:0:0:0:
256,192,37079,1,8,0:0:0:0:
256,192,37246,1,0,0:0:0:0:
256,192,37329,1,0,0:0:0:0:
256,192,37412,1,0,0:0:0:0:
256,192,37579,1,0,0:0:0:0:
256,192,37746,1,8,0:0:0:0:
256,192,37912,1,8,0:0:0:0:
256,192,38079,1,0,0:0:0:0:
256,192,38412,1,8,0:0:0:0:
256,192,38746,1,0,0:0:0:0:
256,192,38912,1,0,0:0:0:0:
256,192,39079,1,8,0:0:0:0:
256,192,39246,1,0,0:0:0:0:
256,192,39412,1,8,0:0:0:0:
256,192,39746,1,8,0:0:0:0:
256,192,39912,1,8,0:0:0:0:
256,192,40079,1,0,0:0:0:0:
256,192,40246,1,0,0:0:0:0:
256,192,40329,1,0,0:0:0:0:
256,192,40412,1,8,0:0:0:0:
256,192,40579,1,8,0:0:0:0:
256,192,40746,1,0,0:0:0:0:
256,192,41079,1,8,0:0:0:0:
256,192,41246,1,0,0:0:0:0:
256,192,41412,1,8,0:0:0:0:
256,192,41746,1,8,0:0:0:0:
256,192,41912,1,0,0:0:0:0:
256,192,41996,1,0,0:0:0:0:
256,192,42079,1,8,0:0:0:0:
256,192,42412,1,8,0:0:0:0:
256,192,42579,1,8,0:0:0:0:
256,192,42746,1,0,0:0:0:0:
256,192,42912,1,0,0:0:0:0:
256,192,43079,1,8,0:0:0:0:
256,192,43162,1,8,0:0:0:0:
256,192,43246,1,8,0:0:0:0:
256,192,43329,1,8,0:0:0:0:
256,192,43412,1,0,0:0:0:0:
256,192,43579,1,0,0:0:0:0:
256,192,43746,1,8,0:0:0:0:
256,192,44079,1,0,0:0:0:0:
256,192,44246,1,0,0:0:0:0:
256,192,44412,1,8,0:0:0:0:
256,192,44579,1,0,0:0:0:0:
256,192,44662,1,0,0:0:0:0:
256,192,44746,1,8,0:0:0:0:
256,192,44996,1,8,0:0:0:0:
256,192,45079,1,0,0:0:0:0:
256,192,45246,1,8,0:0:0:0:
256,192,45412,1,0,0:0:0:0:
256,192,45579,1,0,0:0:0:0:
256,192,45662,1,0,0:0:0:0:
256,192,45746,1,8,0:0:0:0:
256,192,45912,1,8,0:0:0:0:
256,192,46079,1,4,0:0:0:0:
256,192,46746,1,8,0:0:0:0:
256,192,47412,1,0,0:0:0:0:
256,192,48746,1,0,0:0:0:0:
256,192,49412,1,0,0:0:0:0:
256,192,49746,1,0,0:0:0:0:
256,192,50079,1,8,0:0:0:0:
256,192,50412,1,0,0:0:0:0:
256,192,50746,1,8,0:0:0:0:
256,192,50912,1,0,0:0:0:0:
256,192,51079,1,8,0:0:0:0:
256,192,51412,1,4,0:0:0:0:
256,192,51746,1,8,0:0:0:0:
256,192,51912,1,0,0:0:0:0:
256,192,52079,1,0,0:0:0:0:
256,192,52412,1,8,0:0:0:0:
256,192,52579,1,8,0:0:0:0:
256,192,52746,1,0,0:0:0:0:
256,192,52912,1,0,0:0:0:0:
256,192,53079,1,8,0:0:0:0:
256,192,53412,1,0,0:0:0:0:
256,192,53746,1,0,0:0:0:0:
256,192,53912,1,0,0:0:0:0:
256,192,54079,1,12,0:0:0:0:
256,192,54412,1,0,0:0:0:0:
256,192,54579,1,8,0:0:0:0:
256,192,54912,1,8,0:0:0:0:
256,192,55079,1,0,0:0:0:0:
256,192,55246,1,0,0:0:0:0:
256,192,55412,1,12,0:0:0:0:
256,192,55746,1,0,0:0:0:0:
256,192,55912,1,0,0:0:0:0:
256,192,56246,1,0,0:0:0:0:
256,192,56412,1,8,0:0:0:0:
256,192,56579,1,0,0:0:0:0:
256,192,56746,1,12,0:0:0:0:
256,192,57079,1,8,0:0:0:0:
256,192,57246,1,0,0:0:0:0:
256,192,57412,1,8,0:0:0:0:
256,192,57496,1,8,0:0:0:0:
256,192,57579,1,0,0:0:0:0:
256,192,57662,1,0,0:0:0:0:
256,192,57746,1,8,0:0:0:0:
256,192,57912,1,0,0:0:0:0:
256,192,58079,1,12,0:0:0:0:
256,192,58246,1,12,0:0:0:0:
256,192,58412,1,12,0:0:0:0:
256,192,58746,1,0,0:0:0:0:
256,192,59246,1,0,0:0:0:0:
256,192,59412,1,12,0:0:0:0:
256,192,59746,1,8,0:0:0:0:
256,192,59912,1,0,0:0:0:0:
256,192,59996,1,0,0:0:0:0:
256,192,60079,1,8,0:0:0:0:
256,192,60246,1,0,0:0:0:0:
256,192,60412,1,8,0:0:0:0:
256,192,60579,1,8,0:0:0:0:
256,192,60662,1,8,0:0:0:0:
256,192,60746,1,0,0:0:0:0:
256,192,60912,1,0,0:0:0:0:
256,192,61079,1,8,0:0:0:0:
256,192,61412,1,8,0:0:0:0:
256,192,61579,1,0,0:0:0:0:
256,192,61662,1,0,0:0:0:0:
256,192,61746,1,0,0:0:0:0:
256,192,61912,1,0,0:0:0:0:
256,192,62079,1,8,0:0:0:0:
256,192,62162,1,8,0:0:0:0:
256,192,62246,1,8,0:0:0:0:
256,192,62329,1,8,0:0:0:0:
256,192,62412,1,0,0:0:0:0:
256,192,62579,1,0,0:0:0:0:
256,192,62746,1,8,0:0:0:0:
256,192,62829,1,8,0:0:0:0:
256,192,62912,1,0,0:0:0:0:
256,192,62996,1,0,0:0:0:0:
256,192,63079,1,8,0:0:0:0:
256,192,63246,1,8,0:0:0:0:
256,192,63412,1,0,0:0:0:0:
256,192,63579,1,0,0:0:0:0:
256,192,63662,1,0,0:0:0:0:
256,192,63746,1,8,0:0:0:0:
256,192,63912,1,8,0:0:0:0:
256,192,64079,1,0,0:0:0:0:
256,192,64162,1,8,0:0:0:0:
256,192,64246,1,0,0:0:0:0:
256,192,64412,1,8,0:0:0:0:
256,192,64635,1,8,0:0:0:0:
256,192,64746,1,0,0:0:0:0:
256,192,64968,1,8,0:0:0:0:
256,192,65079,1,0,0:0:0:0:
256,192,65190,1,0,0:0:0:0:
256,192,65301,1,0,0:0:0:0:
256,192,65412,1,8,0:0:0:0:
256,192,65635,1,8,0:0:0:0:
256,192,65746,1,0,0:0:0:0:
256,192,65857,1,8,0:0:0:0:
256,192,65968,1,8,0:0:0:0:
256,192,66079,1,0,0:0:0:0:
256,192,66412,1,8,0:0:0:0:
256,192,66635,1,0,0:0:0:0:
256,192,66746,1,8,0:0:0:0:
256,192,66968,1,8,0:0:0:0:
256,192,67079,1,0,0:0:0:0:
256,192,67412,1,8,0:0:0:0:
256,192,67524,1,8,0:0:0:0:
256,192,67635,1,0,0:0:0:0:
256,192,67746,1,8,0:0:0:0:
256,192,67968,1,8,0:0:0:0:
256,192,68079,1,0,0:0:0:0:
256,192,68301,1,0,0:0:0:0:
256,192,68412,1,0,0:0:0:0:
256,192,68635,1,8,0:0:0:0:
256,192,68746,1,0,0:0:0:0:
256,192,69079,1,8,0:0:0:0:
256,192,69246,1,0,0:0:0:0:
256,192,69329,1,0,0:0:0:0:
256,192,69412,1,8,0:0:0:0:
256,192,69496,1,0,0:0:0:0:
256,192,69579,1,8,0:0:0:0:
256,192,69662,1,8,0:0:0:0:
256,192,69746,1,0,0:0:0:0:
256,192,69912,1,8,0:0:0:0:
256,192,70079,1,4,0:0:0:0:
256,192,70412,1,8,0:0:0:0:
256,192,70579,1,0,0:0:0:0:
256,192,70662,1,0,0:0:0:0:
256,192,70746,1,8,0:0:0:0:
256,192,70912,1,0,0:0:0:0:
256,192,71079,1,8,0:0:0:0:
256,192,71246,1,8,0:0:0:0:
256,192,71329,1,8,0:0:0:0:
256,192,71412,1,0,0:0:0:0:
256,192,71579,1,0,0:0:0:0:
256,192,71746,1,8,0:0:0:0:
256,192,72079,1,8,0:0:0:0:
256,192,72246,1,0,0:0:0:0:
256,192,72329,1,0,0:0:0:0:
256,192,72412,1,0,0:0:0:0:
256,192,72579,1,0,0:0:0:0:
256,192,72746,1,8,0:0:0:0:
256,192,72829,1,8,0:0:0:0:
256,192,72912,1,8,0:0:0:0:
256,192,72996,1,8,0:0:0:0:
256,192,73079,1,0,0:0:0:0:
256,192,73246,1,0,0:0:0:0:
256,192,73412,1,8,0:0:0:0:
256,192,73496,1,8,0:0:0:0:
256,192,73579,1,0,0:0:0:0:
256,192,73662,1,0,0:0:0:0:
256,192,73746,1,8,0:0:0:0:
256,192,73912,1,0,0:0:0:0:
256,192,74079,1,8,0:0:0:0:
256,192,74246,1,0,0:0:0:0:
256,192,74329,1,0,0:0:0:0:
256,192,74412,1,8,0:0:0:0:
256,192,74579,1,8,0:0:0:0:
256,192,74746,1,0,0:0:0:0:
256,192,74829,1,8,0:0:0:0:
256,192,74912,1,0,0:0:0:0:
256,192,75079,1,8,0:0:0:0:
256,192,75412,1,8,0:0:0:0:
256,192,75524,1,8,0:0:0:0:
256,192,75635,1,0,0:0:0:0:
256,192,75746,1,8,0:0:0:0:
256,192,75968,1,8,0:0:0:0:
256,192,76079,1,0,0:0:0:0:
256,192,76412,1,4,0:0:0:0:
256,192,76635,1,0,0:0:0:0:
256,192,76746,1,8,0:0:0:0:
256,192,76857,1,0,0:0:0:0:
256,192,76968,1,0,0:0:0:0:
256,192,77079,1,8,0:0:0:0:
256,192,77301,1,8,0:0:0:0:
256,192,77412,1,0,0:0:0:0:
256,192,77746,1,4,0:0:0:0:
256,192,77968,1,0,0:0:0:0:
256,192,78079,1,8,0:0:0:0:
256,192,78412,1,8,0:0:0:0:
256,192,78635,1,8,0:0:0:0:
256,192,78746,1,0,0:0:0:0:
256,192,78968,1,0,0:0:0:0:
256,192,79079,1,8,0:0:0:0:
256,192,79301,1,8,0:0:0:0:
256,192,79412,1,0,0:0:0:0:
256,192,79746,1,8,0:0:0:0:
256,192,80079,1,0,0:0:0:0:
256,192,80246,1,0,0:0:0:0:
256,192,80329,1,0,0:0:0:0:
256,192,80412,1,8,0:0:0:0:
256,192,80579,1,8,0:0:0:0:
256,192,80746,1,4,0:0:0:0:
256,192,81079,1,8,0:0:0:0:
256,192,81246,1,0,0:0:0:0:
256,192,81329,1,0,0:0:0:0:
256,192,81412,1,0,0:0:0:0:
256,192,81579,1,0,0:0:0:0:
256,192,81746,1,8,0:0:0:0:
256,192,81912,1,8,0:0:0:0:
256,192,81996,1,8,0:0:0:0:
256,192,82079,1,0,0:0:0:0:
256,192,82246,1,0,0:0:0:0:
256,192,82412,1,8,0:0:0:0:
256,192,82579,1,0,0:0:0:0:
256,192,82662,1,0,0:0:0:0:
256,192,82746,1,8,0:0:0:0:
256,192,82912,1,0,0:0:0:0:
256,192,82996,1,8,0:0:0:0:
256,192,83079,1,0,0:0:0:0:
256,192,83162,1,0,0:0:0:0:
256,192,83246,1,8,0:0:0:0:
256,192,83412,2,4,L|320:192,30,35
256,192,86079,1,12,0:0:0:0:
