osu file format v14

[General]
AudioFilename: FUBUKI.mp3
AudioLeadIn: 0
PreviewTime: 58662
Countdown: 0
SampleSet: Normal
StackLeniency: 0.7
Mode: 1
LetterboxInBreaks: 0
WidescreenStoryboard: 0

[Editor]
Bookmarks: 35412
DistanceSpacing: 0.8
BeatDivisor: 4
GridSize: 32
TimelineZoom: 1

[Metadata]
Title:FUBUKI
TitleUnicode:吹雪
Artist:Shiena Nishizawa
ArtistUnicode:西沢幸奏
Creator:Nardoxyribonucleic
Version:Kantan
Source:艦隊これくしょん -艦これ-
Tags:Taiko Kantai Collection -KanColle- Ending TV Size yuzu__rinrin
BeatmapID:1556694
BeatmapSetID:729605

[Difficulty]
HPDrainRate:7
CircleSize:5
OverallDifficulty:3
ApproachRate:3
SliderMultiplier:1.4
SliderTickRate:1

[Events]
//Background and Video events
0,0,"Fubuki.jpg",0,0
//Break Periods
//Storyboard Layer 0 (Background)
//Storyboard Layer 1 (Fail)
//Storyboard Layer 2 (Pass)
//Storyboard Layer 3 (Foreground)
//Storyboard Sound Samples

[TimingPoints]
-587,333.333333333333,4,1,0,70,1,0
14079,-100,4,1,0,90,0,0
24746,-100,4,1,0,80,0,0
46079,-100,4,1,0,60,0,0
46579,-125,4,1,0,60,0,0
50079,-111.111111111111,4,1,0,60,0,0
51412,-100,4,1,0,80,0,0
59412,-100,4,1,0,90,0,1
75412,-100,4,1,0,90,0,0

[HitObjects]
256,192,746,5,12,0:0:0:0:
256,192,3412,1,0,0:0:0:0:
256,192,4746,1,8,0:0:0:0:
256,192,6079,1,4,0:0:0:0:
256,192,6746,1,8,0:0:0:0:
256,192,7412,1,0,0:0:0:0:
256,192,7746,1,0,0:0:0:0:
256,192,8079,1,0,0:0:0:0:
256,192,8746,1,0,0:0:0:0:
256,192,9412,1,8,0:0:0:0:
256,192,9746,1,8,0:0:0:0:
256,192,10079,1,8,0:0:0:0:
256,192,11412,12,0,12579,0:0:0:0:
256,192,12746,5,0,0:0:0:0:
256,192,13412,1,0,0:0:0:0:
256,192,13746,1,8,0:0:0:0:
256,192,14079,1,4,0:0:0:0:
256,192,14746,1,8,0:0:0:0:
256,192,15412,1,0,0:0:0:0:
256,192,16079,1,8,0:0:0:0:
256,192,16412,1,8,0:0:0:0:
256,192,16746,1,0,0:0:0:0:
256,192,17412,1,8,0:0:0:0:
256,192,18079,1,0,0:0:0:0:
256,192,19412,1,12,0:0:0:0:
256,192,20079,1,0,0:0:0:0:
256,192,20746,1,8,0:0:0:0:
256,192,21412,1,0,0:0:0:0:
256,192,21746,1,0,0:0:0:0:
256,192,22079,1,8,0:0:0:0:
256,192,22746,1,0,0:0:0:0:
256,192,23412,1,8,0:0:0:0:
256,192,24079,1,0,0:0:0:0:
256,192,24412,1,8,0:0:0:0:
256,192,24746,1,4,0:0:0:0:
256,192,26079,1,0,0:0:0:0:
256,192,26746,1,8,0:0:0:0:
256,192,27079,1,8,0:0:0:0:
256,192,27412,1,0,0:0:0:0:
256,192,28079,1,0,0:0:0:0:
256,192,28746,1,8,0:0:0:0:
256,192,30079,1,0,0:0:0:0:
256,192,30746,1,8,0:0:0:0:
256,192,31412,1,0,0:0:0:0:
256,192,32079,1,0,0:0:0:0:
256,192,32412,1,8,0:0:0:0:
256,192,32746,1,0,0:0:0:0:
256,192,33412,1,8,0:0:0:0:
256,192,34079,1,0,0:0:0:0:
256,192,34412,1,0,0:0:0:0:
256,192,34746,1,8,0:0:0:0:
256,192,35412,1,4,0:0:0:0:
256,192,36746,1,0,0:0:0:0:
256,192,37412,1,8,0:0:0:0:
256,192,37746,1,8,0:0:0:0:
256,192,38079,1,0,0:0:0:0:
256,192,38746,1,8,0:0:0:0:
256,192,39412,1,0,0:0:0:0:
256,192,40746,1,0,0:0:0:0:
256,192,41412,1,8,0:0:0:0:
256,192,42079,1,0,0:0:0:0:
256,192,42746,1,0,0:0:0:0:
256,192,43079,1,8,0:0:0:0:
256,192,43412,1,0,0:0:0:0:
256,192,44079,1,0,0:0:0:0:
256,192,44746,1,8,0:0:0:0:
256,192,45412,1,0,0:0:0:0:
256,192,45746,1,8,0:0:0:0:
256,192,46079,1,12,0:0:0:0:
256,192,48746,1,0,0:0:0:0:
256,192,50079,1,8,0:0:0:0:
256,192,50746,1,8,0:0:0:0:
256,192,51412,1,4,0:0:0:0:
256,192,52412,1,8,0:0:0:0:
256,192,52746,1,0,0:0:0:0:
256,192,53412,1,8,0:0:0:0:
256,192,54079,1,12,0:0:0:0:
256,192,55079,1,0,0:0:0:0:
256,192,55412,1,12,0:0:0:0:
256,192,56412,1,0,0:0:0:0:
256,192,56746,1,12,0:0:0:0:
256,192,57412,1,0,0:0:0:0:
256,192,57746,1,0,0:0:0:0:
256,192,58079,1,12,0:0:0:0:
256,192,58412,1,12,0:0:0:0:
256,192,59412,1,12,0:0:0:0:
256,192,60079,1,8,0:0:0:0:
256,192,60746,1,0,0:0:0:0:
256,192,61412,1,0,0:0:0:0:
256,192,62079,1,8,0:0:0:0:
256,192,62746,1,8,0:0:0:0:
256,192,63079,1,8,0:0:0:0:
256,192,63412,1,0,0:0:0:0:
256,192,64412,1,8,0:0:0:0:
256,192,64746,1,4,0:0:0:0:
256,192,65412,1,8,0:0:0:0:
256,192,66079,1,4,0:0:0:0:
256,192,66746,1,8,0:0:0:0:
256,192,67079,1,0,0:0:0:0:
256,192,67412,1,12,0:0:0:0:
256,192,68079,1,4,0:0:0:0:
256,192,68746,1,0,0:0:0:0:
256,192,69079,1,8,0:0:0:0:
256,192,69412,1,0,0:0:0:0:
256,192,70079,1,12,0:0:0:0:
256,192,70746,1,8,0:0:0:0:
256,192,71412,1,0,0:0:0:0:
256,192,72079,1,0,0:0:0:0:
256,192,72746,1,8,0:0:0:0:
256,192,73412,1,8,0:0:0:0:
256,192,73746,1,0,0:0:0:0:
256,192,74079,1,8,0:0:0:0:
256,192,75079,1,12,0:0:0:0:
256,192,75412,1,0,0:0:0:0:
256,192,76079,1,8,0:0:0:0:
256,192,76746,1,8,0:0:0:0:
256,192,77412,1,0,0:0:0:0:
256,192,78079,1,4,0:0:0:0:
256,192,78746,1,0,0:0:0:0:
256,192,79412,1,8,0:0:0:0:
256,192,80079,1,0,0:0:0:0:
256,192,80412,1,8,0:0:0:0:
256,192,80746,1,12,0:0:0:0:
256,192,81746,1,8,0:0:0:0:
256,192,82079,1,4,0:0:0:0:
256,192,82746,1,0,0:0:0:0:
256,192,83412,2,4,L|320:192,32,35
