osu file format v14

[General]
AudioFilename: audio.mp3
AudioLeadIn: 0
PreviewTime: 213240
Countdown: 0
SampleSet: None
StackLeniency: 0.7
Mode: 3
LetterboxInBreaks: 0
SpecialStyle: 1
WidescreenStoryboard: 0

[Editor]
DistanceSpacing: 1.4
BeatDivisor: 4
GridSize: 4
TimelineZoom: 3.099999

[Metadata]
Title:FUBUKI
TitleUnicode:FUBUKI
Artist:Shiena Nishizawa
ArtistUnicode:Shiena Nishizawa
Creator:Locule
Version:7K Extra
Source:
Tags:
BeatmapID:1138896
BeatmapSetID:537451

[Difficulty]
HPDrainRate:7
CircleSize:7
OverallDifficulty:7
ApproachRate:5
SliderMultiplier:1.4
SliderTickRate:1

[Events]
//Background and Video events
0,0,"568389.jpg",0,0
//Break Periods
//Storyboard Layer 0 (Background)
//Storyboard Layer 1 (Fail)
//Storyboard Layer 2 (Pass)
//Storyboard Layer 3 (Foreground)
//Storyboard Sound Samples

[TimingPoints]
-93,333.333333333333,4,3,1,40,1,0
46573,-200,4,3,1,40,0,0
50573,-100,4,3,1,40,0,0
51573,-333.333333333333,4,3,1,40,0,0
51740,-133.333333333333,4,3,1,40,0,0
51823,-66.6666666666667,4,3,1,40,0,0
51906,-100,4,3,1,40,0,0
59906,-100,4,3,1,40,0,1
70490,-100,4,3,1,40,0,0
70573,-100,4,3,1,40,0,1
75906,-100,4,3,1,40,0,0
76573,-333.333333333333,4,3,1,40,0,0
76740,-133.333333333333,4,3,1,40,0,0
76823,-66.6666666666667,4,3,1,40,0,0
76906,-100,4,3,1,40,0,0
77906,-333.333333333333,4,3,1,40,0,0
78073,-133.333333333333,4,3,1,40,0,0
78156,-66.6666666666667,4,3,1,40,0,0
78240,-100,4,3,1,40,0,0
86573,-100,4,3,1,40,0,0
95906,-333.333333333333,4,3,1,40,0,0
96018,-133.333333333333,4,3,1,40,0,0
96073,-66.6666666666667,4,3,1,40,0,0
96129,-333.333333333333,4,3,1,40,0,0
96240,-133.333333333333,4,3,1,40,0,0
96295,-66.6666666666667,4,3,1,40,0,0
96351,-333.333333333333,4,3,1,40,0,0
96462,-133.333333333333,4,3,1,40,0,0
96518,-66.6666666666667,4,3,1,40,0,0
96573,-333.333333333333,4,3,1,40,0,0
96684,-133.333333333333,4,3,1,40,0,0
96740,-66.6666666666667,4,3,1,40,0,0
96795,-333.333333333333,4,3,1,40,0,0
96906,-133.333333333333,4,3,1,40,0,0
96962,-66.6666666666667,4,3,1,40,0,0
97018,-333.333333333333,4,3,1,40,0,0
97129,-133.333333333333,4,3,1,40,0,0
97184,-66.6666666666667,4,3,1,40,0,0
97240,-100,4,3,1,40,0,0
118573,-200,4,3,1,40,0,0
123573,-333.333333333333,4,3,1,40,0,0
123740,-133.333333333333,4,3,1,40,0,0
123823,-66.6666666666667,4,3,1,40,0,0
123906,-100,4,3,1,40,0,0
131906,-100,4,3,1,40,0,1
142490,-100,4,3,1,40,0,0
142573,-100,4,3,1,40,0,1
148573,-333.333333333333,4,3,1,40,0,0
148740,-133.333333333333,4,3,1,40,0,0
148823,-66.6666666666667,4,3,1,40,0,0
148906,-100,4,3,1,40,0,0
149906,-333.333333333333,4,3,1,40,0,0
150073,-133.333333333333,4,3,1,40,0,0
150156,-66.6666666666667,4,3,1,40,0,0
150240,-100,4,3,1,40,0,0
187906,-200,4,3,1,40,0,0
198406,-100,4,3,1,40,0,0
209240,-10,4,3,1,40,0,0
213156,-1000,4,3,1,40,0,0
213531,-200,4,3,1,40,0,0
213573,-133.333333333333,4,3,1,40,0,0
213615,-100,4,3,1,40,0,0
213906,-1000,4,3,1,40,0,0
214406,-66.6666666666667,4,3,1,40,0,0
214573,-100,4,3,1,40,0,1
225156,-100,4,3,1,40,0,0
225240,-100,4,3,1,40,0,1
230240,-1000,4,3,1,40,0,0
230406,-66.6666666666667,4,3,1,40,0,0
230573,-100,4,3,1,40,0,0
231240,-333.333333333333,4,3,1,40,0,0
231406,-133.333333333333,4,3,1,40,0,0
231490,-66.6666666666667,4,3,1,40,0,0
231573,-100,4,3,1,40,0,0
232573,-333.333333333333,4,3,1,40,0,0
232740,-133.333333333333,4,3,1,40,0,0
232823,-66.6666666666667,4,3,1,40,0,0
232906,-100,4,3,1,40,0,0

[HitObjects]
329,192,1073,5,8,0:0:0:0:
402,192,1073,1,8,0:0:0:0:
109,192,1156,1,8,0:0:0:0:
182,192,1156,1,8,0:0:0:0:
36,192,1240,128,2,2573:2:0:0:0:
256,192,1240,128,2,2573:2:0:0:0:
475,192,1240,128,2,2573:2:0:0:0:
109,192,2573,128,2,3240:2:0:0:0:
329,192,2573,128,2,3240:2:0:0:0:
182,192,3240,128,2,3906:2:0:0:0:
36,192,3740,1,8,0:0:0:0:
109,192,3740,1,8,0:0:0:0:
402,192,3823,1,8,0:0:0:0:
475,192,3823,1,8,0:0:0:0:
256,192,3906,128,2,4573:2:0:0:0:
329,192,3906,128,2,4573:2:0:0:0:
109,192,4573,128,2,5240:2:0:0:0:
402,192,4573,128,2,5240:2:0:0:0:
36,192,5240,128,2,6573:2:0:0:0:
256,192,5240,128,2,6573:2:0:0:0:
475,192,5240,128,2,6573:2:0:0:0:
109,192,6573,1,4,2:0:0:0:
402,192,6573,1,4,2:0:0:0:
182,192,6573,128,2,7906:2:0:0:0:
329,192,6573,128,2,7906:2:0:0:0:
402,192,7240,1,8,0:0:0:0:
475,192,7240,1,8,0:0:0:0:
36,192,7740,1,8,0:0:0:0:
109,192,7740,1,8,0:0:0:0:
402,192,7823,1,8,0:0:0:0:
475,192,7823,1,8,0:0:0:0:
36,192,7906,128,2,9240:2:0:0:0:
256,192,7906,128,2,8240:2:0:0:0:
329,192,8240,128,2,8573:2:0:0:0:
402,192,8573,128,2,8906:2:0:0:0:
475,192,8906,128,2,9240:2:0:0:0:
256,192,9073,1,8,0:0:0:0:
329,192,9073,1,8,0:0:0:0:
109,192,9156,1,8,0:0:0:0:
182,192,9156,1,8,0:0:0:0:
402,192,9240,128,0,10573:0:0:0:0:
329,192,9240,128,2,9573:2:0:0:0:
182,192,9573,128,2,9906:2:0:0:0:
256,192,9906,128,2,10240:2:0:0:0:
109,192,10240,128,2,10573:2:0:0:0:
36,192,10573,128,2,11906:2:0:0:0:
182,192,10573,128,2,10906:2:0:0:0:
475,192,10573,1,0,0:0:0:0:
402,192,10656,1,0,0:0:0:0:
256,192,10740,1,0,0:0:0:0:
109,192,10823,1,0,0:0:0:0:
329,192,10906,128,2,11240:2:0:0:0:
475,192,10906,1,0,0:0:0:0:
402,192,10990,1,0,0:0:0:0:
256,192,11073,1,0,0:0:0:0:
109,192,11156,1,0,0:0:0:0:
475,192,11240,128,2,11573:2:0:0:0:
182,192,11240,1,0,0:0:0:0:
256,192,11323,1,0,0:0:0:0:
402,192,11406,1,0,0:0:0:0:
329,192,11490,1,0,0:0:0:0:
182,192,11573,128,2,11906:2:0:0:0:
256,192,11573,1,0,0:0:0:0:
109,192,11656,1,0,0:0:0:0:
402,192,11656,1,0,0:0:0:0:
329,192,11740,1,0,0:0:0:0:
256,192,11823,1,0,0:0:0:0:
475,192,11906,1,0,0:0:0:0:
109,192,11906,128,0,13240:0:0:0:0:
329,192,13240,1,0,0:0:0:0:
402,192,13240,1,0,0:0:0:0:
109,192,13323,1,0,0:0:0:0:
182,192,13323,1,0,0:0:0:0:
402,192,13406,1,0,0:0:0:0:
329,192,13406,1,0,0:0:0:0:
109,192,13490,1,0,0:0:0:0:
182,192,13490,1,0,0:0:0:0:
402,192,13573,1,0,0:0:0:0:
329,192,13573,1,0,0:0:0:0:
109,192,13656,1,0,0:0:0:0:
182,192,13656,1,0,0:0:0:0:
402,192,13740,1,0,0:0:0:0:
329,192,13740,1,0,0:0:0:0:
109,192,13823,1,0,0:0:0:0:
182,192,13823,1,0,0:0:0:0:
402,192,13906,1,0,0:0:0:0:
329,192,13906,1,0,0:0:0:0:
109,192,13990,1,0,0:0:0:0:
182,192,13990,1,0,0:0:0:0:
402,192,14073,1,0,0:0:0:0:
329,192,14073,1,0,0:0:0:0:
109,192,14156,1,0,0:0:0:0:
182,192,14156,1,0,0:0:0:0:
402,192,14240,1,0,0:0:0:0:
329,192,14240,1,0,0:0:0:0:
109,192,14323,1,0,0:0:0:0:
182,192,14323,1,0,0:0:0:0:
402,192,14406,1,0,0:0:0:0:
329,192,14406,1,0,0:0:0:0:
109,192,14490,1,0,0:0:0:0:
182,192,14490,1,0,0:0:0:0:
402,192,14573,1,4,2:0:0:0:
329,192,14573,1,4,2:0:0:0:
36,192,14573,128,0,15906:0:0:0:0:
256,192,14573,128,6,14906:2:0:0:0:
402,192,14906,128,2,15073:2:0:0:0:
109,192,14906,1,8,0:0:0:0:
182,192,14906,1,8,0:0:0:0:
475,192,14906,1,8,0:0:0:0:
329,192,15073,128,2,15240:2:0:0:0:
256,192,15240,128,2,15573:2:0:0:0:
109,192,15240,1,0,0:0:0:0:
182,192,15240,1,0,0:0:0:0:
329,192,15406,1,0,0:0:0:0:
402,192,15406,1,0,0:0:0:0:
475,192,15573,128,10,15740:2:0:0:0:
109,192,15573,1,8,0:0:0:0:
182,192,15573,1,8,0:0:0:0:
329,192,15740,128,2,15906:2:0:0:0:
109,192,15906,128,0,17240:0:0:0:0:
402,192,15906,128,2,16240:2:0:0:0:
256,192,16240,128,2,16406:2:0:0:0:
36,192,16240,1,8,0:0:0:0:
182,192,16240,1,8,0:0:0:0:
475,192,16240,1,8,0:0:0:0:
329,192,16406,128,2,16573:2:0:0:0:
36,192,16573,128,2,16740:2:0:0:0:
402,192,16573,1,0,0:0:0:0:
475,192,16573,1,0,0:0:0:0:
182,192,16740,128,2,16906:2:0:0:0:
256,192,16740,1,0,0:0:0:0:
475,192,16740,1,0,0:0:0:0:
402,192,16906,128,2,17240:2:0:0:0:
36,192,16906,1,8,0:0:0:0:
475,192,16906,1,8,0:0:0:0:
329,192,16906,1,8,0:0:0:0:
182,192,17240,128,0,18573:0:0:0:0:
256,192,17240,128,2,17573:2:0:0:0:
109,192,17573,1,8,0:0:0:0:
402,192,17573,1,8,0:0:0:0:
475,192,17573,1,8,0:0:0:0:
36,192,17740,128,2,17906:2:0:0:0:
256,192,17823,1,0,0:0:0:0:
109,192,17906,128,2,18240:2:0:0:0:
329,192,17906,1,0,0:0:0:0:
402,192,17906,1,0,0:0:0:0:
329,192,18073,1,0,0:0:0:0:
402,192,18073,1,0,0:0:0:0:
329,192,18240,1,8,0:0:0:0:
402,192,18240,1,8,0:0:0:0:
36,192,18240,1,8,0:0:0:0:
475,192,18406,128,2,18573:2:0:0:0:
256,192,18573,128,0,19906:0:0:0:0:
329,192,18573,128,2,18906:2:0:0:0:
109,192,18573,1,0,0:0:0:0:
36,192,18740,128,2,18906:2:0:0:0:
109,192,18906,128,10,19073:2:0:0:0:
182,192,18906,1,8,0:0:0:0:
475,192,18906,1,8,0:0:0:0:
402,192,19073,128,2,19240:2:0:0:0:
36,192,19073,128,2,19240:2:0:0:0:
329,192,19240,128,2,19573:2:0:0:0:
182,192,19240,128,2,19406:2:0:0:0:
475,192,19240,1,0,0:0:0:0:
109,192,19240,1,0,0:0:0:0:
109,192,19406,128,2,19573:2:0:0:0:
402,192,19406,1,0,0:0:0:0:
36,192,19406,1,0,0:0:0:0:
475,192,19573,128,10,19906:2:0:0:0:
182,192,19573,1,8,0:0:0:0:
402,192,19573,1,8,0:0:0:0:
109,192,19740,128,2,19906:2:0:0:0:
402,192,19906,128,4,21240:2:0:0:0:
329,192,19906,128,4,20240:2:0:0:0:
36,192,19906,1,4,2:0:0:0:
36,192,20240,1,8,0:0:0:0:
109,192,20240,1,8,0:0:0:0:
475,192,20240,1,8,0:0:0:0:
182,192,20406,128,2,20573:2:0:0:0:
256,192,20573,128,2,20906:2:0:0:0:
36,192,20573,1,0,0:0:0:0:
109,192,20573,1,0,0:0:0:0:
36,192,20740,1,0,0:0:0:0:
109,192,20740,1,0,0:0:0:0:
36,192,20906,1,8,0:0:0:0:
109,192,20906,1,8,0:0:0:0:
329,192,20906,1,8,0:0:0:0:
182,192,21073,128,2,21240:2:0:0:0:
109,192,21240,128,2,21573:2:0:0:0:
329,192,21240,128,2,21573:2:0:0:0:
36,192,21240,128,0,22573:0:0:0:0:
475,192,21406,128,2,21573:2:0:0:0:
182,192,21573,128,2,21906:2:0:0:0:
402,192,21573,128,2,21906:2:0:0:0:
329,192,21740,128,2,21906:2:0:0:0:
256,192,21906,128,2,22240:2:0:0:0:
475,192,21906,128,2,22240:2:0:0:0:
109,192,21906,1,0,0:0:0:0:
182,192,22073,128,2,22240:2:0:0:0:
109,192,22240,128,2,22573:2:0:0:0:
402,192,22240,128,2,22573:2:0:0:0:
329,192,22240,1,0,0:0:0:0:
475,192,22406,128,2,22573:2:0:0:0:
182,192,22573,128,4,23906:2:0:0:0:
256,192,22573,128,4,22906:2:0:0:0:
109,192,22906,1,8,0:0:0:0:
402,192,22906,1,8,0:0:0:0:
475,192,22906,1,8,0:0:0:0:
36,192,23073,128,2,23240:2:0:0:0:
329,192,23240,128,2,23573:2:0:0:0:
402,192,23240,1,0,0:0:0:0:
475,192,23240,1,0,0:0:0:0:
36,192,23406,1,0,0:0:0:0:
109,192,23406,1,0,0:0:0:0:
475,192,23573,1,8,0:0:0:0:
402,192,23573,1,8,0:0:0:0:
36,192,23573,1,8,0:0:0:0:
475,192,23906,128,0,25240:0:0:0:0:
256,192,23906,128,2,24240:2:0:0:0:
402,192,23906,128,2,24240:2:0:0:0:
329,192,24240,128,2,24573:2:0:0:0:
182,192,24240,128,2,24573:2:0:0:0:
36,192,24240,1,0,0:0:0:0:
256,192,24573,128,2,24906:2:0:0:0:
109,192,24573,128,2,24906:2:0:0:0:
402,192,24573,1,0,0:0:0:0:
329,192,24656,1,0,0:0:0:0:
36,192,24740,1,0,0:0:0:0:
402,192,24823,1,0,0:0:0:0:
329,192,24906,1,0,0:0:0:0:
36,192,24906,128,2,25240:2:0:0:0:
182,192,24906,128,2,25240:2:0:0:0:
256,192,24990,1,0,0:0:0:0:
402,192,25073,1,0,0:0:0:0:
329,192,25156,1,0,0:0:0:0:
109,192,25240,128,4,27906:2:0:0:0:
402,192,25240,1,4,2:0:0:0:
256,192,25240,1,4,2:0:0:0:
182,192,25573,1,8,0:0:0:0:
475,192,25573,1,8,0:0:0:0:
256,192,25573,1,8,0:0:0:0:
329,192,25906,1,0,0:0:0:0:
402,192,25906,1,0,0:0:0:0:
329,192,26073,1,0,0:0:0:0:
402,192,26073,1,0,0:0:0:0:
36,192,26240,1,8,0:0:0:0:
329,192,26240,1,8,0:0:0:0:
402,192,26240,1,8,0:0:0:0:
182,192,26573,1,0,0:0:0:0:
475,192,26573,1,0,0:0:0:0:
402,192,26906,1,8,0:0:0:0:
329,192,26906,1,8,0:0:0:0:
36,192,26906,1,8,0:0:0:0:
182,192,27240,1,0,0:0:0:0:
475,192,27240,1,0,0:0:0:0:
475,192,27406,1,0,0:0:0:0:
256,192,27406,1,0,0:0:0:0:
475,192,27573,1,8,0:0:0:0:
329,192,27573,1,8,0:0:0:0:
36,192,27573,1,8,0:0:0:0:
182,192,27906,128,2,29240:2:0:0:0:
256,192,27906,1,0,0:0:0:0:
402,192,27906,1,0,0:0:0:0:
36,192,28240,1,8,0:0:0:0:
475,192,28240,1,8,0:0:0:0:
109,192,28240,1,8,0:0:0:0:
329,192,28573,1,0,0:0:0:0:
256,192,28573,1,0,0:0:0:0:
256,192,28740,1,0,0:0:0:0:
402,192,28740,1,0,0:0:0:0:
256,192,28906,1,8,0:0:0:0:
475,192,28906,1,8,0:0:0:0:
402,192,29240,128,2,30573:2:0:0:0:
36,192,29240,1,0,0:0:0:0:
109,192,29240,1,0,0:0:0:0:
36,192,29573,1,8,0:0:0:0:
109,192,29573,1,8,0:0:0:0:
256,192,29573,1,8,0:0:0:0:
182,192,29906,1,0,0:0:0:0:
329,192,29906,1,0,0:0:0:0:
182,192,30073,1,0,0:0:0:0:
329,192,30073,1,0,0:0:0:0:
182,192,30240,1,8,0:0:0:0:
329,192,30240,1,8,0:0:0:0:
109,192,30240,1,8,0:0:0:0:
36,192,30573,128,4,31906:2:0:0:0:
256,192,30573,128,4,30906:2:0:0:0:
475,192,30573,1,4,2:0:0:0:
475,192,30906,1,8,0:0:0:0:
402,192,30906,1,8,0:0:0:0:
109,192,30906,1,8,0:0:0:0:
182,192,31073,128,2,31240:2:0:0:0:
329,192,31240,128,2,31573:2:0:0:0:
402,192,31240,1,0,0:0:0:0:
475,192,31240,1,0,0:0:0:0:
109,192,31406,1,0,0:0:0:0:
182,192,31406,1,0,0:0:0:0:
475,192,31573,1,8,0:0:0:0:
402,192,31573,1,8,0:0:0:0:
109,192,31573,1,8,0:0:0:0:
256,192,31740,128,2,31906:2:0:0:0:
475,192,31906,128,0,33240:0:0:0:0:
109,192,31906,128,2,32240:2:0:0:0:
329,192,31906,1,0,0:0:0:0:
182,192,31906,1,0,0:0:0:0:
256,192,32240,1,8,0:0:0:0:
36,192,32240,1,8,0:0:0:0:
402,192,32240,1,8,0:0:0:0:
182,192,32406,128,2,32573:2:0:0:0:
329,192,32573,128,2,32740:2:0:0:0:
36,192,32573,1,0,0:0:0:0:
109,192,32573,1,0,0:0:0:0:
256,192,32740,128,2,32906:2:0:0:0:
402,192,32740,1,0,0:0:0:0:
182,192,32740,1,0,0:0:0:0:
109,192,32906,128,2,33240:2:0:0:0:
329,192,32906,1,8,0:0:0:0:
36,192,32906,1,8,0:0:0:0:
182,192,33240,128,2,34573:2:0:0:0:
36,192,33240,128,2,33573:2:0:0:0:
256,192,33240,1,0,0:0:0:0:
402,192,33573,1,8,0:0:0:0:
329,192,33573,1,8,0:0:0:0:
475,192,33573,128,2,33906:2:0:0:0:
256,192,33740,128,2,33906:2:0:0:0:
36,192,33906,128,2,34240:2:0:0:0:
109,192,33906,128,2,34240:2:0:0:0:
329,192,33906,1,0,0:0:0:0:
402,192,33906,1,0,0:0:0:0:
402,192,34073,1,0,0:0:0:0:
475,192,34073,1,0,0:0:0:0:
402,192,34240,1,8,0:0:0:0:
329,192,34240,128,2,34573:2:0:0:0:
475,192,34240,1,8,0:0:0:0:
109,192,34406,128,2,34573:2:0:0:0:
256,192,34573,128,2,35906:2:0:0:0:
36,192,34573,128,2,34906:2:0:0:0:
475,192,34573,1,0,0:0:0:0:
475,192,34906,128,10,35240:2:0:0:0:
402,192,34906,1,8,0:0:0:0:
182,192,34906,1,8,0:0:0:0:
109,192,34906,1,8,0:0:0:0:
329,192,35073,128,2,35240:2:0:0:0:
182,192,35240,128,2,35406:2:0:0:0:
36,192,35240,128,2,35573:2:0:0:0:
109,192,35240,1,0,0:0:0:0:
402,192,35406,128,2,35573:2:0:0:0:
475,192,35406,1,0,0:0:0:0:
329,192,35573,128,2,35906:2:0:0:0:
109,192,35573,128,2,35906:2:0:0:0:
182,192,35573,1,8,0:0:0:0:
402,192,35823,1,8,0:0:0:0:
475,192,35823,1,8,0:0:0:0:
36,192,35906,128,4,37240:2:0:0:0:
182,192,35906,1,4,2:0:0:0:
329,192,36240,1,8,0:0:0:0:
402,192,36240,1,8,0:0:0:0:
182,192,36240,1,8,0:0:0:0:
475,192,36573,1,0,0:0:0:0:
109,192,36573,1,0,0:0:0:0:
475,192,36740,1,0,0:0:0:0:
182,192,36740,1,0,0:0:0:0:
256,192,36906,1,8,0:0:0:0:
475,192,36906,1,8,0:0:0:0:
402,192,36906,1,8,0:0:0:0:
109,192,36906,128,0,37240:0:0:0:0:
329,192,36906,128,8,37240:0:0:0:0:
475,192,37240,128,0,38573:0:0:0:0:
182,192,37240,128,2,38573:2:0:0:0:
402,192,37240,128,2,37573:2:0:0:0:
36,192,37573,128,8,37906:0:0:0:0:
256,192,37573,128,2,37906:2:0:0:0:
109,192,37573,1,8,0:0:0:0:
329,192,37906,1,0,0:0:0:0:
402,192,37906,1,0,0:0:0:0:
329,192,38073,1,0,0:0:0:0:
402,192,38073,1,0,0:0:0:0:
36,192,38240,1,8,0:0:0:0:
109,192,38240,1,8,0:0:0:0:
256,192,38240,1,8,0:0:0:0:
36,192,38406,1,0,0:0:0:0:
109,192,38406,1,0,0:0:0:0:
402,192,38573,128,2,39906:2:0:0:0:
256,192,38573,1,0,0:0:0:0:
329,192,38573,1,0,0:0:0:0:
109,192,38906,1,8,0:0:0:0:
182,192,38906,1,8,0:0:0:0:
475,192,38906,1,8,0:0:0:0:
329,192,39073,128,2,39240:2:0:0:0:
36,192,39240,128,2,39573:2:0:0:0:
109,192,39240,1,0,0:0:0:0:
475,192,39240,1,0,0:0:0:0:
475,192,39406,1,0,0:0:0:0:
182,192,39406,1,0,0:0:0:0:
109,192,39573,128,2,39906:2:0:0:0:
256,192,39573,1,8,0:0:0:0:
475,192,39573,1,8,0:0:0:0:
329,192,39573,1,8,0:0:0:0:
329,192,39906,128,2,41240:2:0:0:0:
182,192,39906,128,2,40240:2:0:0:0:
36,192,39906,1,0,0:0:0:0:
256,192,40240,128,2,40573:2:0:0:0:
402,192,40240,1,8,0:0:0:0:
475,192,40240,1,8,0:0:0:0:
36,192,40240,1,8,0:0:0:0:
109,192,40573,128,2,41240:2:0:0:0:
182,192,40573,1,0,0:0:0:0:
36,192,40573,1,0,0:0:0:0:
475,192,40740,1,0,0:0:0:0:
256,192,40740,1,0,0:0:0:0:
475,192,40906,128,2,41240:2:0:0:0:
36,192,40906,1,8,0:0:0:0:
402,192,40906,1,8,0:0:0:0:
256,192,41240,128,4,41740:2:0:0:0:
36,192,41240,128,4,42573:2:0:0:0:
182,192,41240,1,4,2:0:0:0:
109,192,41573,1,8,0:0:0:0:
329,192,41573,1,8,0:0:0:0:
475,192,41573,1,8,0:0:0:0:
402,192,41740,128,2,41906:2:0:0:0:
329,192,41906,128,2,42573:2:0:0:0:
256,192,41906,1,0,0:0:0:0:
182,192,41906,1,0,0:0:0:0:
109,192,42073,1,0,0:0:0:0:
256,192,42073,1,0,0:0:0:0:
256,192,42240,1,8,0:0:0:0:
402,192,42240,1,8,0:0:0:0:
475,192,42240,1,8,0:0:0:0:
109,192,42406,128,2,42573:2:0:0:0:
182,192,42573,128,2,42906:2:0:0:0:
475,192,42573,128,2,43906:2:0:0:0:
329,192,42906,1,8,0:0:0:0:
402,192,42906,1,8,0:0:0:0:
36,192,42906,1,8,0:0:0:0:
109,192,43240,1,0,0:0:0:0:
256,192,43240,1,0,0:0:0:0:
109,192,43406,1,0,0:0:0:0:
329,192,43406,1,0,0:0:0:0:
109,192,43573,1,8,0:0:0:0:
182,192,43573,1,8,0:0:0:0:
402,192,43573,1,8,0:0:0:0:
329,192,43906,128,2,45240:2:0:0:0:
256,192,43906,1,0,0:0:0:0:
475,192,44240,1,8,0:0:0:0:
402,192,44240,1,8,0:0:0:0:
36,192,44240,1,8,0:0:0:0:
109,192,44406,128,2,44573:2:0:0:0:
182,192,44573,128,2,44906:2:0:0:0:
402,192,44573,1,0,0:0:0:0:
475,192,44573,1,0,0:0:0:0:
402,192,44740,1,0,0:0:0:0:
475,192,44740,1,0,0:0:0:0:
36,192,44906,1,8,0:0:0:0:
109,192,44906,1,8,0:0:0:0:
475,192,44906,1,8,0:0:0:0:
402,192,45073,128,2,45240:2:0:0:0:
36,192,45240,128,2,45573:2:0:0:0:
256,192,45240,128,2,45573:2:0:0:0:
109,192,45573,128,2,45906:2:0:0:0:
329,192,45573,128,2,45906:2:0:0:0:
182,192,45906,128,2,46240:2:0:0:0:
475,192,45906,128,2,46240:2:0:0:0:
402,192,45906,1,0,0:0:0:0:
329,192,45990,1,0,0:0:0:0:
256,192,46073,1,0,0:0:0:0:
109,192,46156,1,0,0:0:0:0:
402,192,46240,128,2,46573:2:0:0:0:
36,192,46240,128,2,46573:2:0:0:0:
329,192,46240,1,0,0:0:0:0:
256,192,46323,1,0,0:0:0:0:
182,192,46406,1,0,0:0:0:0:
109,192,46490,1,0,0:0:0:0:
256,192,46573,1,4,2:0:0:0:
329,192,46573,1,4,2:0:0:0:
475,192,46573,128,4,47906:2:0:0:0:
182,192,47073,128,0,47240:0:0:0:0:
36,192,47073,1,0,0:0:0:0:
256,192,47240,128,0,47573:0:0:0:0:
402,192,47240,1,0,0:0:0:0:
182,192,47906,128,0,48406:0:0:0:0:
36,192,47906,128,0,49240:0:0:0:0:
402,192,47906,1,0,0:0:0:0:
329,192,48406,128,0,48573:0:0:0:0:
475,192,48406,1,0,0:0:0:0:
402,192,48573,128,0,48906:0:0:0:0:
256,192,48573,1,0,0:0:0:0:
109,192,49156,1,8,0:0:0:0:
182,192,49156,1,8,0:0:0:0:
329,192,49240,1,8,0:0:0:0:
256,192,49240,1,8,0:0:0:0:
475,192,49240,128,0,50573:0:0:0:0:
402,192,49740,128,0,49906:0:0:0:0:
36,192,49740,1,0,0:0:0:0:
329,192,49906,128,0,50240:0:0:0:0:
182,192,49906,1,0,0:0:0:0:
402,192,50406,128,0,50573:0:0:0:0:
36,192,50573,128,0,51906:0:0:0:0:
109,192,50573,128,2,50906:2:0:0:0:
256,192,50573,128,2,50906:2:0:0:0:
182,192,50906,128,2,51240:2:0:0:0:
329,192,50906,128,2,51240:2:0:0:0:
256,192,51240,128,2,51573:2:0:0:0:
402,192,51240,128,2,51573:2:0:0:0:
109,192,51406,1,0,0:0:0:0:
182,192,51406,1,0,0:0:0:0:
329,192,51573,128,2,51906:2:0:0:0:
475,192,51573,128,2,51906:2:0:0:0:
109,192,51573,1,0,0:0:0:0:
182,192,51573,1,0,0:0:0:0:
109,192,51906,1,8,0:0:0:0:
182,192,51906,1,0,0:0:0:0:
256,192,51906,128,4,53240:2:0:0:0:
402,192,51990,1,2,2:0:0:0:
329,192,52073,1,2,2:0:0:0:
182,192,52156,1,2,2:0:0:0:
36,192,52240,1,2,2:0:0:0:
475,192,52240,1,8,0:0:0:0:
402,192,52240,1,8,0:0:0:0:
109,192,52323,1,2,2:0:0:0:
329,192,52406,1,2,2:0:0:0:
475,192,52490,1,2,2:0:0:0:
402,192,52573,1,2,2:0:0:0:
109,192,52573,1,0,0:0:0:0:
182,192,52656,1,2,2:0:0:0:
36,192,52740,1,0,0:0:0:0:
329,192,52740,1,2,2:0:0:0:
109,192,52823,1,2,2:0:0:0:
182,192,52906,1,8,0:0:0:0:
402,192,52906,1,2,2:0:0:0:
36,192,52906,1,8,0:0:0:0:
475,192,52990,1,2,2:0:0:0:
402,192,53073,1,2,2:0:0:0:
329,192,53156,1,2,2:0:0:0:
36,192,53240,128,0,54573:0:0:0:0:
109,192,53240,1,2,2:0:0:0:
475,192,53240,1,0,0:0:0:0:
182,192,53323,1,2,2:0:0:0:
256,192,53406,1,2,2:0:0:0:
475,192,53490,1,2,2:0:0:0:
402,192,53573,1,2,2:0:0:0:
109,192,53573,1,8,0:0:0:0:
182,192,53573,1,8,0:0:0:0:
329,192,53656,1,2,2:0:0:0:
256,192,53740,1,2,2:0:0:0:
109,192,53823,1,2,2:0:0:0:
182,192,53906,1,2,2:0:0:0:
475,192,53906,1,0,0:0:0:0:
329,192,53990,1,2,2:0:0:0:
402,192,54073,1,2,2:0:0:0:
109,192,54073,1,0,0:0:0:0:
256,192,54156,1,2,2:0:0:0:
182,192,54240,1,2,2:0:0:0:
475,192,54240,1,8,0:0:0:0:
109,192,54323,1,2,2:0:0:0:
329,192,54406,1,2,2:0:0:0:
402,192,54490,1,2,2:0:0:0:
182,192,54573,128,4,55906:2:0:0:0:
475,192,54573,1,4,2:0:0:0:
256,192,54573,1,4,2:0:0:0:
329,192,54573,1,4,2:0:0:0:
109,192,54740,1,0,0:0:0:0:
402,192,54906,128,0,55073:0:0:0:0:
36,192,55073,1,8,0:0:0:0:
109,192,55073,1,8,0:0:0:0:
329,192,55240,1,0,0:0:0:0:
402,192,55406,128,0,55573:0:0:0:0:
36,192,55573,1,8,0:0:0:0:
109,192,55573,1,8,0:0:0:0:
475,192,55740,1,0,0:0:0:0:
256,192,55906,128,4,57240:2:0:0:0:
36,192,55906,1,4,2:0:0:0:
329,192,55906,1,4,2:0:0:0:
402,192,55906,1,4,2:0:0:0:
109,192,56073,1,0,0:0:0:0:
182,192,56240,128,0,56406:0:0:0:0:
402,192,56406,1,8,0:0:0:0:
475,192,56406,1,8,0:0:0:0:
329,192,56573,1,0,0:0:0:0:
109,192,56740,128,0,56906:0:0:0:0:
402,192,56906,1,8,0:0:0:0:
475,192,56906,1,8,0:0:0:0:
36,192,57073,1,0,0:0:0:0:
329,192,57240,1,12,2:0:0:0:
475,192,57240,1,4,2:0:0:0:
109,192,57240,1,4,2:0:0:0:
182,192,57240,128,4,58573:2:0:0:0:
36,192,57406,1,0,0:0:0:0:
402,192,57406,1,8,0:0:0:0:
109,192,57573,1,0,0:0:0:0:
475,192,57573,1,8,0:0:0:0:
256,192,57740,1,8,0:0:0:0:
36,192,57740,1,0,0:0:0:0:
329,192,57906,1,8,0:0:0:0:
475,192,57906,1,0,0:0:0:0:
402,192,58073,1,8,0:0:0:0:
109,192,58073,1,0,0:0:0:0:
256,192,58240,1,0,0:0:0:0:
475,192,58240,1,8,0:0:0:0:
329,192,58406,1,8,0:0:0:0:
36,192,58573,1,8,3:0:0:0:
109,192,58573,1,6,2:0:0:0:
256,192,58573,1,2,2:0:0:0:
402,192,58573,1,6,2:0:0:0:
475,192,58573,1,8,3:0:0:0:
36,192,58740,1,8,3:0:0:0:
109,192,58740,1,6,2:0:0:0:
256,192,58740,1,2,2:0:0:0:
402,192,58740,1,6,2:0:0:0:
475,192,58740,1,8,3:0:0:0:
475,192,58906,1,8,3:0:0:0:
402,192,58906,1,6,2:0:0:0:
256,192,58906,1,2,2:0:0:0:
109,192,58906,1,6,2:0:0:0:
36,192,58906,1,8,3:0:0:0:
182,192,59240,1,0,0:0:0:0:
109,192,59323,1,0,0:0:0:0:
329,192,59406,1,0,0:0:0:0:
402,192,59490,1,0,0:0:0:0:
256,192,59573,1,0,0:0:0:0:
182,192,59656,1,0,0:0:0:0:
475,192,59656,1,0,0:0:0:0:
402,192,59740,1,0,0:0:0:0:
36,192,59740,1,0,0:0:0:0:
109,192,59823,1,0,0:0:0:0:
36,192,59906,128,4,60573:2:0:0:0:
329,192,59906,128,4,60573:2:0:0:0:
475,192,59906,1,4,2:0:0:0:
256,192,59906,1,4,2:0:0:0:
182,192,59906,128,4,60573:2:0:0:0:
402,192,60073,1,0,0:0:0:0:
109,192,60240,1,8,0:0:0:0:
256,192,60240,1,8,0:0:0:0:
475,192,60406,1,0,0:0:0:0:
109,192,60573,128,2,61240:2:0:0:0:
256,192,60573,128,2,61240:2:0:0:0:
402,192,60573,128,0,61240:0:0:0:0:
329,192,60740,1,0,0:0:0:0:
475,192,60906,1,8,0:0:0:0:
182,192,60906,1,8,0:0:0:0:
36,192,61073,1,0,0:0:0:0:
182,192,61240,128,2,61906:2:0:0:0:
329,192,61240,128,2,61906:2:0:0:0:
475,192,61240,128,0,61906:0:0:0:0:
256,192,61406,1,0,0:0:0:0:
36,192,61573,1,8,0:0:0:0:
402,192,61573,1,8,0:0:0:0:
109,192,61740,1,0,0:0:0:0:
256,192,61906,128,2,62573:2:0:0:0:
36,192,61906,128,0,62573:0:0:0:0:
402,192,61906,128,2,62573:2:0:0:0:
329,192,62073,1,0,0:0:0:0:
109,192,62240,1,8,0:0:0:0:
475,192,62240,1,8,0:0:0:0:
182,192,62406,1,0,0:0:0:0:
109,192,62573,128,0,63240:0:0:0:0:
329,192,62573,128,2,63240:2:0:0:0:
475,192,62573,128,2,63240:2:0:0:0:
402,192,62740,1,0,0:0:0:0:
256,192,62906,1,8,0:0:0:0:
182,192,62906,1,8,0:0:0:0:
36,192,63073,1,0,0:0:0:0:
402,192,63240,128,2,63906:2:0:0:0:
256,192,63240,128,2,63906:2:0:0:0:
182,192,63240,128,0,63906:0:0:0:0:
329,192,63406,1,0,0:0:0:0:
36,192,63573,1,8,0:0:0:0:
475,192,63573,1,8,0:0:0:0:
109,192,63740,1,0,0:0:0:0:
36,192,63906,128,0,65240:0:0:0:0:
329,192,63906,128,2,65240:2:0:0:0:
475,192,63906,128,2,65240:2:0:0:0:
256,192,64073,1,0,0:0:0:0:
109,192,64240,1,8,0:0:0:0:
182,192,64240,1,8,0:0:0:0:
402,192,64406,1,0,0:0:0:0:
256,192,64573,1,0,0:0:0:0:
182,192,64740,1,0,0:0:0:0:
109,192,64906,1,8,0:0:0:0:
256,192,64906,1,8,0:0:0:0:
402,192,65240,128,4,66573:2:0:0:0:
182,192,65240,128,4,65573:2:0:0:0:
256,192,65240,1,4,2:0:0:0:
109,192,65323,1,0,0:0:0:0:
36,192,65406,1,0,0:0:0:0:
475,192,65490,1,0,0:0:0:0:
256,192,65573,1,8,0:0:0:0:
329,192,65573,1,8,0:0:0:0:
182,192,65656,1,0,0:0:0:0:
36,192,65740,128,2,65906:2:0:0:0:
475,192,65740,1,0,0:0:0:0:
329,192,65823,1,0,0:0:0:0:
109,192,65906,128,2,66240:2:0:0:0:
256,192,65906,1,0,0:0:0:0:
182,192,65990,1,0,0:0:0:0:
36,192,66073,1,0,0:0:0:0:
329,192,66156,1,0,0:0:0:0:
256,192,66240,1,8,0:0:0:0:
182,192,66240,1,8,0:0:0:0:
475,192,66323,1,0,0:0:0:0:
329,192,66406,1,0,0:0:0:0:
256,192,66490,1,0,0:0:0:0:
329,192,66573,1,4,2:0:0:0:
475,192,66573,1,8,0:0:0:0:
109,192,66573,128,4,67906:2:0:0:0:
36,192,66573,128,4,66906:2:0:0:0:
182,192,66573,1,4,2:0:0:0:
182,192,66906,128,2,67240:2:0:0:0:
329,192,66906,128,8,67240:0:0:0:0:
475,192,66906,1,8,0:0:0:0:
256,192,67240,128,2,67573:2:0:0:0:
402,192,67240,128,2,67573:2:0:0:0:
475,192,67240,1,0,0:0:0:0:
329,192,67573,128,8,67906:0:0:0:0:
475,192,67573,128,2,67906:2:0:0:0:
182,192,67573,1,8,0:0:0:0:
36,192,67906,128,4,69240:2:0:0:0:
256,192,67906,1,4,2:0:0:0:
329,192,67990,1,0,0:0:0:0:
402,192,68073,1,0,0:0:0:0:
109,192,68156,1,0,0:0:0:0:
182,192,68240,1,8,0:0:0:0:
329,192,68240,1,8,0:0:0:0:
256,192,68323,1,0,0:0:0:0:
329,192,68406,1,0,0:0:0:0:
109,192,68406,1,0,0:0:0:0:
475,192,68406,128,2,68573:2:0:0:0:
182,192,68490,1,0,0:0:0:0:
402,192,68573,128,6,69240:2:0:0:0:
256,192,68573,128,6,69240:2:0:0:0:
475,192,68656,1,0,0:0:0:0:
329,192,68740,1,0,0:0:0:0:
182,192,68823,1,0,0:0:0:0:
109,192,68906,1,8,0:0:0:0:
475,192,68906,1,8,0:0:0:0:
329,192,68990,1,0,0:0:0:0:
182,192,69073,1,0,0:0:0:0:
109,192,69156,1,0,0:0:0:0:
329,192,69240,128,6,69906:2:0:0:0:
475,192,69240,128,6,69906:2:0:0:0:
36,192,69573,128,2,69906:2:0:0:0:
182,192,69573,1,8,0:0:0:0:
109,192,69573,1,8,0:0:0:0:
109,192,69906,1,0,0:0:0:0:
182,192,69906,1,0,0:0:0:0:
256,192,69906,128,0,70573:0:0:0:0:
329,192,69990,1,0,0:0:0:0:
402,192,69990,1,0,0:0:0:0:
109,192,70073,1,0,0:0:0:0:
182,192,70073,1,0,0:0:0:0:
329,192,70156,1,0,0:0:0:0:
402,192,70156,1,0,0:0:0:0:
109,192,70240,1,0,0:0:0:0:
182,192,70240,1,0,0:0:0:0:
329,192,70323,1,0,0:0:0:0:
402,192,70323,1,0,0:0:0:0:
109,192,70406,1,0,0:0:0:0:
182,192,70406,1,0,0:0:0:0:
329,192,70490,1,0,0:0:0:0:
402,192,70490,1,0,0:0:0:0:
475,192,70573,128,0,71240:0:0:0:0:
36,192,70573,128,4,71240:2:0:0:0:
182,192,70573,128,4,71240:2:0:0:0:
256,192,70740,1,0,0:0:0:0:
402,192,70906,1,8,0:0:0:0:
109,192,70906,1,8,0:0:0:0:
329,192,71073,1,0,0:0:0:0:
109,192,71240,128,2,71906:2:0:0:0:
256,192,71240,128,2,71906:2:0:0:0:
402,192,71240,128,0,71906:0:0:0:0:
329,192,71406,1,0,0:0:0:0:
475,192,71573,1,8,0:0:0:0:
182,192,71573,1,8,0:0:0:0:
36,192,71740,1,0,0:0:0:0:
182,192,71906,128,2,72573:2:0:0:0:
329,192,71906,128,2,72573:2:0:0:0:
475,192,71906,128,0,72573:0:0:0:0:
256,192,72073,1,0,0:0:0:0:
36,192,72240,1,8,0:0:0:0:
402,192,72240,1,8,0:0:0:0:
109,192,72406,1,0,0:0:0:0:
36,192,72573,128,0,73240:0:0:0:0:
256,192,72573,128,2,73240:2:0:0:0:
402,192,72573,128,2,73240:2:0:0:0:
182,192,72740,1,0,0:0:0:0:
475,192,72906,1,8,0:0:0:0:
329,192,72906,1,8,0:0:0:0:
109,192,73073,1,0,0:0:0:0:
329,192,73240,128,2,73906:2:0:0:0:
182,192,73240,128,0,73906:0:0:0:0:
475,192,73240,128,2,73906:2:0:0:0:
36,192,73406,1,0,0:0:0:0:
256,192,73573,1,8,0:0:0:0:
402,192,73573,1,8,0:0:0:0:
36,192,73740,1,0,0:0:0:0:
402,192,73906,128,2,74573:2:0:0:0:
256,192,73906,128,2,74573:2:0:0:0:
109,192,73906,128,0,74573:0:0:0:0:
329,192,74073,1,0,0:0:0:0:
36,192,74240,1,8,0:0:0:0:
182,192,74240,1,8,0:0:0:0:
475,192,74406,1,0,0:0:0:0:
36,192,74573,128,0,75906:0:0:0:0:
182,192,74573,128,2,75906:2:0:0:0:
329,192,74573,128,2,75906:2:0:0:0:
402,192,74740,1,0,0:0:0:0:
256,192,74906,1,8,0:0:0:0:
475,192,74906,1,8,0:0:0:0:
109,192,75073,1,0,0:0:0:0:
402,192,75240,1,0,0:0:0:0:
475,192,75240,1,0,0:0:0:0:
256,192,75406,1,0,0:0:0:0:
109,192,75573,1,8,0:0:0:0:
475,192,75573,1,8,0:0:0:0:
256,192,75740,1,0,0:0:0:0:
475,192,75906,1,2,2:0:0:0:
402,192,75906,1,4,0:0:0:0:
36,192,75990,1,2,2:0:0:0:
109,192,75990,1,4,0:0:0:0:
402,192,76073,1,4,0:0:0:0:
475,192,76073,1,2,2:0:0:0:
36,192,76156,1,2,2:0:0:0:
109,192,76156,1,4,0:0:0:0:
402,192,76240,1,4,0:0:0:0:
475,192,76240,1,2,2:0:0:0:
36,192,76323,1,2,2:0:0:0:
109,192,76323,1,4,0:0:0:0:
402,192,76406,1,4,0:0:0:0:
475,192,76406,1,2,2:0:0:0:
36,192,76490,1,2,2:0:0:0:
109,192,76490,1,4,0:0:0:0:
402,192,76573,1,4,0:0:0:0:
475,192,76573,1,2,2:0:0:0:
36,192,76906,1,2,0:0:0:0:
109,192,76906,1,2,0:0:0:0:
182,192,76906,1,4,2:0:0:0:
256,192,76906,1,4,2:0:0:0:
402,192,76906,1,0,0:0:0:0:
329,192,77240,1,4,0:0:0:0:
475,192,77240,1,2,2:0:0:0:
36,192,77323,1,2,2:0:0:0:
182,192,77323,1,4,0:0:0:0:
329,192,77406,1,4,0:0:0:0:
475,192,77406,1,2,2:0:0:0:
182,192,77490,1,4,0:0:0:0:
36,192,77490,1,2,2:0:0:0:
329,192,77573,1,4,0:0:0:0:
475,192,77573,1,2,2:0:0:0:
36,192,77656,1,2,2:0:0:0:
182,192,77656,1,4,0:0:0:0:
329,192,77740,1,4,0:0:0:0:
475,192,77740,1,2,2:0:0:0:
36,192,77823,1,2,2:0:0:0:
182,192,77823,1,4,0:0:0:0:
329,192,77906,1,4,0:0:0:0:
475,192,77906,1,2,2:0:0:0:
256,192,78240,1,2,0:0:0:0:
109,192,78240,1,4,2:0:0:0:
402,192,78240,1,4,2:0:0:0:
36,192,78240,1,4,2:0:0:0:
182,192,78240,1,2,0:0:0:0:
475,192,78573,128,4,79906:2:0:0:0:
36,192,78573,1,4,2:0:0:0:
182,192,78573,1,4,2:0:0:0:
329,192,78573,1,4,2:0:0:0:
109,192,78906,128,2,78990:2:0:0:0:
182,192,78990,128,2,79073:2:0:0:0:
256,192,79073,128,2,79156:2:0:0:0:
329,192,79156,128,2,79240:2:0:0:0:
402,192,79240,128,2,79406:2:0:0:0:
182,192,79406,128,2,79573:2:0:0:0:
256,192,79573,128,2,79740:2:0:0:0:
329,192,79740,128,2,79906:2:0:0:0:
36,192,79906,128,0,81240:0:0:0:0:
182,192,79906,128,2,80573:2:0:0:0:
402,192,79906,128,2,80240:2:0:0:0:
475,192,80240,128,2,80573:2:0:0:0:
256,192,80240,1,2,2:0:0:0:
109,192,80240,1,0,0:0:0:0:
329,192,80573,128,2,80906:2:0:0:0:
109,192,80656,1,0,0:0:0:0:
182,192,80656,1,0,0:0:0:0:
402,192,80740,1,0,0:0:0:0:
475,192,80740,1,0,0:0:0:0:
109,192,80823,1,0,0:0:0:0:
182,192,80823,1,0,0:0:0:0:
256,192,80906,128,2,81240:2:0:0:0:
402,192,80906,1,0,0:0:0:0:
475,192,80906,1,0,0:0:0:0:
109,192,80990,1,0,0:0:0:0:
182,192,80990,1,0,0:0:0:0:
475,192,81073,1,0,0:0:0:0:
402,192,81073,1,0,0:0:0:0:
109,192,81156,1,0,0:0:0:0:
182,192,81156,1,0,0:0:0:0:
329,192,81240,128,2,82573:2:0:0:0:
402,192,81240,1,0,0:0:0:0:
475,192,81240,1,0,0:0:0:0:
36,192,81573,1,8,0:0:0:0:
109,192,81573,1,8,0:0:0:0:
256,192,81573,1,8,0:0:0:0:
402,192,81906,1,0,0:0:0:0:
475,192,81906,1,0,0:0:0:0:
402,192,82073,1,0,0:0:0:0:
475,192,82073,1,0,0:0:0:0:
109,192,82240,1,8,0:0:0:0:
182,192,82240,1,8,0:0:0:0:
36,192,82240,1,8,0:0:0:0:
256,192,82573,128,4,83906:2:0:0:0:
475,192,82573,1,4,2:0:0:0:
402,192,82573,1,4,2:0:0:0:
36,192,82573,1,4,2:0:0:0:
182,192,82573,128,6,83240:2:0:0:0:
329,192,82906,1,8,0:0:0:0:
475,192,82906,1,8,0:0:0:0:
36,192,82906,1,8,0:0:0:0:
402,192,83240,128,2,83906:2:0:0:0:
36,192,83240,1,0,0:0:0:0:
109,192,83240,1,0,0:0:0:0:
36,192,83406,1,0,0:0:0:0:
109,192,83406,1,0,0:0:0:0:
182,192,83573,1,8,0:0:0:0:
36,192,83573,1,8,0:0:0:0:
475,192,83573,1,8,0:0:0:0:
109,192,83906,128,2,86573:2:0:0:0:
329,192,83906,1,0,0:0:0:0:
36,192,83906,1,0,0:0:0:0:
182,192,84240,1,8,0:0:0:0:
256,192,84240,1,8,0:0:0:0:
475,192,84240,1,8,0:0:0:0:
329,192,84573,1,0,0:0:0:0:
402,192,84573,1,0,0:0:0:0:
329,192,84740,1,0,0:0:0:0:
402,192,84740,1,0,0:0:0:0:
182,192,84906,1,8,0:0:0:0:
256,192,84906,1,8,0:0:0:0:
475,192,84906,1,8,0:0:0:0:
402,192,85073,1,0,0:0:0:0:
329,192,85156,1,0,0:0:0:0:
256,192,85240,1,0,0:0:0:0:
475,192,85323,1,0,0:0:0:0:
402,192,85406,1,0,0:0:0:0:
182,192,85490,1,0,0:0:0:0:
256,192,85573,1,0,0:0:0:0:
36,192,85656,1,0,0:0:0:0:
182,192,85740,1,0,0:0:0:0:
329,192,85823,1,0,0:0:0:0:
475,192,85906,1,0,0:0:0:0:
256,192,85990,1,0,0:0:0:0:
329,192,86073,1,0,0:0:0:0:
36,192,86156,1,0,0:0:0:0:
182,192,86240,1,0,0:0:0:0:
256,192,86323,1,0,0:0:0:0:
475,192,86406,1,0,0:0:0:0:
402,192,86490,1,0,0:0:0:0:
329,192,86573,1,4,2:0:0:0:
182,192,86573,128,4,86740:2:0:0:0:
36,192,86573,128,4,87906:2:0:0:0:
402,192,87073,128,2,87240:2:0:0:0:
109,192,87073,1,8,0:0:0:0:
256,192,87073,1,8,0:0:0:0:
329,192,87073,1,8,0:0:0:0:
475,192,87240,128,2,87406:2:0:0:0:
402,192,87406,1,0,0:0:0:0:
329,192,87406,1,0,0:0:0:0:
329,192,87573,1,0,0:0:0:0:
402,192,87573,1,0,0:0:0:0:
182,192,87740,128,2,87906:2:0:0:0:
329,192,87740,1,8,0:0:0:0:
475,192,87740,1,8,0:0:0:0:
402,192,87906,128,4,89240:2:0:0:0:
256,192,87906,128,4,88073:2:0:0:0:
36,192,88073,1,0,0:0:0:0:
109,192,88073,1,0,0:0:0:0:
475,192,88406,128,2,88573:2:0:0:0:
182,192,88406,1,8,0:0:0:0:
256,192,88406,1,8,0:0:0:0:
329,192,88406,1,8,0:0:0:0:
36,192,88573,128,2,88740:2:0:0:0:
109,192,88740,128,2,88906:2:0:0:0:
182,192,88906,128,2,89073:2:0:0:0:
36,192,89240,128,4,90573:2:0:0:0:
329,192,89240,128,4,89406:2:0:0:0:
109,192,89240,1,4,2:0:0:0:
256,192,89240,1,4,2:0:0:0:
475,192,89240,1,4,2:0:0:0:
109,192,89573,1,8,0:0:0:0:
182,192,89573,1,8,0:0:0:0:
402,192,89573,1,8,0:0:0:0:
256,192,89740,128,2,89906:2:0:0:0:
475,192,89740,1,0,0:0:0:0:
402,192,89740,1,0,0:0:0:0:
182,192,89906,128,2,90073:2:0:0:0:
402,192,89906,1,0,0:0:0:0:
475,192,89906,1,0,0:0:0:0:
402,192,90073,1,0,0:0:0:0:
475,192,90073,1,0,0:0:0:0:
109,192,90240,1,8,0:0:0:0:
182,192,90240,1,8,0:0:0:0:
256,192,90240,1,8,0:0:0:0:
329,192,90406,128,2,90573:2:0:0:0:
402,192,90573,128,2,90740:2:0:0:0:
256,192,90573,128,0,91573:0:0:0:0:
475,192,90740,128,2,90906:2:0:0:0:
36,192,90906,128,2,91073:2:0:0:0:
329,192,90906,1,0,0:0:0:0:
402,192,90906,1,0,0:0:0:0:
109,192,91073,128,2,91240:2:0:0:0:
329,192,91073,1,0,0:0:0:0:
402,192,91073,1,0,0:0:0:0:
182,192,91240,128,2,91406:2:0:0:0:
329,192,91240,1,0,0:0:0:0:
402,192,91240,1,0,0:0:0:0:
36,192,91406,1,0,0:0:0:0:
109,192,91406,1,0,0:0:0:0:
329,192,91490,1,0,0:0:0:0:
402,192,91490,1,0,0:0:0:0:
36,192,91573,1,0,0:0:0:0:
109,192,91573,1,0,0:0:0:0:
475,192,91573,128,2,91906:2:0:0:0:
329,192,91656,1,0,0:0:0:0:
402,192,91656,1,0,0:0:0:0:
36,192,91740,1,0,0:0:0:0:
109,192,91740,1,0,0:0:0:0:
329,192,91823,1,0,0:0:0:0:
402,192,91823,1,0,0:0:0:0:
182,192,91906,128,4,92073:2:0:0:0:
109,192,91906,128,4,93240:2:0:0:0:
36,192,92240,1,8,0:0:0:0:
402,192,92240,1,8,0:0:0:0:
475,192,92240,1,8,0:0:0:0:
329,192,92406,128,2,92573:2:0:0:0:
182,192,92406,1,0,0:0:0:0:
256,192,92406,1,0,0:0:0:0:
402,192,92573,128,2,92740:2:0:0:0:
182,192,92573,1,0,0:0:0:0:
256,192,92573,1,0,0:0:0:0:
182,192,92740,1,0,0:0:0:0:
256,192,92740,1,0,0:0:0:0:
475,192,92906,1,8,0:0:0:0:
402,192,92906,1,8,0:0:0:0:
36,192,92906,1,8,0:0:0:0:
256,192,93073,128,2,93240:2:0:0:0:
36,192,93240,128,2,93406:2:0:0:0:
475,192,93240,128,0,94573:0:0:0:0:
402,192,93240,128,2,93573:2:0:0:0:
329,192,93406,128,2,93573:2:0:0:0:
256,192,93573,128,10,93906:2:0:0:0:
109,192,93573,1,8,0:0:0:0:
36,192,93573,1,8,0:0:0:0:
182,192,93740,128,2,93906:2:0:0:0:
329,192,93906,128,2,94240:2:0:0:0:
109,192,93906,1,0,0:0:0:0:
36,192,93906,1,0,0:0:0:0:
402,192,94073,128,0,94240:0:0:0:0:
36,192,94073,1,0,0:0:0:0:
109,192,94073,1,0,0:0:0:0:
109,192,94240,128,2,94573:2:0:0:0:
36,192,94240,1,8,0:0:0:0:
182,192,94240,1,8,0:0:0:0:
256,192,94406,128,2,94573:2:0:0:0:
182,192,94573,128,4,95906:2:0:0:0:
36,192,94573,128,4,94740:2:0:0:0:
329,192,94573,1,4,2:0:0:0:
402,192,94573,1,4,2:0:0:0:
36,192,94906,1,8,0:0:0:0:
109,192,94906,1,8,0:0:0:0:
475,192,94906,1,8,0:0:0:0:
329,192,95073,128,2,95240:2:0:0:0:
402,192,95240,128,2,95406:2:0:0:0:
36,192,95240,1,0,0:0:0:0:
475,192,95240,1,0,0:0:0:0:
36,192,95406,1,0,0:0:0:0:
475,192,95406,1,0,0:0:0:0:
36,192,95573,1,8,0:0:0:0:
109,192,95573,1,8,0:0:0:0:
475,192,95573,1,8,0:0:0:0:
256,192,95740,128,2,95906:2:0:0:0:
36,192,95906,1,0,0:0:0:0:
109,192,95906,1,8,0:0:0:0:
402,192,95906,1,8,0:0:0:0:
475,192,95906,1,0,0:0:0:0:
109,192,96129,1,0,0:0:0:0:
182,192,96129,1,8,0:0:0:0:
256,192,96129,1,8,0:0:0:0:
329,192,96129,1,0,0:0:0:0:
182,192,96351,1,0,0:0:0:0:
256,192,96351,1,8,0:0:0:0:
329,192,96351,1,8,0:0:0:0:
402,192,96351,1,0,0:0:0:0:
256,192,96573,1,4,2:0:0:0:
329,192,96573,1,4,2:0:0:0:
402,192,96573,1,4,2:0:0:0:
475,192,96573,1,4,2:0:0:0:
36,192,96573,1,4,2:0:0:0:
109,192,96795,1,8,0:0:0:0:
36,192,96795,1,0,0:0:0:0:
182,192,96795,1,8,0:0:0:0:
256,192,96795,1,0,0:0:0:0:
256,192,97018,1,8,0:0:0:0:
329,192,97018,1,0,0:0:0:0:
182,192,97018,1,8,0:0:0:0:
109,192,97018,1,0,0:0:0:0:
182,192,97240,1,4,2:0:0:0:
329,192,97240,1,4,2:0:0:0:
402,192,97240,1,4,2:0:0:0:
256,192,97240,1,4,2:0:0:0:
475,192,97240,1,4,2:0:0:0:
36,192,98240,1,8,0:0:0:0:
109,192,98240,1,8,0:0:0:0:
182,192,98240,1,8,0:0:0:0:
329,192,98406,1,0,0:0:0:0:
402,192,98406,1,0,0:0:0:0:
475,192,98406,128,4,98573:2:0:0:0:
109,192,98740,1,0,0:0:0:0:
182,192,98740,1,0,0:0:0:0:
256,192,98740,128,4,98906:2:0:0:0:
36,192,99240,128,0,99906:0:0:0:0:
329,192,99240,1,0,0:0:0:0:
402,192,99240,1,0,0:0:0:0:
109,192,99323,1,0,0:0:0:0:
182,192,99323,1,0,0:0:0:0:
402,192,99406,1,0,0:0:0:0:
329,192,99406,1,0,0:0:0:0:
109,192,99490,1,0,0:0:0:0:
182,192,99490,1,0,0:0:0:0:
329,192,99573,1,0,0:0:0:0:
402,192,99573,1,0,0:0:0:0:
109,192,99656,1,0,0:0:0:0:
182,192,99656,1,0,0:0:0:0:
329,192,99740,1,0,0:0:0:0:
402,192,99740,1,0,0:0:0:0:
182,192,99823,1,0,0:0:0:0:
109,192,99823,1,0,0:0:0:0:
329,192,99906,1,0,0:0:0:0:
402,192,99906,1,0,0:0:0:0:
475,192,99906,128,0,101240:0:0:0:0:
36,192,100240,1,8,0:0:0:0:
109,192,100240,1,8,0:0:0:0:
182,192,100240,1,8,0:0:0:0:
329,192,100573,1,0,0:0:0:0:
402,192,100573,1,0,0:0:0:0:
329,192,100740,1,0,0:0:0:0:
402,192,100740,1,0,0:0:0:0:
329,192,100906,1,8,0:0:0:0:
402,192,100906,1,8,0:0:0:0:
36,192,100906,1,8,0:0:0:0:
182,192,101073,1,0,0:0:0:0:
109,192,101073,1,0,0:0:0:0:
256,192,101073,128,4,101240:2:0:0:0:
36,192,101240,128,0,102573:0:0:0:0:
329,192,101406,1,0,0:0:0:0:
402,192,101406,1,0,0:0:0:0:
109,192,101406,128,4,101573:2:0:0:0:
329,192,101740,1,0,0:0:0:0:
402,192,101740,1,0,0:0:0:0:
109,192,101906,1,0,0:0:0:0:
182,192,101906,1,0,0:0:0:0:
402,192,101990,1,0,0:0:0:0:
475,192,101990,1,0,0:0:0:0:
109,192,102073,1,0,0:0:0:0:
182,192,102073,1,0,0:0:0:0:
402,192,102156,1,0,0:0:0:0:
475,192,102156,1,0,0:0:0:0:
109,192,102240,1,0,0:0:0:0:
182,192,102240,1,0,0:0:0:0:
402,192,102323,1,0,0:0:0:0:
475,192,102323,1,0,0:0:0:0:
109,192,102406,1,0,0:0:0:0:
182,192,102406,1,0,0:0:0:0:
402,192,102490,1,0,0:0:0:0:
475,192,102490,1,0,0:0:0:0:
182,192,102573,1,4,2:0:0:0:
109,192,102573,128,4,102740:2:0:0:0:
256,192,102573,128,4,103906:2:0:0:0:
182,192,102906,1,8,0:0:0:0:
329,192,102906,1,8,0:0:0:0:
36,192,102906,1,8,0:0:0:0:
402,192,103073,128,2,103240:2:0:0:0:
475,192,103240,128,2,103406:2:0:0:0:
109,192,103240,1,0,0:0:0:0:
182,192,103240,1,0,0:0:0:0:
109,192,103406,1,0,0:0:0:0:
182,192,103406,1,0,0:0:0:0:
109,192,103573,1,8,0:0:0:0:
182,192,103573,1,8,0:0:0:0:
402,192,103573,1,8,0:0:0:0:
36,192,103740,128,2,103906:2:0:0:0:
329,192,103906,128,0,104240:0:0:0:0:
109,192,103906,128,2,104073:2:0:0:0:
475,192,103906,1,0,0:0:0:0:
182,192,103906,1,0,0:0:0:0:
402,192,104240,128,0,104573:0:0:0:0:
36,192,104240,1,8,0:0:0:0:
109,192,104240,1,8,0:0:0:0:
182,192,104240,1,8,0:0:0:0:
256,192,104406,128,2,104573:2:0:0:0:
475,192,104573,128,2,105240:2:0:0:0:
182,192,104573,128,2,104740:2:0:0:0:
36,192,104573,1,0,0:0:0:0:
109,192,104573,1,0,0:0:0:0:
109,192,104740,128,2,104906:2:0:0:0:
329,192,104740,1,0,0:0:0:0:
402,192,104740,1,0,0:0:0:0:
36,192,104906,128,2,105073:2:0:0:0:
256,192,104906,1,8,0:0:0:0:
329,192,104906,1,8,0:0:0:0:
402,192,104906,1,8,0:0:0:0:
182,192,105240,128,4,105406:2:0:0:0:
109,192,105240,128,4,105406:2:0:0:0:
256,192,105573,1,8,0:0:0:0:
109,192,105573,1,8,0:0:0:0:
36,192,105573,1,8,0:0:0:0:
475,192,105573,128,2,105906:2:0:0:0:
329,192,105573,128,2,105906:2:0:0:0:
402,192,105906,128,2,106240:2:0:0:0:
256,192,105906,128,2,106240:2:0:0:0:
36,192,105906,1,0,0:0:0:0:
109,192,105906,1,0,0:0:0:0:
36,192,106073,1,0,0:0:0:0:
109,192,106073,1,0,0:0:0:0:
329,192,106240,128,2,106573:2:0:0:0:
182,192,106240,128,2,106573:2:0:0:0:
36,192,106240,1,8,0:0:0:0:
109,192,106240,1,8,0:0:0:0:
475,192,106240,1,8,0:0:0:0:
402,192,106573,1,0,0:0:0:0:
475,192,106573,1,0,0:0:0:0:
109,192,106573,1,0,0:0:0:0:
402,192,106740,1,0,0:0:0:0:
475,192,106740,1,0,0:0:0:0:
109,192,106740,1,0,0:0:0:0:
36,192,106906,128,2,107240:2:0:0:0:
182,192,106906,128,2,107240:2:0:0:0:
329,192,106906,1,8,0:0:0:0:
402,192,106906,1,8,0:0:0:0:
475,192,106906,1,8,0:0:0:0:
109,192,107240,128,2,107573:2:0:0:0:
256,192,107240,128,2,107573:2:0:0:0:
329,192,107240,1,8,0:0:0:0:
402,192,107240,1,8,0:0:0:0:
475,192,107240,1,8,0:0:0:0:
402,192,107490,1,0,0:0:0:0:
475,192,107490,1,0,0:0:0:0:
182,192,107573,128,8,107906:0:0:0:0:
329,192,107573,128,2,107906:2:0:0:0:
36,192,107573,1,8,0:0:0:0:
402,192,107656,1,0,0:0:0:0:
475,192,107656,1,0,0:0:0:0:
36,192,107740,1,0,0:0:0:0:
109,192,107740,1,0,0:0:0:0:
475,192,107823,1,0,0:0:0:0:
402,192,107823,1,0,0:0:0:0:
36,192,107906,1,0,0:0:0:0:
109,192,107906,128,4,108073:2:0:0:0:
329,192,108156,1,0,0:0:0:0:
402,192,108240,1,0,0:0:0:0:
475,192,108240,1,0,0:0:0:0:
256,192,108406,1,8,0:0:0:0:
182,192,108490,1,8,0:0:0:0:
36,192,108573,1,0,0:0:0:0:
109,192,108573,1,0,0:0:0:0:
256,192,108740,1,8,1:0:0:0:
402,192,108740,1,0,0:0:0:0:
329,192,108740,1,8,1:0:0:0:
329,192,108906,1,0,0:0:0:0:
402,192,108906,1,0,0:0:0:0:
36,192,109073,1,0,0:0:0:0:
109,192,109073,1,0,0:0:0:0:
182,192,109073,128,4,109240:2:0:0:0:
475,192,109240,1,8,0:0:0:0:
402,192,109323,1,8,0:0:0:0:
256,192,109406,1,0,0:0:0:0:
329,192,109406,1,0,0:0:0:0:
36,192,109406,128,4,109573:2:0:0:0:
109,192,109573,1,0,0:0:0:0:
402,192,109573,1,0,0:0:0:0:
475,192,109573,1,0,0:0:0:0:
256,192,109740,1,0,0:0:0:0:
329,192,109740,1,0,0:0:0:0:
109,192,109906,1,0,0:0:0:0:
182,192,109906,1,0,0:0:0:0:
475,192,110073,1,8,0:0:0:0:
402,192,110156,1,8,0:0:0:0:
329,192,110240,1,0,0:0:0:0:
182,192,110240,1,0,0:0:0:0:
109,192,110240,128,0,110573:0:0:0:0:
256,192,110406,1,0,0:0:0:0:
402,192,110406,1,8,1:0:0:0:
475,192,110406,1,8,1:0:0:0:
36,192,110573,128,0,111906:0:0:0:0:
182,192,110573,1,8,0:0:0:0:
256,192,110656,1,8,0:0:0:0:
329,192,110740,1,0,0:0:0:0:
402,192,110740,1,0,0:0:0:0:
109,192,110906,1,8,1:0:0:0:
475,192,110906,1,0,0:0:0:0:
182,192,110906,1,8,1:0:0:0:
402,192,111073,1,8,0:0:0:0:
329,192,111156,1,8,0:0:0:0:
402,192,111240,1,8,0:0:0:0:
256,192,111406,1,0,0:0:0:0:
182,192,111573,1,0,0:0:0:0:
109,192,111573,1,0,0:0:0:0:
256,192,111740,1,0,0:0:0:0:
329,192,111740,1,4,2:0:0:0:
475,192,111740,1,0,0:0:0:0:
402,192,111740,128,4,111906:2:0:0:0:
109,192,111906,128,0,113240:0:0:0:0:
182,192,112073,1,0,0:0:0:0:
256,192,112073,128,4,112240:2:0:0:0:
475,192,112073,1,0,0:0:0:0:
402,192,112240,1,0,0:0:0:0:
329,192,112240,1,0,0:0:0:0:
182,192,112406,1,0,0:0:0:0:
256,192,112406,1,8,0:0:0:0:
402,192,112490,1,8,0:0:0:0:
475,192,112573,1,0,0:0:0:0:
329,192,112573,1,8,0:0:0:0:
36,192,112656,1,0,0:0:0:0:
182,192,112656,1,8,0:0:0:0:
402,192,112740,1,0,0:0:0:0:
256,192,112740,1,8,0:0:0:0:
329,192,112823,1,0,0:0:0:0:
182,192,112823,1,8,0:0:0:0:
402,192,112906,1,0,0:0:0:0:
475,192,112906,1,0,0:0:0:0:
36,192,112906,1,8,0:0:0:0:
182,192,113240,128,4,115906:2:0:0:0:
256,192,113240,1,4,2:0:0:0:
402,192,113240,1,4,2:0:0:0:
475,192,113240,1,4,2:0:0:0:
329,192,113240,128,4,113406:2:0:0:0:
36,192,113573,1,8,0:0:0:0:
109,192,113573,1,8,0:0:0:0:
475,192,113573,1,8,0:0:0:0:
329,192,113906,1,0,0:0:0:0:
402,192,113906,1,0,0:0:0:0:
256,192,113906,128,2,114073:2:0:0:0:
36,192,114073,1,0,0:0:0:0:
109,192,114073,1,0,0:0:0:0:
329,192,114240,1,8,0:0:0:0:
402,192,114240,1,8,0:0:0:0:
475,192,114240,1,8,0:0:0:0:
256,192,114573,1,0,0:0:0:0:
329,192,114573,1,0,0:0:0:0:
402,192,114906,1,8,0:0:0:0:
475,192,114906,1,8,0:0:0:0:
36,192,114906,1,8,0:0:0:0:
256,192,115073,128,2,115240:2:0:0:0:
329,192,115240,128,2,115406:2:0:0:0:
36,192,115240,1,0,0:0:0:0:
109,192,115240,1,0,0:0:0:0:
402,192,115406,128,2,115573:2:0:0:0:
36,192,115406,1,0,0:0:0:0:
109,192,115406,1,0,0:0:0:0:
475,192,115573,128,2,115906:2:0:0:0:
36,192,115573,1,8,0:0:0:0:
109,192,115573,1,8,0:0:0:0:
256,192,115573,1,8,0:0:0:0:
402,192,115906,1,0,0:0:0:0:
329,192,115906,1,0,0:0:0:0:
36,192,115906,128,0,117240:0:0:0:0:
109,192,116240,1,8,0:0:0:0:
402,192,116240,1,8,0:0:0:0:
256,192,116240,128,2,116573:2:0:0:0:
329,192,116573,128,2,116740:2:0:0:0:
402,192,116573,1,0,0:0:0:0:
475,192,116573,1,0,0:0:0:0:
109,192,116740,1,0,0:0:0:0:
182,192,116740,1,0,0:0:0:0:
256,192,116906,1,8,0:0:0:0:
329,192,116906,1,8,0:0:0:0:
402,192,116906,1,8,0:0:0:0:
109,192,117240,128,0,117573:0:0:0:0:
182,192,117240,1,0,0:0:0:0:
475,192,117240,1,0,0:0:0:0:
256,192,117240,1,0,0:0:0:0:
329,192,117406,1,8,0:0:0:0:
402,192,117406,1,8,0:0:0:0:
475,192,117573,128,0,117906:0:0:0:0:
329,192,117573,1,8,0:0:0:0:
402,192,117573,1,8,0:0:0:0:
329,192,117740,1,8,0:0:0:0:
402,192,117740,1,8,0:0:0:0:
36,192,117906,128,0,118240:0:0:0:0:
182,192,117906,1,8,0:0:0:0:
109,192,117906,1,8,0:0:0:0:
182,192,118073,1,8,0:0:0:0:
109,192,118073,1,8,0:0:0:0:
329,192,118240,128,2,118573:2:0:0:0:
402,192,118240,128,2,118573:2:0:0:0:
109,192,118240,1,8,0:0:0:0:
182,192,118240,1,8,0:0:0:0:
36,192,118573,1,4,2:0:0:0:
109,192,118573,1,4,2:0:0:0:
475,192,118573,1,4,2:0:0:0:
256,192,118573,128,4,119906:2:0:0:0:
36,192,119740,1,8,0:0:0:0:
109,192,119823,1,8,0:0:0:0:
329,192,119906,128,2,121240:2:0:0:0:
182,192,119906,1,0,0:0:0:0:
402,192,119906,1,0,0:0:0:0:
475,192,119906,1,0,0:0:0:0:
475,192,121073,1,8,0:0:0:0:
402,192,121156,1,8,0:0:0:0:
182,192,121240,128,2,122573:2:0:0:0:
256,192,121240,1,0,0:0:0:0:
109,192,121240,1,0,0:0:0:0:
36,192,121240,1,0,0:0:0:0:
402,192,122406,1,8,0:0:0:0:
329,192,122490,1,8,0:0:0:0:
36,192,122573,128,2,122906:2:0:0:0:
256,192,122573,1,0,0:0:0:0:
475,192,122573,1,0,0:0:0:0:
109,192,122573,1,0,0:0:0:0:
109,192,122906,128,2,123240:2:0:0:0:
182,192,123240,128,2,123573:2:0:0:0:
475,192,123240,1,0,0:0:0:0:
402,192,123281,1,0,0:0:0:0:
329,192,123323,1,0,0:0:0:0:
109,192,123406,1,8,0:0:0:0:
36,192,123406,1,8,0:0:0:0:
402,192,123490,1,0,0:0:0:0:
256,192,123573,128,2,123906:2:0:0:0:
36,192,123573,1,8,0:0:0:0:
109,192,123573,1,8,0:0:0:0:
329,192,123573,1,0,0:0:0:0:
475,192,123906,128,4,125240:2:0:0:0:
36,192,123906,1,4,2:0:0:0:
402,192,123906,1,4,2:0:0:0:
109,192,123990,1,2,2:0:0:0:
182,192,124073,1,2,2:0:0:0:
256,192,124156,1,2,2:0:0:0:
36,192,124240,1,8,0:0:0:0:
329,192,124240,1,8,0:0:0:0:
402,192,124240,1,8,0:0:0:0:
109,192,124323,1,2,2:0:0:0:
182,192,124406,1,2,2:0:0:0:
402,192,124490,1,2,2:0:0:0:
329,192,124573,1,2,2:0:0:0:
36,192,124573,1,0,0:0:0:0:
109,192,124656,1,2,2:0:0:0:
402,192,124740,1,2,2:0:0:0:
256,192,124740,1,0,0:0:0:0:
182,192,124823,1,2,2:0:0:0:
36,192,124906,1,8,0:0:0:0:
402,192,124906,1,8,0:0:0:0:
329,192,124906,1,8,0:0:0:0:
109,192,124990,1,2,2:0:0:0:
182,192,125073,1,2,2:0:0:0:
256,192,125156,1,2,2:0:0:0:
109,192,125240,128,0,126573:0:0:0:0:
329,192,125240,1,2,2:0:0:0:
36,192,125240,1,2,2:0:0:0:
182,192,125240,1,2,2:0:0:0:
402,192,125323,1,2,2:0:0:0:
256,192,125406,1,2,2:0:0:0:
329,192,125490,1,2,2:0:0:0:
402,192,125573,1,8,0:0:0:0:
475,192,125573,1,8,0:0:0:0:
182,192,125573,1,8,0:0:0:0:
36,192,125656,1,2,2:0:0:0:
329,192,125740,1,2,2:0:0:0:
256,192,125823,1,2,2:0:0:0:
182,192,125906,1,2,2:0:0:0:
475,192,125906,1,0,0:0:0:0:
402,192,125990,1,2,2:0:0:0:
329,192,126073,1,0,0:0:0:0:
36,192,126073,1,2,2:0:0:0:
182,192,126156,1,2,2:0:0:0:
256,192,126240,1,8,0:0:0:0:
402,192,126240,1,8,0:0:0:0:
475,192,126240,1,8,0:0:0:0:
36,192,126323,1,2,2:0:0:0:
182,192,126406,1,2,2:0:0:0:
329,192,126490,1,2,2:0:0:0:
256,192,126573,128,2,127906:2:0:0:0:
402,192,126573,1,2,2:0:0:0:
182,192,126740,1,8,0:0:0:0:
109,192,126823,1,8,0:0:0:0:
36,192,126906,128,0,127073:0:0:0:0:
402,192,127073,1,0,0:0:0:0:
475,192,127073,1,0,0:0:0:0:
109,192,127240,1,8,0:0:0:0:
182,192,127323,1,8,0:0:0:0:
329,192,127406,128,0,127573:0:0:0:0:
36,192,127573,1,0,0:0:0:0:
109,192,127573,1,0,0:0:0:0:
182,192,127740,1,8,0:0:0:0:
329,192,127823,1,8,0:0:0:0:
36,192,127906,128,4,128073:2:0:0:0:
402,192,127906,128,4,129240:2:0:0:0:
475,192,127906,1,4,2:0:0:0:
109,192,128073,1,0,0:0:0:0:
182,192,128073,1,0,0:0:0:0:
256,192,128240,1,8,0:0:0:0:
329,192,128323,1,8,0:0:0:0:
475,192,128406,128,0,128573:0:0:0:0:
36,192,128573,1,0,0:0:0:0:
109,192,128573,1,0,0:0:0:0:
182,192,128656,1,8,0:0:0:0:
256,192,128740,1,8,0:0:0:0:
36,192,128906,128,0,129073:0:0:0:0:
329,192,128906,1,8,0:0:0:0:
256,192,128990,1,8,0:0:0:0:
182,192,129073,1,8,0:0:0:0:
475,192,129073,1,8,0:0:0:0:
109,192,129240,128,4,130573:2:0:0:0:
256,192,129240,1,12,2:0:0:0:
36,192,129240,1,4,2:0:0:0:
329,192,129406,1,8,0:0:0:0:
475,192,129406,1,0,0:0:0:0:
182,192,129573,1,0,0:0:0:0:
402,192,129573,1,0,0:0:0:0:
36,192,129740,1,0,0:0:0:0:
256,192,129740,1,8,0:0:0:0:
475,192,129740,1,0,0:0:0:0:
402,192,129906,1,0,0:0:0:0:
182,192,129906,1,0,0:0:0:0:
329,192,129906,1,8,0:0:0:0:
475,192,130073,1,0,0:0:0:0:
256,192,130073,1,8,0:0:0:0:
36,192,130073,1,0,0:0:0:0:
182,192,130240,1,0,0:0:0:0:
329,192,130240,1,8,0:0:0:0:
402,192,130240,1,0,0:0:0:0:
402,192,130406,1,0,0:0:0:0:
182,192,130573,1,6,2:0:0:0:
36,192,130573,1,8,0:0:0:0:
256,192,130573,1,2,2:0:0:0:
329,192,130573,1,6,2:0:0:0:
475,192,130573,1,8,0:0:0:0:
36,192,130740,1,8,0:0:0:0:
182,192,130740,1,6,2:0:0:0:
256,192,130740,1,2,2:0:0:0:
329,192,130740,1,6,2:0:0:0:
475,192,130740,1,8,0:0:0:0:
475,192,130906,1,8,0:0:0:0:
329,192,130906,1,6,2:0:0:0:
256,192,130906,1,2,2:0:0:0:
182,192,130906,1,6,2:0:0:0:
36,192,130906,1,8,0:0:0:0:
402,192,131240,128,0,131906:0:0:0:0:
256,192,131240,1,8,0:0:0:0:
109,192,131240,1,8,0:0:0:0:
109,192,131490,1,8,0:0:0:0:
256,192,131490,1,8,0:0:0:0:
256,192,131740,1,8,0:0:0:0:
109,192,131740,1,8,0:0:0:0:
36,192,131906,128,6,132573:2:0:0:0:
182,192,131906,128,6,132573:2:0:0:0:
329,192,131906,128,4,132573:2:0:0:0:
475,192,131906,1,4,2:0:0:0:
256,192,132073,1,0,0:0:0:0:
402,192,132240,1,8,0:0:0:0:
109,192,132240,1,8,0:0:0:0:
475,192,132406,1,0,0:0:0:0:
256,192,132573,128,2,133240:2:0:0:0:
109,192,132573,128,2,133240:2:0:0:0:
402,192,132573,128,0,133240:0:0:0:0:
182,192,132740,1,0,0:0:0:0:
329,192,132906,1,8,0:0:0:0:
475,192,132906,1,8,0:0:0:0:
36,192,133073,1,0,0:0:0:0:
182,192,133240,128,2,133906:2:0:0:0:
329,192,133240,128,2,133906:2:0:0:0:
475,192,133240,128,0,133906:0:0:0:0:
109,192,133406,1,0,0:0:0:0:
256,192,133573,1,8,0:0:0:0:
402,192,133573,1,8,0:0:0:0:
36,192,133740,1,0,0:0:0:0:
256,192,133906,128,2,134573:2:0:0:0:
402,192,133906,128,0,134573:0:0:0:0:
109,192,133906,128,2,134573:2:0:0:0:
182,192,134073,1,0,0:0:0:0:
36,192,134240,1,8,0:0:0:0:
329,192,134240,1,8,0:0:0:0:
475,192,134406,1,0,0:0:0:0:
36,192,134573,128,2,135240:2:0:0:0:
182,192,134573,128,2,135240:2:0:0:0:
329,192,134573,128,0,135240:0:0:0:0:
256,192,134740,1,0,0:0:0:0:
109,192,134906,1,8,0:0:0:0:
402,192,134906,1,8,0:0:0:0:
475,192,135073,1,0,0:0:0:0:
109,192,135240,128,2,135906:2:0:0:0:
256,192,135240,128,2,135906:2:0:0:0:
402,192,135240,128,0,135906:0:0:0:0:
182,192,135406,1,0,0:0:0:0:
329,192,135573,1,8,0:0:0:0:
475,192,135573,1,8,0:0:0:0:
36,192,135740,1,0,0:0:0:0:
182,192,135906,128,2,136906:2:0:0:0:
329,192,135906,128,2,136906:2:0:0:0:
475,192,135906,128,0,136906:0:0:0:0:
256,192,136073,1,0,0:0:0:0:
402,192,136240,1,8,0:0:0:0:
109,192,136240,1,8,0:0:0:0:
36,192,136406,1,0,0:0:0:0:
402,192,136573,1,0,0:0:0:0:
36,192,136740,1,0,0:0:0:0:
109,192,136906,128,8,137240:0:0:0:0:
256,192,136906,128,2,137240:2:0:0:0:
402,192,136906,1,8,0:0:0:0:
329,192,137240,128,4,138573:2:0:0:0:
475,192,137240,1,4,2:0:0:0:
36,192,137240,1,4,2:0:0:0:
109,192,137323,1,0,0:0:0:0:
182,192,137406,1,0,0:0:0:0:
256,192,137490,1,0,0:0:0:0:
475,192,137573,1,8,0:0:0:0:
109,192,137573,1,8,0:0:0:0:
402,192,137656,1,0,0:0:0:0:
182,192,137740,128,2,137906:2:0:0:0:
36,192,137740,1,0,0:0:0:0:
109,192,137823,1,0,0:0:0:0:
256,192,137906,128,2,138240:2:0:0:0:
402,192,137906,1,0,0:0:0:0:
475,192,137906,1,0,0:0:0:0:
36,192,137990,1,0,0:0:0:0:
109,192,138073,1,0,0:0:0:0:
475,192,138156,1,0,0:0:0:0:
402,192,138240,128,2,138573:2:0:0:0:
182,192,138240,1,8,0:0:0:0:
36,192,138240,1,8,0:0:0:0:
475,192,138323,1,0,0:0:0:0:
109,192,138406,128,2,138573:2:0:0:0:
182,192,138406,1,0,0:0:0:0:
256,192,138490,1,0,0:0:0:0:
475,192,138573,128,0,139906:0:0:0:0:
182,192,138573,128,2,138906:2:0:0:0:
36,192,138573,128,2,138906:2:0:0:0:
256,192,138906,128,2,139240:2:0:0:0:
109,192,138906,128,2,139240:2:0:0:0:
329,192,139240,128,2,139573:2:0:0:0:
182,192,139240,128,2,139573:2:0:0:0:
36,192,139240,128,2,139906:2:0:0:0:
256,192,139573,128,2,139906:2:0:0:0:
402,192,139573,128,2,139906:2:0:0:0:
329,192,139906,128,4,141240:2:0:0:0:
109,192,139906,1,4,2:0:0:0:
182,192,139990,1,0,0:0:0:0:
256,192,140073,1,0,0:0:0:0:
402,192,140156,1,0,0:0:0:0:
475,192,140240,1,8,0:0:0:0:
36,192,140240,1,8,0:0:0:0:
256,192,140323,1,0,0:0:0:0:
402,192,140406,1,0,0:0:0:0:
109,192,140406,128,2,140573:2:0:0:0:
475,192,140490,1,0,0:0:0:0:
182,192,140490,1,0,0:0:0:0:
36,192,140573,128,6,141240:2:0:0:0:
256,192,140573,1,4,2:0:0:0:
475,192,140656,1,0,0:0:0:0:
402,192,140740,1,0,0:0:0:0:
256,192,140823,1,0,0:0:0:0:
475,192,140906,1,8,0:0:0:0:
109,192,140906,1,8,0:0:0:0:
182,192,140990,1,0,0:0:0:0:
256,192,141073,1,0,0:0:0:0:
402,192,141156,1,0,0:0:0:0:
109,192,141240,1,4,0:0:0:0:
182,192,141240,128,6,141906:2:0:0:0:
475,192,141240,128,6,141906:2:0:0:0:
329,192,141573,128,2,141906:2:0:0:0:
256,192,141906,128,2,142573:2:0:0:0:
36,192,141906,1,0,0:0:0:0:
109,192,141906,1,0,0:0:0:0:
402,192,141990,1,0,0:0:0:0:
475,192,141990,1,0,0:0:0:0:
36,192,142073,1,0,0:0:0:0:
109,192,142073,1,0,0:0:0:0:
402,192,142156,1,0,0:0:0:0:
475,192,142156,1,0,0:0:0:0:
36,192,142240,1,0,0:0:0:0:
109,192,142240,1,0,0:0:0:0:
402,192,142323,1,0,0:0:0:0:
475,192,142323,1,0,0:0:0:0:
36,192,142406,1,0,0:0:0:0:
109,192,142406,1,0,0:0:0:0:
402,192,142490,1,0,0:0:0:0:
475,192,142490,1,0,0:0:0:0:
109,192,142573,1,4,2:0:0:0:
36,192,142573,128,4,143240:2:0:0:0:
182,192,142573,128,4,143240:2:0:0:0:
329,192,142573,128,4,143240:2:0:0:0:
256,192,142740,1,0,0:0:0:0:
109,192,142906,1,8,0:0:0:0:
402,192,142906,1,8,0:0:0:0:
475,192,143073,1,0,0:0:0:0:
109,192,143240,128,0,143906:0:0:0:0:
256,192,143240,128,0,143906:0:0:0:0:
402,192,143240,128,0,143906:0:0:0:0:
329,192,143406,1,0,0:0:0:0:
182,192,143573,1,8,0:0:0:0:
475,192,143573,1,8,0:0:0:0:
36,192,143740,1,0,0:0:0:0:
182,192,143906,128,0,144573:0:0:0:0:
329,192,143906,128,0,144573:0:0:0:0:
475,192,143906,128,0,144573:0:0:0:0:
256,192,144073,1,0,0:0:0:0:
402,192,144240,1,8,0:0:0:0:
109,192,144240,1,8,0:0:0:0:
36,192,144406,1,0,0:0:0:0:
402,192,144573,128,0,145240:0:0:0:0:
256,192,144573,128,0,145240:0:0:0:0:
109,192,144573,128,0,145240:0:0:0:0:
182,192,144740,1,0,0:0:0:0:
329,192,144906,1,8,0:0:0:0:
36,192,144906,1,8,0:0:0:0:
475,192,145073,1,0,0:0:0:0:
36,192,145240,128,0,145906:0:0:0:0:
182,192,145240,128,0,145906:0:0:0:0:
329,192,145240,128,0,145906:0:0:0:0:
402,192,145406,1,0,0:0:0:0:
256,192,145573,1,8,0:0:0:0:
109,192,145573,1,8,0:0:0:0:
475,192,145740,1,0,0:0:0:0:
109,192,145906,128,0,146573:0:0:0:0:
256,192,145906,128,0,146573:0:0:0:0:
402,192,145906,128,0,146573:0:0:0:0:
329,192,146073,1,0,0:0:0:0:
182,192,146240,1,8,0:0:0:0:
475,192,146240,1,8,0:0:0:0:
36,192,146406,1,0,0:0:0:0:
182,192,146573,128,0,147573:0:0:0:0:
329,192,146573,128,0,147573:0:0:0:0:
475,192,146573,128,0,147573:0:0:0:0:
402,192,146740,1,0,0:0:0:0:
256,192,146906,1,8,0:0:0:0:
109,192,146906,1,8,0:0:0:0:
36,192,147073,1,0,0:0:0:0:
402,192,147240,1,8,0:0:0:0:
109,192,147240,1,8,0:0:0:0:
256,192,147406,1,0,0:0:0:0:
36,192,147573,1,8,0:0:0:0:
402,192,147573,1,8,0:0:0:0:
109,192,147573,128,0,147906:0:0:0:0:
402,192,147906,1,4,0:0:0:0:
475,192,147906,1,2,2:0:0:0:
182,192,147990,1,4,0:0:0:0:
109,192,147990,1,2,2:0:0:0:
475,192,148073,1,2,2:0:0:0:
402,192,148073,1,4,0:0:0:0:
182,192,148156,1,4,0:0:0:0:
109,192,148156,1,2,2:0:0:0:
475,192,148240,1,2,2:0:0:0:
402,192,148240,1,4,0:0:0:0:
182,192,148323,1,4,0:0:0:0:
109,192,148323,1,2,2:0:0:0:
475,192,148406,1,2,2:0:0:0:
402,192,148406,1,4,0:0:0:0:
182,192,148490,1,4,0:0:0:0:
109,192,148490,1,2,2:0:0:0:
475,192,148573,1,2,2:0:0:0:
402,192,148573,1,4,0:0:0:0:
36,192,148906,1,4,2:0:0:0:
182,192,148906,1,4,2:0:0:0:
109,192,148906,1,4,2:0:0:0:
256,192,148906,1,2,0:0:0:0:
329,192,148906,1,2,0:0:0:0:
36,192,149240,1,2,2:0:0:0:
109,192,149240,1,4,0:0:0:0:
329,192,149323,1,4,0:0:0:0:
402,192,149323,1,2,2:0:0:0:
36,192,149406,1,2,2:0:0:0:
109,192,149406,1,4,0:0:0:0:
329,192,149490,1,4,0:0:0:0:
402,192,149490,1,2,2:0:0:0:
36,192,149573,1,2,2:0:0:0:
109,192,149573,1,4,0:0:0:0:
329,192,149656,1,4,0:0:0:0:
402,192,149656,1,2,2:0:0:0:
36,192,149740,1,2,2:0:0:0:
109,192,149740,1,4,0:0:0:0:
329,192,149823,1,4,0:0:0:0:
402,192,149823,1,2,2:0:0:0:
36,192,149906,1,2,2:0:0:0:
109,192,149906,1,4,0:0:0:0:
256,192,150240,1,4,2:0:0:0:
329,192,150240,1,4,2:0:0:0:
402,192,150240,1,2,0:0:0:0:
475,192,150240,1,2,0:0:0:0:
182,192,150240,1,4,2:0:0:0:
182,192,150573,128,2,151906:2:0:0:0:
36,192,150573,128,2,151240:2:0:0:0:
109,192,150906,128,2,150990:2:0:0:0:
256,192,150990,128,2,151073:2:0:0:0:
329,192,151073,128,2,151156:2:0:0:0:
402,192,151156,128,2,151240:2:0:0:0:
256,192,151240,128,2,151573:2:0:0:0:
475,192,151240,128,2,151406:2:0:0:0:
109,192,151406,128,2,151573:2:0:0:0:
329,192,151573,128,2,151906:2:0:0:0:
36,192,151573,128,2,151740:2:0:0:0:
402,192,151740,128,2,151906:2:0:0:0:
475,192,151906,128,2,153240:2:0:0:0:
256,192,151906,128,2,152240:2:0:0:0:
109,192,151906,128,2,152573:2:0:0:0:
36,192,152240,128,2,152573:2:0:0:0:
182,192,152573,128,2,153240:2:0:0:0:
256,192,152573,1,0,0:0:0:0:
329,192,152573,1,0,0:0:0:0:
36,192,152656,1,0,0:0:0:0:
109,192,152656,1,0,0:0:0:0:
256,192,152740,1,0,0:0:0:0:
329,192,152740,1,0,0:0:0:0:
36,192,152823,1,0,0:0:0:0:
109,192,152823,1,0,0:0:0:0:
256,192,152906,1,0,0:0:0:0:
329,192,152906,1,0,0:0:0:0:
36,192,152990,1,0,0:0:0:0:
109,192,152990,1,0,0:0:0:0:
256,192,153073,1,0,0:0:0:0:
329,192,153073,1,0,0:0:0:0:
36,192,153156,1,0,0:0:0:0:
109,192,153156,1,0,0:0:0:0:
256,192,153240,1,4,2:0:0:0:
329,192,153240,1,4,2:0:0:0:
402,192,153240,128,4,155906:2:0:0:0:
109,192,153573,128,2,153823:2:0:0:0:
36,192,153573,1,8,0:0:0:0:
329,192,153573,1,8,0:0:0:0:
475,192,153573,1,8,0:0:0:0:
182,192,153740,128,2,153990:2:0:0:0:
256,192,153906,128,2,154156:2:0:0:0:
36,192,153906,1,0,0:0:0:0:
109,192,153906,1,0,0:0:0:0:
329,192,154073,128,2,154323:2:0:0:0:
36,192,154073,1,0,0:0:0:0:
109,192,154073,1,0,0:0:0:0:
475,192,154240,128,2,154490:2:0:0:0:
109,192,154240,1,8,0:0:0:0:
36,192,154240,1,8,0:0:0:0:
256,192,154240,1,8,0:0:0:0:
182,192,154406,128,2,154656:2:0:0:0:
109,192,154573,128,2,154823:2:0:0:0:
329,192,154573,1,0,0:0:0:0:
475,192,154573,1,0,0:0:0:0:
36,192,154740,128,2,154990:2:0:0:0:
256,192,154906,128,2,155156:2:0:0:0:
109,192,154906,1,8,0:0:0:0:
182,192,154906,1,8,0:0:0:0:
475,192,154906,1,8,0:0:0:0:
329,192,155073,128,2,155323:2:0:0:0:
475,192,155240,128,2,155490:2:0:0:0:
36,192,155240,1,0,0:0:0:0:
109,192,155240,1,0,0:0:0:0:
182,192,155406,128,2,155656:2:0:0:0:
36,192,155406,1,0,0:0:0:0:
109,192,155406,1,0,0:0:0:0:
256,192,155573,128,2,155823:2:0:0:0:
36,192,155573,1,8,0:0:0:0:
109,192,155573,1,8,0:0:0:0:
475,192,155573,1,8,0:0:0:0:
329,192,155740,128,2,155990:2:0:0:0:
36,192,155906,1,0,0:0:0:0:
109,192,155906,1,0,0:0:0:0:
475,192,155906,128,0,158573:0:0:0:0:
256,192,156240,128,2,156406:2:0:0:0:
36,192,156240,1,8,0:0:0:0:
109,192,156240,1,8,0:0:0:0:
402,192,156240,1,8,0:0:0:0:
182,192,156406,128,2,156740:2:0:0:0:
402,192,156573,128,2,156906:2:0:0:0:
256,192,156573,1,0,0:0:0:0:
329,192,156573,1,0,0:0:0:0:
109,192,156740,128,2,156906:2:0:0:0:
256,192,156740,1,0,0:0:0:0:
329,192,156740,1,0,0:0:0:0:
36,192,156906,128,2,157240:2:0:0:0:
182,192,156906,1,8,0:0:0:0:
256,192,156906,1,8,0:0:0:0:
329,192,156906,1,8,0:0:0:0:
109,192,157240,128,2,157573:2:0:0:0:
256,192,157240,128,2,157573:2:0:0:0:
329,192,157240,1,0,0:0:0:0:
402,192,157240,1,0,0:0:0:0:
182,192,157573,128,2,157906:2:0:0:0:
36,192,157573,1,8,0:0:0:0:
329,192,157573,1,8,0:0:0:0:
402,192,157573,1,8,0:0:0:0:
256,192,157740,128,2,157906:2:0:0:0:
329,192,157906,128,2,158240:2:0:0:0:
36,192,157906,1,0,0:0:0:0:
109,192,157906,1,0,0:0:0:0:
182,192,158073,128,2,158240:2:0:0:0:
36,192,158073,1,0,0:0:0:0:
109,192,158073,1,0,0:0:0:0:
402,192,158240,128,2,158406:2:0:0:0:
256,192,158240,128,2,158573:2:0:0:0:
36,192,158240,1,8,0:0:0:0:
109,192,158240,1,8,0:0:0:0:
36,192,158573,128,2,158740:2:0:0:0:
329,192,158573,128,2,158740:2:0:0:0:
109,192,158656,128,2,158823:2:0:0:0:
402,192,158656,128,2,158823:2:0:0:0:
182,192,158740,128,2,158906:2:0:0:0:
475,192,158740,128,2,158906:2:0:0:0:
256,192,158906,128,4,159906:2:0:0:0:
36,192,158906,1,4,2:0:0:0:
109,192,158906,1,4,2:0:0:0:
329,192,158906,1,4,2:0:0:0:
402,192,159240,1,0,0:0:0:0:
475,192,159240,1,0,0:0:0:0:
402,192,159406,1,0,0:0:0:0:
475,192,159406,1,0,0:0:0:0:
329,192,159573,128,2,159906:2:0:0:0:
109,192,159573,128,2,160573:2:0:0:0:
475,192,159573,1,8,0:0:0:0:
402,192,159573,1,8,0:0:0:0:
36,192,159573,1,8,0:0:0:0:
475,192,159906,128,2,160906:2:0:0:0:
182,192,159906,1,0,0:0:0:0:
36,192,159906,1,0,0:0:0:0:
256,192,160240,1,8,0:0:0:0:
329,192,160240,1,8,0:0:0:0:
402,192,160240,1,8,0:0:0:0:
36,192,160573,128,2,160906:2:0:0:0:
256,192,160573,1,0,0:0:0:0:
329,192,160573,1,0,0:0:0:0:
256,192,160740,1,0,0:0:0:0:
329,192,160740,1,0,0:0:0:0:
182,192,160906,128,0,161240:0:0:0:0:
402,192,160906,128,0,161240:0:0:0:0:
256,192,160906,1,8,0:0:0:0:
329,192,160906,1,8,0:0:0:0:
109,192,160906,1,8,0:0:0:0:
256,192,161240,128,4,163906:2:0:0:0:
36,192,161240,1,4,2:0:0:0:
475,192,161240,1,4,2:0:0:0:
109,192,161240,1,4,2:0:0:0:
329,192,161573,1,8,0:0:0:0:
402,192,161573,1,8,0:0:0:0:
475,192,161573,1,8,0:0:0:0:
402,192,161906,1,0,0:0:0:0:
475,192,161906,1,0,0:0:0:0:
402,192,162073,1,0,0:0:0:0:
475,192,162073,1,0,0:0:0:0:
182,192,162156,128,2,162573:2:0:0:0:
402,192,162240,1,8,0:0:0:0:
475,192,162240,1,8,0:0:0:0:
109,192,162240,1,8,0:0:0:0:
36,192,162573,128,2,162740:2:0:0:0:
109,192,162656,128,2,162823:2:0:0:0:
182,192,162740,128,2,162906:2:0:0:0:
475,192,162823,128,2,162990:2:0:0:0:
402,192,162906,128,2,163073:2:0:0:0:
329,192,162990,128,2,163156:2:0:0:0:
36,192,163073,128,2,163240:2:0:0:0:
109,192,163156,128,2,163323:2:0:0:0:
182,192,163240,128,2,163406:2:0:0:0:
475,192,163323,128,2,163490:2:0:0:0:
402,192,163406,128,2,163573:2:0:0:0:
329,192,163490,128,2,163656:2:0:0:0:
36,192,163573,128,2,163740:2:0:0:0:
109,192,163656,128,2,163823:2:0:0:0:
182,192,163740,128,2,163906:2:0:0:0:
329,192,163823,128,2,163990:2:0:0:0:
402,192,163906,128,2,164073:2:0:0:0:
36,192,164240,1,8,0:0:0:0:
109,192,164240,1,8,0:0:0:0:
182,192,164240,1,8,0:0:0:0:
402,192,164573,1,0,0:0:0:0:
475,192,164573,1,0,0:0:0:0:
402,192,164740,1,0,0:0:0:0:
475,192,164740,1,0,0:0:0:0:
402,192,164906,1,8,0:0:0:0:
475,192,164906,1,8,0:0:0:0:
36,192,164906,1,8,0:0:0:0:
256,192,165240,1,0,0:0:0:0:
329,192,165240,1,0,0:0:0:0:
402,192,165573,1,8,0:0:0:0:
475,192,165573,1,8,0:0:0:0:
329,192,165573,1,8,0:0:0:0:
329,192,165906,1,0,0:0:0:0:
475,192,165906,1,0,0:0:0:0:
329,192,166073,1,0,0:0:0:0:
475,192,166073,1,0,0:0:0:0:
329,192,166240,1,8,0:0:0:0:
475,192,166240,1,8,0:0:0:0:
182,192,166240,1,8,0:0:0:0:
256,192,166406,1,0,0:0:0:0:
402,192,166573,1,0,0:0:0:0:
329,192,166573,1,0,0:0:0:0:
36,192,166740,1,0,0:0:0:0:
109,192,166740,1,0,0:0:0:0:
36,192,166906,1,8,0:0:0:0:
109,192,166906,1,8,0:0:0:0:
182,192,166906,1,8,0:0:0:0:
475,192,167240,1,0,0:0:0:0:
402,192,167240,1,0,0:0:0:0:
402,192,167406,1,0,0:0:0:0:
475,192,167406,1,0,0:0:0:0:
109,192,167573,1,8,0:0:0:0:
182,192,167573,1,8,0:0:0:0:
256,192,167573,1,8,0:0:0:0:
36,192,167906,1,0,0:0:0:0:
109,192,167906,1,0,0:0:0:0:
475,192,167906,128,2,168573:2:0:0:0:
36,192,168240,1,8,0:0:0:0:
109,192,168240,1,8,0:0:0:0:
329,192,168240,1,8,0:0:0:0:
402,192,168573,128,2,168906:2:0:0:0:
36,192,168573,1,0,0:0:0:0:
109,192,168573,1,0,0:0:0:0:
36,192,168740,1,0,0:0:0:0:
109,192,168740,1,0,0:0:0:0:
329,192,168906,128,2,169240:2:0:0:0:
36,192,168906,1,8,0:0:0:0:
109,192,168906,1,8,0:0:0:0:
475,192,168906,1,8,0:0:0:0:
182,192,169073,128,2,169240:2:0:0:0:
109,192,169240,128,2,170573:2:0:0:0:
402,192,169240,1,0,0:0:0:0:
475,192,169240,1,0,0:0:0:0:
182,192,169573,128,2,169906:2:0:0:0:
329,192,169573,128,8,169906:0:0:0:0:
402,192,169573,1,8,0:0:0:0:
475,192,169573,1,8,0:0:0:0:
256,192,169906,128,2,170240:2:0:0:0:
402,192,169906,128,2,170240:2:0:0:0:
36,192,169906,1,0,0:0:0:0:
475,192,169906,1,0,0:0:0:0:
182,192,170073,1,0,0:0:0:0:
36,192,170073,1,0,0:0:0:0:
329,192,170240,128,8,170573:0:0:0:0:
475,192,170240,128,2,170573:2:0:0:0:
36,192,170240,1,8,0:0:0:0:
182,192,170240,1,8,0:0:0:0:
182,192,170573,128,2,171906:2:0:0:0:
402,192,170740,1,0,0:0:0:0:
475,192,170740,1,0,0:0:0:0:
36,192,170906,128,2,171240:2:0:0:0:
256,192,170906,128,2,171240:2:0:0:0:
402,192,170906,1,8,0:0:0:0:
329,192,170906,1,8,0:0:0:0:
475,192,170906,1,8,0:0:0:0:
109,192,171240,128,2,171573:2:0:0:0:
329,192,171240,128,2,171573:2:0:0:0:
402,192,171240,1,0,0:0:0:0:
475,192,171240,1,0,0:0:0:0:
402,192,171406,1,0,0:0:0:0:
475,192,171406,1,0,0:0:0:0:
256,192,171573,128,2,171906:2:0:0:0:
475,192,171573,128,8,171906:0:0:0:0:
402,192,171573,1,8,0:0:0:0:
36,192,171573,1,8,0:0:0:0:
402,192,171906,128,2,173240:2:0:0:0:
36,192,172240,128,2,172573:2:0:0:0:
182,192,172240,128,2,172573:2:0:0:0:
329,192,172240,1,8,0:0:0:0:
256,192,172240,1,8,0:0:0:0:
475,192,172240,1,8,0:0:0:0:
109,192,172573,128,2,172906:2:0:0:0:
256,192,172573,128,2,172906:2:0:0:0:
475,192,172573,1,0,0:0:0:0:
329,192,172573,1,0,0:0:0:0:
475,192,172740,1,0,0:0:0:0:
36,192,172740,1,0,0:0:0:0:
182,192,172906,128,2,173240:2:0:0:0:
329,192,172906,128,8,173240:0:0:0:0:
475,192,172906,1,8,0:0:0:0:
36,192,173073,1,0,0:0:0:0:
109,192,173073,1,0,0:0:0:0:
109,192,173240,128,2,174573:2:0:0:0:
256,192,173240,128,2,173573:2:0:0:0:
475,192,173240,128,2,173573:2:0:0:0:
329,192,173406,1,0,0:0:0:0:
36,192,173406,1,0,0:0:0:0:
402,192,173573,128,2,173906:2:0:0:0:
182,192,173573,128,8,173906:0:0:0:0:
36,192,173573,1,8,0:0:0:0:
36,192,173906,128,2,174240:2:0:0:0:
329,192,173906,128,2,174240:2:0:0:0:
256,192,173906,1,0,0:0:0:0:
475,192,173906,1,0,0:0:0:0:
182,192,174073,1,0,0:0:0:0:
256,192,174156,1,0,0:0:0:0:
182,192,174240,128,2,174573:2:0:0:0:
402,192,174240,128,2,174573:2:0:0:0:
475,192,174240,1,0,0:0:0:0:
36,192,174323,1,0,0:0:0:0:
256,192,174406,1,0,0:0:0:0:
329,192,174490,1,0,0:0:0:0:
475,192,174573,1,4,2:0:0:0:
36,192,174573,128,4,175906:2:0:0:0:
256,192,174906,1,8,0:0:0:0:
329,192,174906,1,8,0:0:0:0:
109,192,174906,1,8,0:0:0:0:
402,192,175240,1,0,0:0:0:0:
475,192,175240,1,0,0:0:0:0:
402,192,175406,1,0,0:0:0:0:
475,192,175406,1,0,0:0:0:0:
402,192,175573,1,8,0:0:0:0:
475,192,175573,1,8,0:0:0:0:
256,192,175573,1,8,0:0:0:0:
329,192,175906,128,2,177240:2:0:0:0:
109,192,175906,128,2,176240:2:0:0:0:
475,192,175906,1,0,0:0:0:0:
402,192,175906,1,0,0:0:0:0:
182,192,176240,128,2,176573:2:0:0:0:
475,192,176240,1,8,0:0:0:0:
402,192,176240,1,8,0:0:0:0:
36,192,176240,1,8,0:0:0:0:
256,192,176573,128,2,176906:2:0:0:0:
109,192,176573,1,0,0:0:0:0:
36,192,176573,1,0,0:0:0:0:
36,192,176740,1,0,0:0:0:0:
109,192,176740,1,0,0:0:0:0:
402,192,176906,128,2,177240:2:0:0:0:
36,192,176906,1,8,0:0:0:0:
109,192,176906,1,8,0:0:0:0:
475,192,176906,1,8,0:0:0:0:
475,192,177240,128,2,178573:2:0:0:0:
182,192,177573,128,8,178573:0:0:0:0:
109,192,177573,1,8,0:0:0:0:
256,192,177573,1,8,0:0:0:0:
329,192,177906,1,0,0:0:0:0:
402,192,177906,1,0,0:0:0:0:
329,192,178073,1,0,0:0:0:0:
402,192,178073,1,0,0:0:0:0:
329,192,178240,1,8,0:0:0:0:
402,192,178240,1,8,0:0:0:0:
109,192,178240,1,8,0:0:0:0:
36,192,178573,128,2,179906:2:0:0:0:
256,192,178573,128,2,178740:2:0:0:0:
402,192,178740,1,0,0:0:0:0:
329,192,178906,1,8,0:0:0:0:
475,192,178906,1,8,0:0:0:0:
182,192,179073,1,8,0:0:0:0:
256,192,179156,1,8,0:0:0:0:
329,192,179240,1,0,0:0:0:0:
402,192,179240,1,0,0:0:0:0:
109,192,179406,1,0,0:0:0:0:
182,192,179406,1,0,0:0:0:0:
402,192,179573,1,0,0:0:0:0:
475,192,179573,1,0,0:0:0:0:
109,192,179740,1,0,0:0:0:0:
182,192,179740,1,0,0:0:0:0:
402,192,179906,1,4,2:0:0:0:
475,192,179906,1,4,2:0:0:0:
329,192,179906,1,4,2:0:0:0:
256,192,179906,128,4,181240:2:0:0:0:
329,192,180406,1,8,0:0:0:0:
402,192,180490,1,8,0:0:0:0:
475,192,180573,1,4,2:0:0:0:
182,192,180573,1,4,2:0:0:0:
109,192,180573,1,4,2:0:0:0:
36,192,180573,1,4,2:0:0:0:
402,192,180906,1,0,0:0:0:0:
402,192,181073,1,8,0:0:0:0:
475,192,181073,1,8,0:0:0:0:
109,192,181073,1,8,0:0:0:0:
36,192,181073,1,8,0:0:0:0:
109,192,181240,1,0,0:0:0:0:
329,192,181240,128,2,181990:2:0:0:0:
402,192,181406,1,0,0:0:0:0:
475,192,181406,1,0,0:0:0:0:
36,192,181740,1,8,0:0:0:0:
109,192,181740,1,8,0:0:0:0:
402,192,181823,1,8,0:0:0:0:
475,192,181823,1,8,0:0:0:0:
256,192,181906,1,0,0:0:0:0:
109,192,181906,1,0,0:0:0:0:
36,192,181906,1,0,0:0:0:0:
182,192,181990,128,2,182240:2:0:0:0:
402,192,182073,1,8,0:0:0:0:
475,192,182073,1,8,0:0:0:0:
109,192,182073,1,8,0:0:0:0:
256,192,182240,128,2,182406:2:0:0:0:
329,192,182406,128,2,182573:2:0:0:0:
36,192,182573,1,4,2:0:0:0:
109,192,182573,1,4,2:0:0:0:
402,192,182573,1,4,2:0:0:0:
475,192,182573,1,4,2:0:0:0:
182,192,182573,128,6,183906:2:0:0:0:
256,192,183073,1,8,0:0:0:0:
329,192,183156,1,8,0:0:0:0:
402,192,183240,1,8,0:0:0:0:
475,192,183240,1,8,0:0:0:0:
36,192,183406,1,0,0:0:0:0:
256,192,183573,1,0,0:0:0:0:
329,192,183740,1,8,0:0:0:0:
402,192,183823,1,8,0:0:0:0:
109,192,183906,1,0,0:0:0:0:
36,192,183906,1,0,0:0:0:0:
475,192,183906,1,0,0:0:0:0:
36,192,184073,1,8,0:0:0:0:
109,192,184073,1,8,0:0:0:0:
182,192,184073,1,8,0:0:0:0:
402,192,184240,1,0,0:0:0:0:
329,192,184323,1,0,0:0:0:0:
256,192,184406,1,0,0:0:0:0:
109,192,184406,1,0,0:0:0:0:
475,192,184490,1,0,0:0:0:0:
402,192,184573,1,0,0:0:0:0:
182,192,184573,1,0,0:0:0:0:
36,192,184656,1,0,0:0:0:0:
109,192,184740,1,0,0:0:0:0:
182,192,184823,1,0,0:0:0:0:
256,192,184906,1,0,0:0:0:0:
475,192,184990,1,0,0:0:0:0:
402,192,185073,1,0,0:0:0:0:
329,192,185156,1,0,0:0:0:0:
36,192,185240,1,0,0:0:0:0:
109,192,185240,1,4,2:0:0:0:
402,192,185240,1,4,2:0:0:0:
475,192,185240,1,0,0:0:0:0:
256,192,185240,128,4,187906:2:0:0:0:
329,192,186573,128,2,187906:2:0:0:0:
36,192,187823,1,8,0:0:0:0:
109,192,187823,1,8,0:0:0:0:
402,192,187906,1,8,0:0:0:0:
475,192,187906,1,8,0:0:0:0:
182,192,187906,128,8,189240:0:0:0:0:
329,192,188406,128,0,188573:3:0:0:0:
402,192,188573,128,0,188740:3:0:0:0:
109,192,189240,128,2,190573:2:0:0:0:
256,192,189740,128,0,189906:0:0:0:0:
182,192,189906,128,0,190073:0:0:0:0:
182,192,190406,1,8,0:0:0:0:
256,192,190490,1,8,0:0:0:0:
329,192,190573,128,2,191240:2:0:0:0:
402,192,190573,1,0,0:0:0:0:
475,192,190573,1,0,0:0:0:0:
402,192,191240,128,2,191906:2:0:0:0:
256,192,191240,128,0,191406:0:0:0:0:
475,192,191906,128,2,193240:2:0:0:0:
256,192,192573,128,0,192740:0:0:0:0:
329,192,193073,1,8,0:0:0:0:
256,192,193156,1,8,0:0:0:0:
36,192,193240,128,2,193906:2:0:0:0:
182,192,193240,1,0,0:0:0:0:
109,192,193240,1,0,0:0:0:0:
402,192,193573,128,0,193740:0:0:0:0:
109,192,193906,128,2,194573:2:0:0:0:
329,192,193906,128,0,194073:0:0:0:0:
182,192,194573,128,2,195240:2:0:0:0:
256,192,195240,128,2,195906:2:0:0:0:
109,192,195240,128,0,195406:0:0:0:0:
36,192,195740,1,8,0:0:0:0:
109,192,195823,1,8,0:0:0:0:
329,192,195906,128,2,196573:2:0:0:0:
402,192,195906,1,0,0:0:0:0:
475,192,195906,1,0,0:0:0:0:
402,192,196573,128,2,197240:2:0:0:0:
475,192,197240,128,2,198573:2:0:0:0:
256,192,197906,128,0,198073:0:0:0:0:
36,192,198406,1,8,3:0:0:0:
109,192,198490,1,8,3:0:0:0:
182,192,198573,1,0,3:0:0:0:
256,192,198573,1,0,3:0:0:0:
329,192,198573,1,0,3:0:0:0:
182,192,198906,1,0,3:0:0:0:
256,192,198906,1,0,3:0:0:0:
329,192,198906,1,0,3:0:0:0:
182,192,199240,1,0,3:0:0:0:
256,192,199240,1,0,3:0:0:0:
329,192,199240,1,0,3:0:0:0:
182,192,199573,1,0,3:0:0:0:
329,192,199573,1,0,3:0:0:0:
256,192,199573,1,0,3:0:0:0:
36,192,199740,1,10,3:0:0:0:
109,192,199740,1,10,3:0:0:0:
402,192,199740,1,10,3:0:0:0:
475,192,199740,1,10,3:0:0:0:
182,192,199906,1,0,3:0:0:0:
256,192,199906,1,0,3:0:0:0:
329,192,199906,1,0,3:0:0:0:
36,192,200073,1,10,3:0:0:0:
109,192,200073,1,10,3:0:0:0:
402,192,200073,1,10,3:0:0:0:
475,192,200073,1,10,3:0:0:0:
182,192,200240,1,0,3:0:0:0:
256,192,200240,1,0,3:0:0:0:
329,192,200240,1,0,3:0:0:0:
182,192,200573,1,0,3:0:0:0:
256,192,200573,1,0,3:0:0:0:
329,192,200573,1,0,3:0:0:0:
109,192,200740,1,0,3:0:0:0:
36,192,200740,1,0,3:0:0:0:
402,192,200823,1,0,3:0:0:0:
475,192,200823,1,0,3:0:0:0:
36,192,200906,1,0,3:0:0:0:
109,192,200906,1,0,3:0:0:0:
402,192,200990,1,0,3:0:0:0:
475,192,200990,1,0,3:0:0:0:
36,192,201073,1,0,3:0:0:0:
109,192,201073,1,0,3:0:0:0:
402,192,201156,1,0,3:0:0:0:
475,192,201156,1,0,3:0:0:0:
182,192,201240,1,0,3:0:0:0:
256,192,201240,1,0,3:0:0:0:
329,192,201240,1,0,3:0:0:0:
109,192,201573,1,0,3:0:0:0:
36,192,201573,1,0,3:0:0:0:
182,192,201573,1,0,3:0:0:0:
329,192,201906,1,0,3:0:0:0:
402,192,201906,1,0,3:0:0:0:
475,192,201906,1,0,3:0:0:0:
182,192,202240,1,0,3:0:0:0:
256,192,202240,1,0,3:0:0:0:
329,192,202240,1,0,3:0:0:0:
36,192,202406,1,10,3:0:0:0:
109,192,202406,1,10,3:0:0:0:
402,192,202406,1,10,3:0:0:0:
475,192,202406,1,10,3:0:0:0:
182,192,202573,1,0,3:0:0:0:
256,192,202573,1,0,3:0:0:0:
329,192,202573,1,0,3:0:0:0:
36,192,202740,1,10,3:0:0:0:
109,192,202740,1,10,3:0:0:0:
402,192,202740,1,10,3:0:0:0:
475,192,202740,1,10,3:0:0:0:
182,192,202906,1,0,3:0:0:0:
256,192,202906,1,0,3:0:0:0:
329,192,202906,1,0,3:0:0:0:
182,192,203240,1,0,3:0:0:0:
256,192,203240,1,0,3:0:0:0:
329,192,203240,1,0,3:0:0:0:
109,192,203406,1,0,3:0:0:0:
182,192,203406,1,0,3:0:0:0:
329,192,203490,1,0,3:0:0:0:
402,192,203490,1,0,3:0:0:0:
109,192,203573,1,0,3:0:0:0:
182,192,203573,1,0,3:0:0:0:
329,192,203656,1,0,3:0:0:0:
402,192,203656,1,0,3:0:0:0:
109,192,203740,1,0,3:0:0:0:
182,192,203740,1,0,3:0:0:0:
329,192,203823,1,0,3:0:0:0:
402,192,203823,1,0,3:0:0:0:
109,192,203906,1,0,3:0:0:0:
182,192,203906,1,0,3:0:0:0:
475,192,203990,1,0,3:0:0:0:
402,192,204073,1,0,3:0:0:0:
329,192,204156,1,0,3:0:0:0:
36,192,204240,1,0,3:0:0:0:
109,192,204323,1,0,3:0:0:0:
182,192,204406,1,0,3:0:0:0:
475,192,204490,1,0,3:0:0:0:
402,192,204573,1,0,3:0:0:0:
329,192,204656,1,0,3:0:0:0:
36,192,204740,1,0,3:0:0:0:
109,192,204823,1,0,3:0:0:0:
182,192,204906,1,0,3:0:0:0:
475,192,204906,1,0,3:0:0:0:
402,192,204990,1,0,3:0:0:0:
329,192,205073,1,0,3:0:0:0:
256,192,205156,1,0,3:0:0:0:
36,192,205240,1,0,3:0:0:0:
109,192,205323,1,0,3:0:0:0:
182,192,205406,5,0,3:0:0:0:
475,192,205490,1,0,3:0:0:0:
402,192,205573,1,0,3:0:0:0:
329,192,205656,1,0,3:0:0:0:
36,192,205740,1,0,3:0:0:0:
109,192,205823,1,0,3:0:0:0:
182,192,205906,1,0,3:0:0:0:
475,192,205990,1,0,3:0:0:0:
402,192,206073,1,0,3:0:0:0:
329,192,206156,1,0,3:0:0:0:
36,192,206240,1,0,3:0:0:0:
109,192,206323,1,0,3:0:0:0:
182,192,206406,1,0,3:0:0:0:
256,192,206490,1,0,3:0:0:0:
329,192,206573,5,0,3:0:0:0:
402,192,206573,1,0,3:0:0:0:
182,192,206656,1,0,3:0:0:0:
109,192,206656,1,0,3:0:0:0:
329,192,206740,1,0,3:0:0:0:
402,192,206740,1,0,3:0:0:0:
109,192,206823,1,0,3:0:0:0:
182,192,206823,1,0,3:0:0:0:
329,192,206906,1,0,3:0:0:0:
402,192,206906,1,0,3:0:0:0:
109,192,206990,1,0,3:0:0:0:
182,192,206990,1,0,3:0:0:0:
329,192,207073,1,0,3:0:0:0:
402,192,207073,1,0,3:0:0:0:
182,192,207156,1,0,3:0:0:0:
109,192,207156,1,0,3:0:0:0:
402,192,207240,1,0,3:0:0:0:
329,192,207240,1,0,3:0:0:0:
182,192,207323,1,0,3:0:0:0:
109,192,207323,1,0,3:0:0:0:
329,192,207406,1,0,3:0:0:0:
402,192,207406,1,0,3:0:0:0:
109,192,207490,1,0,3:0:0:0:
182,192,207490,1,0,3:0:0:0:
329,192,207573,1,0,3:0:0:0:
402,192,207573,1,0,3:0:0:0:
109,192,207656,1,0,3:0:0:0:
182,192,207656,1,0,3:0:0:0:
329,192,207740,1,0,3:0:0:0:
402,192,207740,1,0,3:0:0:0:
182,192,207823,1,0,3:0:0:0:
109,192,207823,1,0,3:0:0:0:
402,192,207906,1,0,3:0:0:0:
329,192,207906,1,0,3:0:0:0:
182,192,207990,1,0,3:0:0:0:
109,192,207990,1,0,3:0:0:0:
329,192,208073,1,0,3:0:0:0:
402,192,208073,1,0,3:0:0:0:
109,192,208156,1,0,3:0:0:0:
182,192,208156,1,0,3:0:0:0:
329,192,208240,1,0,3:0:0:0:
402,192,208240,1,0,3:0:0:0:
109,192,208323,1,0,3:0:0:0:
182,192,208323,1,0,3:0:0:0:
329,192,208406,1,0,3:0:0:0:
402,192,208406,1,0,3:0:0:0:
182,192,208490,1,0,3:0:0:0:
109,192,208490,1,0,3:0:0:0:
402,192,208573,1,0,3:0:0:0:
329,192,208573,1,0,3:0:0:0:
182,192,208656,1,0,3:0:0:0:
109,192,208656,1,0,3:0:0:0:
329,192,208740,1,0,3:0:0:0:
402,192,208740,1,0,3:0:0:0:
109,192,208823,1,0,3:0:0:0:
182,192,208823,1,0,3:0:0:0:
329,192,208906,1,0,3:0:0:0:
402,192,208906,1,0,3:0:0:0:
109,192,208990,1,0,3:0:0:0:
182,192,208990,1,0,3:0:0:0:
329,192,209073,1,0,3:0:0:0:
402,192,209073,1,0,3:0:0:0:
182,192,209156,1,0,3:0:0:0:
109,192,209156,1,0,3:0:0:0:
329,192,209240,1,2,3:0:0:0:
402,192,209240,1,2,3:0:0:0:
475,192,209240,1,2,3:0:0:0:
182,192,213740,1,8,3:0:0:0:
256,192,213740,1,8,3:0:0:0:
36,192,213823,1,8,3:0:0:0:
109,192,213823,1,8,3:0:0:0:
329,192,213906,128,8,214573:3:0:0:0:
475,192,213906,128,8,214573:3:0:0:0:
36,192,214573,1,8,3:0:0:0:
402,192,214573,128,2,215240:2:0:0:0:
109,192,214573,128,4,215240:2:0:0:0:
182,192,214573,1,8,3:0:0:0:
256,192,214573,128,6,215240:2:0:0:0:
329,192,214740,1,0,0:0:0:0:
182,192,214906,1,8,0:0:0:0:
36,192,214906,1,8,0:0:0:0:
475,192,215073,1,0,0:0:0:0:
36,192,215240,128,0,215906:0:0:0:0:
182,192,215240,128,2,215906:2:0:0:0:
329,192,215240,128,2,215906:2:0:0:0:
402,192,215406,1,0,0:0:0:0:
256,192,215573,1,8,0:0:0:0:
109,192,215573,1,8,0:0:0:0:
475,192,215740,1,0,0:0:0:0:
109,192,215906,128,2,216573:2:0:0:0:
256,192,215906,128,2,216573:2:0:0:0:
402,192,215906,128,0,216573:0:0:0:0:
329,192,216073,1,0,0:0:0:0:
182,192,216240,1,8,0:0:0:0:
475,192,216240,1,8,0:0:0:0:
36,192,216406,1,0,0:0:0:0:
182,192,216573,128,2,217240:2:0:0:0:
329,192,216573,128,2,217240:2:0:0:0:
475,192,216573,128,0,217240:0:0:0:0:
256,192,216740,1,0,0:0:0:0:
402,192,216906,1,8,0:0:0:0:
109,192,216906,1,8,0:0:0:0:
36,192,217073,1,0,0:0:0:0:
402,192,217240,128,2,217906:2:0:0:0:
256,192,217240,128,2,217906:2:0:0:0:
109,192,217240,128,0,217906:0:0:0:0:
182,192,217406,1,0,0:0:0:0:
36,192,217573,1,8,0:0:0:0:
329,192,217573,1,8,0:0:0:0:
475,192,217740,1,0,0:0:0:0:
329,192,217906,128,2,218573:2:0:0:0:
182,192,217906,128,2,218573:2:0:0:0:
36,192,217906,128,0,218573:0:0:0:0:
402,192,218073,1,0,0:0:0:0:
256,192,218240,1,8,0:0:0:0:
109,192,218240,1,8,0:0:0:0:
402,192,218406,1,0,0:0:0:0:
109,192,218573,128,2,219906:2:0:0:0:
256,192,218573,128,2,219906:2:0:0:0:
475,192,218573,128,0,219906:0:0:0:0:
329,192,218740,1,0,0:0:0:0:
36,192,218906,1,8,0:0:0:0:
182,192,218906,1,8,0:0:0:0:
329,192,219073,1,0,0:0:0:0:
402,192,219240,1,8,0:0:0:0:
182,192,219240,1,8,0:0:0:0:
329,192,219406,1,0,0:0:0:0:
36,192,219573,1,8,0:0:0:0:
402,192,219573,1,8,0:0:0:0:
329,192,219740,1,0,0:0:0:0:
402,192,219906,128,2,221240:0:0:0:0:
182,192,219906,128,2,220240:0:0:0:0:
36,192,219906,1,2,0:0:0:0:
109,192,219990,1,0,0:0:0:0:
329,192,220073,1,0,0:0:0:0:
256,192,220156,1,0,0:0:0:0:
475,192,220240,1,8,0:0:0:0:
109,192,220240,1,8,0:0:0:0:
329,192,220323,1,0,0:0:0:0:
36,192,220406,128,0,220573:0:0:0:0:
256,192,220406,1,0,0:0:0:0:
182,192,220490,1,0,0:0:0:0:
109,192,220573,128,0,220906:0:0:0:0:
329,192,220573,1,0,0:0:0:0:
475,192,220656,1,0,0:0:0:0:
182,192,220740,1,0,0:0:0:0:
36,192,220823,1,0,0:0:0:0:
256,192,220906,1,8,0:0:0:0:
329,192,220906,1,8,0:0:0:0:
36,192,220990,1,0,0:0:0:0:
109,192,221073,1,0,0:0:0:0:
182,192,221156,1,0,0:0:0:0:
329,192,221240,1,2,2:0:0:0:
475,192,221240,1,0,0:0:0:0:
36,192,221240,128,0,222573:0:0:0:0:
109,192,221240,128,2,221906:2:0:0:0:
256,192,221240,1,2,2:0:0:0:
182,192,221573,128,8,221906:0:0:0:0:
329,192,221573,128,2,221906:2:0:0:0:
475,192,221573,1,8,0:0:0:0:
256,192,221906,128,2,222240:2:0:0:0:
402,192,221906,128,2,222240:2:0:0:0:
475,192,221906,1,0,0:0:0:0:
329,192,222240,128,2,222573:2:0:0:0:
475,192,222240,128,8,222573:0:0:0:0:
109,192,222240,1,8,0:0:0:0:
182,192,222573,128,4,223906:2:0:0:0:
256,192,222573,1,4,2:0:0:0:
402,192,222656,1,0,0:0:0:0:
329,192,222740,1,0,0:0:0:0:
475,192,222823,1,0,0:0:0:0:
256,192,222906,1,8,0:0:0:0:
402,192,222906,1,8,0:0:0:0:
36,192,222990,1,0,0:0:0:0:
402,192,223073,1,0,0:0:0:0:
109,192,223073,1,0,0:0:0:0:
475,192,223073,128,0,223240:0:0:0:0:
329,192,223156,1,0,0:0:0:0:
256,192,223240,128,6,223906:2:0:0:0:
36,192,223240,128,6,223906:2:0:0:0:
475,192,223323,1,0,0:0:0:0:
109,192,223406,1,0,0:0:0:0:
329,192,223490,1,0,0:0:0:0:
475,192,223573,1,8,0:0:0:0:
402,192,223573,1,8,0:0:0:0:
109,192,223656,1,0,0:0:0:0:
329,192,223740,1,0,0:0:0:0:
402,192,223823,1,0,0:0:0:0:
329,192,223906,128,6,224573:2:0:0:0:
475,192,223906,128,6,224573:2:0:0:0:
36,192,224240,128,2,224573:2:0:0:0:
109,192,224573,1,0,0:0:0:0:
182,192,224573,1,0,0:0:0:0:
256,192,224573,128,0,225240:0:0:0:0:
329,192,224656,1,0,0:0:0:0:
402,192,224656,1,0,0:0:0:0:
109,192,224740,1,0,0:0:0:0:
182,192,224740,1,0,0:0:0:0:
329,192,224823,1,0,0:0:0:0:
402,192,224823,1,0,0:0:0:0:
109,192,224906,1,0,0:0:0:0:
182,192,224906,1,0,0:0:0:0:
329,192,224990,1,0,0:0:0:0:
402,192,224990,1,0,0:0:0:0:
109,192,225073,1,0,0:0:0:0:
182,192,225073,1,0,0:0:0:0:
329,192,225156,1,0,0:0:0:0:
402,192,225156,1,0,0:0:0:0:
36,192,225240,128,6,225906:2:0:0:0:
182,192,225240,128,6,225906:2:0:0:0:
475,192,225240,128,4,225906:2:0:0:0:
256,192,225406,1,0,0:0:0:0:
109,192,225573,1,8,0:0:0:0:
402,192,225573,1,8,0:0:0:0:
329,192,225740,1,0,0:0:0:0:
402,192,225906,128,0,226573:0:0:0:0:
256,192,225906,128,2,226573:2:0:0:0:
109,192,225906,128,2,226573:2:0:0:0:
182,192,226073,1,0,0:0:0:0:
329,192,226240,1,8,0:0:0:0:
475,192,226240,1,8,0:0:0:0:
36,192,226406,1,0,0:0:0:0:
182,192,226573,128,2,227240:2:0:0:0:
329,192,226573,128,2,227240:2:0:0:0:
475,192,226573,128,0,227240:0:0:0:0:
109,192,226740,1,0,0:0:0:0:
256,192,226906,1,8,0:0:0:0:
402,192,226906,1,8,0:0:0:0:
36,192,227073,1,0,0:0:0:0:
402,192,227240,128,2,227906:2:0:0:0:
256,192,227240,128,2,227906:2:0:0:0:
109,192,227240,128,0,227906:0:0:0:0:
182,192,227406,1,0,0:0:0:0:
329,192,227573,1,8,0:0:0:0:
36,192,227573,1,8,0:0:0:0:
475,192,227740,1,0,0:0:0:0:
329,192,227906,128,2,228573:2:0:0:0:
182,192,227906,128,2,228573:2:0:0:0:
36,192,227906,128,0,228573:0:0:0:0:
402,192,228073,1,0,0:0:0:0:
256,192,228240,1,8,0:0:0:0:
109,192,228240,1,8,0:0:0:0:
475,192,228406,1,0,0:0:0:0:
109,192,228573,128,2,229240:2:0:0:0:
256,192,228573,128,2,229240:2:0:0:0:
402,192,228573,128,0,229240:0:0:0:0:
329,192,228740,1,0,0:0:0:0:
182,192,228906,1,8,0:0:0:0:
475,192,228906,1,8,0:0:0:0:
36,192,229073,1,0,0:0:0:0:
182,192,229240,128,2,230240:2:0:0:0:
329,192,229240,128,2,230240:2:0:0:0:
475,192,229240,128,0,230240:0:0:0:0:
256,192,229406,1,0,0:0:0:0:
402,192,229573,1,8,0:0:0:0:
109,192,229573,1,8,0:0:0:0:
36,192,229740,1,0,0:0:0:0:
109,192,229906,1,8,0:0:0:0:
256,192,229906,1,8,0:0:0:0:
402,192,230073,1,0,0:0:0:0:
36,192,230240,128,8,230573:0:0:0:0:
109,192,230240,1,8,0:0:0:0:
402,192,230573,1,2,2:0:0:0:
329,192,230573,1,4,0:0:0:0:
109,192,230656,1,2,2:0:0:0:
182,192,230656,1,4,0:0:0:0:
402,192,230740,1,2,2:0:0:0:
329,192,230740,1,4,0:0:0:0:
109,192,230823,1,2,2:0:0:0:
182,192,230823,1,4,0:0:0:0:
402,192,230906,1,2,2:0:0:0:
329,192,230906,1,4,0:0:0:0:
109,192,230990,1,2,2:0:0:0:
182,192,230990,1,4,0:0:0:0:
402,192,231073,1,2,2:0:0:0:
329,192,231073,1,4,0:0:0:0:
109,192,231156,1,2,2:0:0:0:
182,192,231156,1,4,0:0:0:0:
402,192,231240,1,2,2:0:0:0:
329,192,231240,1,4,0:0:0:0:
36,192,231573,1,4,2:0:0:0:
109,192,231573,1,4,2:0:0:0:
182,192,231573,1,4,2:0:0:0:
256,192,231573,1,2,3:0:0:0:
329,192,231573,1,2,3:0:0:0:
402,192,231906,1,4,0:0:0:0:
475,192,231906,1,2,2:0:0:0:
36,192,231990,1,2,2:0:0:0:
109,192,231990,1,4,0:0:0:0:
402,192,232073,1,4,0:0:0:0:
475,192,232073,1,2,2:0:0:0:
36,192,232156,1,2,2:0:0:0:
109,192,232156,1,4,0:0:0:0:
402,192,232240,1,4,0:0:0:0:
475,192,232240,1,2,2:0:0:0:
109,192,232323,1,4,0:0:0:0:
36,192,232323,1,2,2:0:0:0:
402,192,232406,1,4,0:0:0:0:
475,192,232406,1,2,2:0:0:0:
109,192,232490,1,4,0:0:0:0:
36,192,232490,1,2,2:0:0:0:
402,192,232573,1,4,0:0:0:0:
475,192,232573,1,2,2:0:0:0:
182,192,232906,1,2,3:0:0:0:
256,192,232906,1,2,3:0:0:0:
329,192,232906,1,4,2:0:0:0:
402,192,232906,1,4,2:0:0:0:
475,192,232906,1,4,2:0:0:0:
475,192,233240,128,6,234573:2:0:0:0:
36,192,233240,1,4,2:0:0:0:
182,192,233240,1,4,2:0:0:0:
329,192,233240,1,4,2:0:0:0:
109,192,233573,128,2,233656:2:0:0:0:
402,192,233573,1,8,0:0:0:0:
36,192,233573,1,8,0:0:0:0:
182,192,233656,128,2,233740:2:0:0:0:
256,192,233740,128,2,233823:2:0:0:0:
329,192,233823,128,2,233906:2:0:0:0:
402,192,233906,128,2,234073:2:0:0:0:
182,192,234073,128,2,234240:2:0:0:0:
256,192,234240,128,2,234406:2:0:0:0:
36,192,234240,1,8,0:0:0:0:
109,192,234240,1,8,0:0:0:0:
329,192,234406,128,2,234573:2:0:0:0:
36,192,234573,128,2,235906:2:0:0:0:
182,192,234573,128,2,235240:2:0:0:0:
402,192,234573,128,2,234906:2:0:0:0:
475,192,234906,128,2,235240:2:0:0:0:
256,192,234906,1,8,0:0:0:0:
109,192,234906,1,8,0:0:0:0:
329,192,235240,128,2,235573:2:0:0:0:
109,192,235323,1,0,0:0:0:0:
182,192,235323,1,0,0:0:0:0:
402,192,235406,1,0,0:0:0:0:
475,192,235406,1,0,0:0:0:0:
109,192,235490,1,0,0:0:0:0:
182,192,235490,1,0,0:0:0:0:
256,192,235573,128,2,235906:2:0:0:0:
402,192,235573,1,0,0:0:0:0:
475,192,235573,1,0,0:0:0:0:
109,192,235656,1,0,0:0:0:0:
182,192,235656,1,0,0:0:0:0:
475,192,235740,1,0,0:0:0:0:
402,192,235740,1,0,0:0:0:0:
109,192,235823,1,0,0:0:0:0:
182,192,235823,1,0,0:0:0:0:
329,192,235906,128,2,237240:2:0:0:0:
402,192,235906,1,0,0:0:0:0:
475,192,235906,1,0,0:0:0:0:
36,192,236240,1,8,0:0:0:0:
109,192,236240,1,8,0:0:0:0:
256,192,236240,1,8,0:0:0:0:
402,192,236573,1,0,0:0:0:0:
475,192,236573,1,0,0:0:0:0:
402,192,236740,1,0,0:0:0:0:
475,192,236740,1,0,0:0:0:0:
109,192,236906,1,8,0:0:0:0:
182,192,236906,1,8,0:0:0:0:
36,192,236906,1,8,0:0:0:0:
182,192,237240,128,2,237906:2:0:0:0:
402,192,237240,1,0,0:0:0:0:
256,192,237240,128,2,238573:2:0:0:0:
475,192,237240,1,0,0:0:0:0:
36,192,237240,1,0,0:0:0:0:
329,192,237573,1,8,0:0:0:0:
475,192,237573,1,8,0:0:0:0:
36,192,237573,1,8,0:0:0:0:
402,192,237906,128,2,238573:2:0:0:0:
36,192,237906,1,0,0:0:0:0:
109,192,237906,1,0,0:0:0:0:
36,192,238073,1,0,0:0:0:0:
109,192,238073,1,0,0:0:0:0:
475,192,238240,1,8,0:0:0:0:
182,192,238240,1,8,0:0:0:0:
36,192,238240,1,8,0:0:0:0:
109,192,238573,128,2,241240:2:0:0:0:
329,192,238573,1,0,0:0:0:0:
36,192,238573,1,0,0:0:0:0:
182,192,238906,1,8,0:0:0:0:
256,192,238906,1,8,0:0:0:0:
475,192,238906,1,8,0:0:0:0:
329,192,239240,1,0,0:0:0:0:
402,192,239240,1,0,0:0:0:0:
329,192,239406,1,0,0:0:0:0:
402,192,239406,1,0,0:0:0:0:
256,192,239573,1,8,0:0:0:0:
475,192,239573,1,8,0:0:0:0:
182,192,239573,1,8,0:0:0:0:
402,192,239740,1,0,0:0:0:0:
329,192,239823,1,0,0:0:0:0:
256,192,239906,1,0,0:0:0:0:
475,192,239990,1,0,0:0:0:0:
402,192,240073,1,0,0:0:0:0:
182,192,240156,1,0,0:0:0:0:
256,192,240240,1,0,0:0:0:0:
36,192,240323,1,0,0:0:0:0:
182,192,240406,1,0,0:0:0:0:
329,192,240490,1,0,0:0:0:0:
475,192,240573,1,0,0:0:0:0:
256,192,240656,1,0,0:0:0:0:
329,192,240740,1,0,0:0:0:0:
36,192,240823,1,0,0:0:0:0:
182,192,240906,1,0,0:0:0:0:
256,192,240990,1,0,0:0:0:0:
475,192,241073,1,0,0:0:0:0:
402,192,241156,1,0,0:0:0:0:
329,192,241240,1,4,2:0:0:0:
182,192,241240,128,4,242573:2:0:0:0:
36,192,241240,1,4,2:0:0:0:
402,192,241573,1,8,0:0:0:0:
475,192,241573,1,8,0:0:0:0:
256,192,241573,1,8,0:0:0:0:
36,192,241740,1,0,0:0:0:0:
109,192,241740,1,0,0:0:0:0:
329,192,242073,1,8,0:0:0:0:
402,192,242073,1,8,0:0:0:0:
475,192,242073,1,8,0:0:0:0:
256,192,242240,1,0,0:0:0:0:
36,192,242240,1,0,0:0:0:0:
402,192,242573,128,4,243906:2:0:0:0:
109,192,242573,1,4,2:0:0:0:
329,192,242573,1,4,2:0:0:0:
475,192,242573,1,4,2:0:0:0:
109,192,242906,1,8,0:0:0:0:
36,192,242906,1,8,0:0:0:0:
182,192,242906,1,8,0:0:0:0:
256,192,243073,1,0,0:0:0:0:
329,192,243073,1,0,0:0:0:0:
36,192,243406,1,8,0:0:0:0:
109,192,243406,1,8,0:0:0:0:
182,192,243406,1,8,0:0:0:0:
36,192,243573,1,0,0:0:0:0:
475,192,243573,1,0,0:0:0:0:
256,192,243906,128,4,246573:2:0:0:0:
109,192,243906,1,4,2:0:0:0:
182,192,243906,1,4,2:0:0:0:
329,192,243990,1,0,3:0:0:0:
402,192,243990,1,0,3:0:0:0:
109,192,244073,1,0,3:0:0:0:
182,192,244073,1,0,3:0:0:0:
329,192,244156,1,0,3:0:0:0:
402,192,244156,1,0,3:0:0:0:
182,192,244240,1,0,3:0:0:0:
109,192,244240,1,0,3:0:0:0:
329,192,244323,1,0,3:0:0:0:
402,192,244323,1,0,3:0:0:0:
109,192,244406,1,0,3:0:0:0:
182,192,244406,1,0,3:0:0:0:
329,192,244490,1,0,3:0:0:0:
402,192,244490,1,0,3:0:0:0:
182,192,244573,1,0,3:0:0:0:
109,192,244573,1,0,3:0:0:0:
329,192,244656,1,0,3:0:0:0:
402,192,244656,1,0,3:0:0:0:
109,192,244740,1,0,3:0:0:0:
182,192,244740,1,0,3:0:0:0:
329,192,244823,1,0,3:0:0:0:
402,192,244823,1,0,3:0:0:0:
182,192,244906,1,0,3:0:0:0:
109,192,244906,1,0,3:0:0:0:
329,192,244990,1,0,3:0:0:0:
402,192,244990,1,0,3:0:0:0:
109,192,245073,1,0,3:0:0:0:
182,192,245073,1,0,3:0:0:0:
329,192,245156,1,0,3:0:0:0:
402,192,245156,1,0,3:0:0:0:
182,192,245240,1,0,3:0:0:0:
109,192,245240,1,0,3:0:0:0:
329,192,245323,1,0,3:0:0:0:
402,192,245323,1,0,3:0:0:0:
109,192,245406,1,0,3:0:0:0:
182,192,245406,1,0,3:0:0:0:
329,192,245490,1,0,3:0:0:0:
402,192,245490,1,0,3:0:0:0:
182,192,245573,1,0,3:0:0:0:
109,192,245573,1,0,3:0:0:0:
329,192,245656,1,0,3:0:0:0:
402,192,245656,1,0,3:0:0:0:
109,192,245740,1,0,3:0:0:0:
182,192,245740,1,0,3:0:0:0:
329,192,245823,1,0,3:0:0:0:
402,192,245823,1,0,3:0:0:0:
182,192,245906,1,0,3:0:0:0:
109,192,245906,1,0,3:0:0:0:
329,192,245990,1,0,3:0:0:0:
402,192,245990,1,0,3:0:0:0:
109,192,246073,1,0,3:0:0:0:
182,192,246073,1,0,3:0:0:0:
329,192,246156,1,0,3:0:0:0:
402,192,246156,1,0,3:0:0:0:
182,192,246240,1,0,3:0:0:0:
109,192,246240,1,0,3:0:0:0:
329,192,246323,1,0,3:0:0:0:
402,192,246323,1,0,3:0:0:0:
109,192,246406,1,0,3:0:0:0:
182,192,246406,1,0,3:0:0:0:
329,192,246490,1,0,0:0:0:0:
402,192,246490,1,0,0:0:0:0:
182,192,246573,1,2,3:0:0:0:
109,192,246573,1,2,3:0:0:0:
36,192,246573,1,2,3:0:0:0:
475,192,246573,128,2,246740:3:0:0:0:
