osu file format v14

[General]
AudioFilename: Kantai Collection Ending ED.mp3
AudioLeadIn: 0
PreviewTime: 58664
Countdown: 0
SampleSet: Soft
StackLeniency: 0.7
Mode: 3
LetterboxInBreaks: 0
SpecialStyle: 0
WidescreenStoryboard: 1

[Editor]
DistanceSpacing: 0.9
BeatDivisor: 4
GridSize: 32
TimelineZoom: 1.3

[Metadata]
Title:FUBUKI
TitleUnicode:吹雪
Artist:Shiena Nishizawa
ArtistUnicode:西沢幸奏
Creator:Bray-
Version:7K NM
Source:Fleet Girls Collection KanColle Animation Sequence
Tags:艦隊これくしょん -艦これ- kantai collection ending minatoku west ground aii- takane6 [shana_lesus]
BeatmapID:647776
BeatmapSetID:286344

[Difficulty]
HPDrainRate:7
CircleSize:7
OverallDifficulty:7
ApproachRate:5
SliderMultiplier:1.4
SliderTickRate:1

[Events]
//Background and Video events
0,0,"BG.jpg",0,0
Video,0,"Kantai Collection Ending ED.flv"
//Break Periods
//Storyboard Layer 0 (Background)
//Storyboard Layer 1 (Fail)
//Storyboard Layer 2 (Pass)
//Storyboard Layer 3 (Foreground)
//Storyboard Sound Samples

[TimingPoints]
748,333.333333333333,4,2,0,50,1,0
12747,-100,4,2,1,50,0,0
30081,-100,4,2,0,50,0,0
35414,-100,4,2,1,50,0,0
40747,-100,4,2,0,50,0,0
45081,-100,4,2,1,50,0,0
46414,-100,4,2,0,50,0,0
50914,-100,4,2,1,50,0,0
59414,-100,4,2,1,50,0,1
75414,-100,4,2,1,50,0,0

[HitObjects]
256,192,581,5,0,0:0:0:50:soft-hitwhistle.wav
402,192,748,128,0,2081:0:0:0:50:soft-hitwhistle.wav
109,192,748,1,0,0:0:0:50:soft-hitwhistle.wav
36,192,2081,128,0,3414:0:0:0:0:
475,192,2747,128,0,3414:0:0:0:0:
402,192,3414,128,0,4081:0:0:0:50:soft-hitwhistle.wav
182,192,3414,1,0,0:0:0:50:soft-hitwhistle.wav
109,192,4081,128,0,4747:0:0:0:0:
256,192,4747,128,0,6081:0:0:0:0:
402,192,6081,1,0,0:0:0:0:
182,192,6081,128,0,7414:0:0:0:0:
402,192,7414,128,0,7747:0:0:0:0:
256,192,7747,128,0,8081:0:0:0:0:
109,192,8081,128,0,8414:0:0:0:0:
329,192,8414,128,0,8747:0:0:0:0:
475,192,8747,128,0,9081:0:0:0:0:
36,192,9081,128,0,9414:0:0:0:0:
109,192,9414,128,0,9747:0:0:0:0:
182,192,9747,128,0,10081:0:0:0:0:
256,192,10081,128,0,11414:0:0:0:0:
36,192,10747,128,0,11414:0:0:0:0:
402,192,11414,128,0,14081:0:0:0:0:
256,192,12747,1,8,0:0:0:0:
36,192,12914,1,8,0:0:0:0:
329,192,13081,1,8,0:0:0:0:
109,192,13247,1,8,0:0:0:0:
256,192,13414,1,8,0:0:0:0:
36,192,13581,1,8,0:0:0:0:
182,192,13747,1,8,0:0:0:0:
329,192,13914,1,8,0:0:0:0:
36,192,14081,1,0,0:0:0:0:
182,192,14081,1,4,0:0:0:0:
329,192,14414,1,0,0:0:0:0:
475,192,14414,1,8,0:0:0:0:
36,192,14747,1,0,0:0:0:0:
182,192,14914,1,0,0:0:0:0:
329,192,15081,1,0,0:0:0:0:
475,192,15081,1,8,0:0:0:0:
109,192,15414,1,0,0:0:0:0:
329,192,15747,1,0,0:0:0:0:
475,192,15747,1,8,0:0:0:0:
36,192,16081,1,0,0:0:0:0:
182,192,16247,1,0,0:0:0:0:
329,192,16414,1,0,0:0:0:0:
475,192,16414,1,8,0:0:0:0:
402,192,16747,1,0,0:0:0:0:
182,192,17081,1,0,0:0:0:0:
36,192,17081,1,8,0:0:0:0:
475,192,17414,1,0,0:0:0:0:
329,192,17581,1,0,0:0:0:0:
182,192,17747,1,0,0:0:0:0:
36,192,17747,1,8,0:0:0:0:
402,192,18081,1,0,0:0:0:0:
182,192,18414,1,0,0:0:0:0:
36,192,18414,1,8,0:0:0:0:
475,192,18747,1,0,0:0:0:0:
329,192,18914,1,0,0:0:0:0:
182,192,19081,1,0,0:0:0:0:
36,192,19081,1,8,0:0:0:0:
256,192,19414,1,0,0:0:0:0:
109,192,19414,1,0,0:0:0:0:
402,192,19747,1,0,0:0:0:0:
475,192,19747,1,8,0:0:0:0:
256,192,20081,1,0,0:0:0:0:
256,192,20247,1,0,0:0:0:0:
109,192,20414,1,0,0:0:0:0:
36,192,20414,1,8,0:0:0:0:
256,192,20747,1,0,0:0:0:0:
402,192,20747,128,0,21081:0:0:0:0:
475,192,21081,1,0,0:0:0:0:
329,192,21081,128,8,21414:0:0:0:0:
36,192,21414,1,0,0:0:0:0:
182,192,21414,128,0,21747:0:0:0:0:
475,192,21581,1,0,0:0:0:0:
256,192,21747,1,0,0:0:0:0:
109,192,21747,128,8,22081:0:0:0:0:
402,192,22081,1,0,0:0:0:0:
182,192,22414,1,0,0:0:0:0:
36,192,22414,1,8,0:0:0:0:
402,192,22747,1,0,0:0:0:0:
402,192,22914,1,0,0:0:0:0:
182,192,23081,1,0,0:0:0:0:
36,192,23081,1,8,0:0:0:0:
256,192,23414,1,0,0:0:0:0:
475,192,23414,128,0,23747:0:0:0:0:
109,192,23747,1,8,0:0:0:0:
182,192,23747,1,0,0:0:0:0:
329,192,23747,128,0,24081:0:0:0:0:
402,192,24081,1,0,0:0:0:0:
36,192,24081,128,0,24414:0:0:0:0:
256,192,24247,1,0,0:0:0:0:
329,192,24414,1,0,0:0:0:0:
475,192,24414,1,8,0:0:0:0:
182,192,24414,128,0,24747:0:0:0:0:
475,192,24747,1,4,0:0:0:0:
36,192,24747,1,0,0:0:0:0:
182,192,25081,1,0,0:0:0:0:
329,192,25081,1,8,0:0:0:0:
402,192,25414,1,0,0:0:0:0:
109,192,25581,1,0,0:0:0:0:
182,192,25747,1,0,0:0:0:0:
329,192,25747,1,8,0:0:0:0:
36,192,26081,1,0,0:0:0:0:
256,192,26414,1,0,0:0:0:0:
402,192,26414,1,8,0:0:0:0:
36,192,26747,1,0,0:0:0:0:
109,192,26914,1,0,0:0:0:0:
256,192,27081,1,0,0:0:0:0:
475,192,27081,1,8,0:0:0:0:
402,192,27414,1,0,0:0:0:0:
329,192,27747,1,8,0:0:0:0:
182,192,27747,1,0,0:0:0:0:
109,192,28081,1,0,0:0:0:0:
402,192,28247,1,0,0:0:0:0:
329,192,28414,1,8,0:0:0:0:
182,192,28414,1,0,0:0:0:0:
475,192,28747,1,0,0:0:0:0:
256,192,29081,1,8,0:0:0:0:
36,192,29081,1,0,0:0:0:0:
402,192,29414,1,0,0:0:0:0:
109,192,29581,1,0,0:0:0:0:
182,192,29747,1,0,0:0:0:0:
329,192,29747,1,8,0:0:0:0:
109,192,30081,128,0,30247:0:0:0:0:
329,192,30414,1,0,0:0:0:50:soft-hitclap.wav
182,192,30414,1,0,0:0:0:0:
402,192,30581,128,0,30747:0:0:0:0:
109,192,30747,128,0,30914:0:0:0:0:
329,192,31081,1,0,0:0:0:50:soft-hitclap.wav
182,192,31081,1,0,0:0:0:0:
402,192,31247,1,0,0:0:0:0:
256,192,31331,1,0,0:0:0:0:
109,192,31414,128,0,31581:0:0:0:0:
329,192,31747,1,0,0:0:0:50:soft-hitclap.wav
182,192,31747,1,0,0:0:0:0:
402,192,31914,1,0,0:0:0:0:
256,192,32081,1,0,0:0:0:0:
109,192,32247,1,0,0:0:0:0:
475,192,32414,128,0,32747:0:0:0:50:soft-hitclap.wav
329,192,32414,1,0,0:0:0:0:
36,192,32747,128,0,32914:0:0:0:0:
329,192,33081,1,0,0:0:0:50:soft-hitclap.wav
182,192,33081,1,0,0:0:0:0:
109,192,33247,128,0,33414:0:0:0:0:
402,192,33414,128,0,33581:0:0:0:0:
329,192,33747,1,0,0:0:0:50:soft-hitclap.wav
182,192,33747,1,0,0:0:0:0:
109,192,33914,1,0,0:0:0:0:
256,192,33997,1,0,0:0:0:0:
402,192,34081,128,0,34247:0:0:0:0:
329,192,34414,1,0,0:0:0:50:soft-hitclap.wav
182,192,34414,1,0,0:0:0:0:
109,192,34581,1,0,0:0:0:0:
256,192,34747,1,0,0:0:0:0:
402,192,34914,1,0,0:0:0:0:
256,192,35081,128,0,35414:0:0:0:50:soft-hitclap.wav
109,192,35081,1,0,0:0:0:0:
36,192,35414,1,0,0:0:0:0:
475,192,35414,1,4,0:0:0:0:
109,192,35747,1,8,0:0:0:0:
182,192,35747,1,0,0:0:0:0:
402,192,36081,1,0,0:0:0:0:
402,192,36247,1,0,0:0:0:0:
182,192,36414,1,0,0:0:0:0:
109,192,36414,1,8,0:0:0:0:
36,192,36747,1,0,0:0:0:0:
475,192,37081,1,8,0:0:0:0:
402,192,37081,1,0,0:0:0:0:
109,192,37414,1,0,0:0:0:0:
109,192,37581,1,0,0:0:0:0:
475,192,37747,1,8,0:0:0:0:
402,192,37747,1,0,0:0:0:0:
182,192,38081,1,0,0:0:0:0:
329,192,38414,1,0,0:0:0:0:
475,192,38414,1,8,0:0:0:0:
109,192,38747,1,0,0:0:0:0:
182,192,38914,1,0,0:0:0:0:
329,192,39081,1,0,0:0:0:0:
475,192,39081,1,8,0:0:0:0:
402,192,39414,1,0,0:0:0:0:
182,192,39747,1,0,0:0:0:0:
36,192,39747,1,8,0:0:0:0:
402,192,40081,1,0,0:0:0:0:
329,192,40247,1,0,0:0:0:0:
182,192,40414,1,0,0:0:0:0:
36,192,40414,1,8,0:0:0:0:
402,192,40747,128,0,40914:0:0:0:0:
182,192,41081,1,0,0:0:0:50:soft-hitclap.wav
36,192,41081,1,0,0:0:0:0:
109,192,41247,128,0,41414:0:0:0:0:
402,192,41414,128,0,41581:0:0:0:0:
475,192,41747,1,0,0:0:0:50:soft-hitclap.wav
329,192,41747,1,0,0:0:0:0:
109,192,41914,1,0,0:0:0:0:
256,192,41997,1,0,0:0:0:0:
402,192,42081,128,0,42247:0:0:0:0:
182,192,42414,1,0,0:0:0:50:soft-hitclap.wav
36,192,42414,1,0,0:0:0:0:
402,192,42581,1,0,0:0:0:0:
256,192,42747,1,0,0:0:0:0:
109,192,42914,1,0,0:0:0:0:
256,192,43081,128,0,43414:0:0:0:50:soft-hitclap.wav
475,192,43081,1,0,0:0:0:0:
402,192,43414,128,0,43581:0:0:0:0:
475,192,43747,1,0,0:0:0:50:soft-hitclap.wav
329,192,43747,1,0,0:0:0:0:
109,192,43914,128,0,44081:0:0:0:0:
402,192,44081,128,0,44247:0:0:0:0:
182,192,44414,1,0,0:0:0:50:soft-hitclap.wav
36,192,44414,1,0,0:0:0:0:
109,192,44581,128,0,44747:0:0:0:0:
402,192,44747,128,0,45081:0:0:0:0:
256,192,45081,128,0,45414:0:0:0:0:
329,192,45081,1,8,0:0:0:0:
109,192,45414,128,0,45747:0:0:0:0:
182,192,45414,1,0,0:0:0:0:
402,192,45747,128,8,46081:0:0:0:0:
36,192,46081,1,0,0:0:0:0:
475,192,46081,128,0,47414:0:0:0:0:
329,192,47414,128,0,48747:0:0:0:0:
182,192,48747,128,0,50081:0:0:0:50:soft-hitwhistle.wav
36,192,48747,1,0,0:0:0:50:soft-hitwhistle.wav
402,192,49914,1,0,0:0:0:0:
329,192,49997,1,0,0:0:0:0:
256,192,50081,128,0,50414:0:0:0:0:
402,192,50414,128,0,50747:0:0:0:0:
109,192,50747,128,0,51081:0:0:0:0:
256,192,50914,1,0,0:0:0:0:
475,192,51081,1,8,0:0:0:0:
329,192,51081,1,0,0:0:0:0:
109,192,51414,1,0,0:0:0:0:
402,192,51414,1,4,0:0:0:0:
475,192,51747,1,8,0:0:0:0:
329,192,51747,1,0,0:0:0:0:
36,192,52081,1,0,0:0:0:0:
109,192,52247,1,0,0:0:0:0:
329,192,52414,1,0,0:0:0:0:
475,192,52414,1,8,0:0:0:0:
402,192,52747,1,4,0:0:0:0:
109,192,52747,1,0,0:0:0:0:
256,192,53081,1,0,0:0:0:0:
475,192,53081,1,8,0:0:0:0:
109,192,53414,1,0,0:0:0:0:
36,192,53581,1,0,0:0:0:0:
329,192,53747,1,0,0:0:0:0:
475,192,53747,1,8,0:0:0:0:
36,192,54081,128,0,55414:0:0:0:0:
182,192,54081,1,8,0:0:0:0:
109,192,54414,1,0,0:0:0:0:
402,192,54581,1,0,0:0:0:0:
182,192,54914,1,0,0:0:0:0:
329,192,55081,1,0,0:0:0:0:
182,192,55247,1,0,0:0:0:0:
256,192,55414,128,0,56747:0:0:0:0:
475,192,55414,1,8,0:0:0:0:
402,192,55747,1,0,0:0:0:0:
109,192,55914,1,0,0:0:0:0:
329,192,56247,1,0,0:0:0:0:
182,192,56414,1,0,0:0:0:0:
329,192,56581,1,0,0:0:0:0:
475,192,56747,128,0,58081:0:0:0:0:
36,192,56747,1,8,0:0:0:0:
109,192,56914,1,0,0:0:0:0:
182,192,57081,1,0,0:0:0:0:
256,192,57247,1,0,0:0:0:0:
329,192,57414,1,8,0:0:0:0:
182,192,57581,1,8,0:0:0:0:
329,192,57747,1,8,0:0:0:0:
182,192,57914,1,8,0:0:0:0:
402,192,58081,1,8,0:0:0:0:
109,192,58081,1,8,0:0:0:0:
329,192,58247,1,8,0:0:0:0:
182,192,58247,1,8,0:0:0:0:
475,192,58414,1,8,0:0:0:0:
36,192,58414,1,8,0:0:0:0:
182,192,58747,128,0,59414:0:0:0:0:
36,192,59414,1,0,0:0:0:0:
329,192,59414,1,0,0:0:0:0:
475,192,59414,1,4,0:0:0:0:
256,192,59747,1,8,0:0:0:0:
109,192,59747,1,8,0:0:0:0:
36,192,60081,1,0,0:0:0:0:
182,192,60247,1,0,0:0:0:0:
256,192,60414,1,8,0:0:0:0:
109,192,60414,1,8,0:0:0:0:
475,192,60747,1,0,0:0:0:0:
402,192,61081,1,8,0:0:0:0:
256,192,61081,1,8,0:0:0:0:
475,192,61414,1,0,0:0:0:0:
329,192,61581,1,0,0:0:0:0:
256,192,61747,1,8,0:0:0:0:
402,192,61747,1,8,0:0:0:0:
109,192,62081,1,0,0:0:0:0:
182,192,62414,1,8,0:0:0:0:
36,192,62414,1,8,0:0:0:0:
329,192,62747,1,2,0:0:0:0:
256,192,62914,1,0,0:0:0:0:
182,192,63081,1,8,0:0:0:0:
36,192,63081,1,8,0:0:0:0:
402,192,63414,1,0,0:0:0:0:
329,192,63747,1,8,0:0:0:0:
475,192,63747,1,8,0:0:0:0:
182,192,64081,1,0,0:0:0:0:
256,192,64247,1,0,0:0:0:0:
475,192,64414,1,8,0:0:0:0:
329,192,64414,1,8,0:0:0:0:
36,192,64747,128,0,66081:0:0:0:0:
182,192,64747,1,0,0:0:0:0:
256,192,65081,1,8,0:0:0:0:
402,192,65081,1,8,0:0:0:0:
182,192,65414,1,0,0:0:0:0:
256,192,65581,1,0,0:0:0:0:
329,192,65747,1,8,0:0:0:0:
475,192,65747,1,8,0:0:0:0:
109,192,66081,128,0,67414:0:0:0:0:
329,192,66081,1,0,0:0:0:0:
256,192,66414,1,8,0:0:0:0:
402,192,66414,1,8,0:0:0:0:
182,192,66747,1,0,0:0:0:0:
256,192,66914,1,0,0:0:0:0:
329,192,67081,1,8,0:0:0:0:
475,192,67081,1,8,0:0:0:0:
182,192,67414,128,0,68081:0:0:0:0:
329,192,67414,1,0,0:0:0:0:
36,192,67747,1,8,0:0:0:0:
402,192,67747,1,8,0:0:0:0:
109,192,68081,128,0,68747:0:0:0:0:
256,192,68081,1,0,0:0:0:0:
402,192,68414,1,8,0:0:0:0:
475,192,68414,1,8,0:0:0:0:
329,192,68747,128,0,69414:0:0:0:0:
256,192,68747,1,0,0:0:0:0:
36,192,69081,1,8,0:0:0:0:
182,192,69081,1,8,0:0:0:0:
109,192,69414,128,8,70081:0:0:0:0:
402,192,69414,1,8,0:0:0:0:
182,192,70081,1,0,0:0:0:0:
475,192,70081,1,4,0:0:0:0:
36,192,70081,1,0,0:0:0:0:
402,192,70414,1,8,0:0:0:0:
256,192,70414,1,8,0:0:0:0:
182,192,70747,1,0,0:0:0:0:
475,192,70914,1,0,0:0:0:0:
402,192,71081,1,8,0:0:0:0:
256,192,71081,1,8,0:0:0:0:
36,192,71414,1,0,0:0:0:0:
256,192,71747,1,8,0:0:0:0:
109,192,71747,1,8,0:0:0:0:
475,192,72081,1,0,0:0:0:0:
182,192,72247,1,0,0:0:0:0:
256,192,72414,1,8,0:0:0:0:
402,192,72414,1,8,0:0:0:0:
329,192,72747,1,0,0:0:0:0:
36,192,73081,1,8,0:0:0:0:
182,192,73081,1,8,0:0:0:0:
256,192,73414,1,0,0:0:0:0:
475,192,73581,1,0,0:0:0:0:
109,192,73747,1,8,0:0:0:0:
402,192,73747,1,8,0:0:0:0:
182,192,74081,1,0,0:0:0:0:
402,192,74414,1,8,0:0:0:0:
256,192,74414,1,8,0:0:0:0:
36,192,74747,1,0,0:0:0:0:
256,192,74914,1,0,0:0:0:0:
109,192,75081,1,8,0:0:0:0:
182,192,75081,1,8,0:0:0:0:
475,192,75414,128,0,75747:0:0:0:0:
329,192,75414,1,8,0:0:0:0:
256,192,75747,128,0,76081:0:0:0:0:
109,192,75747,1,8,0:0:0:0:
36,192,76081,1,8,0:0:0:0:
402,192,76414,1,4,0:0:0:0:
109,192,76414,1,0,0:0:0:0:
182,192,76747,1,8,0:0:0:0:
36,192,76747,128,0,77081:0:0:0:0:
256,192,77081,128,0,77414:0:0:0:0:
402,192,77081,1,8,0:0:0:0:
475,192,77414,1,8,0:0:0:0:
402,192,77747,1,0,0:0:0:0:
109,192,77747,1,4,0:0:0:0:
36,192,78081,1,4,0:0:0:0:
475,192,78081,1,0,0:0:0:0:
109,192,78414,1,8,0:0:0:0:
256,192,78414,1,8,0:0:0:0:
182,192,78747,1,0,0:0:0:0:
256,192,78914,1,0,0:0:0:0:
182,192,79081,1,8,0:0:0:0:
402,192,79081,1,8,0:0:0:0:
329,192,79414,1,0,0:0:0:0:
256,192,79747,1,8,0:0:0:0:
402,192,79747,1,8,0:0:0:0:
36,192,80081,128,0,80414:0:0:0:0:
182,192,80247,1,0,0:0:0:0:
329,192,80414,1,8,0:0:0:0:
475,192,80414,128,8,80747:0:0:0:0:
109,192,80747,1,0,0:0:0:0:
402,192,80747,1,4,0:0:0:0:
256,192,81081,1,8,0:0:0:0:
36,192,81081,1,8,0:0:0:0:
109,192,81414,1,0,0:0:0:0:
182,192,81581,1,0,0:0:0:0:
256,192,81747,1,8,0:0:0:0:
402,192,81747,1,8,0:0:0:0:
329,192,82081,1,0,0:0:0:0:
109,192,82081,1,0,0:0:0:0:
475,192,82414,1,8,0:0:0:0:
256,192,82414,1,8,0:0:0:0:
402,192,82747,1,0,0:0:0:0:
329,192,82914,1,0,0:0:0:0:
256,192,83081,1,8,0:0:0:0:
109,192,83081,1,8,0:0:0:0:
329,192,83414,128,0,86081:0:0:0:0:
182,192,83414,128,4,86081:0:0:0:0:
