osu file format v14

[General]
AudioFilename: kancolleED.mp3
AudioLeadIn: 0
PreviewTime: 58746
Countdown: 0
SampleSet: None
StackLeniency: 0.7
Mode: 0
LetterboxInBreaks: 0
WidescreenStoryboard: 0

[Editor]
DistanceSpacing: 1
BeatDivisor: 4
GridSize: 4
TimelineZoom: 2.999999

[Metadata]
Title:FUBUKI
TitleUnicode:吹雪
Artist:Shiena Nishizawa
ArtistUnicode:西沢幸奏
Creator:- G I D Z -
Version:Insane
Source:Fleet Girls Collection KanColle Animation Sequence
Tags:艦隊これくしょん 艦これ Ending ED jump Kantai Collection Kan Colle IamKwan -N_a_n_a_k_o- Starforyou
BeatmapID:645436
BeatmapSetID:285800

[Difficulty]
HPDrainRate:7
CircleSize:4
OverallDifficulty:8
ApproachRate:9
SliderMultiplier:1.8
SliderTickRate:1

[Events]
//Background and Video events
Video,0,"Kantai video.avi"
0,0,"FUBUKI OSU BG.jpg",0,0
//Break Periods
//Storyboard Layer 0 (Background)
//Storyboard Layer 1 (Fail)
//Storyboard Layer 2 (Pass)
//Storyboard Layer 3 (Foreground)
//Storyboard Sound Samples

[TimingPoints]
-587,333.333333333333,4,1,2,60,1,0
79,-200,4,2,2,50,0,0
6079,-200,4,2,2,65,0,0
12412,-200,4,2,2,45,0,0
12746,-100,4,1,2,70,0,0
14079,-100,4,1,2,70,0,0
19412,-100,4,1,2,70,0,0
20746,-133.333333333333,4,1,2,70,0,0
21079,-83.3333333333333,4,1,2,70,0,0
21412,-66.6666666666667,4,1,2,70,0,0
21746,-100,4,1,2,70,0,0
22079,-100,4,1,2,70,0,0
23412,-133.333333333333,4,1,2,65,0,0
23746,-83.3333333333333,4,1,2,65,0,0
24079,-66.6666666666667,4,1,2,65,0,0
24412,-100,4,2,2,60,0,0
27246,-100,4,2,2,70,0,0
27412,-100,4,2,2,60,0,0
29912,-100,4,2,2,60,0,0
30079,-142.857142857143,4,2,2,90,0,0
30746,-111.111111111111,4,2,2,70,0,0
31412,-90.9090909090909,4,2,2,70,0,0
32079,-100,4,2,2,90,0,0
32412,-100,4,2,2,70,0,0
32746,-90.9090909090909,4,2,2,90,0,0
33412,-111.111111111111,4,2,2,70,0,0
34079,-142.857142857143,4,2,2,60,0,0
34579,-100,4,2,2,65,0,0
37912,-100,4,2,2,65,0,0
40746,-142.857142857143,4,2,2,60,0,0
41412,-111.111111111111,4,2,2,60,0,0
42079,-90.9090909090909,4,2,2,60,0,0
42746,-100,4,2,2,60,0,0
43412,-100,4,2,2,65,0,0
45579,-100,4,3,2,70,0,0
46079,-100,4,2,2,70,0,0
46579,-133.333333333333,4,2,2,50,0,0
50912,-100,4,1,2,50,0,0
54079,-100,4,3,2,40,0,0
56746,-100,4,3,2,60,0,0
58079,-100,4,3,2,90,0,0
58746,-133.333333333333,4,2,2,40,0,0
59412,-100,4,1,2,75,0,1
64079,-100,4,1,2,65,0,1
69412,-100,4,2,2,35,0,1
69579,-100,4,2,2,45,0,1
69746,-100,4,2,2,55,0,1
69912,-100,4,2,2,65,0,1
70079,-100,4,1,2,65,0,1
75412,-100,4,1,2,70,0,0
76079,-133.333333333333,4,1,2,60,0,0
76746,-100,4,1,2,60,0,0
77412,-133.333333333333,4,1,2,60,0,0
78412,-100,4,1,2,70,0,0
83412,-100,4,1,2,50,0,0
84079,-100,4,1,2,55,0,0
85079,-100,4,1,2,60,0,0

[Colours]
Combo1 : 99,77,180
Combo2 : 250,145,123
Combo3 : 76,243,231
Combo4 : 234,52,93

[HitObjects]
168,148,79,6,0,P|140:108|88:92,1,90
80,184,579,2,2,L|48:184,2,22.5,8|8|8,3:3|3:3|3:3,0:0:0:0:
320,184,1412,2,0,P|376:216|396:288,1,135
308,272,2079,1,2,0:0:0:0:
80,204,2746,2,0,P|124:188|164:148,1,90
160,84,3246,6,8,L|140:68,2,22.5,8|8|8,3:3|3:3|3:3,3:3:0:0:
380,220,3912,1,0,0:0:0:0:
380,220,4079,1,0,0:0:0:0:
252,32,4579,1,0,0:0:0:0:
252,32,4746,2,0,B|312:152|208:168|272:300,1,270,2|0,0:0|0:0,0:0:0:0:
352,220,6079,6,0,P|380:236|416:240,2,60,10|0|0,3:0|0:0|0:0,0:0:0:0:
404,152,6746,2,0,L|440:152,2,30,2|0|2,0:0|0:0|0:0,0:0:0:0:
352,76,7079,2,0,L|384:76,2,30
212,24,7412,6,0,P|208:56|212:84,1,60
228,116,7746,1,0,0:0:0:0:
136,196,7968,1,2,0:0:0:0:
136,196,8079,2,0,P|120:248|132:296,1,90,2|0,0:0|0:0,0:0:0:0:
228,252,8635,1,0,0:0:0:0:
304,324,8746,6,0,P|300:344|284:372,2,30,10|0|0,3:0|0:0|0:0,0:0:0:0:
388,312,9079,2,0,P|408:320|428:320,2,30
388,256,9412,2,0,P|392:220|388:184,1,60
376,160,9746,2,0,P|352:132|352:84,1,60,2|0,0:0|0:0,0:0:0:0:
356,72,10079,6,0,P|312:56|260:72,1,90,2|0,0:0|0:0,0:0:0:0:
136,280,10746,2,0,L|136:184,1,90,2|0,0:0|0:0,0:0:0:0:
136,80,11246,1,0,0:0:0:0:
256,192,11412,5,0,0:0:0:0:
256,192,11496,12,0,12412,0:0:0:0:
240,320,12746,5,8,1:2:0:0:
272,332,12829,1,8,1:2:0:0:
308,332,12912,1,8,1:2:0:0:
344,324,12996,1,8,1:2:0:0:
372,300,13079,1,8,1:2:0:0:
388,268,13162,1,8,1:2:0:0:
404,236,13246,1,8,1:2:0:0:
400,200,13329,1,8,1:2:0:0:
384,164,13412,2,8,L|364:124,7,45,8|8|8|8|8|8|8|8,1:2|1:2|1:2|1:2|1:2|1:2|1:2|1:2,1:2:0:0:
332,100,14079,6,0,P|240:100|160:168,1,180,4|8,0:0|0:0,0:0:0:0:
92,248,14579,1,0,0:0:0:0:
172,340,14746,2,0,P|260:336|324:264,1,180,0|8,0:0|0:0,0:0:0:0:
212,228,15246,1,0,0:0:0:0:
384,192,15412,6,0,P|424:264|380:356,1,180,0|8,0:0|0:0,0:0:0:0:
148,344,15912,1,0,0:0:0:0:
284,148,16079,1,0,0:0:0:0:
284,352,16246,1,0,0:0:0:0:
120,232,16412,1,8,0:0:0:0:
384,192,16579,1,0,0:0:0:0:
344,52,16746,6,0,P|260:40|184:104,1,180,4|8,0:0|0:0,0:0:0:0:
300,236,17246,1,0,0:0:0:0:
176,348,17412,2,0,P|92:312|44:232,1,180,0|8,0:0|0:0,0:0:0:0:
196,196,17913,1,0,0:0:0:0:
196,196,17996,1,0,0:0:0:0:
196,196,18080,5,2,0:2:0:0:
96,80,18246,1,2,0:2:0:0:
316,172,18412,1,8,0:0:0:0:
76,248,18579,1,2,0:2:0:0:
164,104,18746,5,8,0:0:0:0:
316,172,18912,1,8,0:0:0:0:
232,316,19079,1,8,0:0:0:0:
84,256,19246,1,8,0:0:0:0:
164,104,19412,6,0,P|240:104|320:184,1,180,4|8,0:0|0:0,0:0:0:0:
376,288,19912,1,0,0:0:0:0:
268,356,20079,2,0,L|172:356,1,90
84,256,20412,1,8,0:0:0:0:
152,140,20579,1,0,0:0:0:0:
60,236,20746,6,2,B|40:208|0:188|0:188|0:156,1,101.250003862381,2|2,0:0|2:2,0:0:0:0:
4,136,21079,6,2,B|52:136|92:124|92:124|124:144|152:164,1,161.999995056153,2|2,0:0|2:2,0:0:0:0:
160,188,21412,6,2,B|180:240|252:272|252:272|292:256|320:220,1,202.500007724762,2|2,0:0|2:2,0:0:0:0:
312,204,21746,6,2,B|316:156|300:104|300:104|332:64,1,135,2|2,0:0|2:2,0:0:0:0:
344,60,22079,6,0,P|416:36|392:116,1,180,4|8,0:0|0:0,0:0:0:0:
240,236,22579,1,0,0:0:0:0:
280,24,22746,1,0,0:0:0:0:
344,268,22912,1,0,0:0:0:0:
288,132,23079,1,8,0:0:0:0:
464,196,23246,1,0,0:0:0:0:
316,280,23412,6,2,B|284:308|256:316|256:316|232:280,1,101.250003862381,2|2,0:0|2:2,0:0:0:0:
240,236,23746,6,2,B|196:240|144:216|144:216|68:216,1,161.999995056153,2|2,0:0|0:2,0:0:0:0:
28,208,24079,6,2,B|-32:184|-16:60|56:52,1,202.500007724762,2|2,0:0|2:2,0:0:0:0:
75,98,24412,1,8,1:0:0:0:
122,114,24496,1,8,1:0:0:0:
168,97,24579,1,8,1:0:0:0:
200,60,24662,1,8,1:0:0:0:
248,44,24746,6,0,P|316:44|376:140,1,180,4|8,1:0|1:0,0:0:0:0:
372,248,25246,1,0,0:0:0:0:
268,222,25412,2,0,P|264:177|280:136,1,90
456,192,25746,1,8,1:0:0:0:
364,344,25912,1,0,0:0:0:0:
188,328,26079,6,0,P|116:308|68:208,1,180,0|8,0:0|1:0,0:0:0:0:
40,108,26579,1,0,0:0:0:0:
224,52,26746,2,0,P|184:32|131:31,1,90
148,176,27079,1,8,1:0:0:0:
224,52,27246,1,2,0:0:0:0:
148,176,27412,6,0,P|216:236|308:216,1,180,0|8,0:0|1:0,0:0:0:0:
344,128,27912,1,0,0:0:0:0:
260,60,28079,2,0,P|240:96|240:156,1,90
436,244,28412,1,8,1:0:0:0:
344,128,28579,1,0,0:0:0:0:
248,344,28746,5,0,0:0:0:0:
392,312,28912,1,0,0:0:0:0:
288,252,29079,2,0,P|236:244|192:260,1,90,8|0,1:0|0:0,0:0:0:0:
72,336,29412,1,8,0:0:0:0:
132,200,29579,1,8,0:0:0:0:
56,356,29746,1,8,1:0:0:0:
248,248,29912,1,2,0:0:0:0:
276,220,29996,1,2,0:0:0:0:
284,183,30079,6,0,L|284:52,1,125.999996154785,2|8,0:1|1:0,0:0:0:0:
200,184,30579,1,0,0:0:0:0:
376,220,30746,6,0,L|376:48,1,161.999995056153,2|8,0:1|1:0,0:0:0:0:
200,184,31246,1,0,0:0:0:0:
472,256,31412,6,0,L|472:44,1,198.000006042481,2|8,0:1|1:0,0:0:0:0:
200,184,31912,1,0,0:0:0:0:
267,319,32079,6,0,P|311:322|352:304,2,90,2|2|8,0:0|0:0|1:0,2:2:0:0:
288,196,32579,1,0,0:0:0:0:
44,56,32746,6,0,L|44:264,1,198.000006042481,2|8,0:1|1:0,0:0:0:0:
288,196,33246,1,0,0:0:0:0:
128,56,33412,6,0,L|128:252,1,161.999995056153,2|8,0:1|1:0,0:0:0:0:
288,196,33912,1,0,0:0:0:0:
208,60,34079,6,0,L|208:212,1,125.999996154785,2|8,0:1|1:0,0:0:0:0:
44,254,34579,1,8,0:0:0:0:
44,254,34662,1,8,0:0:0:0:
44,254,34746,1,8,0:0:0:0:
208,60,34912,1,0,0:0:0:0:
184,328,35079,2,0,P|112:356|52:320,1,135,8|0,1:0|0:0,0:0:0:0:
49,285,35412,6,0,P|130:320|208:272,1,180,4|8,1:0|1:0,0:0:0:0:
124,220,35912,1,0,0:0:0:0:
124,220,35996,1,0,0:0:0:0:
124,220,36079,2,0,P|168:132|144:60,1,180,0|8,0:0|1:0,0:0:0:0:
40,128,36579,1,0,0:0:0:0:
276,148,36746,5,0,0:0:0:0:
143,59,36912,1,0,0:0:0:0:
124,220,37079,1,8,1:0:0:0:
276,56,37246,1,0,0:0:0:0:
40,128,37412,2,0,P|-3:205|36:312,1,180,0|8,0:0|1:0,0:0:0:0:
296,224,37912,1,0,0:0:0:0:
124,220,38079,5,2,0:0:0:0:
244,352,38246,1,0,0:0:0:0:
416,308,38412,2,0,P|436:208|396:128,1,180,8|0,1:0|0:0,0:0:0:0:
296,224,38912,1,0,0:0:0:0:
224,104,39079,1,8,1:0:0:0:
364,56,39246,1,0,0:0:0:0:
128,56,39412,6,0,P|112:100|120:144,1,90
224,104,39746,1,8,1:0:0:0:
48,216,39912,1,0,0:0:0:0:
124,344,40079,2,0,P|188:344|220:328,1,90
378,204,40412,1,8,1:0:0:0:
119,141,40579,1,8,1:0:0:0:
324,100,40746,6,0,P|372:152|376:216,1,125.999996154785,2|8,1:0|1:0,0:0:0:0:
272,196,41246,1,2,0:0:0:0:
60,192,41412,6,0,P|48:112|92:40,1,161.999995056153,2|8,1:0|1:0,0:0:0:0:
204,140,41912,1,2,0:0:0:0:
348,268,42079,6,0,P|256:304|156:260,1,198.000006042481,2|8,1:0|1:0,0:0:0:0:
256,148,42579,1,2,0:0:0:0:
364,60,42746,6,0,P|408:40|452:36,2,90,2|2|8,1:0|0:0|1:0,0:0:0:0:
440,164,43246,1,0,0:0:0:0:
348,268,43412,6,0,B|308:256|228:276|228:276|172:248,1,180,0|8,1:0|1:0,0:0:0:0:
100,192,43912,1,0,0:0:0:0:
76,68,44079,2,0,P|32:84|0:116,1,90,0|0,1:0|0:0,0:0:0:0:
100,192,44412,1,8,1:0:0:0:
184,96,44579,1,0,0:0:0:0:
352,56,44746,6,0,L|320:116,1,45,8|0,1:0|2:0,0:0:0:0:
384,168,44912,2,0,L|412:124,1,45,8|0,1:0|2:0,0:0:0:0:
504,128,45079,2,0,L|480:172,1,45,8|0,1:0|2:0,0:0:0:0:
368,256,45246,1,8,1:2:0:0:
368,256,45329,1,8,1:2:0:0:
368,256,45412,1,10,1:2:0:0:
212,344,45579,1,8,0:0:0:0:
132,144,45746,1,8,0:0:0:0:
264,228,45912,1,8,0:0:0:0:
116,276,46079,5,6,0:0:0:0:
152,48,46579,1,0,0:0:0:0:
152,48,46746,2,0,B|212:36|212:36|264:40|316:88|316:88|296:108,1,202.500007724762
316,204,47412,2,0,B|256:208|224:168|224:168|164:180|120:132,1,202.500007724762
48,200,48079,2,0,B|68:240|116:260|164:244,1,135.000005149842
131,143,48579,6,0,L|131:107,2,33.7500012874604,0|4|0,1:1|3:3|0:0,0:0:0:0:
176,336,49246,1,0,0:0:0:0:
176,336,49412,2,0,B|244:312|244:360|316:328,2,135.000005149842
88,260,50412,1,0,0:0:0:0:
336,92,50746,2,0,P|368:72|416:72,1,67.5000025749208,0|0,1:1|1:1,0:0:0:0:
392,144,51079,1,8,0:0:0:0:
248,320,51412,6,0,P|200:332|144:316,1,90,4|0,0:0|0:0,0:0:0:0:
200,184,51746,1,8,0:0:0:0:
88,260,51912,1,0,0:0:0:0:
332,144,52079,2,0,P|318:102|282:77,1,90
144,224,52412,1,8,0:0:0:0:
334,307,52579,1,0,0:0:0:0:
374,307,52662,1,0,0:0:0:0:
410,287,52746,6,0,P|394:191|330:143,1,180,4|8,1:0|0:0,0:0:0:0:
236,252,53246,1,0,0:0:0:0:
112,184,53412,2,0,P|84:152|68:104,2,90,0|0|8,0:0|0:0|0:0,0:0:0:0:
236,252,53912,1,0,0:0:0:0:
256,52,54079,5,12,1:3:0:0:
248,40,54246,1,8,3:3:0:0:
112,184,54413,5,8,3:3:0:0:
100,188,54580,1,8,3:3:0:0:
260,324,54746,5,8,3:3:0:0:
268,332,54913,1,8,3:3:0:0:
368,136,55079,5,8,3:3:0:0:
376,128,55246,1,8,3:3:0:0:
88,252,55412,5,12,3:3:0:0:
156,312,55579,1,8,3:3:0:0:
232,128,55745,5,8,3:3:0:0:
200,212,55912,1,8,3:3:0:0:
364,276,56079,5,8,3:3:0:0:
304,208,56246,1,8,3:3:0:0:
468,120,56412,5,8,3:3:0:0:
408,188,56579,1,8,3:3:0:0:
140,96,56746,5,12,1:3:0:0:
368,96,56912,1,8,3:3:0:0:
256,320,57079,1,8,3:3:0:0:
140,96,57246,1,8,3:3:0:0:
372,216,57412,1,12,1:3:0:0:
136,216,57579,1,8,3:3:0:0:
256,44,57746,1,8,3:3:0:0:
360,308,57912,1,8,3:3:0:0:
56,48,58079,5,12,1:3:0:0:
376,44,58246,1,10,0:0:0:0:
192,304,58412,1,10,0:0:0:0:
376,44,58746,6,2,P|428:20|412:116,1,202.500007724762,2|0,1:0|0:0,0:0:0:0:
356,156,59412,6,0,L|256:196,1,90,4|0,0:0|0:0,0:0:0:0:
100,256,59746,1,8,0:0:0:0:
220,128,59912,1,0,0:0:0:0:
220,128,59996,1,0,0:0:0:0:
220,128,60079,1,0,0:0:0:0:
348,248,60246,1,0,0:0:0:0:
100,256,60412,1,8,0:0:0:0:
272,189,60579,1,0,0:0:0:0:
108,132,60746,6,0,P|80:88|88:48,1,90
240,24,61079,1,8,0:0:0:0:
404,96,61246,1,0,0:0:0:0:
404,96,61329,1,0,0:0:0:0:
404,96,61412,1,0,0:0:0:0:
312,252,61579,1,0,0:0:0:0:
132,188,61746,2,0,P|180:180|228:196,1,90,8|0,0:0|0:0,0:0:0:0:
124,280,62079,6,0,P|52:240|52:136,1,180,4|8,0:0|0:0,0:0:0:0:
219,190,62579,1,0,0:0:0:0:
360,284,62746,2,0,P|300:348|196:356,1,180,4|8,0:0|0:0,0:0:0:0:
219,190,63246,1,0,0:0:0:0:
140,40,63412,2,0,B|192:36|228:52,1,90,4|0,0:0|0:0,0:0:0:0:
368,176,63746,1,8,0:0:0:0:
320,24,63912,1,0,0:0:0:0:
256,136,64079,6,0,L|256:248,1,90
168,300,64412,2,0,P|100:296|60:248,1,120,8|0,0:0|0:0,0:0:0:0:
48,188,64746,6,0,P|48:144|72:108,2,60,2|0|2,3:0|3:0|3:0,3:0:0:0:
201,153,65079,2,0,P|245:153|277:173,2,60,0|0|0,3:0|3:0|3:0,3:0:0:0:
168,300,65412,2,0,P|168:344|188:376,2,60,2|0|0,3:0|3:0|3:0,3:0:0:0:
259,159,65746,2,0,P|259:115|279:83,2,60,0|0|2,3:0|3:0|3:0,3:0:0:0:
412,280,66079,6,0,P|336:312|260:256,1,180,6|0,3:0|3:0,3:0:0:0:
92,124,66635,1,0,3:0:0:0:
92,124,66746,2,0,P|148:108|208:132,1,120,0|0,3:0|3:0,3:0:0:0:
268,199,67079,2,0,P|212:219|156:204,1,120,8|0,3:0|3:0,3:0:0:0:
304,116,67412,5,2,3:0:0:0:
340,68,67524,1,0,3:0:0:0:
396,52,67635,1,0,3:0:0:0:
452,72,67746,1,0,3:0:0:0:
444,232,67968,1,0,0:0:0:0:
444,232,68079,6,0,P|384:256|312:248,1,120,2|0,3:0|3:0,0:0:0:0:
268,252,68412,2,0,P|208:264|164:308,1,120,8|0,3:0|3:0,3:0:0:0:
136,356,68746,2,0,P|128:240|80:176,1,180,2|8,3:0|3:0,3:0:0:0:
28,252,69246,1,0,3:0:0:0:
138,106,69412,6,8,L|182:66,1,45,8|8,1:3|1:3,1:3:0:0:
384,48,69579,2,8,L|344:84,1,45,8|8,1:3|1:3,1:3:0:0:
220,164,69746,1,8,1:1:0:0:
176,176,69829,1,8,1:1:0:0:
136,152,69912,1,8,1:1:0:0:
138,106,69996,1,8,1:1:0:0:
172,76,70079,6,0,P|252:88|320:160,1,180,4|8,3:3|0:0,0:0:0:0:
180,232,70579,1,0,0:0:0:0:
368,336,70746,2,0,P|412:264|388:160,1,180,0|8,0:0|0:0,0:0:0:0:
256,232,71246,1,0,0:0:0:0:
256,232,71329,1,0,0:0:0:0:
256,232,71412,5,0,0:0:0:0:
360,96,71579,1,0,0:0:0:0:
152,96,71746,1,8,0:0:0:0:
352,216,71912,1,0,0:0:0:0:
260,24,72079,1,0,0:0:0:0:
152,204,72246,1,0,0:0:0:0:
360,96,72412,1,8,0:0:0:0:
304,300,72579,1,0,0:0:0:0:
80,304,72746,6,0,P|60:260|56:204,1,90,4|0,0:0|0:0,0:0:0:0:
124,68,73079,1,8,0:0:0:0:
192,220,73246,1,0,0:0:0:0:
344,152,73412,2,0,P|388:144|440:156,1,90,4|0,0:0|0:0,0:0:0:0:
304,344,73746,1,8,0:0:0:0:
431,152,73912,1,0,0:0:0:0:
280,344,74079,6,0,L|184:344,1,90,4|0,0:0|0:0,0:0:0:0:
28,260,74412,1,8,0:0:0:0:
104,104,74579,1,0,0:0:0:0:
172,264,74746,1,0,0:0:0:0:
16,168,74912,1,0,0:0:0:0:
204,168,75079,2,0,P|240:132|248:92,1,90,8|0,0:0|0:0,0:0:0:0:
164,92,75412,6,0,B|136:88|136:88|112:68,2,60
296,244,75746,2,0,B|324:248|324:248|348:268,2,60
192,280,76079,6,0,P|236:336|308:352,1,135.000005149842,0|4,0:2|0:3,0:2:0:0:
448,208,76635,1,0,0:2:0:0:
448,208,76746,6,0,B|476:212|476:212|500:232,2,60
256,192,77079,2,0,B|228:188|228:188|204:168,2,60
296,288,77412,6,0,P|228:296|176:256,1,135.000005149842,0|4,2:2|1:3,2:2:0:0:
256,192,77968,5,0,0:0:0:0:
288,160,78079,2,0,P|304:100|252:24,1,135.000005149842,0|8,0:0|1:0,0:0:0:0:
132,192,78635,1,0,0:0:0:0:
132,192,78746,5,0,0:0:0:0:
32,88,78912,1,0,0:0:0:0:
216,132,79079,1,8,0:0:0:0:
44,212,79246,1,0,0:0:0:0:
168,48,79412,6,0,P|216:36|276:56,1,90
296,184,79746,1,8,0:0:0:0:
416,104,79912,1,0,0:0:0:0:
328,292,80079,2,0,P|292:324|240:336,1,90,0|8,0:0|0:0,0:0:0:0:
207,335,80329,1,8,0:0:0:0:
162,327,80412,1,8,0:0:0:0:
118,313,80496,1,8,0:0:0:0:
89,278,80579,1,8,0:0:0:0:
64,240,80662,1,8,0:0:0:0:
45,198,80746,6,0,L|71:108,1,90,4|0,0:0|0:0,0:0:0:0:
232,104,81079,2,0,L|200:212,1,90,8|0,0:0|0:0,0:0:0:0:
256,328,81412,1,0,0:0:0:0:
400,280,81579,1,0,0:0:0:0:
332,144,81746,2,0,L|376:48,1,90,8|0,0:0|0:0,0:0:0:0:
208,192,82079,5,4,0:0:0:0:
104,304,82246,1,0,0:0:0:0:
80,156,82412,2,0,L|40:68|40:68,1,90,8|0,0:0|0:0,0:0:0:0:
192,48,82746,1,0,0:0:0:0:
43,74,82912,1,0,0:0:0:0:
224,48,83079,2,0,P|268:40|312:52,1,90,8|0,0:0|0:0,0:0:0:0:
400,168,83412,6,8,L|440:204,3,45,12|8|8|8,0:0|0:0|0:0|0:0,0:0:0:0:
449,241,83746,2,8,L|413:269,3,45
374,291,84079,5,8,0:0:0:0:
332,307,84162,1,8,0:0:0:0:
287,301,84246,1,8,0:0:0:0:
253,270,84329,1,8,0:0:0:0:
213,247,84412,1,8,0:0:0:0:
167,247,84496,1,8,0:0:0:0:
133,276,84579,1,8,0:0:0:0:
135,320,84662,1,8,0:0:0:0:
163,355,84746,6,8,L|214:339,3,45
237,309,85079,2,8,L|237:249,3,45
237,218,85412,5,8,0:0:0:0:
205,185,85496,1,8,0:0:0:0:
190,142,85579,1,8,0:0:0:0:
215,105,85662,1,8,0:0:0:0:
258,93,85746,1,8,0:0:0:0:
300,105,85829,1,8,0:0:0:0:
332,136,85912,1,8,0:0:0:0:
334,181,85996,1,8,0:0:0:0:
333,225,86079,5,4,0:0:0:0:
