osu file format v14

[General]
AudioFilename: brand-new world.mp3
AudioLeadIn: 0
PreviewTime: 50972
Countdown: 0
SampleSet: Soft
StackLeniency: 0.7
Mode: 0
LetterboxInBreaks: 0
WidescreenStoryboard: 0

[Editor]
DistanceSpacing: 0.9
BeatDivisor: 4
GridSize: 4
TimelineZoom: 2.6

[Metadata]
Title:Brand-new World
TitleUnicode:Brand-new World
Artist:Shiena Nishizawa
ArtistUnicode:西沢幸奏
Creator:Wou
Version:Normal
Source:学戦都市アスタリスク
Tags:gakusen toshi asterisk the academy city on the water op theme tv size wou underforest fuyuyu- azulae
BeatmapID:846022
BeatmapSetID:387647

[Difficulty]
HPDrainRate:3.2
CircleSize:3.5
OverallDifficulty:3.5
ApproachRate:4
SliderMultiplier:1
SliderTickRate:1

[Events]
//Background and Video events
Video,-522,"video.flv"
0,0,"bg1.jpg",0,0
//Break Periods
//Storyboard Layer 0 (Background)
//Storyboard Layer 1 (Fail)
//Storyboard Layer 2 (Pass)
//Storyboard Layer 3 (Foreground)
//Storyboard Sound Samples

[TimingPoints]
265,292.682926829268,4,2,0,40,1,0
4508,-100,4,2,3,70,0,0
13143,-100,4,2,3,70,0,0
13728,-100,4,2,3,50,0,0
14021,-100,4,2,3,5,0,0
14313,-100,4,2,0,35,0,0
23679,-100,4,2,3,70,0,0
49435,-100,4,2,3,50,0,0
50460,-100,4,2,3,5,0,0
51630,-100,4,2,3,90,0,1
60923,-100,4,2,3,90,0,0
60996,-100,4,2,3,90,0,1
70508,-100,4,2,3,90,0,0
75191,-100,4,2,3,90,0,1
79655,-100,4,2,3,90,0,0
82216,-100,4,2,0,45,0,0
83094,-100,4,2,3,45,0,0

[Colours]
Combo1 : 255,128,255
Combo2 : 128,0,128
Combo3 : 255,128,192
Combo4 : 0,128,192

[HitObjects]
96,204,4508,6,0,L|144:156,1,50,8|8,0:0|0:0,0:0:0:0:
160,136,4801,2,0,P|224:168|272:100,1,150,0|8,0:0|0:0,0:0:0:0:
340,60,5533,2,0,L|368:160,1,100,0|8,0:0|0:0,0:0:0:0:
356,244,6118,2,0,L|260:276,1,100,0|8,0:0|0:0,0:0:0:0:
192,228,6704,2,0,P|192:164|224:132,2,100,0|8|0,0:0|0:0|0:0,0:0:0:0:
148,308,7582,6,0,P|84:276|52:276,1,100,8|0,0:0|0:0,0:0:0:0:
92,192,8167,2,0,P|92:128|60:96,2,100,8|0|8,0:0|0:0|0:0,0:0:0:0:
180,212,9045,2,0,P|252:192|292:196,1,100,0|8,0:0|0:0,0:0:0:0:
360,224,9630,6,0,P|424:256|456:256,1,100,0|8,0:0|0:0,0:0:0:0:
432,168,10216,2,0,P|448:104|480:72,2,100,0|8|0,0:0|0:0|0:0,0:0:0:0:
352,128,11094,2,0,P|288:96|256:96,1,100,8|0,0:0|0:0,0:0:0:0:
280,184,11679,2,0,P|248:248|232:292,1,100,8|0,0:0|0:0,0:0:0:0:
168,336,12264,6,0,P|232:368|296:336,1,100,8|0,0:0|0:0,0:0:0:0:
328,308,12850,2,0,P|360:244|392:212,1,100,8|0,0:0|0:0,0:0:0:0:
400,184,13289,2,8,L|400:120,1,50,0|0,0:0|0:0,0:0:0:0:
400,88,13582,2,8,L|336:56,1,50,0|0,0:0|0:0,0:0:0:0:
316,44,13874,2,8,L|252:76,1,50,0|0,0:0|0:0,0:0:0:0:
196,116,14313,6,0,L|208:280,2,150
252,44,15484,1,0,0:0:0:0:
320,104,15777,1,0,0:0:0:0:
332,192,16069,1,0,0:0:0:0:
272,260,16362,2,0,L|204:276,1,50
180,284,16655,6,0,L|152:124,2,150
268,308,17825,2,0,L|376:300,1,100
412,296,18264,2,0,L|444:144,1,150
396,72,18996,2,0,B|336:100|276:76|276:76|248:92,2,150
484,52,20167,1,0,0:0:0:0:
412,164,20606,1,0,0:0:0:0:
280,188,21045,2,0,L|168:168,1,100
92,172,21630,1,0,0:0:0:0:
92,260,21923,6,0,P|124:324|124:356,2,100
160,196,22801,2,0,B|220:240|220:240|268:196|344:188,1,200,0|8,0:0|3:3,0:0:0:0:
344,104,23679,6,0,P|280:104|236:84,1,100,0|8,0:0|0:0,0:0:0:0:
192,20,24264,2,0,P|152:88|156:116,1,100,0|8,0:0|0:0,0:0:0:0:
168,196,24850,2,0,P|232:196|264:228,1,100,0|8,0:0|0:0,0:0:0:0:
316,288,25435,1,0,0:0:0:0:
384,224,25728,1,8,0:0:0:0:
384,136,26021,2,0,P|384:72|416:40,2,100,0|8|0,0:0|0:0|0:0,0:0:0:0:
296,136,26899,2,0,L|168:136,1,100,8|0,0:0|0:0,0:0:0:0:
128,192,27484,2,0,P|192:256|192:288,1,100,8|0,0:0|0:0,0:0:0:0:
280,276,28069,1,8,0:0:0:0:
316,192,28362,6,0,P|348:128|412:64,2,150,4|0|8,0:0|0:0|0:0,0:0:0:0:
224,196,29533,2,0,P|160:164|64:132,2,150,2|0|8,0:0|0:0|0:0,0:0:0:0:
288,256,30704,2,0,P|320:320|384:320,1,100,0|8,0:0|0:0,0:0:0:0:
408,268,31289,2,0,L|408:140,1,100,0|8,0:0|0:0,0:0:0:0:
412,76,31874,1,0,0:0:0:0:
320,96,32167,1,8,0:0:0:0:
236,128,32460,2,0,L|136:164,1,100,2|2,0:0|0:0,0:0:0:0:
52,172,33045,2,0,P|64:216|120:244,2,100
48,84,33923,6,0,P|92:64|156:84,1,100,2|0,0:0|0:0,0:0:0:0:
188,80,34362,2,0,L|300:76,1,100,8|8,0:0|0:0,0:0:0:0:
376,80,34947,1,2,0:0:0:0:
376,80,35094,2,0,P|372:120|332:172,1,100,8|0,0:0|0:0,0:0:0:0:
208,204,35825,2,0,P|224:240|336:264,1,150,8|2,0:0|0:0,0:0:0:0:
412,168,36704,2,0,P|460:208|456:296,1,150,8|2,0:0|0:0,0:0:0:0:
380,336,37435,2,0,P|324:352|272:352,1,100,8|2,0:0|0:0,0:0:0:0:
196,324,38021,1,0,0:0:0:0:
196,324,38167,6,0,P|204:276|248:244,1,100,8|8,0:0|0:0,0:0:0:0:
280,224,38606,2,0,P|320:196|308:144,1,100,0|2,0:0|0:0,0:0:0:0:
276,68,39191,1,0,0:0:0:0:
276,68,39338,2,0,P|232:64|164:96,1,100,8|2,0:0|0:0,0:0:0:0:
144,104,39777,1,8,0:0:0:0:
72,152,40069,2,0,P|100:196|156:196,1,100,2|8,0:0|0:0,0:0:0:0:
232,184,40655,2,0,P|256:216|240:288,1,100,8|2,0:0|0:0,0:0:0:0:
224,308,41094,1,2,0:0:0:0:
224,308,41240,6,0,P|256:328|336:320,1,100,8|8,0:0|0:0,0:0:0:0:
404,308,41825,2,0,L|512:304,2,100,2|8|4,0:0|0:0|0:0,0:0:0:0:
304,156,42996,6,0,P|348:132|500:160,2,200
124,152,44752,2,0,P|100:200|132:344,2,200
296,208,46508,1,0,0:0:0:0:
220,44,47094,6,0,P|296:32|384:48,1,150
332,172,47972,2,0,L|224:208,1,100
148,224,48557,1,0,0:0:0:0:
164,136,48850,2,0,L|252:64,1,100
279,155,49435,2,0,B|235:207|235:271|235:271|303:303|375:247|423:151,1,350
384,52,51630,6,0,B|344:92|344:92|324:128|324:128|272:160,1,150,0|8,0:0|0:0,0:0:0:0:
196,120,52362,2,0,L|100:56,1,100,0|8,0:0|0:0,0:0:0:0:
84,148,52947,2,0,L|180:244,1,100,0|8,0:0|0:0,0:0:0:0:
244,200,53533,2,0,P|308:168|372:168,2,100,0|8|0,0:0|0:0|0:0,0:0:0:0:
224,288,54411,2,0,P|160:320|128:320,1,100,8|0,0:0|0:0,0:0:0:0:
64,256,54996,2,0,L|96:160,1,100,8|0,0:0|0:0,0:0:0:0:
160,96,55582,2,0,P|224:128|288:128,2,100,10|10|10,0:1|0:1|0:1,0:0:0:0:
95,161,56460,6,0,B|136:220|184:240,1,100,4|8,0:0|0:0,0:0:0:0:
248,268,57045,2,0,B|316:244|320:184,1,100,0|8,0:0|0:0,0:0:0:0:
348,116,57630,2,0,B|292:124|292:124|248:124,1,100,0|8,0:0|0:0,0:0:0:0:
168,160,58216,2,0,L|172:272,1,100,0|8,0:0|0:0,0:0:0:0:
180,348,58801,2,8,B|256:336|336:348,2,150,14|10|10,0:1|0:1|0:1,0:0:0:0:
164,260,59972,2,0,L|52:312,1,100,0|10,0:0|0:1,0:0:0:0:
80,212,60557,6,0,B|96:160|140:128,1,100,0|10,0:0|0:0,0:0:0:0:
228,128,61143,2,0,B|292:156|292:156|324:156,1,100,0|8,0:0|0:0,0:0:0:0:
376,228,61728,2,0,B|336:296|336:296|304:296,1,100,0|8,0:0|0:0,0:0:0:0:
232,264,62313,1,0,0:0:0:0:
208,176,62606,2,0,B|144:208|144:208|80:208,1,100,8|0,0:0|0:0,0:0:0:0:
96,120,63191,2,0,B|160:88|160:88|224:88,1,100,8|0,0:0|0:0,0:0:0:0:
276,88,63777,2,0,B|376:32,2,100,8|0|8,0:0|0:0|0:0,0:0:0:0:
232,164,64655,5,0,0:0:0:0:
144,188,64947,1,10,0:1:0:0:
60,216,65240,2,0,L|60:344,1,100,10|10,0:1|0:1,0:0:0:0:
148,340,65825,6,0,B|212:308|212:308|276:308,1,100,0|8,0:0|0:0,0:0:0:0:
332,304,66411,2,0,L|348:200,1,100,0|8,0:0|0:0,0:0:0:0:
268,160,66996,2,0,B|216:200|216:200|172:224,1,100,0|8,0:0|0:0,0:0:0:0:
128,148,67582,2,0,B|160:84|160:84|192:52,2,100,0|8|0,0:0|0:0|0:0,0:0:0:0:
88,228,68460,1,8,0:0:0:0:
76,316,68752,2,0,B|140:348|140:348|172:348,1,100,0|8,0:0|0:0,0:0:0:0:
248,300,69338,1,0,0:0:0:0:
320,248,69630,6,0,L|384:216,1,50
384,184,69923,2,0,L|352:120,1,50
320,120,70216,2,0,L|216:96,1,100,10|4,0:0|0:0,0:0:0:0:
136,128,70801,6,0,B|168:184|168:184|184:232,1,100,8|0,0:0|0:0,0:0:0:0:
212,296,71386,2,0,B|268:280|268:280|320:248,2,100,8|0|8,0:0|0:0|0:0,0:0:0:0:
124,284,72264,1,0,0:0:0:0:
104,200,72557,2,0,L|200:136,1,100,8|0,0:0|0:0,0:0:0:0:
252,88,73143,2,0,B|316:120|316:120|380:120,1,100,8|0,0:0|0:0,0:0:0:0:
388,120,73582,2,0,B|452:120|452:120|472:212,1,150
464,292,74313,2,0,B|400:324|400:324|360:348,1,100,8|0,0:0|0:0,0:0:0:0:
288,328,74899,6,0,B|232:328|192:268,1,100,8|10,0:0|0:1,0:0:0:0:
148,212,75484,1,0,0:0:0:0:
148,212,75630,2,0,B|148:148|148:148|180:116,1,100,10|0,0:1|0:0,0:0:0:0:
208,96,76069,2,0,B|272:64|272:64|304:64,1,100,10|0,0:1|0:0,0:0:0:0:
344,52,76508,2,0,B|408:84|408:84|440:116,1,100,10|0,0:1|0:0,0:0:0:0:
452,144,76947,2,0,B|468:200|468:200|460:264,1,100,10|10,0:1|0:1,0:0:0:0:
392,300,77533,6,0,L|296:236,1,100,10|10,0:1|0:1,0:0:0:0:
232,196,78118,1,10,0:1:0:0:
164,136,78411,1,10,0:1:0:0:
204,56,78704,1,10,0:1:0:0:
292,44,78996,2,0,L|348:44,1,50,8|8,0:0|0:0,0:0:0:0:
388,44,79289,2,0,B|380:96|380:96|380:196,2,150,8|4|8,0:0|0:0|0:0,0:0:0:0:
476,36,80460,6,0,L|476:140,1,100,0|8,0:0|0:0,0:0:0:0:
464,224,81045,2,0,P|456:288|420:312,1,100,0|8,0:0|0:0,0:0:0:0:
372,240,81630,2,0,L|268:240,1,100,0|8,0:0|0:0,0:0:0:0:
180,240,82216,1,0,0:0:0:0:
120,172,82508,1,0,0:0:0:0:
184,108,82801,1,0,0:0:0:0:
276,108,83094,2,0,L|436:112,2,150
188,108,84264,2,0,L|128:108,1,50
