osu file format v14

[General]
AudioFilename: brand-new world.mp3
AudioLeadIn: 0
PreviewTime: 50972
Countdown: 0
SampleSet: Soft
StackLeniency: 0.7
Mode: 0
LetterboxInBreaks: 0
WidescreenStoryboard: 0

[Editor]
DistanceSpacing: 1.1
BeatDivisor: 4
GridSize: 4
TimelineZoom: 2.6

[Metadata]
Title:Brand-new World
TitleUnicode:Brand-new World
Artist:Shiena Nishizawa
ArtistUnicode:西沢幸奏
Creator:Wou
Version:Hard
Source:学戦都市アスタリスク
Tags:gakusen toshi asterisk the academy city on the water op theme tv size wou underforest fuyuyu- azulae
BeatmapID:846758
BeatmapSetID:387647

[Difficulty]
HPDrainRate:5
CircleSize:4
OverallDifficulty:6
ApproachRate:8
SliderMultiplier:1.4
SliderTickRate:1

[Events]
//Background and Video events
Video,-522,"video.flv"
0,0,"bg2.jpg",0,0
//Break Periods
//Storyboard Layer 0 (Background)
//Storyboard Layer 1 (Fail)
//Storyboard Layer 2 (Pass)
//Storyboard Layer 3 (Foreground)
//Storyboard Sound Samples

[TimingPoints]
265,292.682926829268,4,2,1,60,1,0
4508,-100,4,2,3,70,0,0
14313,-133.333333333333,4,2,0,35,0,0
23386,-200,4,2,1,50,0,0
23679,-100,4,2,3,70,0,0
42411,-166.666666666667,4,2,0,50,0,0
51045,-100,4,2,0,55,0,0
51630,-100,4,2,3,90,0,1
60923,-100,4,2,3,90,0,0
60996,-100,4,2,3,90,0,1
69045,-100,4,2,3,90,0,1
69484,-100,4,2,0,90,0,1
70508,-100,4,2,3,90,0,0
75191,-100,4,2,3,90,0,1
79655,-100,4,2,3,70,0,0

[Colours]
Combo1 : 255,128,255
Combo2 : 128,0,128
Combo3 : 255,128,192
Combo4 : 0,128,192

[HitObjects]
392,192,4508,5,8,0:0:0:0:
376,116,4655,1,8,0:0:0:0:
308,156,4801,6,0,P|244:156|176:116,1,140,4|0,0:0|0:0,0:0:0:0:
212,48,5240,2,0,P|124:52|100:96,1,140,8|0,0:0|0:0,0:0:0:0:
92,168,5679,1,2,0:0:0:0:
104,244,5825,2,0,L|132:316,1,70,8|0,0:0|0:0,0:0:0:0:
216,304,6118,6,0,L|280:248,1,70,2|0,0:0|0:0,0:0:0:0:
356,248,6411,2,0,P|328:184|248:184,1,140,8|0,0:0|0:0,0:0:0:0:
184,208,6850,1,2,0:0:0:0:
124,272,6996,2,0,P|104:232|108:180,1,70,8|0,0:0|0:0,0:0:0:0:
52,148,7289,6,0,P|56:108|64:72,1,70,2|0,0:0|0:0,0:0:0:0:
128,36,7582,2,0,P|193:44|288:24,1,140,8|0,0:0|0:0,0:0:0:0:
336,28,8021,1,2,0:0:0:0:
344,104,8167,2,0,P|380:112|413:109,1,70,8|0,0:0|0:0,0:0:0:0:
480,112,8460,6,0,L|480:260,1,140,2|8,0:0|0:0,0:0:0:0:
416,280,8899,2,0,P|344:300|260:272,1,140,2|2,0:0|0:0,0:0:0:0:
264,216,9338,2,0,P|266:177|260:136,1,70,8|0,0:0|0:0,0:0:0:0:
244,72,9630,6,0,P|208:40|176:40,1,70,4|0,0:0|0:0,0:0:0:0:
180,116,9923,2,0,P|168:164|172:256,1,140,8|0,0:0|0:0,0:0:0:0:
232,316,10362,2,0,P|292:304|324:284,2,70,0|8|0,0:0|0:0|0:0,0:0:0:0:
144,328,10801,6,0,P|96:328|64:312,1,70
27,253,11094,2,0,L|175:241,1,140,8|0,0:0|0:0,0:0:0:0:
264,236,11533,1,2,0:0:0:0:
264,236,11679,2,0,L|352:212,1,70,8|0,0:0|0:0,0:0:0:0:
436,224,11972,5,2,0:0:0:0:
436,120,12264,1,2,0:0:0:0:
324,120,12557,1,2,0:0:0:0:
324,224,12850,1,2,0:0:0:0:
228,128,13143,6,0,L|304:136,1,70,2|0,0:0|0:0,0:0:0:0:
397,209,13435,2,0,L|328:216,1,70,2|0,0:0|0:0,0:0:0:0:
240,232,13728,2,2,L|228:272,3,35
128,72,14313,6,0,L|88:192,1,105.000004005432,2|0,0:0|0:0,0:0:0:0:
28,224,14752,2,0,P|76:252|132:248,1,105.000004005432
228,244,15191,2,0,P|284:232|344:248,2,105.000004005432
228,128,16069,2,0,P|280:132|344:108,1,105.000004005432
368,224,16655,6,0,B|412:248|412:248|428:324|456:348,2,157.500006008148,2|2|0,0:0|0:0|0:0,0:0:0:0:
264,280,17825,6,0,P|206:284|141:278,1,105.000004005432
84,232,18264,2,0,L|84:116,1,105.000004005432
80,40,18704,1,0,0:0:0:0:
204,48,18996,6,0,B|240:40|240:40|280:84|364:40,2,157.500006008148,2|2|0,0:0|0:0|0:0,0:0:0:0:
128,100,20167,6,0,P|144:160|136:212,1,105.000004005432
80,256,20606,2,0,P|112:276|196:264,1,105.000004005432
244,336,21045,1,0,0:0:0:0:
348,252,21338,6,0,B|348:200|348:200|368:132,1,105.000004005432,2|0,0:0|0:0,0:0:0:0:
404,72,21923,2,0,P|440:120|440:176,1,105.000004005432
428,288,22508,6,0,B|380:320|380:320|312:316|280:280,1,157.500006008148
220,232,23094,1,0,0:0:0:0:
276,124,23386,1,2,0:0:0:0:
276,124,23679,6,0,B|256:160|256:160|232:208|168:220,1,140,2|8,0:0|0:0,0:0:0:0:
128,284,24118,2,0,P|92:220|121:162,1,140,0|2,0:0|0:0,0:0:0:0:
188,104,24557,2,0,P|216:84|252:64,1,70,8|0,0:0|0:0,0:0:0:0:
336,44,24850,6,0,P|341:78|360:107,1,70,2|0,0:0|0:0,0:0:0:0:
420,48,25143,2,0,B|441:84|441:84|452:208,1,140,8|0,0:0|0:0,0:0:0:0:
440,264,25582,1,2,0:0:0:0:
360,236,25728,2,0,L|292:252,1,70,8|0,0:0|0:0,0:0:0:0:
256,328,26021,6,0,P|216:272|232:192,1,140,2|8,0:0|0:0,0:0:0:0:
312,188,26460,2,0,P|296:144|192:128,1,140,0|2,0:0|0:0,0:0:0:0:
120,144,26899,2,0,P|120:104|132:68,1,70,8|0,0:0|0:0,0:0:0:0:
228,32,27191,6,0,P|276:32|312:48,1,70,2|0,0:0|0:0,0:0:0:0:
384,80,27484,1,8,0:0:0:0:
384,80,27630,2,0,L|391:219,1,140,2|2,0:0|0:0,0:0:0:0:
392,304,28069,2,0,L|304:316,1,70,8|0,0:0|0:0,0:0:0:0:
264,368,28362,6,0,P|236:312|284:248,1,140,6|8,0:0|0:0,0:0:0:0:
260,164,28801,2,0,B|220:136|220:136|168:100|120:108,1,140,0|2,0:0|0:0,0:0:0:0:
72,180,29240,2,0,L|96:264,1,70,8|0,0:0|0:0,0:0:0:0:
128,328,29533,6,0,B|184:340|184:340|284:320,1,140,2|8,0:0|0:0,0:0:0:0:
228,236,29972,2,0,B|320:208|320:208|376:208,1,140,0|2,0:0|0:0,0:0:0:0:
372,288,30411,2,0,L|320:340,1,70,8|0,0:0|0:0,0:0:0:0:
448,240,30704,6,0,P|455:184|372:133,1,140,6|8,0:0|0:0,0:0:0:0:
304,116,31143,2,0,B|260:120|260:120|152:116,1,140
108,188,31582,2,0,L|112:260,1,70,8|0,0:0|0:0,0:0:0:0:
180,340,31874,6,0,B|204:300|204:300|224:200,1,140,2|8,0:0|0:0,0:0:0:0:
256,124,32313,1,0,0:0:0:0:
320,188,32460,2,0,L|416:200,1,70,2|8,0:0|0:0,0:0:0:0:
481,121,32752,2,0,L|412:112,1,70,2|8,0:0|0:0,0:0:0:0:
316,104,33045,5,2,0:0:0:0:
316,104,33191,2,0,B|284:120|284:120|220:128|176:120,2,140,0|8|8,0:0|0:0|0:0,0:0:0:0:
388,140,33923,1,2,0:0:0:0:
336,248,34216,6,0,L|264:280,1,70,2|8,0:0|0:0,0:0:0:0:
188,260,34508,2,0,L|108:244,1,70,2|8,0:0|0:0,0:0:0:0:
112,72,34947,1,2,0:0:0:0:
180,136,35094,1,8,0:0:0:0:
272,60,35386,6,0,B|348:48|424:100,1,140,4|0,0:0|0:0,0:0:0:0:
492,88,35825,2,0,P|472:140|376:168,1,140,8|8,0:0|0:0,0:0:0:0:
296,164,36264,1,2,0:0:0:0:
232,312,36557,6,0,P|196:317|136:300,1,70,0|8,0:0|0:0,0:0:0:0:
80,204,36996,2,0,L|88:116,1,70,8|2,0:0|0:0,0:0:0:0:
176,168,37289,1,2,0:0:0:0:
232,96,37435,2,0,P|268:92|312:100,1,70,8|0,0:0|0:0,0:0:0:0:
400,64,37728,6,0,P|400:120|352:192,1,140,4|0,0:0|0:0,0:0:0:0:
316,264,38167,1,8,0:0:0:0:
208,324,38460,1,8,0:0:0:0:
208,324,38606,2,0,L|208:240,1,70,2|2,0:0|0:0,0:0:0:0:
208,168,38899,5,8,0:0:0:0:
128,188,39045,2,0,P|138:122|212:84,1,140,2|8,0:0|0:0,0:0:0:0:
296,64,39630,1,2,0:0:0:0:
296,64,39777,2,0,B|308:144,1,70,8|0,0:0|0:0,0:0:0:0:
320,224,40069,6,0,L|252:252,1,70
176,288,40362,2,0,B|124:272|124:272|80:240|60:192,2,140,8|8|2,0:0|0:0|0:0,0:0:0:0:
164,188,41094,1,2,0:0:0:0:
280,176,41240,6,0,P|248:140|216:128,1,70,8|0,0:0|0:0,0:0:0:0:
170,63,41533,2,0,P|142:107|178:199,1,140,8|2,0:0|0:0,0:0:0:0:
156,264,41972,1,2,0:0:0:0:
244,224,42118,2,0,P|279:219|314:224,1,70,8|2,0:0|0:0,0:0:0:0:
396,272,42411,1,4,0:0:0:0:
336,144,42996,6,0,B|364:108|364:108|476:48,2,167.999994873047
184,256,44752,2,0,P|120:204|117:123,1,167.999994873047
332,24,45923,6,0,P|395:75|398:156,1,167.999994873047
212,300,47094,2,0,P|148:316|80:295,2,125.999996154785,2|0|0,0:0|0:0|0:0,0:0:0:0:
304,236,48264,2,0,P|344:232|393:238,1,83.9999974365235
344,316,48850,2,0,L|308:352,1,41.9999987182618
304,236,49289,6,0,B|296:180|296:180|264:180|216:116|216:76|216:76|72:104,1,335.999989746094
80,104,51045,6,2,L|64:200,1,70
100,264,51338,1,2,0:0:0:0:
100,264,51630,6,0,B|140:284|140:284|156:344|208:368,1,140
284,356,52069,1,8,0:0:0:0:
348,304,52216,1,0,0:0:0:0:
348,304,52362,2,0,P|376:288|396:236,1,70,2|2,0:0|0:0,0:0:0:0:
432,180,52655,1,8,0:0:0:0:
432,180,52801,6,0,B|352:144|352:144|292:144,1,140
248,200,53240,1,8,0:0:0:0:
200,128,53386,1,0,0:0:0:0:
200,128,53533,2,0,P|161:126|120:136,1,70,2|2,0:0|0:0,0:0:0:0:
164,216,53825,2,0,P|129:222|94:220,1,70,8|2,0:0|0:0,0:0:0:0:
32,300,54118,6,0,P|64:297|104:305,1,70,0|2,0:0|0:0,0:0:0:0:
164,360,54411,2,0,L|340:348,1,140,8|2,0:0|0:0,0:0:0:0:
372,300,54850,1,2,0:0:0:0:
440,348,54996,1,8,0:0:0:0:
440,348,55143,6,0,P|453:280|389:217,1,140,2|2,0:0|0:0,0:0:0:0:
352,160,55582,2,0,L|288:224,1,70,2|0,0:1|0:0,0:0:0:0:
272,96,55874,2,0,L|228:176,1,70,2|2,0:1|0:0,0:0:0:0:
168,60,56167,2,0,L|155:136,1,70,2|0,0:1|0:0,0:0:0:0:
120,168,56460,6,0,L|152:304,1,140,2|8,0:0|0:0,0:0:0:0:
228,340,56899,1,0,0:0:0:0:
280,276,57045,1,2,0:0:0:0:
352,320,57191,2,0,P|386:324|437:312,1,70,0|8,0:0|0:0,0:0:0:0:
484,264,57484,1,0,0:0:0:0:
420,212,57630,6,0,P|385:207|335:220,1,70,2|0,0:0|0:0,0:0:0:0:
276,256,57923,2,0,P|241:260|191:248,1,70,8|0,0:0|0:0,0:0:0:0:
136,208,58216,2,0,P|133:138|138:68,1,140,2|8,0:0|0:0,0:0:0:0:
64,256,58801,6,0,P|104:288|192:272,1,140,10|2,0:1|0:0,0:0:0:0:
222,116,59240,2,0,P|159:144|136:208,1,140,10|0,0:1|0:0,0:0:0:0:
220,200,59679,2,0,P|264:188|299:155,1,70,10|0,0:1|0:0,0:0:0:0:
300,92,59972,5,2,0:0:0:0:
375,127,60118,2,0,L|472:124,1,70,10|0,0:1|0:0,0:0:0:0:
440,208,60411,2,0,L|509:197,2,70,2|2|8,0:0|0:0|0:0,0:0:0:0:
364,244,60996,6,0,B|324:260|324:260|227:263,1,140,6|2,0:0|0:0,0:0:0:0:
173,331,61435,2,0,P|141:258|175:192,1,140,8|2,0:0|0:0,0:0:0:0:
232,156,61874,1,2,0:0:0:0:
156,100,62021,2,0,L|168:24,1,70,8|0,0:0|0:0,0:0:0:0:
256,28,62313,6,0,P|293:22|330:31,1,70,0|2,0:0|0:0,0:0:0:0:
372,100,62606,1,8,0:0:0:0:
292,128,62752,2,0,P|308:156|344:181,1,70,0|2,0:0|0:0,0:0:0:0:
416,208,63045,2,0,L|484:280,1,70,0|8,0:0|0:0,0:0:0:0:
364,280,63338,6,0,B|320:296|320:296|248:340|200:316,1,140,4|0,0:0|0:0,0:0:0:0:
192,240,63777,2,0,P|190:198|196:156,1,70,8|0,0:0|0:0,0:0:0:0:
252,108,64069,2,0,P|254:68|252:36,2,70,0|2|8,0:0|0:0|0:0,0:0:0:0:
304,172,64508,6,0,B|328:220|328:220|328:280|272:312,1,140,4|2,0:0|0:0,0:0:0:0:
184,288,64947,2,0,L|192:212,1,70,2|0,0:1|0:0,0:0:0:0:
116,172,65240,2,0,L|88:252,1,70,2|0,0:1|0:0,0:0:0:0:
36,132,65533,2,0,L|84:68,1,70,2|0,0:1|0:0,0:0:0:0:
250,300,65825,6,0,B|272:200|272:200|264:160,1,140,4|8,0:0|0:0,0:0:0:0:
212,96,66264,1,0,0:0:0:0:
148,152,66411,2,0,P|112:160|60:160,1,70,2|0,0:0|0:0,0:0:0:0:
52,240,66704,2,0,P|86:241|121:249,1,70,8|0,0:0|0:0,0:0:0:0:
188,300,66996,5,2,0:0:0:0:
256,252,67143,2,0,P|290:249|336:256,1,70,0|8,0:0|0:0,0:0:0:0:
396,296,67435,1,0,0:0:0:0:
396,296,67582,2,0,L|403:156,1,140,2|8,0:0|0:0,0:0:0:0:
280,44,68167,6,0,L|291:188,1,140,6|8,0:0|0:0,0:0:0:0:
352,240,68606,2,0,P|284:272|224:212,1,140
132,168,69045,2,0,L|120:264,1,70,12|2,0:0|0:0,0:0:0:0:
136,340,69338,6,0,L|216:296,1,70,8|2,0:0|0:0,0:0:0:0:
216,232,69630,1,2,0:0:0:0:
304,248,69777,1,2,0:0:0:0:
304,248,69923,2,2,L|368:204,1,70
436,256,70216,1,2,0:0:0:0:
480,160,70508,6,0,L|424:96,1,70
344,124,70801,1,8,0:0:0:0:
344,216,70947,2,0,P|292:192|252:108,1,140
168,64,71386,2,0,L|144:144,1,70,8|2,0:0|0:0,0:0:0:0:
64,180,71679,6,0,L|70:249,1,70,0|2,0:0|0:0,0:0:0:0:
104,328,71972,1,8,0:0:0:0:
192,296,72118,2,0,B|248:268|248:268|280:284|348:280,1,140
392,344,72557,1,8,0:0:0:0:
392,344,72704,6,0,B|412:288|412:288|396:248|396:184,1,140,4|2,0:0|0:0,0:0:0:0:
456,136,73143,2,0,L|392:84,1,70,8|0,0:0|0:0,0:0:0:0:
280,92,73435,2,0,L|283:161,1,70,2|2,0:0|0:0,0:0:0:0:
351,213,73728,1,0,0:0:0:0:
351,213,73874,6,0,P|295:245|210:204,1,140,4|2,0:0|0:0,0:0:0:0:
280,156,74313,1,8,0:0:0:0:
212,96,74460,2,0,P|268:64|353:105,1,140,2|2,0:0|0:0,0:0:0:0:
400,136,74899,2,0,L|396:205,1,70,8|0,0:0|0:0,0:0:0:0:
372,296,75191,6,0,B|328:316|328:316|236:308|224:268,1,140,10|0,0:1|0:0,0:0:0:0:
168,216,75630,2,0,B|128:184|128:184|120:104|72:96,1,140,10|0,0:1|0:0,0:0:0:0:
192,72,76069,2,0,L|300:172,1,140,10|0,0:1|0:0,0:0:0:0:
376,244,76508,1,10,0:1:0:0:
260,276,76801,1,0,0:0:0:0:
260,276,76947,6,0,L|184:304,1,70,10|0,0:1|0:0,0:0:0:0:
104,296,77240,2,0,L|132:220,1,70,10|0,0:1|0:0,0:0:0:0:
88,160,77533,2,0,L|164:128,1,70,10|0,0:1|0:0,0:0:0:0:
232,104,77825,2,0,L|280:168,1,70,10|0,0:1|0:0,0:0:0:0:
328,232,78118,2,0,L|408:272,1,70,10|0,0:1|0:0,0:0:0:0:
440,176,78411,2,0,B|424:144|424:144|376:104|396:52,1,140,8|8,0:0|0:0,0:0:0:0:
280,52,78850,6,0,B|260:84|260:84|208:100|200:176|168:164,1,140,8|8,0:0|0:0,0:0:0:0:
112,192,79289,2,0,P|112:136|168:64,1,140,8|8,0:0|0:0,0:0:0:0:
280,52,79728,6,0,P|300:124|360:188,1,140,4|0,0:0|0:0,0:0:0:0:
408,128,80167,2,0,P|420:208|348:248,1,140,8|0,0:0|0:0,0:0:0:0:
292,300,80606,1,2,0:0:0:0:
204,248,80752,2,0,P|152:268|108:268,1,70,8|0,0:0|0:0,0:0:0:0:
72,220,81045,6,0,L|36:160,1,70,2|0,0:0|0:0,0:0:0:0:
32,84,81338,2,0,P|80:112|168:84,1,140,8|0,0:0|0:0,0:0:0:0:
236,76,81777,1,2,0:0:0:0:
236,76,81923,1,8,0:0:0:0:
285,235,82216,5,12,0:0:0:0:
392,312,82508,1,12,0:0:0:0:
224,328,82801,1,12,0:0:0:0:
420,184,83094,1,12,0:0:0:0:
96,88,83386,5,0,0:0:0:0:
96,88,83533,2,0,B|160:168|160:168|176:228,1,140,8|8,0:0|0:0,0:0:0:0:
112,264,83972,2,0,P|184:284|256:240,1,140,0|8,0:0|0:0,0:0:0:0:
320,220,84411,1,0,0:0:0:0:
