osu file format v14

[General]
AudioFilename: brand-new world.mp3
AudioLeadIn: 0
PreviewTime: 50972
Countdown: 0
SampleSet: Soft
StackLeniency: 0.7
Mode: 0
LetterboxInBreaks: 0
WidescreenStoryboard: 0

[Editor]
Bookmarks: 33045,42411,70508
DistanceSpacing: 1
BeatDivisor: 4
GridSize: 4
TimelineZoom: 1.5

[Metadata]
Title:Brand-new World
TitleUnicode:Brand-new World
Artist:Shiena Nishizawa
ArtistUnicode:西沢幸奏
Creator:Wou
Version:Extra
Source:学戦都市アスタリスク
Tags:gakusen toshi asterisk the academy city on the water op theme tv size wou underforest fuyuyu- azulae
BeatmapID:855864
BeatmapSetID:387647

[Difficulty]
HPDrainRate:5.7
CircleSize:3.7
OverallDifficulty:7.3
ApproachRate:9.3
SliderMultiplier:1.6
SliderTickRate:1

[Events]
//Background and Video events
Video,-522,"video.flv"
0,0,"bg5.jpg",0,0
//Break Periods
2,42611,48735
//Storyboard Layer 0 (Background)
//Storyboard Layer 1 (Fail)
//Storyboard Layer 2 (Pass)
//Storyboard Layer 3 (Foreground)
//Storyboard Sound Samples

[TimingPoints]
265,292.682926829268,4,2,3,20,1,0
2021,-133.333333333333,4,2,3,20,0,0
4508,-83.3333333333333,4,2,1,60,0,0
4801,-100,4,2,1,70,0,0
4801,-100,4,2,1,70,0,0
13728,-83.3333333333333,4,2,1,70,0,0
14313,-133.333333333333,4,2,0,20,0,0
23679,-100,4,2,1,70,0,0
33777,-100,4,2,1,72,0,0
42704,-181.818181818181,4,2,3,70,0,0
50533,-100,4,2,3,5,0,0
51630,-80,4,2,3,90,0,1
56167,-78.125,4,2,3,90,0,1
56460,-80,4,2,3,90,0,1
60923,-100,4,2,3,90,0,0
60996,-80,4,2,3,90,0,1
70216,-133.333333333333,4,2,3,90,0,1
70508,-80,4,2,3,90,0,0
74899,-133.333333333333,4,2,3,90,0,0
75191,-80,4,2,3,90,0,1
79728,-100,4,2,3,80,0,0
83386,-80,4,2,3,50,0,0
84264,-100,4,2,3,30,0,0

[Colours]
Combo1 : 255,128,255
Combo2 : 128,0,128
Combo3 : 255,128,192
Combo4 : 0,128,192

[HitObjects]
92,92,265,6,0,P|140:104|224:40,1,160
260,264,704,2,0,P|260:216|312:112,1,160
392,48,1143,2,0,P|384:116|428:196,1,160
440,304,1582,2,0,P|376:296|288:328,1,160
184,360,2021,2,0,P|188:312|208:232,1,120.000004577637
288,328,2460,1,0,0:0:0:0:
300,167,2606,2,0,P|248:172|220:164,1,60.0000022888184
116,92,2899,2,0,P|172:84|192:88,1,60.0000022888184
336,8,3191,2,0,L|320:80,1,60.0000022888184
392,108,3484,6,0,P|336:93|264:117,1,120.000004577637
332,196,3923,1,0,0:0:0:0:
392,304,4069,1,0,0:0:0:0:
144,212,4216,1,0,0:0:0:0:
260,104,4508,6,0,L|368:96,1,95.9999970703126,10|10,0:0|0:0,0:0:0:0:
432,160,4801,6,0,B|360:184|360:184|264:188,1,160,6|2,0:0|0:0,0:0:0:0:
160,140,5240,2,0,P|160:96|176:56,1,80,8|0,0:0|0:0,0:0:0:0:
168,240,5533,2,0,P|180:277|180:317,1,80,0|2,0:0|0:0,0:0:0:0:
20,304,5825,2,0,P|60:292|108:296,1,80,8|0,0:0|0:0,0:0:0:0:
68,368,6118,5,2,0:0:0:0:
64,216,6264,1,0,0:0:0:0:
136,144,6411,1,8,0:0:0:0:
168,240,6557,1,0,0:0:0:0:
240,168,6704,2,0,P|263:200|270:239,1,80,0|2,0:0|0:0,0:0:0:0:
324,352,6996,6,0,P|336:312|440:256,1,160,8|2,0:0|0:0,0:0:0:0:
416,348,7435,1,0,0:0:0:0:
396,184,7582,1,8,0:0:0:0:
270,239,7728,1,0,0:0:0:0:
296,68,7874,2,0,P|308:112|328:140,1,80,0|2,0:0|0:0,0:0:0:0:
440,264,8167,2,0,P|472:232|484:200,1,80,8|0,0:0|0:0,0:0:0:0:
472,88,8460,5,2,0:0:0:0:
396,184,8606,1,0,0:0:0:0:
380,72,8752,1,8,0:0:0:0:
288,216,8899,5,2,0:0:0:0:
288,216,8972,1,0,0:0:0:0:
288,216,9045,1,0,0:0:0:0:
192,64,9191,2,0,P|184:112|192:144,1,80,2|8,0:0|0:0,0:0:0:0:
200,256,9484,1,0,0:0:0:0:
344,92,9630,6,0,P|304:104|264:104,1,80,2|0,0:0|0:0,0:0:0:0:
100,36,9923,2,0,L|104:200,1,160,8|0,0:0|0:0,0:0:0:0:
104,304,10362,1,2,0:0:0:0:
176,192,10508,1,8,0:0:0:0:
216,332,10655,2,0,P|220:292|236:252,1,80,0|2,0:0|0:0,0:0:0:0:
288,164,10947,1,0,0:0:0:0:
176,192,11094,1,8,0:0:0:0:
304,312,11240,5,0,0:0:0:0:
304,312,11313,1,0,0:0:0:0:
304,312,11386,1,0,0:0:0:0:
356,212,11533,1,2,0:0:0:0:
392,336,11679,1,8,0:0:0:0:
376,60,11972,6,0,P|368:108|352:148,1,80,10|0,0:0|0:0,0:0:0:0:
232,296,12264,2,0,L|236:216,1,80,10|0,0:0|0:0,0:0:0:0:
184,40,12557,2,0,B|180:92|180:92|180:120,1,80,10|0,0:0|0:0,0:0:0:0:
116,332,12850,1,10,0:0:0:0:
116,332,13143,5,10,0:0:0:0:
180,136,13289,1,10,0:0:0:0:
232,296,13435,1,10,0:0:0:0:
64,124,13582,1,10,0:0:0:0:
260,40,13728,2,2,P|304:48|332:68,1,47.9999985351563
320,172,13874,2,2,P|364:164|384:152,1,47.9999985351563
260,40,14313,6,0,L|256:172,1,120.000004577637,2|0,0:0|0:0,0:0:0:0:
156,287,14752,2,0,P|214:274|272:288,1,120.000004577637
72,328,15191,1,0,0:0:0:0:
172,96,15484,1,0,0:0:0:0:
392,184,15777,6,0,P|352:184|328:176,1,60.0000022888184
288,80,16069,2,0,L|352:76,1,60.0000022888184
444,80,16362,1,0,0:0:0:0:
472,172,16508,1,0,0:0:0:0:
333,178,16655,6,0,P|337:218|337:302,1,120.000004577637,2|0,0:0|0:0,0:0:0:0:
245,242,17094,2,0,L|184:244,1,60.0000022888184,2|2,0:0|0:0,0:0:0:0:
44,156,17533,6,0,P|88:136|120:128,1,60.0000022888184
220,56,17825,2,0,P|232:104|224:176,1,120.000004577637
232,288,18264,2,0,P|264:276|356:280,1,120.000004577637
436,308,18704,1,0,0:0:0:0:
300,352,18996,5,2,0:0:0:0:
300,352,19289,2,0,L|296:280,1,60.0000022888184,2|2,0:0|0:0,0:0:0:0:
300,152,19582,2,0,P|264:160|184:144,2,120.000004577637,2|0|0,0:0|0:0|0:0,0:0:0:0:
404,72,20460,1,0,0:0:0:0:
412,252,20606,2,0,P|416:212|456:140,1,120.000004577637
496,228,21045,1,0,0:0:0:0:
320,312,21338,6,0,P|312:264|312:244,1,60.0000022888184,2|0,0:0|0:0,0:0:0:0:
316,60,21630,2,0,P|308:96|312:124,1,60.0000022888184
440,208,21923,2,0,P|396:200|376:204,1,60.0000022888184
188,232,22216,2,0,P|212:200|216:176,1,60.0000022888184
240,36,22508,2,0,B|248:64|248:64|280:80|280:80|288:144|440:128,1,240.000009155274
432,128,23386,6,0,L|428:224,1,90.0000034332277,2|0,0:0|0:0,0:0:0:0:
432,304,23679,2,0,P|388:296|272:304,1,160,6|8,0:0|0:0,0:0:0:0:
164,336,24118,1,0,0:0:0:0:
208,208,24264,1,0,0:0:0:0:
88,256,24411,1,2,0:0:0:0:
92,104,24557,6,0,P|120:136|232:120,1,160,8|2,0:0|0:0,0:0:0:0:
168,60,24996,1,0,0:0:0:0:
276,36,25143,1,8,0:0:0:0:
296,160,25289,1,0,0:0:0:0:
208,208,25435,2,0,P|164:224|136:248,1,80,0|2,0:0|0:0,0:0:0:0:
224,312,25728,1,8,0:0:0:0:
224,312,25874,6,0,L|312:316,1,80,0|2,0:0|0:0,0:0:0:0:
416,324,26167,1,0,0:0:0:0:
324,232,26313,1,8,0:0:0:0:
376,128,26460,1,0,0:0:0:0:
420,224,26606,1,0,0:0:0:0:
303,315,26752,1,2,0:0:0:0:
288,96,26899,1,8,0:0:0:0:
288,96,27191,6,0,L|292:176,1,80,2|0,0:0|0:0,0:0:0:0:
303,315,27484,1,8,0:0:0:0:
416,176,27630,1,2,0:0:0:0:
292,176,27777,1,0,0:0:0:0:
368,300,27923,1,2,0:0:0:0:
488,200,28069,1,8,0:0:0:0:
436,344,28216,1,0,0:0:0:0:
303,315,28362,6,0,P|256:304|144:320,1,160,6|8,0:0|0:0,0:0:0:0:
56,356,28801,1,0,0:0:0:0:
52,240,28947,1,0,0:0:0:0:
152,176,29094,1,2,0:0:0:0:
146,318,29240,1,8,0:0:0:0:
146,318,29533,6,0,P|150:270|166:230,1,80,2|0,0:0|0:0,0:0:0:0:
224,144,29825,1,8,0:0:0:0:
328,224,29972,1,0,0:0:0:0:
136,140,30118,1,0,0:0:0:0:
228,288,30264,1,2,0:0:0:0:
56,356,30411,1,8,0:0:0:0:
136,140,30557,1,0,0:0:0:0:
144,276,30704,6,0,P|164:232|272:224,1,160,6|8,0:0|0:0,0:0:0:0:
360,276,31143,1,0,0:0:0:0:
228,288,31289,1,0,0:0:0:0:
324,188,31435,1,2,0:0:0:0:
283,345,31582,2,0,P|251:317|223:281,1,80,8|0,0:0|0:0,0:0:0:0:
144,144,31874,5,2,0:0:0:0:
100,264,32021,1,0,0:0:0:0:
132,60,32167,1,8,0:0:0:0:
240,212,32313,1,2,0:0:0:0:
36,152,32460,1,2,0:0:0:0:
220,72,32606,1,2,0:0:0:0:
188,272,32752,1,2,0:0:0:0:
144,168,32899,1,2,0:0:0:0:
292,96,33045,6,0,L|336:104,1,40,2|0,0:0|0:0,0:0:0:0:
392,192,33191,2,0,L|348:200,1,40,2|0,0:0|0:0,0:0:0:0:
288,324,33338,1,2,0:0:0:0:
244,216,33484,1,8,0:0:0:0:
244,216,33777,5,8,0:0:0:0:
92,160,33923,1,2,0:0:0:0:
176,92,34069,1,0,0:0:0:0:
144,272,34216,1,0,0:0:0:0:
272,128,34362,1,8,0:0:0:0:
272,128,34655,1,8,0:0:0:0:
272,128,34947,5,2,0:0:0:0:
212,200,35094,1,8,0:0:0:0:
276,60,35240,1,0,0:0:0:0:
348,260,35386,1,6,0:0:0:0:
324,170,35532,2,0,P|348:128|388:106,1,80
448,44,35825,1,8,0:0:0:0:
448,44,36118,5,8,0:0:0:0:
448,152,36264,1,2,0:0:0:0:
304,52,36411,1,2,0:0:0:0:
296,200,36557,1,0,0:0:0:0:
312,316,36704,1,8,0:0:0:0:
312,316,36996,5,8,0:0:0:0:
388,248,37143,1,2,0:0:0:0:
216,224,37289,1,2,0:0:0:0:
296,96,37435,1,8,0:0:0:0:
296,96,37728,5,2,0:0:0:0:
396,80,37874,1,2,0:0:0:0:
188,116,38021,1,0,0:0:0:0:
284,232,38167,1,8,0:0:0:0:
284,232,38460,5,8,0:0:0:0:
372,200,38606,1,2,0:0:0:0:
344,312,38752,1,2,0:0:0:0:
184,184,38899,1,0,0:0:0:0:
244,60,39045,1,8,0:0:0:0:
276,148,39191,1,0,0:0:0:0:
360,68,39338,1,8,0:0:0:0:
360,68,39630,5,2,0:0:0:0:
276,148,39777,2,0,P|264:196|260:240,1,80,8|0,0:0|0:0,0:0:0:0:
260,320,40069,1,2,0:0:0:0:
352,212,40216,1,2,0:0:0:0:
164,184,40362,1,8,0:0:0:0:
164,184,40655,1,8,0:0:0:0:
164,184,40947,5,2,0:0:0:0:
164,96,41094,1,2,0:0:0:0:
240,232,41240,1,8,0:0:0:0:
240,232,41533,5,8,0:0:0:0:
240,232,41825,1,8,0:0:0:0:
280,120,41972,1,10,0:0:0:0:
344,252,42118,1,8,0:0:0:0:
164,184,42264,1,2,0:0:0:0:
336,68,42411,5,4,0:0:0:0:
256,192,49289,12,0,50533,0:0:0:0:
300,96,51630,6,0,P|304:156|436:212,1,200,4|0,0:0|0:0,0:0:0:0:
392,120,52069,1,8,0:0:0:0:
284,224,52216,1,0,0:0:0:0:
416,217,52362,1,0,0:0:0:0:
304,96,52508,1,0,0:0:0:0:
336,304,52655,1,8,0:0:0:0:
360,80,52801,6,0,P|356:136|364:184,1,100
404,348,53094,2,0,P|408:296|400:244,1,100,0|8,0:0|0:0,0:0:0:0:
300,132,53386,1,0,0:0:0:0:
204,276,53533,1,0,0:0:0:0:
320,296,53679,2,0,P|316:240|332:196,1,100,0|8,0:0|0:0,0:0:0:0:
384,112,53972,1,0,0:0:0:0:
400,248,54118,5,0,0:0:0:0:
232,184,54264,1,0,0:0:0:0:
264,56,54411,1,8,0:0:0:0:
304,292,54557,2,0,P|308:236|336:192,1,100
392,112,54850,1,0,0:0:0:0:
392,268,54996,1,8,0:0:0:0:
232,184,55143,2,0,B|160:176|100:108|100:108|156:104,1,200
292,120,55582,5,2,0:1:0:0:
180,36,55728,1,0,0:0:0:0:
232,216,55874,1,2,0:1:0:0:
264,40,56021,1,0,0:0:0:0:
104,160,56167,1,2,0:1:0:0:
136,292,56313,1,0,0:0:0:0:
256,340,56460,6,0,L|264:136,1,200,4|2,0:0|0:0,0:0:0:0:
264,40,56899,1,0,0:0:0:0:
344,188,57045,1,2,0:0:0:0:
368,52,57191,1,0,0:0:0:0:
192,132,57338,1,2,0:0:0:0:
344,256,57484,1,0,0:0:0:0:
396,120,57630,1,2,0:0:0:0:
176,60,57777,1,0,0:0:0:0:
184,268,57923,6,0,P|204:216|240:184,1,100,2|0,0:0|0:0,0:0:0:0:
312,128,58216,1,0,0:0:0:0:
312,128,58289,1,0,0:0:0:0:
312,128,58362,1,0,0:0:0:0:
292,296,58508,5,0,0:0:0:0:
360,224,58655,1,0,0:0:0:0:
204,104,58801,1,10,0:1:0:0:
200,228,58947,1,0,0:0:0:0:
280,80,59094,1,0,0:0:0:0:
284,188,59240,1,10,0:1:0:0:
112,120,59386,1,0,0:0:0:0:
168,28,59533,5,0,0:0:0:0:
96,216,59679,1,10,0:1:0:0:
256,36,59825,1,0,0:0:0:0:
204,136,59972,1,0,0:0:0:0:
256,252,60118,2,0,P|268:200|308:144,1,100,10|0,0:1|0:0,0:0:0:0:
348,64,60411,5,0,0:0:0:0:
348,64,60484,1,0,0:0:0:0:
348,64,60557,1,0,0:0:0:0:
376,228,60704,1,0,0:0:0:0:
448,152,60850,1,0,0:0:0:0:
348,64,60996,6,0,P|384:108|508:76,1,200,4|0,0:0|0:0,0:0:0:0:
428,36,61435,1,8,0:0:0:0:
304,128,61582,1,0,0:0:0:0:
352,200,61728,1,0,0:0:0:0:
268,48,61874,1,0,0:0:0:0:
240,216,62021,1,8,0:0:0:0:
308,312,62167,6,0,B|352:340|404:340|404:340|368:304,1,150
323,199,62460,1,0,0:0:0:0:
336,76,62606,1,8,0:0:0:0:
408,136,62752,1,0,0:0:0:0:
224,136,62899,1,0,0:0:0:0:
272,280,63045,2,0,P|288:232|332:196,1,100,0|8,0:0|0:0,0:0:0:0:
404,40,63338,6,0,B|396:120|412:240,1,200,4|0,0:0|0:0,0:0:0:0:
416,316,63777,1,8,0:0:0:0:
484,160,63923,1,0,0:0:0:0:
288,128,64069,1,0,0:0:0:0:
288,328,64216,2,0,P|288:272|296:224,1,100,0|8,0:0|0:0,0:0:0:0:
348,48,64508,2,0,P|352:128|400:252,1,200
440,312,64947,5,2,0:1:0:0:
436,124,65094,1,0,0:0:0:0:
187,185,65240,2,0,L|291:181,1,100,2|0,0:1|0:0,0:0:0:0:
464,240,65533,2,0,P|404:264|364:264,1,100,2|0,0:1|0:0,0:0:0:0:
248,260,65825,6,0,B|192:264|128:200|128:200|156:200|192:184,1,200,2|2,0:0|0:0,0:0:0:0:
288,156,66264,1,0,0:0:0:0:
128,116,66411,1,2,0:0:0:0:
220,28,66557,2,0,L|216:128,1,100,0|2,0:0|0:0,0:0:0:0:
204,268,66850,1,0,0:0:0:0:
300,232,66996,1,2,0:0:0:0:
136,180,67143,1,0,0:0:0:0:
220,28,67289,1,2,0:0:0:0:
216,127,67435,1,0,0:0:0:0:
72,24,67582,5,2,0:0:0:0:
72,24,67655,1,0,0:0:0:0:
72,24,67728,1,0,0:0:0:0:
216,127,67874,1,2,0:0:0:0:
288,20,68021,1,0,0:0:0:0:
312,204,68167,2,0,P|320:148|344:108,1,100,4|0,0:0|0:0,0:0:0:0:
400,44,68460,5,2,0:0:0:0:
400,180,68606,1,0,0:0:0:0:
256,100,68752,1,2,0:0:0:0:
456,96,68899,1,0,0:0:0:0:
456,248,69045,1,2,0:0:0:0:
324,48,69191,1,2,0:0:0:0:
296,240,69338,1,2,0:0:0:0:
341,111,69484,6,0,P|373:83|389:75,3,50
220,148,69777,2,0,P|168:168|156:168,5,50
276,216,70216,2,0,P|272:272|276:312,1,90.0000034332277,2|0,0:0|0:0,0:0:0:0:
304,360,70508,6,0,P|312:296|372:176,1,200,4|8,0:0|0:0,0:0:0:0:
444,104,70947,1,0,0:0:0:0:
424,296,71094,1,0,0:0:0:0:
264,144,71240,1,0,0:0:0:0:
352,40,71386,2,0,P|348:96|360:144,1,100,8|0,0:0|0:0,0:0:0:0:
436,252,71679,6,0,P|376:228|244:284,1,200,0|8,0:0|0:0,0:0:0:0:
168,344,72118,1,0,0:0:0:0:
352,320,72264,1,0,0:0:0:0:
216,172,72411,1,0,0:0:0:0:
248,348,72557,1,8,0:0:0:0:
284,100,72704,6,0,B|288:160|376:224|376:224|356:172,1,200
376,104,73143,1,8,0:0:0:0:
252,260,73289,1,0,0:0:0:0:
376,296,73435,1,0,0:0:0:0:
376,296,73508,1,0,0:0:0:0:
376,296,73582,1,0,0:0:0:0:
192,152,73728,1,8,0:0:0:0:
168,336,73874,6,0,P|168:288|180:236,1,100
196,128,74167,1,0,0:0:0:0:
248,296,74313,1,8,0:0:0:0:
312,216,74460,1,0,0:0:0:0:
96,208,74606,1,0,0:0:0:0:
272,320,74752,1,0,0:0:0:0:
196,128,74899,1,8,0:0:0:0:
196,128,75191,5,10,0:1:0:0:
296,88,75338,1,0,0:0:0:0:
112,84,75484,1,0,0:0:0:0:
172,216,75630,1,10,0:1:0:0:
208,48,75777,1,0,0:0:0:0:
288,216,75923,1,0,0:0:0:0:
228,312,76069,1,10,0:1:0:0:
240,136,76216,5,0,0:0:0:0:
388,192,76362,1,0,0:0:0:0:
172,216,76508,1,10,0:1:0:0:
328,312,76655,1,0,0:0:0:0:
300,144,76801,1,0,0:0:0:0:
232,300,76947,1,10,0:1:0:0:
204,84,77094,1,0,0:0:0:0:
152,308,77240,5,10,0:1:0:0:
116,48,77386,1,0,0:0:0:0:
72,320,77533,1,10,0:1:0:0:
32,64,77679,1,0,0:0:0:0:
92,184,77825,1,10,0:1:0:0:
192,120,77972,1,0,0:0:0:0:
160,264,78118,1,10,0:1:0:0:
108,96,78264,5,0,0:0:0:0:
248,72,78411,1,10,0:1:0:0:
252,256,78557,1,0,0:0:0:0:
336,72,78704,6,0,P|348:124|356:132,1,50,10|0,0:0|0:0,0:0:0:0:
384,248,78850,2,0,L|384:176,1,50,10|0,0:0|0:0,0:0:0:0:
416,88,78996,1,10,0:0:0:0:
468,212,79143,1,10,0:0:0:0:
276,176,79289,1,8,0:0:0:0:
168,236,79435,1,8,0:0:0:0:
176,84,79582,1,8,0:0:0:0:
228,336,79728,6,0,P|248:284|344:236,1,160,4|0,0:0|0:0,0:0:0:0:
448,212,80167,2,0,P|436:268|440:296,1,80,8|0,0:0|0:0,0:0:0:0:
432,112,80460,2,0,P|440:68|428:28,1,80
272,72,80752,2,0,L|360:72,1,80,8|0,0:0|0:0,0:0:0:0:
344,176,81045,5,0,0:0:0:0:
184,172,81191,1,0,0:0:0:0:
232,300,81338,1,8,0:0:0:0:
264,144,81484,5,0,0:0:0:0:
264,144,81557,1,0,0:0:0:0:
264,144,81630,1,0,0:0:0:0:
312,248,81777,1,0,0:0:0:0:
144,104,81923,1,8,0:0:0:0:
144,104,82216,5,10,0:0:0:0:
144,224,82362,1,8,0:0:0:0:
208,52,82508,1,8,0:0:0:0:
48,152,82655,1,8,0:0:0:0:
228,140,82801,1,8,0:0:0:0:
268,140,82874,1,8,0:0:0:0:
308,140,82947,1,8,0:0:0:0:
348,140,83021,1,8,0:0:0:0:
388,140,83094,6,0,L|472:140,1,80,2|0,0:0|0:0,0:0:0:0:
376,240,83386,1,0,0:0:0:0:
416,68,83533,1,0,0:0:0:0:
272,68,83679,1,0,0:0:0:0:
456,216,83825,1,0,0:0:0:0:
260,248,83972,1,0,0:0:0:0:
340,328,84118,1,0,0:0:0:0:
376,240,84264,1,0,0:0:0:0:
184,200,84411,5,0,0:0:0:0:
