osu file format v14

[General]
AudioFilename: audio.mp3
AudioLeadIn: 0
PreviewTime: 46553
Countdown: 0
SampleSet: Soft
StackLeniency: 0.7
Mode: 0
LetterboxInBreaks: 0
WidescreenStoryboard: 0

[Editor]
DistanceSpacing: 1
BeatDivisor: 4
GridSize: 32
TimelineZoom: 1

[Metadata]
Title:Darling in the Night (TV Size)
TitleUnicode:Darling in the Night (TV Size)
Artist:Shichikage
ArtistUnicode:七陰
Creator:Milk Tee
Version:Firefly
Source:
Tags:
BeatmapID:4536240
BeatmapSetID:2152878

[Difficulty]
HPDrainRate:6
CircleSize:4
OverallDifficulty:9.2
ApproachRate:9.5
SliderMultiplier:1.62
SliderTickRate:1

[Events]
//Background and Video events
0,0,"bg kekw.jpg",0,0
//Break Periods
//Storyboard Layer 0 (Background)
//Storyboard Layer 1 (Fail)
//Storyboard Layer 2 (Pass)
//Storyboard Layer 3 (Foreground)
//Storyboard Layer 4 (Overlay)
//Storyboard Sound Samples

[TimingPoints]
1234,319.148936170213,4,2,0,70,1,0
1234,-121.951219512195,4,2,0,70,0,0
6021,-89.2857142857143,4,2,0,70,0,0
11446,-108.695652173913,4,2,0,70,0,0
21659,-98.0392156862745,4,2,0,70,0,0
31872,-108.695652173913,4,2,0,70,0,0
39531,-121.951219512195,4,2,0,70,0,0
44638,-98.0392156862745,4,2,0,70,0,0
47031,-81.9672131147541,4,2,0,70,0,1
67616,-89.2857142857143,4,2,0,70,0,0
80223,-161.290322580645,4,2,0,70,0,0

[HitObjects]
354,73,1234,6,0,L|343:155,1,66.4200010134888
280,196,1553,1,0,0:0:0:0:
438,54,1712,2,0,L|416:211,1,132.840002026978
350,243,2191,2,0,P|317:238|289:217,1,66.4200010134888
215,138,2510,5,0,0:0:0:0:
215,138,2670,2,0,L|143:124,2,66.4200010134888
30,231,3148,2,0,L|115:210,1,66.4200010134888
194,282,3468,2,0,L|183:347,1,66.4200010134888
59,119,3787,6,0,L|141:130,1,66.4200010134888
182,193,4106,1,0,0:0:0:0:
34,34,4265,2,0,L|191:55,1,132.840002026978
237,122,4744,2,0,P|282:139|317:126,1,66.4200010134888
407,47,5063,5,0,0:0:0:0:
407,47,5223,2,0,L|392:122,1,66.4200010134888
454,184,5542,1,0,0:0:0:0:
454,184,5702,2,0,L|467:259,1,66.4200010134888
509,343,6021,6,0,P|470:295|388:313,1,136.080001661133
318,360,6340,6,0,L|219:345,1,90.7200011074219
129,213,6659,1,0,0:0:0:0:
337,103,6819,2,0,P|361:147|356:201,1,90.7200011074219
311,281,7138,1,0,0:0:0:0:
216,79,7297,1,0,0:0:0:0:
26,221,7457,2,0,L|136:199,1,90.7200011074219
185,307,7776,1,0,0:0:0:0:
371,81,7936,5,0,0:0:0:0:
129,131,8095,1,0,0:0:0:0:
341,236,8255,1,0,0:0:0:0:
267,10,8414,1,0,0:0:0:0:
211,234,8574,1,0,0:0:0:0:
47,136,8734,1,0,0:0:0:0:
295,346,8893,6,0,B|323:301|323:301|287:200,1,136.080001661133
271,206,9212,1,0,0:0:0:0:
188,366,9372,1,0,0:0:0:0:
153,176,9531,1,0,0:0:0:0:
380,221,9691,1,0,0:0:0:0:
115,275,9851,1,0,0:0:0:0:
315,110,10010,1,0,0:0:0:0:
62,68,10170,6,0,P|44:104|45:159,1,90.7200011074219
57,173,10409,1,0,0:0:0:0:
70,181,10489,1,0,0:0:0:0:
206,292,10648,1,0,0:0:0:0:
200,274,10728,1,0,0:0:0:0:
197,259,10808,1,0,0:0:0:0:
37,341,10968,5,0,0:0:0:0:
230,226,11127,1,0,0:0:0:0:
26,136,11287,2,0,L|36:185,1,45.3600005537109
172,52,11446,5,0,0:0:0:0:
172,52,11765,2,0,P|198:91|192:122,1,74.5199974984132
161,195,12085,2,0,B|200:214|238:197|231:184|268:175|306:187,1,149.039994996826
367,253,12563,1,0,0:0:0:0:
437,163,12723,6,0,P|401:133|369:132,1,74.5199974984132
385,53,13042,2,0,P|342:55|309:82,1,74.5199974984132
230,36,13361,2,0,L|245:121,1,74.5199974984132
185,194,13680,1,0,0:0:0:0:
185,194,13840,1,0,0:0:0:0:
41,117,13999,6,0,B|87:139|114:135|114:135|145:101|198:116,1,149.039994996826
271,189,14478,1,0,0:0:0:0:
188,323,14638,2,0,B|152:282|152:282|190:179,1,149.039994996826
244,103,15116,1,0,0:0:0:0:
379,129,15276,6,0,L|463:113,1,74.5199974984132
264,201,15595,2,0,L|180:185,1,74.5199974984132
408,256,15914,2,0,L|492:240,1,74.5199974984132
280,310,16234,1,0,0:0:0:0:
426,359,16393,1,0,0:0:0:0:
266,323,16553,5,0,0:0:0:0:
266,323,16872,2,0,P|223:304|187:306,1,74.5199974984132
110,359,17191,2,0,L|134:192,1,149.039994996826
69,145,17670,1,0,0:0:0:0:
202,155,17829,6,0,P|225:120|221:81,1,74.5199974984132
240,234,18148,2,0,P|284:206|301:168,1,74.5199974984132
224,314,18468,2,0,L|316:326,1,74.5199974984132
375,365,18787,1,0,0:0:0:0:
375,365,18946,1,0,0:0:0:0:
456,270,19106,6,0,P|474:222|425:116,1,149.039994996826
328,88,19585,1,0,0:0:0:0:
351,274,19744,2,0,B|381:240|380:203|380:203|353:181|302:187,1,149.039994996826
244,256,20223,1,0,0:0:0:0:
59,75,20382,5,0,0:0:0:0:
59,75,20542,1,0,0:0:0:0:
133,277,20702,1,0,0:0:0:0:
240,153,20861,1,0,0:0:0:0:
321,338,21021,5,0,0:0:0:0:
321,338,21180,1,0,0:0:0:0:
133,192,21340,1,0,0:0:0:0:
386,45,21499,1,0,0:0:0:0:
386,45,21579,1,0,0:0:0:0:
386,45,21659,6,0,P|383:98|371:141,1,82.6200005042725
213,253,21978,2,0,L|303:237,1,82.6200005042725
314,222,22218,1,0,0:0:0:0:
314,222,22297,1,0,0:0:0:0:
239,354,22457,1,0,0:0:0:0:
149,163,22616,1,0,0:0:0:0:
44,316,22776,1,0,0:0:0:0:
179,90,22936,6,0,L|167:177,1,82.6200005042725
300,300,23255,2,0,P|262:276|226:273,1,82.6200005042725
200,285,23494,1,0,0:0:0:0:
200,285,23574,1,0,0:0:0:0:
350,175,23734,1,0,0:0:0:0:
167,44,23893,2,0,L|185:144,1,82.6200005042725
486,162,24212,6,0,P|446:128|376:140,1,123.930000756409
350,175,24531,2,0,L|361:259,1,82.6200005042725
386,296,24771,1,0,0:0:0:0:
386,296,24851,1,0,0:0:0:0:
218,207,25010,1,0,0:0:0:0:
295,345,25170,1,0,0:0:0:0:
343,152,25329,1,0,0:0:0:0:
117,296,25489,6,0,L|101:212,1,82.6200005042725
128,90,25808,1,0,0:0:0:0:
251,234,25968,1,0,0:0:0:0:
251,234,26047,1,0,0:0:0:0:
251,234,26127,1,0,0:0:0:0:
55,197,26287,1,0,0:0:0:0:
242,99,26446,1,0,0:0:0:0:
125,284,26606,1,0,0:0:0:0:
323,152,26765,6,0,B|398:139|398:139|418:146|418:146|501:131,1,165.240001008545
425,266,27244,1,0,0:0:0:0:
425,266,27324,1,0,0:0:0:0:
425,266,27404,1,0,0:0:0:0:
254,210,27563,1,0,0:0:0:0:
319,346,27723,1,0,0:0:0:0:
399,167,27882,1,0,0:0:0:0:
200,293,28042,6,0,L|103:280,1,82.6200005042725
139,91,28361,2,0,P|164:134|163:184,1,82.6200005042725
157,186,28601,1,0,0:0:0:0:
157,186,28680,1,0,0:0:0:0:
24,107,28840,1,0,0:0:0:0:
247,30,28999,1,0,0:0:0:0:
216,234,29159,1,0,0:0:0:0:
419,27,29319,6,0,P|405:121|403:200,1,165.240001008545
335,276,29797,1,0,0:0:0:0:
192,65,29957,5,0,0:0:0:0:
388,198,30116,1,0,0:0:0:0:
107,160,30276,5,0,0:0:0:0:
365,109,30436,1,0,0:0:0:0:
345,347,30595,5,0,0:0:0:0:
284,58,30755,1,0,0:0:0:0:
128,314,30914,1,0,0:0:0:0:
486,202,31074,6,0,P|431:208|331:157,1,165.240001008545
282,31,31553,1,0,0:0:0:0:
225,101,31712,1,0,0:0:0:0:
125,12,31872,6,0,P|135:75|149:172,1,149.039994996826
147,159,32351,1,0,0:0:0:0:
71,258,32510,2,0,P|105:238|145:236,1,74.5199974984132
175,304,32829,2,0,P|221:311|243:331,1,74.5199974984132
328,372,33148,6,0,B|321:289|321:289|325:282|325:282|319:197,1,149.039994996826
486,106,33627,2,0,P|450:153|362:152,1,149.039994996826
286,106,34106,2,0,L|201:120,1,74.5199974984132
43,161,34425,6,0,P|130:192|136:264,1,149.039994996826
142,239,34904,1,0,0:0:0:0:
87,337,35063,2,0,L|8:323,1,74.5199974984132
213,303,35382,2,0,L|292:289,1,74.5199974984132
102,240,35702,6,0,B|138:161|64:178|107:83,1,149.039994996826
182,41,36180,2,0,B|251:71|251:71|322:48,1,149.039994996826
400,105,36659,2,0,L|384:189,1,74.5199974984132
195,319,36978,6,0,P|204:274|310:234,1,149.039994996826
401,349,37457,2,0,L|375:169,1,149.039994996826
306,138,37936,1,0,0:0:0:0:
306,138,38095,1,0,0:0:0:0:
217,154,38255,6,0,P|156:130|176:46,1,149.039994996826
26,133,38734,2,0,P|87:157|67:241,1,149.039994996826
43,321,39212,1,0,0:0:0:0:
460,180,39531,6,0,B|400:171|400:171|393:176|393:176|301:161,1,132.840002026978
241,100,40010,1,0,0:0:0:0:
329,76,40170,2,0,P|354:46|359:8,1,66.4200010134888
241,100,40489,2,0,P|216:130|211:168,1,66.4200010134888
104,216,40728,1,0,0:0:0:0:
97,207,40808,6,0,B|184:193|138:241|245:231,2,132.840002026978
101,292,41606,1,0,0:0:0:0:
149,93,41765,1,0,0:0:0:0:
6,163,41925,1,0,0:0:0:0:
149,93,42085,6,0,P|205:128|295:113,1,132.840002026978
381,90,42563,1,0,0:0:0:0:
336,192,42723,2,0,L|325:276,1,66.4200010134888
226,161,43042,1,0,0:0:0:0:
115,338,43202,6,0,B|82:303|82:303|111:204,1,132.840002026978
262,237,43680,2,0,P|228:267|192:266,1,66.4200010134888
133,147,43999,2,0,L|158:69,1,66.4200010134888
260,34,44319,1,0,0:0:0:0:
393,286,44638,5,0,0:0:0:0:
103,231,44797,1,0,0:0:0:0:
421,202,45116,5,0,0:0:0:0:
91,306,45436,2,0,L|-2:289,1,82.6200005042725
319,84,45755,5,0,0:0:0:0:
188,370,46074,5,0,0:0:0:0:
116,90,46234,1,0,0:0:0:0:
66,199,46553,6,0,L|72:232,10,20.6550001260681
82,177,47031,6,0,B|180:134|157:248|297:190,1,197.639991857483
455,63,47510,2,0,P|402:58|348:91,1,98.8199959287416
291,298,47829,1,0,0:0:0:0:
419,147,47989,1,0,0:0:0:0:
232,39,48148,1,0,0:0:0:0:
86,353,48308,6,0,P|158:329|150:207,1,197.639991857483
21,99,48787,2,0,L|133:73,1,98.8199959287416
141,91,49026,1,0,0:0:0:0:
141,91,49106,1,0,0:0:0:0:
251,250,49265,1,0,0:0:0:0:
52,209,49425,1,0,0:0:0:0:
271,123,49585,1,0,0:0:0:0:
108,0,49744,6,0,L|125:116,1,98.8199959287416
186,286,50063,1,0,0:0:0:0:
309,176,50223,1,0,0:0:0:0:
400,344,50382,5,0,0:0:0:0:
162,202,50542,1,0,0:0:0:0:
418,84,50702,1,0,0:0:0:0:
200,301,50861,1,0,0:0:0:0:
200,301,50941,1,0,0:0:0:0:
200,301,51021,6,0,P|142:310|90:349,1,98.8199959287416
389,175,51340,1,0,0:0:0:0:
157,130,51499,1,0,0:0:0:0:
418,84,51659,2,0,P|477:129|487:173,1,98.8199959287416
374,272,51978,2,0,L|391:156,1,98.8199959287416
315,110,52218,1,0,0:0:0:0:
302,103,52297,6,0,P|253:150|247:189,1,98.8199959287416
280,285,52616,1,0,0:0:0:0:
396,80,52776,1,0,0:0:0:0:
68,232,52936,6,0,P|113:262|179:261,1,98.8199959287416
224,171,53255,1,0,0:0:0:0:
76,350,53414,2,0,L|100:279,1,49.4099979643708
214,81,53574,2,0,B|326:73|280:157|403:144,1,197.639991857483
466,224,54053,1,0,0:0:0:0:
385,34,54212,5,0,0:0:0:0:
314,221,54372,1,0,0:0:0:0:
204,67,54531,1,0,0:0:0:0:
50,232,54691,1,0,0:0:0:0:
50,232,54771,1,0,0:0:0:0:
50,232,54851,6,0,L|27:124,1,98.8199959287416
244,334,55170,2,0,L|259:211,1,98.8199959287416
47,144,55489,2,0,L|24:36,1,98.8199959287416
269,245,55808,2,0,L|284:122,1,98.8199959287416
151,49,56127,5,0,0:0:0:0:
415,139,56287,1,0,0:0:0:0:
139,210,56446,1,0,0:0:0:0:
377,46,56606,1,0,0:0:0:0:
167,359,56765,5,0,0:0:0:0:
266,42,56925,1,0,0:0:0:0:
407,286,57085,1,0,0:0:0:0:
24,95,57244,6,0,B|86:65|86:65|218:134,1,197.639991857483
88,347,57723,2,0,B|73:299|73:299|105:231,1,98.8199959287416
402,190,58042,1,0,0:0:0:0:
167,297,58202,1,0,0:0:0:0:
222,32,58361,1,0,0:0:0:0:
396,341,58521,6,0,P|315:319|320:198,1,197.639991857483
501,132,58999,2,0,P|443:168|404:171,1,98.8199959287416
241,17,59319,2,0,P|288:27|328:56,1,98.8199959287416
232,233,59638,2,0,L|250:117,1,98.8199959287416
25,361,59957,6,0,P|76:351|122:303,1,98.8199959287416
66,158,60276,1,0,0:0:0:0:
232,233,60436,1,0,0:0:0:0:
145,43,60595,5,0,0:0:0:0:
36,269,60755,1,0,0:0:0:0:
312,148,60914,1,0,0:0:0:0:
184,277,61074,1,0,0:0:0:0:
512,53,61234,5,0,0:0:0:0:
425,330,61393,1,0,0:0:0:0:
303,136,61553,1,0,0:0:0:0:
438,345,61712,2,0,B|322:329|322:329|267:340|267:340|130:317,1,296.459987786225
47,92,62351,1,0,0:0:0:0:
47,92,62430,1,0,0:0:0:0:
47,92,62510,6,0,P|100:127|165:128,1,98.8199959287416
244,27,62829,1,0,0:0:0:0:
380,274,62989,1,0,0:0:0:0:
380,274,63069,1,0,0:0:0:0:
380,274,63148,5,0,0:0:0:0:
145,144,63308,1,0,0:0:0:0:
289,332,63468,1,0,0:0:0:0:
336,90,63627,1,0,0:0:0:0:
67,231,63787,6,0,L|84:342,1,98.8199959287416
126,122,64106,1,0,0:0:0:0:
299,346,64265,1,0,0:0:0:0:
299,346,64345,1,0,0:0:0:0:
299,346,64425,5,0,0:0:0:0:
56,216,64585,1,0,0:0:0:0:
378,164,64744,1,0,0:0:0:0:
234,262,64904,1,0,0:0:0:0:
98,64,65063,5,0,0:0:0:0:
45,316,65223,1,0,0:0:0:0:
225,104,65382,5,0,0:0:0:0:
289,335,65542,1,0,0:0:0:0:
360,30,65702,5,0,0:0:0:0:
227,272,65861,1,0,0:0:0:0:
512,194,66021,5,0,0:0:0:0:
214,89,66180,1,0,0:0:0:0:
458,345,66340,6,0,P|404:318|379:278,1,98.8199959287416
409,137,66659,1,0,0:0:0:0:
232,340,66819,1,0,0:0:0:0:
232,340,66898,1,0,0:0:0:0:
232,340,66978,5,0,0:0:0:0:
169,131,67138,1,0,0:0:0:0:
96,307,67297,1,0,0:0:0:0:
0,170,67457,1,0,0:0:0:0:
261,190,67616,6,0,B|299:138|299:138|251:17,1,181.440002214844
156,111,68095,1,0,0:0:0:0:
300,290,68255,2,0,P|269:235|159:241,1,181.440002214844
122,319,68734,1,0,0:0:0:0:
39,163,68893,6,0,L|54:258,1,90.7200011074219
98,67,69212,1,0,0:0:0:0:
198,161,69372,1,0,0:0:0:0:
84,53,69531,2,0,L|264:78,1,181.440002214844
347,124,70010,1,0,0:0:0:0:
274,296,70170,6,0,P|308:256|357:251,1,90.7200011074219
198,264,70489,2,0,P|189:324|208:356,1,90.7200011074219
102,279,70808,2,0,P|112:237|160:195,1,90.7200011074219
12,116,71127,2,0,P|55:147|110:145,1,90.7200011074219
160,71,71446,6,0,B|251:44|232:129|341:90,1,181.440002214844
416,243,71925,1,0,0:0:0:0:
362,170,72085,2,0,P|321:207|315:243,1,90.7200011074219
444,344,72404,2,0,L|348:330,1,90.7200011074219
108,244,72723,6,0,B|83:206|83:206|220:238,1,181.440002214844
172,322,73202,1,0,0:0:0:0:
0,189,73361,2,0,P|33:141|148:142,1,181.440002214844
207,235,73840,1,0,0:0:0:0:
292,66,73999,6,0,P|237:99|211:100,1,90.7200011074219
52,143,74318,1,0,0:0:0:0:
207,235,74478,1,0,0:0:0:0:
107,218,74638,2,0,P|139:169|136:122,1,90.7200011074219
193,15,74957,2,0,P|224:75|317:72,1,136.080001661133
354,138,75276,6,0,L|325:290,1,136.080001661133
326,354,75595,5,0,0:0:0:0:
131,185,75755,1,0,0:0:0:0:
344,349,75914,5,0,0:0:0:0:
234,78,76074,1,0,0:0:0:0:
365,344,76234,5,0,0:0:0:0:
370,41,76393,1,0,0:0:0:0:
46,196,76553,5,0,0:0:0:0:
46,196,77829,6,0,P|104:229|149:221,1,90.7200011074219
241,310,78148,1,0,0:0:0:0:
124,132,78308,2,0,L|251:115,1,90.7200011074219
325,189,78627,1,0,0:0:0:0:
218,13,78787,1,0,0:0:0:0:
471,95,78946,6,0,L|447:274,1,181.440002214844
430,295,79345,1,0,0:0:0:0:
430,295,79425,1,0,0:0:0:0:
252,218,79585,1,0,0:0:0:0:
390,25,79744,5,0,0:0:0:0:
417,320,79904,1,0,0:0:0:0:
91,55,80063,1,0,0:0:0:0:
118,350,80223,6,0,B|97:349|73:367|73:367|64:340|19:326|-19:314|-13:268|8:240|24:233|60:229|89:249|92:276|92:276|110:251|139:251|164:259|174:285|173:302|173:302|208:245|199:193|114:184|169:87|207:79|251:76|288:91|299:132,1,728.189971110627
299,155,82616,6,0,L|296:186,2,25.1099990038147
