osu file format v14

[General]
AudioFilename: audio.mp3
AudioLeadIn: 0
PreviewTime: 219
Countdown: 0
SampleSet: Soft
StackLeniency: 0.7
Mode: 0
LetterboxInBreaks: 0
WidescreenStoryboard: 0

[Editor]
DistanceSpacing: 1.2
BeatDivisor: 4
GridSize: 16
TimelineZoom: 2

[Metadata]
Title:Tiny Stars
TitleUnicode:Tiny Stars
Artist:Shibuya Kanon (CV: Date Sayuri), Tang Keke (CV: Liyuu)
ArtistUnicode:澁谷かのん (CV: 伊達さゆり)、唐 可可 (CV: Liyuu)
Creator:Hollow Wings
Version:Hard
Source:ラブライブ!スーパースター!!
Tags:Yugu LoveLive!SuperStar!! lovelive love live superstar Liella! liella japanese pop j-pop jpop animation anime tv IN insert School idol project series SUNRISE BANDAI NAMCO Arts KADOKAWA 宮嶋淳子 宮嶋 淳子 Miyajima Junko 秋浦智裕 秋浦 智裕 Akiura Tomohiro 兼松衆 兼松 衆 Kanematsu Shu 未来予報ハレルヤ!/Tiny Stars Mirai Yohou Hallelujah!/Tiny Stars Lantis 矢立肇 矢立 肇 Yatate Hajime 公野樱子 公野 樱子 Kimino Sakurako 澁谷 かのん 伊達 さゆり 唐可可 アニメソング caps twins 2nd second secondary
BeatmapID:3353274
BeatmapSetID:1642820

[Difficulty]
HPDrainRate:5
CircleSize:4
OverallDifficulty:7
ApproachRate:8
SliderMultiplier:1.4
SliderTickRate:1

[Events]
//Background and Video events
0,0,"BG.jpg",0,0
//Break Periods
//Storyboard Layer 0 (Background)
//Storyboard Layer 1 (Fail)
//Storyboard Layer 2 (Pass)
//Storyboard Layer 3 (Foreground)
//Storyboard Layer 4 (Overlay)
//Storyboard Sound Samples

[TimingPoints]
-209,428.571428571429,4,2,0,70,1,0
1505,-100,4,2,1,70,0,0
8362,-100,4,2,1,90,0,1
13505,-71.4285714285714,4,2,1,90,0,1
15219,-100,4,2,1,90,0,1
22076,-100,4,2,1,60,0,0
35791,-100,4,2,1,70,0,0
49505,-100,4,2,1,60,0,0
56362,-100,4,2,1,70,0,0
63219,-100,4,2,1,90,0,1
76933,-100,4,2,1,90,0,1
90648,-100,4,2,1,90,0,1
97505,-100,4,2,1,70,0,0
111219,-100,4,2,1,60,0,0
118076,-100,4,2,1,70,0,0
124933,-100,4,2,1,90,0,1
138648,-100,4,2,1,90,0,1
152362,-100,4,2,1,80,0,0
166076,-100,4,2,1,70,0,0
179791,-100,4,2,1,60,0,0
181505,-100,4,2,1,50,0,0
188362,-100,4,2,1,60,0,0
195219,-100,4,2,1,90,0,1
208933,-100,4,2,1,90,0,1
222433,-100,4,2,1,50,0,0
222648,-100,4,2,1,40,0,0
224362,-100,4,2,1,30,0,0
226076,-100,4,2,1,20,0,0
227791,-100,4,2,1,10,0,0

[Colours]
Combo1 : 252,172,174
Combo2 : 246,158,58
Combo3 : 189,183,155
Combo4 : 106,137,222

[HitObjects]
62,246,434,5,0,0:0:0:0:
129,164,648,1,0,0:0:0:0:
211,228,862,1,0,0:0:0:0:
308,188,1076,1,0,0:0:0:0:
403,231,1291,1,0,0:0:0:0:
505,217,1505,6,0,P|369:237|242:183,1,280,2|0,0:3|0:0,0:0:0:0:
392,36,2791,1,0,0:0:0:0:
392,36,3005,6,0,L|380:245,1,210
444,329,3862,1,0,0:0:0:0:
340,314,4076,1,0,0:0:0:0:
237,337,4291,1,0,0:0:0:0:
168,257,4505,1,0,0:0:0:0:
94,331,4719,1,0,0:0:0:0:
57,232,4934,6,0,P|98:176|162:147,1,140,2|0,0:3|0:0,0:0:0:0:
202,50,5576,2,0,P|242:105|306:134,1,140
298,238,6219,2,0,P|333:235|365:220,1,70
461,33,6862,5,2,0:0:0:0:
400,118,7076,2,0,L|438:176,1,70,2|2,0:0|0:0,0:0:0:0:
442,281,7505,2,0,L|431:350,1,70,14|0,0:0|0:0,0:0:0:0:
396,352,7826,1,8,0:3:0:0:
366,333,7934,1,4,0:3:0:0:
337,312,8041,1,4,0:3:0:0:
310,288,8148,1,8,0:3:0:0:
376,205,8362,6,0,L|237:215,1,140,6|10,0:0|0:0,0:0:0:0:
150,154,9005,1,0,0:0:0:0:
46,171,9219,2,0,P|26:104|38:36,1,140,2|10,0:0|0:0,0:0:0:0:
143,36,9862,1,0,0:0:0:0:
243,67,10076,6,0,L|311:51,1,70,2|0,0:0|0:0,0:0:0:0:
381,129,10505,1,10,0:0:0:0:
430,36,10719,1,0,0:0:0:0:
472,39,10826,1,0,0:0:0:0:
502,69,10934,2,0,P|508:104|508:139,1,70,2|0,0:0|0:0,0:0:0:0:
427,207,11362,2,0,P|421:241|421:276,1,70,10|2,0:0|0:3,0:0:0:0:
338,344,11791,6,0,P|270:330|200:325,1,140,2|10,0:0|0:0,0:0:0:0:
101,290,12434,2,0,P|74:267|54:238,1,70,0|2,0:0|0:0,0:0:0:0:
75,135,12862,1,0,0:0:0:0:
178,152,13076,2,0,L|158:81,1,70,10|0,0:0|0:0,0:0:0:0:
256,64,13505,6,0,L|337:346,1,293.999991027832,2|0,0:0|0:0,0:0:0:0:
174,346,14362,2,0,L|256:64,1,293.999991027832,2|0,0:0|0:0,0:0:0:0:
318,226,15219,6,0,B|416:160|416:160|96:160|96:160|197:227,1,560,6|2,0:0|0:0,0:0:0:0:
256,320,17148,5,0,0:0:0:0:
360,307,17362,2,0,P|394:299|424:282,1,70,10|0,0:0|0:0,0:0:0:0:
441,178,17791,2,0,P|417:152|387:134,1,70,2|0,0:0|0:0,0:0:0:0:
287,167,18219,2,0,P|276:200|276:235,1,70,10|0,0:0|0:0,0:0:0:0:
171,247,18648,6,0,P|173:177|196:111,1,140,2|10,0:0|0:0,0:0:0:0:
283,53,19291,2,0,L|352:43,1,70,0|2,0:0|0:0,0:0:0:0:
387,142,19719,6,0,L|418:117,1,35
432,70,19934,2,0,L|469:74,1,35,10|0,0:0|0:0,0:0:0:0:
505,109,20148,2,0,L|491:213,1,105
504,245,20576,6,0,L|464:238,1,35
429,206,20791,2,0,L|398:227,1,35,10|0,0:0|0:0,0:0:0:0:
385,276,21005,2,0,L|426:331,1,70,0|2,0:0|0:0,0:0:0:0:
322,340,21434,5,0,0:0:0:0:
310,235,21648,1,10,0:0:0:0:
276,244,21755,1,0,0:0:0:0:
247,264,21862,1,0,0:0:0:0:
228,293,21969,1,0,0:0:0:0:
215,325,22076,6,0,P|148:301|80:286,1,140,2|2,0:0|0:0,0:0:0:0:
77,203,22719,1,0,0:0:0:0:
51,123,22934,2,0,L|120:125,1,70,2|0,0:0|0:0,0:0:0:0:
200,154,23362,1,2,0:0:0:0:
278,184,23576,6,0,L|347:186,1,70,0|2,0:0|0:0,0:0:0:0:
372,266,24005,1,0,0:0:0:0:
334,340,24219,2,0,L|265:326,1,70,2|0,0:0|0:0,0:0:0:0:
491,315,24862,1,0,0:0:0:0:
499,231,25076,2,0,P|485:198|462:172,1,70,2|0,0:0|0:0,0:0:0:0:
446,90,25505,5,2,0:0:0:0:
472,10,25719,1,0,0:0:0:0:
390,28,25934,1,2,0:0:0:0:
322,78,26148,2,0,L|253:93,1,70,0|2,0:0|0:0,0:0:0:0:
173,68,26576,1,0,0:0:0:0:
105,17,26791,2,0,L|35:17,1,70,2|0,0:0|0:0,0:0:0:0:
27,100,27219,5,2,0:0:0:0:
78,168,27434,1,0,0:0:0:0:
94,250,27648,1,2,0:0:0:0:
171,281,27862,1,0,0:0:0:0:
274,84,28291,2,0,L|305:21,2,70,0|2|0,0:0|0:0|0:0,0:0:0:0:
221,150,28934,5,2,0:0:0:0:
252,227,29148,1,0,0:0:0:0:
259,310,29362,1,2,0:0:0:0:
342,317,29576,2,0,L|418:328,1,70,0|2,0:0|0:0,0:0:0:0:
479,278,30005,2,0,P|488:244|489:209,1,70,0|2,0:0|0:0,0:0:0:0:
440,140,30434,6,0,P|430:106|429:71,1,70,0|2,0:0|0:0,0:0:0:0:
362,21,30862,1,0,0:0:0:0:
279,8,31076,2,0,P|245:19|211:21,1,70,2|0,0:0|0:0,0:0:0:0:
239,242,31719,2,0,L|302:212,1,70,0|2,0:0|0:0,0:0:0:0:
387,214,32148,1,0,0:0:0:0:
446,273,32362,6,0,P|459:305|482:330,1,70,2|0,0:0|0:0,0:0:0:0:
404,360,32791,1,2,0:0:0:0:
320,349,33005,2,0,P|321:314|332:281,1,70,0|2,0:0|0:0,0:0:0:0:
268,227,33434,1,0,0:0:0:0:
189,196,33648,2,0,P|155:204|126:224,1,70,2|0,0:0|0:0,0:0:0:0:
256,192,34076,12,6,35791,0:0:0:0:
344,202,36219,5,10,0:0:0:0:
301,274,36434,2,0,P|269:287|234:290,1,70,0|2,0:0|0:0,0:0:0:0:
174,230,36862,1,0,0:0:0:0:
125,161,37076,2,0,L|91:169,1,35,10|0,0:0|0:0,0:0:0:0:
70,207,37291,2,0,L|33:231,1,35
40,267,37505,1,2,0:0:0:0:
58,349,37719,5,0,0:0:0:0:
84,372,37826,1,0,0:0:0:0:
118,379,37934,1,10,0:0:0:0:
152,370,38041,1,0,0:0:0:0:
179,347,38148,1,0,0:0:0:0:
330,271,38576,2,0,P|305:246|278:224,2,70,0|10|0,0:0|0:0|0:0,0:0:0:0:
387,334,39219,5,2,0:0:0:0:
427,260,39434,1,0,0:0:0:0:
484,198,39648,1,10,0:0:0:0:
441,125,39862,2,0,P|451:91|452:56,1,70,0|2,0:0|0:0,0:0:0:0:
373,28,40291,1,0,0:0:0:0:
303,75,40505,2,0,L|294:111,1,35,10|0,0:0|0:0,0:0:0:0:
261,133,40719,2,0,L|250:99,1,35
213,80,40934,5,2,0:0:0:0:
147,26,41148,1,0,0:0:0:0:
132,57,41255,1,0,0:0:0:0:
107,82,41362,1,10,0:0:0:0:
79,103,41469,1,0,0:0:0:0:
45,113,41576,1,0,0:0:0:0:
102,174,41791,1,2,0:0:0:0:
132,252,42005,2,0,P|118:284|96:311,1,70,0|10,0:0|0:0,0:0:0:0:
224,199,42648,5,2,0:0:0:0:
257,275,42862,1,0,0:0:0:0:
284,354,43076,2,0,L|351:335,1,70,10|0,0:0|0:0,0:0:0:0:
431,361,43505,1,2,0:0:0:0:
470,286,43719,1,0,0:0:0:0:
413,223,43934,2,0,L|379:233,1,35,10|0,0:0|0:0,0:0:0:0:
343,212,44148,2,0,L|318:187,1,35
336,149,44362,5,2,0:0:0:0:
418,131,44576,1,0,0:0:0:0:
449,102,44684,1,0,0:0:0:0:
459,61,44791,1,10,0:0:0:0:
433,27,44898,1,0,0:0:0:0:
392,14,45005,1,0,0:0:0:0:
227,53,45434,2,0,P|193:46|163:28,2,70,0|10|0,0:0|0:0|0:0,0:0:0:0:
180,123,46076,6,0,P|170:156|168:191,1,70,2|0,0:0|0:0,0:0:0:0:
116,257,46505,1,10,0:0:0:0:
160,327,46719,2,0,P|194:329|227:339,1,70,0|2,0:0|0:0,0:0:0:0:
294,281,47148,2,0,P|318:255|347:236,1,70,0|10,0:0|0:0,0:0:0:0:
345,152,47576,6,0,P|311:143|279:128,1,70,12|2,0:0|0:0,0:0:0:0:
243,52,48005,1,4,0:3:0:0:
176,103,48219,2,0,P|142:107|110:122,1,70,8|8,0:3|0:3,0:0:0:0:
89,159,48541,1,8,0:3:0:0:
96,199,48648,2,0,P|99:234|110:267,2,70,8|4|4,0:3|0:3|0:3,0:0:0:0:
183,198,49291,6,0,L|196:266,2,70,0|6|0,0:0|0:0|0:0,0:0:0:0:
244,141,49934,1,10,0:0:0:0:
312,190,50148,2,0,L|325:258,2,70,8|4|0,0:3|0:3|0:0,0:0:0:0:
376,135,50791,1,4,0:3:0:0:
458,148,51005,6,0,P|472:180|478:215,1,70,0|2,0:0|0:0,0:0:0:0:
458,295,51434,2,0,P|474:325|494:354,2,70,8|4|4,0:3|0:3|0:3,0:3:0:0:
376,272,52076,1,8,0:3:0:0:
306,320,52291,1,4,0:3:0:0:
231,280,52505,2,0,P|163:297|97:321,1,140,4|2,0:3|0:0,0:0:0:0:
12,176,53362,5,2,0:0:0:0:
65,111,53576,2,0,P|99:114|133:123,1,70,8|4,0:3|0:3,0:0:0:0:
208,164,54005,2,0,P|242:160|276:151,1,70,0|4,0:0|0:3,0:0:0:0:
332,88,54434,2,0,L|347:19,2,70,6|2|2,0:0|0:0|0:0,0:0:0:0:
364,165,55076,6,0,P|429:190|489:224,1,140,6|2,0:0|0:0,0:0:0:0:
460,304,55719,1,2,0:0:0:0:
426,315,55826,1,4,0:3:0:0:
391,316,55934,1,4,0:3:0:0:
357,306,56041,1,4,0:3:0:0:
325,294,56148,2,0,L|289:318,1,35,8|0,0:3|0:0,0:0:0:0:
271,347,56362,5,6,0:0:0:0:
205,294,56576,1,0,0:0:0:0:
121,280,56791,2,0,P|64:238|14:190,1,140,10|2,0:0|0:0,0:0:0:0:
70,127,57434,1,0,0:0:0:0:
126,192,57648,2,0,P|159:202|193:207,1,70,10|0,0:0|0:0,0:0:0:0:
268,168,58076,5,2,0:0:0:0:
226,94,58291,1,0,0:0:0:0:
275,26,58505,2,0,P|308:15|342:10,1,70,10|0,0:0|0:0,0:0:0:0:
422,34,58934,2,0,P|433:103|454:169,1,140,2|10,0:0|0:0,0:0:0:0:
406,335,59791,6,0,P|349:295|288:262,1,140,2|10,0:0|0:0,0:0:0:0:
208,287,60434,1,0,0:0:0:0:
224,204,60648,1,2,0:0:0:0:
158,151,60862,1,0,0:0:0:0:
75,168,61076,1,10,0:0:0:0:
2,125,61291,6,0,L|15:56,1,70,4|2,0:0|0:0,0:0:0:0:
97,71,61719,2,0,L|163:48,1,70,2|10,0:0|0:0,0:0:0:0:
245,97,62148,1,0,0:0:0:0:
318,42,62362,1,6,0:0:0:0:
376,120,62576,1,8,0:0:0:0:
401,96,62684,1,8,0:0:0:0:
414,63,62791,1,10,0:0:0:0:
446,50,62898,1,8,0:0:0:0:
472,26,63005,1,8,0:3:0:0:
481,131,63219,6,0,P|412:126|342:128,1,140,6|10,0:0|0:0,0:0:0:0:
364,338,64076,2,0,P|332:350|297:351,2,70,2|0|10,0:0|0:0|0:0,0:0:0:0:
397,236,64719,2,0,L|376:209,1,35
324,201,64934,5,2,0:0:0:0:
249,275,65148,1,0,0:0:0:0:
154,230,65362,1,10,0:0:0:0:
60,277,65576,1,0,0:0:0:0:
12,182,65791,1,2,0:0:0:0:
115,165,66005,2,0,L|148:156,1,35
181,114,66219,1,10,0:0:0:0:
249,193,66434,1,2,0:3:0:0:
354,193,66648,6,0,P|420:170|481:137,1,140,2|10,0:0|0:0,0:0:0:0:
418,54,67291,2,0,P|413:89|398:121,1,70,0|2,0:0|0:0,0:0:0:0:
293,121,67719,2,0,P|260:134|225:137,1,70,0|10,0:0|0:0,0:0:0:0:
159,55,68148,2,0,P|131:33|111:5,1,70,0|2,0:0|0:0,0:0:0:0:
41,83,68576,5,0,0:0:0:0:
132,134,68791,2,0,P|137:169|155:199,1,70,10|0,0:0|0:0,0:0:0:0:
156,251,69112,1,0,0:0:0:0:
191,273,69219,2,0,P|187:307|175:340,1,70,2|0,0:0|0:0,0:0:0:0:
128,363,69541,2,0,L|93:359,1,35,0|10,0:0|0:0,0:0:0:0:
26,278,69862,1,0,0:0:0:0:
113,220,70076,6,0,P|176:247|246:255,1,140,2|10,0:0|0:0,0:0:0:0:
326,323,70719,1,0,0:0:0:0:
429,296,70934,2,0,P|443:263|449:229,1,70,2|0,0:0|0:0,0:0:0:0:
486,191,71255,2,0,L|472:158,1,35,0|10,0:0|0:0,0:0:0:0:
371,130,71576,1,0,0:0:0:0:
455,67,71791,6,0,L|385:56,1,70,2|0,0:0|0:0,0:0:0:0:
286,88,72219,1,10,0:0:0:0:
190,43,72434,2,0,L|120:43,1,70,0|2,0:0|0:0,0:0:0:0:
18,70,72862,2,0,L|6:37,2,35,0|0|10,0:0|0:0|0:0,0:0:0:0:
91,145,73291,1,0,0:0:0:0:
29,230,73505,6,0,P|70:287|97:352,1,140,2|10,0:0|0:0,0:0:0:0:
200,380,74148,2,0,P|224:355|256:342,1,70,0|2,0:0|0:0,0:0:0:0:
315,255,74576,1,0,0:0:0:0:
367,346,74791,1,10,0:0:0:0:
471,356,75005,6,0,P|483:324|486:289,1,70,0|2,0:0|0:0,0:0:0:0:
412,214,75434,1,0,0:0:0:0:
315,255,75648,1,10,0:0:0:0:
210,266,75862,1,0,0:0:0:0:
105,258,76076,2,0,L|136:220,1,35,10|0,0:0|0:0,0:0:0:0:
126,178,76291,1,4,0:3:0:0:
102,151,76398,1,4,0:3:0:0:
99,115,76505,1,10,0:0:0:0:
203,110,76719,1,8,0:0:0:0:
208,75,76826,1,8,0:0:0:0:
238,57,76934,6,0,P|308:52|376:35,1,140,6|10,0:0|0:0,0:0:0:0:
495,208,77791,2,0,P|478:238|452:262,1,70,2|0,0:0|0:0,0:0:0:0:
492,359,78219,1,10,0:0:0:0:
388,341,78434,6,0,L|318:351,2,70,0|2|0,0:0|0:0|0:0,0:0:0:0:
304,276,79076,1,10,0:0:0:0:
216,333,79291,1,0,0:0:0:0:
172,237,79505,1,2,0:0:0:0:
88,300,79719,2,0,L|80:265,1,35
33,242,79934,1,10,0:0:0:0:
18,346,80148,1,2,0:3:0:0:
117,374,80362,6,0,P|185:361|252:339,1,140,2|10,0:0|0:0,0:0:0:0:
260,235,81005,2,0,P|295:242|325:260,1,70,0|2,0:0|0:0,0:0:0:0:
421,362,81434,2,0,P|434:329|438:294,1,70,0|10,0:0|0:0,0:0:0:0:
413,155,81862,6,0,P|431:124|458:102,1,70,0|2,0:0|0:0,0:0:0:0:
365,50,82291,1,0,0:0:0:0:
260,40,82505,2,0,P|279:69|305:91,1,70,10|0,0:0|0:0,0:0:0:0:
316,125,82826,1,0,0:0:0:0:
336,153,82934,1,2,0:0:0:0:
230,152,83148,2,0,L|244:190,1,35
218,230,83362,2,0,P|210:265|192:294,1,70,10|0,0:0|0:0,0:0:0:0:
97,339,83791,6,0,P|99:304|111:271,1,70,2|0,0:0|0:0,0:0:0:0:
69,239,84112,2,0,L|60:204,1,35,0|10,0:0|0:0,0:0:0:0:
27,105,84434,1,0,0:0:0:0:
109,40,84648,2,0,P|144:39|179:46,1,70,2|0,0:0|0:0,0:0:0:0:
218,81,84969,2,0,L|249:66,1,35,0|10,0:0|0:0,0:0:0:0:
354,58,85291,1,0,0:0:0:0:
448,102,85505,6,0,P|437:171|432:240,1,140,2|10,0:0|0:0,0:0:0:0:
443,346,86148,2,0,P|408:338|373:336,1,70,0|2,0:0|0:0,0:0:0:0:
268,327,86576,2,0,L|267:292,2,35,0|0|10,0:0|0:0|0:0,0:0:0:0:
166,353,87005,1,8,0:3:0:0:
61,364,87219,6,0,P|93:303|136:248,1,140,6|2,0:0|0:0,0:0:0:0:
235,208,87862,2,0,P|245:174|248:140,1,70,4|2,0:3|0:0,0:0:0:0:
143,137,88291,2,0,L|125:167,1,35
73,176,88505,2,0,P|62:142|59:108,1,70,10|4,0:0|0:0,0:0:0:0:
149,55,88934,5,2,0:0:0:0:
242,103,89148,1,8,0:3:0:0:
234,207,89362,2,0,P|243:241|258:273,1,70,4|0,0:3|0:0,0:0:0:0:
281,320,89684,1,8,0:0:0:0:
282,362,89791,2,0,P|331:347|384:350,1,105,10|8,0:0|0:3,0:0:0:0:
418,311,90219,1,8,0:3:0:0:
454,290,90326,1,4,0:3:0:0:
464,249,90434,2,0,L|448:217,1,35,4|0,0:3|0:0,0:0:0:0:
475,172,90648,6,0,P|466:103|449:35,1,140,6|10,0:0|0:0,0:0:0:0:
273,144,91505,1,2,0:0:0:0:
185,85,91719,2,0,L|145:82,1,35
112,46,91934,1,10,0:0:0:0:
28,110,92148,1,0,0:0:0:0:
70,204,92362,6,0,P|53:235|49:270,1,70,2|0,0:0|0:0,0:0:0:0:
122,343,92791,2,0,P|157:343|191:334,1,70,10|0,0:0|0:0,0:0:0:0:
173,230,93219,1,2,0:0:0:0:
265,181,93434,2,0,L|286:219,1,35
283,264,93648,1,10,0:0:0:0:
387,250,93862,1,2,0:3:0:0:
489,225,94076,6,0,P|478:295|478:364,1,140,2|10,0:0|0:0,0:0:0:0:
375,339,94719,1,0,0:0:0:0:
412,241,94934,1,2,0:0:0:0:
404,199,95041,1,8,0:0:0:0:
434,170,95148,2,0,L|443:136,1,35,8|0,0:3|0:0,0:0:0:0:
423,89,95362,1,10,0:0:0:0:
331,34,95576,6,0,L|319:103,1,70,6|0,0:0|0:0,0:0:0:0:
213,116,96005,1,8,0:3:0:0:
248,214,96219,1,8,0:3:0:0:
239,318,96434,1,4,0:3:0:0:
202,297,96541,1,4,0:3:0:0:
158,306,96648,2,0,L|89:312,1,70,10|4,0:0|0:3,0:0:0:0:
51,309,96969,1,4,0:3:0:0:
22,288,97076,1,14,0:0:0:0:
113,236,97291,2,0,L|141:215,1,35
132,174,97505,6,0,P|97:169|62:169,1,70,2|0,0:0|0:0,0:0:0:0:
13,101,97934,1,10,0:0:0:0:
72,41,98148,1,0,0:0:0:0:
132,98,98362,2,0,P|201:109|269:123,1,140,2|10,0:0|0:0,0:0:0:0:
334,73,99005,1,0,0:0:0:0:
367,82,99112,1,0,0:0:0:0:
394,103,99219,5,2,0:0:0:0:
476,120,99434,1,0,0:0:0:0:
437,194,99648,1,10,0:0:0:0:
468,270,99862,2,0,P|466:305|453:338,1,70,0|2,0:0|0:0,0:0:0:0:
370,320,100291,1,0,0:0:0:0:
297,277,100505,1,10,0:0:0:0:
226,322,100719,1,0,0:0:0:0:
142,317,100934,6,0,P|95:265|42:219,1,140,2|10,0:0|0:0,0:0:0:0:
72,140,101576,1,0,0:0:0:0:
154,156,101791,2,0,P|217:128|274:87,1,140,2|10,0:0|0:0,0:0:0:0:
358,90,102434,6,0,P|392:88|425:76,1,70,0|2,0:0|0:0,0:0:0:0:
484,136,102862,1,0,0:0:0:0:
428,197,103076,2,0,P|393:202|359:193,1,70,10|0,0:0|0:0,0:0:0:0:
324,191,103398,1,0,0:0:0:0:
291,203,103505,1,2,0:0:0:0:
277,285,103719,2,0,L|244:298,1,35
210,295,103934,1,10,0:0:0:0:
138,339,104148,1,0,0:0:0:0:
54,335,104362,6,0,P|45:265|59:197,1,140,2|10,0:0|0:0,0:0:0:0:
145,218,105005,1,0,0:0:0:0:
228,214,105219,1,2,0:0:0:0:
214,131,105434,2,0,P|193:102|166:80,1,70,0|10,0:0|0:0,0:0:0:0:
85,56,105862,6,0,P|50:57|17:69,1,70,0|2,0:0|0:0,0:0:0:0:
32,152,106291,1,0,0:0:0:0:
79,220,106505,2,0,P|75:255|67:289,1,70,10|0,0:0|0:0,0:0:0:0:
72,325,106826,1,0,0:0:0:0:
62,358,106934,1,2,0:0:0:0:
145,367,107148,2,0,L|177:353,1,35
212,353,107362,1,10,0:0:0:0:
265,288,107576,1,0,0:0:0:0:
338,327,107791,6,0,P|408:330|477:344,1,140,2|10,0:0|0:0,0:0:0:0:
463,261,108434,2,0,P|460:226|466:191,1,70,0|2,0:0|0:0,0:0:0:0:
418,122,108862,2,0,P|413:87|398:55,1,70,0|10,0:0|0:0,0:0:0:0:
315,44,109291,6,0,L|246:57,1,70,4|2,0:0|0:0,0:0:0:0:
163,42,109719,2,0,L|130:28,1,35
96,52,109934,2,0,L|73:78,1,35,14|0,0:0|0:0,0:0:0:0:
31,80,110148,1,0,0:0:0:0:
23,163,110362,1,6,0:0:0:0:
71,232,110576,1,4,0:3:0:0:
103,245,110684,1,4,0:3:0:0:
138,240,110791,1,10,0:0:0:0:
161,266,110898,1,8,0:0:0:0:
194,277,111005,1,8,0:3:0:0:
245,341,111219,6,0,P|306:305|369:275,1,140,6|10,0:0|0:0,0:0:0:0:
433,334,111862,2,0,P|466:323|496:305,2,70,0|2|0,0:0|0:0|0:0,0:0:0:0:
350,350,112505,2,0,L|326:324,1,35,10|0,0:0|0:0,0:0:0:0:
352,291,112719,6,0,P|355:256|353:221,1,70
269,215,113148,1,0,0:0:0:0:
201,268,113362,1,10,0:0:0:0:
186,185,113576,1,0,0:0:0:0:
151,186,113684,1,0,0:0:0:0:
118,201,113791,1,2,0:0:0:0:
41,234,114005,2,0,P|27:201|22:167,1,70,0|10,0:0|0:0,0:0:0:0:
43,86,114434,1,0,0:0:0:0:
109,33,114648,6,0,P|163:78|226:108,1,140,2|10,0:0|0:0,0:0:0:0:
309,77,115291,2,0,L|375:56,1,70,0|2,0:0|0:0,0:0:0:0:
410,132,115719,2,0,L|476:111,1,70,8|10,0:3|0:0,0:0:0:0:
504,31,116148,1,10,0:0:0:0:
493,198,116576,5,4,0:3:0:0:
470,279,116791,1,14,0:0:0:0:
498,357,117005,2,0,L|417:353,1,70,0|6,0:0|0:0,0:0:0:0:
353,316,117434,1,8,0:0:0:0:
318,307,117541,1,8,0:0:0:0:
283,313,117648,1,8,0:3:0:0:
207,349,117862,1,4,0:3:0:0:
174,359,117969,1,4,0:3:0:0:
141,351,118076,5,6,0:0:0:0:
57,363,118291,1,0,0:0:0:0:
85,284,118505,2,0,P|61:218|29:155,1,140,10|2,0:0|0:0,0:0:0:0:
112,138,119148,2,0,L|103:104,1,35
91,63,119362,2,0,P|125:53|160:55,1,70,10|0,0:0|0:0,0:0:0:0:
191,71,119684,1,0,0:0:0:0:
227,69,119791,5,2,0:0:0:0:
272,148,120005,1,0,0:0:0:0:
354,136,120219,2,0,P|384:199|425:255,1,140,10|2,0:0|0:0,0:0:0:0:
364,313,120862,2,0,L|331:326,1,35
286,325,121076,1,10,0:0:0:0:
210,362,121291,1,0,0:0:0:0:
175,285,121505,6,0,L|86:295,2,70,2|4|8,0:0|0:3|0:3,0:0:0:0:
248,245,122148,2,0,L|249:210,1,35,4|4,0:3|0:3,0:0:0:0:
274,171,122362,1,8,0:3:0:0:
336,105,122576,1,4,0:3:0:0:
410,157,122791,1,8,0:3:0:0:
466,226,123005,6,0,P|450:159|467:92,1,140,6|2,0:0|0:0,0:0:0:0:
402,27,123648,2,0,L|372:10,1,35,2|0,0:0|0:0,0:0:0:0:
329,26,123862,2,0,L|294:26,1,35,0|8,0:0|0:0,0:0:0:0:
265,62,124076,2,0,L|207:101,1,70,10|8,0:0|0:0,0:0:0:0:
149,112,124398,1,8,0:0:0:0:
121,133,124505,1,4,0:3:0:0:
86,131,124612,2,0,L|58:109,1,35,8|0,0:3|0:0,0:0:0:0:
143,47,124933,6,0,P|210:28|279:31,1,140,6|10,0:0|0:0,0:0:0:0:
402,203,125791,2,0,L|414:271,2,70,2|0|10,0:0|0:0|0:0,0:0:0:0:
431,158,126326,1,0,0:0:0:0:
432,116,126434,2,0,L|415:84,1,35
439,38,126648,5,2,0:0:0:0:
334,26,126862,1,0,0:0:0:0:
307,127,127076,1,10,0:0:0:0:
357,218,127291,1,0,0:0:0:0:
334,320,127505,1,2,0:0:0:0:
244,375,127719,2,0,L|211:366,1,35
182,321,127934,1,10,0:0:0:0:
262,253,128148,1,2,0:3:0:0:
229,151,128362,6,0,P|167:120|118:70,1,140,2|10,0:0|0:0,0:0:0:0:
27,29,129005,2,0,P|31:63|46:95,1,70,0|2,0:0|0:0,0:0:0:0:
10,193,129434,2,0,P|31:220|59:240,1,70,0|10,0:0|0:0,0:0:0:0:
34,342,129862,2,0,P|61:362|94:375,1,70,0|2,0:0|0:0,0:0:0:0:
149,285,130291,5,0,0:0:0:0:
241,234,130505,2,0,P|258:204|263:169,1,70,10|0,0:0|0:0,0:0:0:0:
315,163,130826,1,0,0:0:0:0:
355,177,130934,2,0,P|359:211|371:244,1,70,2|0,0:0|0:0,0:0:0:0:
345,290,131255,2,0,L|310:294,1,35,0|10,0:0|0:0,0:0:0:0:
212,333,131576,1,0,0:0:0:0:
315,333,131791,6,0,P|384:320|454:310,1,140,2|10,0:0|0:0,0:0:0:0:
471,207,132434,1,0,0:0:0:0:
421,114,132648,2,0,P|407:81|401:47,1,70,2|0,0:0|0:0,0:0:0:0:
348,46,132969,2,0,L|334:79,1,35,0|10,0:0|0:0,0:0:0:0:
238,36,133291,1,0,0:0:0:0:
136,63,133505,6,0,P|84:110|25:149,1,140,2|10,0:0|0:0,0:0:0:0:
71,243,134148,2,0,L|140:237,1,70,0|2,0:0|0:0,0:0:0:0:
219,167,134576,2,0,L|231:134,2,35,0|0|10,0:0|0:0|0:0,0:0:0:0:
249,267,135005,1,0,0:0:0:0:
324,339,135219,6,0,P|384:305|450:281,1,140,2|10,0:0|0:0,0:0:0:0:
463,179,135862,2,0,P|439:154|407:141,1,70,0|2,0:0|0:0,0:0:0:0:
422,37,136291,1,0,0:0:0:0:
318,17,136505,1,10,0:0:0:0:
216,41,136719,6,0,P|218:75|230:108,1,70,0|2,0:0|0:0,0:0:0:0:
157,184,137148,2,0,P|124:197|90:204,1,70,0|10,0:0|0:0,0:0:0:0:
6,143,137576,1,8,0:0:0:0:
15,110,137684,1,8,0:0:0:0:
31,79,137791,2,0,P|66:79|98:93,1,70,8|8,0:3|0:0,0:0:0:0:
144,121,138112,1,8,0:0:0:0:
184,105,138219,2,0,L|217:113,1,35,10|8,0:0|0:0,0:0:0:0:
238,145,138434,2,0,L|273:140,1,35,8|0,0:3|0:0,0:0:0:0:
315,109,138648,6,0,P|384:116|454:118,1,140,6|10,0:0|0:0,0:0:0:0:
354,305,139505,2,0,P|364:338|363:372,1,70,2|0,0:0|0:0,0:0:0:0:
260,353,139934,1,10,0:0:0:0:
155,352,140148,6,0,L|85:342,2,70,0|2|0,0:0|0:0|0:0,0:0:0:0:
103,259,140791,1,10,0:0:0:0:
205,236,141005,1,0,0:0:0:0:
227,133,141219,1,2,0:0:0:0:
125,106,141434,2,0,L|123:140,1,35
85,177,141648,1,10,0:0:0:0:
8,104,141862,1,2,0:3:0:0:
82,30,142076,6,0,P|147:56|214:77,1,140,2|10,0:0|0:0,0:0:0:0:
266,163,142719,2,0,P|237:184|218:213,1,70,0|2,0:0|0:0,0:0:0:0:
310,323,143148,2,0,P|297:290|293:255,1,70,0|10,0:0|0:0,0:0:0:0:
153,267,143576,6,0,P|118:257|83:261,1,70,0|2,0:0|0:0,0:0:0:0:
112,362,144005,1,0,0:0:0:0:
215,354,144219,2,0,P|241:330|274:319,1,70,10|0,0:0|0:0,0:0:0:0:
310,323,144541,1,0,0:0:0:0:
341,341,144648,1,2,0:0:0:0:
445,349,144862,2,0,L|457:316,1,35
497,282,145076,2,0,P|478:252|471:218,1,70,10|0,0:0|0:0,0:0:0:0:
486,114,145505,6,0,P|484:79|472:46,1,70,2|0,0:0|0:0,0:0:0:0:
420,51,145826,2,0,L|411:84,1,35,0|10,0:0|0:0,0:0:0:0:
381,185,146148,1,0,0:0:0:0:
330,92,146362,2,0,P|295:91|260:98,1,70,2|0,0:0|0:0,0:0:0:0:
214,73,146684,2,0,L|199:41,1,35,0|10,0:0|0:0,0:0:0:0:
94,31,147005,1,0,0:0:0:0:
34,117,147219,6,0,P|61:181|84:247,1,140,2|10,0:0|0:0,0:0:0:0:
191,240,147862,2,0,P|226:232|261:230,1,70,0|2,0:0|0:0,0:0:0:0:
352,279,148291,2,0,L|369:309,2,35,0|0|8,0:0|0:0|0:3,0:0:0:0:
354,173,148719,1,8,0:0:0:0:
377,144,148826,1,8,0:0:0:0:
409,129,148934,6,0,P|419:95|423:61,1,70,6|0,0:0|0:0,0:0:0:0:
324,97,149362,1,10,0:0:0:0:
223,127,149576,2,0,P|233:93|237:59,1,70,4|2,0:0|0:0,0:0:0:0:
138,95,150005,1,0,0:0:0:0:
36,119,150219,2,0,P|47:85|50:51,1,70,10|8,0:0|0:3,0:0:0:0:
137,122,150648,5,4,0:3:0:0:
133,157,150755,1,8,0:0:0:0:
136,191,150862,1,8,0:0:0:0:
149,223,150969,1,4,0:3:0:0:
171,249,151076,2,0,L|201:266,3,35,10|4|4|4,0:0|0:3|0:3|0:3,0:0:0:0:
239,257,151505,6,0,P|268:275|290:302,1,70,8|4,0:3|0:3,0:0:0:0:
384,350,151934,2,0,P|409:325|439:306,1,70,14|0,0:0|0:0,0:0:0:0:
454,201,152362,6,0,P|439:133|432:63,1,140,6|10,0:0|0:0,0:0:0:0:
349,70,153005,1,0,0:0:0:0:
314,72,153112,1,0,0:0:0:0:
282,58,153219,1,2,0:0:0:0:
198,52,153434,1,0,0:0:0:0:
126,98,153648,2,0,P|92:105|58:106,1,70,10|0,0:0|0:0,0:0:0:0:
24,182,154076,6,0,P|76:230|132:272,1,140,2|10,0:0|0:0,0:0:0:0:
119,353,154719,1,0,0:0:0:0:
153,354,154826,1,0,0:0:0:0:
187,346,154934,1,2,0:0:0:0:
253,294,155148,1,0,0:0:0:0:
324,337,155362,1,10,0:0:0:0:
372,268,155576,1,0,0:0:0:0:
477,266,155791,6,0,P|435:210|380:166,1,140,2|10,0:0|0:0,0:0:0:0:
299,192,156434,1,0,0:0:0:0:
258,202,156541,1,0,0:0:0:0:
215,203,156648,2,0,P|181:199|150:184,1,70,2|0,0:0|0:0,0:0:0:0:
67,199,157076,2,0,P|46:170|35:137,1,70,10|0,0:0|0:0,0:0:0:0:
35,53,157505,6,0,L|104:44,1,70,2|0,0:0|0:0,0:0:0:0:
165,100,157934,2,0,P|188:74|204:43,1,70,10|0,0:0|0:0,0:0:0:0:
281,24,158362,2,0,P|351:32|420:23,1,140,2|14,0:0|0:0,0:0:0:0:
481,181,159219,5,6,0:0:0:0:
414,231,159434,1,0,0:0:0:0:
443,309,159648,1,10,0:0:0:0:
374,355,159862,1,0,0:0:0:0:
339,359,159969,1,0,0:0:0:0:
305,350,160076,1,2,0:0:0:0:
222,365,160291,1,0,0:0:0:0:
144,333,160505,2,0,P|109:331|75:341,1,70,10|0,0:0|0:0,0:0:0:0:
44,263,160934,6,0,P|105:228|170:200,1,140,2|14,0:0|0:0,0:0:0:0:
166,117,161576,2,0,P|155:83|137:54,1,70,0|2,0:0|0:0,0:0:0:0:
220,46,162005,1,0,0:0:0:0:
295,83,162219,2,0,P|306:50|308:15,1,70,14|0,0:0|0:0,0:0:0:0:
391,27,162648,6,0,P|442:75|498:117,1,140,6|10,0:0|0:0,0:0:0:0:
459,190,163291,1,0,0:0:0:0:
452,273,163505,2,0,L|381:322,1,70,2|0,0:0|0:0,0:0:0:0:
321,273,163934,2,0,L|286:268,1,35,10|0,0:0|0:0,0:0:0:0:
246,282,164148,1,8,0:3:0:0:
194,348,164362,6,0,L|162:332,1,35,10|8,0:0|0:3,0:0:0:0:
137,252,164684,2,0,L|102:244,1,35,4|10,0:3|0:0,0:0:0:0:
53,175,165005,2,0,L|11:180,2,35,4|4|10,0:3|0:3|0:0,0:0:0:0:
106,109,165434,2,0,L|140:114,2,35,4|8|4,0:3|0:3|0:3,0:0:0:0:
92,26,165862,1,4,0:3:0:0:
173,35,166076,6,0,P|238:63|307:73,1,140,6|10,0:0|0:0,0:0:0:0:
305,244,166934,1,2,0:0:0:0:
331,323,167148,1,0,0:0:0:0:
400,369,167362,2,0,L|409:299,1,70,10|0,0:0|0:0,0:0:0:0:
493,290,167791,6,0,P|479:222|456:156,1,140,2|10,0:0|0:0,0:0:0:0:
372,145,168434,2,0,L|384:100,1,35
364,72,168648,1,2,0:0:0:0:
282,52,168862,1,0,0:0:0:0:
198,58,169076,2,0,P|164:68|129:69,1,70,10|0,0:0|0:0,0:0:0:0:
48,46,169505,6,0,L|60:114,1,70,2|0,0:0|0:0,0:0:0:0:
134,153,169934,1,10,0:0:0:0:
63,198,170148,2,0,L|50:266,1,70,0|2,0:0|0:0,0:0:0:0:
130,291,170576,2,0,L|133:360,1,70,0|10,0:0|0:0,0:0:0:0:
216,237,171005,6,0,P|250:240|283:253,1,70,4|0,0:0|0:0,0:0:0:0:
364,233,171434,1,4,0:3:0:0:
421,293,171648,2,0,P|356:319|287:334,1,140,10|6,0:0|0:0,0:0:0:0:
283,253,172291,1,8,0:0:0:0:
293,212,172398,1,8,0:0:0:0:
268,177,172505,2,0,P|249:147|239:113,1,70,8|0,0:3|0:0,0:0:0:0:
255,75,172826,1,8,0:3:0:0:
254,32,172934,6,0,P|292:22|323:27,1,70,6|0,0:0|0:0,0:0:0:0:
362,40,173255,2,0,L|393:24,1,35,0|10,0:0|0:0,0:0:0:0:
458,77,173576,2,0,L|492:80,1,35
509,119,173791,2,0,P|468:175|438:239,1,140,2|10,0:0|0:0,0:0:0:0:
355,242,174434,1,0,0:0:0:0:
349,326,174648,6,0,P|315:332|280:332,1,70,2|0,0:0|0:0,0:0:0:0:
246,307,174969,2,0,L|214:322,1,35,0|10,0:0|0:0,0:0:0:0:
131,308,175291,2,0,L|93:315,1,35
61,337,175505,1,2,0:0:0:0:
51,253,175719,1,0,0:0:0:0:
98,184,175934,1,10,0:0:0:0:
92,99,176148,1,0,0:0:0:0:
145,35,176362,6,0,P|215:34|285:29,1,140,2|10,0:0|0:0,0:0:0:0:
252,107,177005,1,0,0:0:0:0:
330,137,177219,2,0,P|280:186|234:239,1,140,2|10,0:0|0:0,0:0:0:0:
195,168,177862,6,0,P|161:177|128:191,1,70,4|2,0:0|0:0,0:0:0:0:
120,225,178184,1,4,0:3:0:0:
123,260,178291,1,4,0:3:0:0:
167,331,178505,1,14,0:0:0:0:
248,350,178719,1,4,0:3:0:0:
282,338,178826,1,4,0:3:0:0:
317,340,178934,1,6,0:0:0:0:
386,291,179148,1,8,0:0:0:0:
416,274,179255,1,8,0:0:0:0:
434,244,179362,2,0,L|455:194,3,35,10|8|8|8,0:0|0:0|0:0|0:0,0:0:0:0:
469,175,179791,6,0,P|456:106|418:48,1,140,10|10,0:0|0:0,0:0:0:0:
342,81,180434,1,0,0:0:0:0:
260,59,180648,2,0,L|234:35,2,35,0|8|8,0:0|0:0|0:0,0:0:0:0:
249,142,181076,1,8,0:0:0:0:
192,204,181291,1,8,0:0:0:0:
128,258,181505,6,0,L|59:248,1,70,2|0,0:3|0:0,0:0:0:0:
14,177,181934,2,0,L|37:111,1,70
456,145,183219,5,0,0:0:0:0:
377,116,183434,1,0,0:0:0:0:
324,181,183648,1,0,0:0:0:0:
366,253,183862,1,0,0:0:0:0:
154,250,184934,5,2,0:3:0:0:
238,250,185148,2,0,L|250:181,1,70
307,119,185576,1,0,0:0:0:0:
141,91,186005,1,0,0:0:0:0:
60,237,186434,6,0,P|60:272|69:306,1,70
152,293,186862,1,0,0:0:0:0:
217,345,187076,1,0,0:0:0:0:
294,312,187291,1,0,0:0:0:0:
367,351,187505,2,0,P|393:329|411:299,1,70
453,297,187826,2,0,L|438:265,1,35
378,205,188148,1,0,0:0:0:0:
430,138,188362,6,0,P|392:80|367:14,1,140,2|2,0:0|0:0,0:0:0:0:
286,32,189005,1,0,0:0:0:0:
202,21,189219,2,0,P|167:25|134:37,1,70,2|0,0:0|0:0,0:0:0:0:
92,37,189541,2,0,L|79:69,1,35,0|2,0:0|0:0,0:0:0:0:
20,129,189862,1,0,0:0:0:0:
97,157,190076,6,0,P|83:226|54:290,1,140,2|2,0:0|0:0,0:0:0:0:
129,327,190719,2,0,P|159:308|185:284,1,70,0|2,0:0|0:0,0:0:0:0:
179,200,191148,1,0,0:0:0:0:
230,133,191362,1,2,0:0:0:0:
225,49,191576,2,0,L|259:57,1,35
300,66,191791,6,0,L|369:59,1,70,2|0,0:0|0:0,0:0:0:0:
436,301,192648,1,8,0:3:0:0:
359,267,192862,1,4,0:3:0:0:
279,292,193076,1,10,0:0:0:0:
194,291,193291,6,0,L|124:295,1,70,12|8,0:0|0:3,0:0:0:0:
49,333,193719,1,4,0:3:0:0:
55,249,193934,2,0,L|40:180,1,70,10|0,0:0|0:0,0:0:0:0:
68,148,194255,1,8,0:0:0:0:
54,107,194362,2,0,P|71:58|103:16,1,105,4|8,0:3|0:3,0:0:0:0:
136,59,194791,2,0,L|167:42,1,35,10|8,0:0|0:3,0:0:0:0:
205,59,195005,2,0,L|238:50,1,35,4|4,0:3|0:3,0:0:0:0:
286,29,195219,6,0,P|352:53|422:59,1,140,6|10,0:0|0:0,0:0:0:0:
305,234,196076,2,0,L|314:303,1,70,2|0,0:0|0:0,0:0:0:0:
419,308,196505,1,10,0:0:0:0:
464,213,196719,2,0,L|476:145,1,70,0|2,0:0|0:0,0:0:0:0:
370,147,197148,6,0,P|336:138|303:125,1,70,0|10,0:0|0:0,0:0:0:0:
210,174,197576,1,0,0:0:0:0:
194,278,197791,1,2,0:0:0:0:
120,353,198005,2,0,L|87:362,1,35
44,330,198219,1,10,0:0:0:0:
99,241,198434,1,2,0:3:0:0:
112,208,198541,1,0,0:0:0:0:
107,173,198648,6,0,P|124:106|134:37,1,140,2|10,0:0|0:0,0:0:0:0:
239,36,199291,2,0,P|235:70|220:102,1,70,0|2,0:0|0:0,0:0:0:0:
358,125,199719,2,0,P|386:104|408:77,1,70,0|10,0:0|0:0,0:0:0:0:
491,191,200148,2,0,P|464:211|431:224,1,70,0|2,0:0|0:0,0:0:0:0:
478,317,200576,5,0,0:0:0:0:
377,284,200791,1,10,0:0:0:0:
287,338,201005,2,0,P|282:303|270:270,1,70,0|2,0:0|0:0,0:0:0:0:
191,202,201434,1,0,0:0:0:0:
86,191,201648,2,0,P|87:225|82:260,1,70,10|0,0:0|0:0,0:0:0:0:
143,347,202076,6,0,P|174:333|200:310,1,70,2|0,0:0|0:0,0:0:0:0:
160,274,202398,2,0,L|156:239,1,35,0|10,0:0|0:0,0:0:0:0:
58,200,202719,1,0,0:0:0:0:
61,95,202934,2,0,P|75:62|81:28,1,70,2|0,0:0|0:0,0:0:0:0:
133,30,203255,2,0,L|147:63,1,35,0|10,0:0|0:0,0:0:0:0:
216,140,203576,1,0,0:0:0:0:
316,110,203791,6,0,P|386:108|455:97,1,140,2|10,0:0|0:0,0:0:0:0:
461,203,204434,1,0,0:0:0:0:
370,256,204648,2,0,L|314:251,3,35,2|8|8|8,0:0|0:0|0:0|0:3,0:0:0:0:
320,303,205076,2,0,L|286:313,3,35,4|8|8|4,0:3|0:0|0:3|0:3,0:0:0:0:
235,302,205505,6,0,P|165:309|102:338,1,140,14|10,0:0|0:0,0:0:0:0:
68,238,206148,2,0,P|95:217|126:200,1,70,4|2,0:0|0:0,0:0:0:0:
208,134,206576,1,0,0:0:0:0:
189,30,206791,1,10,0:0:0:0:
293,18,207005,6,0,P|291:52|279:85,1,70,4|2,0:0|0:0,0:0:0:0:
325,179,207434,1,0,0:0:0:0:
384,91,207648,1,10,0:0:0:0:
465,24,207862,1,2,0:0:0:0:
361,7,208076,2,0,L|292:17,1,70,10|4,0:0|0:3,0:0:0:0:
239,21,208398,1,4,0:3:0:0:
201,58,208505,2,0,L|168:71,1,35,10|8,0:0|0:3,0:0:0:0:
117,84,208719,2,0,L|98:113,1,35,4|0,0:3|0:0,0:0:0:0:
49,131,208934,6,0,P|39:201|21:268,1,140,6|10,0:0|0:0,0:0:0:0:
218,353,209791,1,2,0:0:0:0:
240,250,210005,2,0,L|280:247,1,35
306,205,210219,1,10,0:0:0:0:
392,265,210434,1,0,0:0:0:0:
441,356,210648,6,0,P|457:326|462:291,1,70,2|0,0:0|0:0,0:0:0:0:
429,192,211076,2,0,P|403:168|384:138,1,70,10|0,0:0|0:0,0:0:0:0:
392,97,211398,1,0,0:0:0:0:
422,67,211505,1,2,0:0:0:0:
318,62,211719,2,0,L|268:32,1,35
236,56,211934,1,10,0:0:0:0:
149,116,212148,1,2,0:3:0:0:
106,112,212255,1,0,0:0:0:0:
74,83,212362,6,0,P|54:157|26:230,1,140,2|10,0:0|0:0,0:0:0:0:
16,320,213005,1,0,0:0:0:0:
96,253,213219,1,2,0:0:0:0:
199,266,213434,2,0,L|199:300,1,35
242,331,213648,2,0,L|276:338,1,35,10|0,0:0|0:0,0:0:0:0:
311,299,213862,1,0,0:0:0:0:
350,316,213969,1,0,0:0:0:0:
392,311,214076,6,0,L|447:328,2,35,2|0|0,0:0|0:0|0:0,0:0:0:0:
359,211,214505,1,10,0:0:0:0:
435,142,214719,1,0,0:0:0:0:
456,104,214826,1,0,0:0:0:0:
460,62,214934,2,0,L|482:35,2,35,2|8|4,0:0|0:3|0:3,0:0:0:0:
355,77,215362,1,10,0:0:0:0:
252,54,215576,2,0,L|259:88,1,35
294,127,215791,6,0,P|298:197|311:266,1,140,6|10,0:0|0:0,0:0:0:0:
119,348,216648,1,2,0:0:0:0:
25,301,216862,2,0,L|20:266,1,35
59,230,217076,1,10,0:0:0:0:
15,134,217291,1,0,0:0:0:0:
72,46,217505,6,0,P|104:33|139:33,1,70,2|0,0:0|0:0,0:0:0:0:
195,121,217934,2,0,P|176:150|150:174,1,70,10|0,0:0|0:0,0:0:0:0:
191,271,218362,1,2,0:0:0:0:
291,300,218576,2,0,L|341:270,1,35
324,229,218791,1,10,0:0:0:0:
423,264,219005,1,0,0:0:0:0:
494,340,219219,6,0,P|503:270|503:200,1,140,2|10,0:0|0:0,0:0:0:0:
425,129,219862,1,0,0:0:0:0:
357,48,220076,1,2,0:0:0:0:
317,59,220184,1,8,0:0:0:0:
283,85,220291,1,8,0:3:0:0:
241,84,220398,1,4,0:3:0:0:
200,95,220505,1,10,0:0:0:0:
96,98,220719,6,0,P|114:126|140:150,1,70,6|2,0:0|0:0,0:0:0:0:
120,253,221148,1,8,0:3:0:0:
194,327,221362,1,8,0:3:0:0:
293,292,221576,2,0,L|310:261,1,35,8|4,0:3|0:3,0:0:0:0:
362,262,221791,2,0,L|392:244,1,35,10|8,0:0|0:3,0:0:0:0:
439,267,222005,1,4,0:3:0:0:
458,296,222112,1,4,0:3:0:0:
448,329,222219,2,0,L|413:334,2,35,4|4|14,0:3|0:3|0:0,0:0:0:0:
256,192,222541,12,0,227791,0:0:0:0:
