osu file format v14

[General]
AudioFilename: ShibayanRecords.mp3
AudioLeadIn: 0
PreviewTime: 150110
Countdown: 0
SampleSet: Soft
StackLeniency: 0.7
Mode: 0
LetterboxInBreaks: 0
WidescreenStoryboard: 0

[Editor]
Bookmarks: 350,13790,31070,46430,61790,77150,92510,107870,123230,138590,153950,169310,184670,200030,215390,230750,246110,261470,276830,292190,307550,322910,338270,353630,368990,384350
DistanceSpacing: 2.3
BeatDivisor: 4
GridSize: 4
TimelineZoom: 1

[Metadata]
Title:Ozunei Haman wa mou iranai
TitleUnicode:オズネイ・ハマンはもういらない
Artist:ShibayanRecords
ArtistUnicode:ShibayanRecords
Creator:ErunamoJAZZ
Version:Collab
Source:Touhou
Tags:
BeatmapID:1128883
BeatmapSetID:523663

[Difficulty]
HPDrainRate:5
CircleSize:4
OverallDifficulty:8
ApproachRate:9
SliderMultiplier:1.7
SliderTickRate:2

[Events]
//Background and Video events
0,0,"background_Ozunai.png",0,0
//Break Periods
2,154030,199430
2,215590,230150
2,277030,291830
2,307750,322550
2,369070,383750
//Storyboard Layer 0 (Background)
//Storyboard Layer 1 (Fail)
//Storyboard Layer 2 (Pass)
//Storyboard Layer 3 (Foreground)
//Storyboard Sound Samples

[TimingPoints]
350,480,4,2,1,45,1,0
77150,-83.3333333333333,4,2,1,45,0,0
92510,-100,4,2,1,45,0,0
136670,-200,4,2,1,45,0,0
137150,-100,4,2,1,45,0,0
137630,-66.6666666666667,4,2,1,45,0,0
138110,-50,4,2,1,45,0,0
138590,-100,4,2,1,45,0,0
150110,-166.666666666667,4,2,1,36,0,0
152030,-125,4,2,1,38,0,0
152510,-100,4,2,1,40,0,0
152991,-83.3333333333333,4,2,1,40,0,0
153470,-71.4285714285714,4,2,1,40,0,0
153950,-100,4,2,1,45,0,1
215390,-100,4,2,1,45,0,0
292190,-100,4,2,1,45,0,1
353630,-100,4,2,1,45,0,0

[Colours]
Combo1 : 179,0,89
Combo2 : 245,176,73
Combo3 : 230,43,47
Combo4 : 171,175,10

[HitObjects]
432,108,13790,5,0,3:0:0:0:
417,118,13910,1,0,3:0:0:0:
403,128,14030,2,0,L|362:157,1,42.5,2|0,3:2|3:0,3:0:0:0:
288,204,14270,1,0,3:0:0:0:
272,197,14390,1,0,3:0:0:0:
256,190,14510,2,0,L|210:169,1,42.5,2|0,3:2|3:0,3:0:0:0:
128,140,14750,1,0,3:0:0:0:
113,150,14870,1,0,3:0:0:0:
99,160,14990,2,0,L|58:189,1,42.5,2|0,3:2|3:0,3:0:0:0:
52,280,15230,2,0,P|92:312|180:308,1,127.5,8|0,0:0|0:0,0:0:0:0:
165,314,15710,5,4,3:2:0:0:
256,40,16190,1,0,1:0:0:0:
328,28,16310,1,0,0:0:0:0:
416,144,16550,1,0,0:0:0:0:
380,208,16670,2,0,P|412:220|464:200,1,85,0|0,3:0|0:0,0:0:0:0:
332,136,17150,2,0,P|304:168|296:216,1,85,0|0,1:0|0:0,0:0:0:0:
268,352,17630,6,0,P|226:343|195:315,1,85,0|0,3:0|0:0,0:0:0:0:
184,244,17990,1,0,0:0:0:0:
228,184,18110,1,0,1:0:0:0:
284,136,18230,2,0,P|252:112|192:120,1,85
156,164,18590,1,0,3:0:0:0:
92,292,18830,1,0,0:0:0:0:
16,172,19070,1,0,1:0:0:0:
80,136,19190,2,0,B|74:117|56:108|56:108|80:92|100:68,1,85
152,36,19550,6,0,P|204:68|276:48,1,127.5,0|0,3:0|0:0,0:0:0:0:
332,24,20030,1,0,1:0:0:0:
404,8,20150,2,0,P|416:48|404:104,1,85
344,120,20510,2,0,P|354:160|393:202,1,85,0|0,3:0|0:0,0:0:0:0:
480,300,20990,1,0,1:0:0:0:
472,316,21110,1,0,0:0:0:0:
464,332,21230,1,0,0:0:0:0:
324,304,21470,6,0,P|283:292|228:305,1,85,0|0,3:0|0:0,0:0:0:0:
104,340,21950,1,0,1:0:0:0:
104,340,22070,2,0,P|92:296|52:264,1,85
32,336,22430,1,0,3:0:0:0:
96,204,22670,1,0,0:0:0:0:
36,72,22910,1,0,1:0:0:0:
52,80,23030,1,0,0:0:0:0:
68,84,23150,2,0,L|108:68,1,42.5,4|0,0:3|0:0,0:0:0:0:
172,124,23390,6,0,L|132:140,1,42.5,4|0,3:3|0:0,0:0:0:0:
96,204,23630,1,0,0:0:0:0:
180,320,23870,1,0,1:0:0:0:
180,320,23990,2,0,P|208:348|264:356,1,85
244,284,24350,2,0,P|256:248|308:216,1,85,0|0,3:0|0:0,0:0:0:0:
436,240,24830,2,0,L|444:284,2,42.5,0|0|0,1:0|0:0|0:0,0:0:0:0:
420,168,25190,1,0,0:0:0:0:
360,132,25310,6,0,P|296:144|228:96,1,127.5,0|0,3:0|0:0,0:0:0:0:
236,44,25790,1,0,1:0:0:0:
176,84,25910,2,0,P|132:84|88:52,1,85
44,12,26270,1,0,3:0:0:0:
24,156,26510,1,0,0:0:0:0:
144,236,26750,1,0,1:0:0:0:
20,308,26990,1,0,0:0:0:0:
144,236,27230,6,0,L|242:178,1,85,0|0,3:0|0:0,0:0:0:0:
344,264,27710,1,0,1:0:0:0:
372,332,27830,1,0,0:0:0:0:
352,188,28070,1,0,0:0:0:0:
352,188,28190,2,0,P|368:148|412:124,1,85,0|0,3:0|0:0,0:0:0:0:
284,44,28670,2,0,L|228:12,2,42.5,0|0|0,1:0|0:0|0:0,0:0:0:0:
284,188,29150,6,0,L|230:286,1,85,0|0,3:0|0:0,0:0:0:0:
284,188,29510,1,0,0:0:0:0:
248,124,29630,2,0,L|168:80,1,85,0|0,3:0|0:0,0:0:0:0:
248,124,29990,1,0,0:0:0:0:
320,124,30110,2,0,L|340:86,1,42.5
356,188,30350,2,0,L|404:214,1,42.5
284,188,30590,2,0,L|247:166,1,42.5
316,252,30830,2,0,L|357:276,1,42.5
436,268,31070,6,0,P|426:331|352:360,1,127.5
366,288,31550,1,0,0:0:0:0:
387,219,31670,2,0,P|435:199|497:231,1,85
489,135,32030,6,0,P|490:114|499:54,1,42.5
435,47,32270,1,0,0:0:0:0:
364,31,32390,1,0,0:0:0:0:
293,46,32510,2,0,B|189:58|189:58|224:80,1,127.5
116,32,32990,6,0,B|113:65|113:65|124:91|124:91|120:143,1,85
72,250,33470,1,0,0:0:0:0:
140,274,33590,2,0,B|157:274|179:295|179:295|200:272|236:273,1,85
272,316,33950,5,0,0:0:0:0:
313,309,34070,1,0,0:0:0:0:
350,289,34190,1,0,0:0:0:0:
378,257,34310,1,0,0:0:0:0:
394,218,34430,2,0,L|401:58,1,127.5
354,33,34910,6,0,P|319:47|265:35,1,85
157,126,35390,2,0,L|162:182,1,42.5
63,222,35630,2,0,L|58:162,1,42.5
184,63,35870,5,0,0:0:0:0:
188,105,35990,1,0,0:0:0:0:
192,147,36110,1,0,0:0:0:0:
196,189,36230,1,0,0:0:0:0:
200,232,36350,2,0,B|271:213|255:255|335:228,1,127.5
368,173,36830,6,0,P|396:215|381:284,1,85
425,106,37310,1,0,0:0:0:0:
366,63,37430,2,0,L|261:54,1,85
166,76,37790,6,0,P|164:32|171:13,1,42.5
124,149,38030,2,0,P|99:154|64:172,1,42.5
211,142,38270,2,0,P|236:147|271:165,1,42.5
178,227,38510,1,0,0:0:0:0:
239,273,38630,1,0,0:0:0:0:
290,216,38750,6,0,L|328:128,2,85
340,268,39350,2,0,P|291:288|231:262,1,85
146,334,39710,6,0,L|93:340,1,42.5
39,236,39950,1,0,0:0:0:0:
35,193,40070,1,0,0:0:0:0:
30,151,40190,2,0,P|79:127|155:145,1,127.5
233,97,40670,6,0,L|240:196,2,85
294,58,41270,2,0,P|355:66|417:79,1,85
397,145,41630,1,0,0:0:0:0:
345,162,41750,1,0,0:0:0:0:
345,217,41870,1,0,0:0:0:0:
398,234,41990,1,0,0:0:0:0:
430,189,42110,2,0,P|473:187|514:207,1,85
384,277,42590,6,0,P|335:289|278:272,1,85
161,322,43070,1,0,0:0:0:0:
161,322,43190,2,0,B|136:298|127:262|127:262|158:267,1,85
135,192,43550,6,0,L|122:132,1,42.5
174,47,43790,2,0,L|190:102,1,42.5
253,185,44030,1,0,0:0:0:0:
271,45,44270,1,0,0:0:0:0:
363,133,44510,5,0,0:0:0:0:
339,191,44630,1,0,0:0:0:0:
282,214,44750,1,0,0:0:0:0:
220,203,44870,1,0,0:0:0:0:
163,229,44990,1,0,0:0:0:0:
133,285,45110,1,0,0:0:0:0:
172,334,45230,1,0,0:0:0:0:
228,304,45350,1,0,0:0:0:0:
224,242,45470,1,0,0:0:0:0:
163,229,45590,1,0,0:0:0:0:
105,204,45710,1,0,0:0:0:0:
89,143,45830,1,0,0:0:0:0:
117,87,45950,5,0,0:0:0:0:
294,278,46190,1,0,0:0:0:0:
348,100,46430,5,4,0:1:0:0:
388,235,46670,2,0,P|396:277|402:319,1,85,0|0,0:0|1:0,0:0:0:0:
276,244,47150,2,0,P|267:202|261:160,1,85,0|0,0:0|3:0,0:0:0:0:
220,24,47630,1,0,0:0:0:0:
84,64,47870,1,0,1:0:0:0:
84,64,48110,1,0,0:0:0:0:
116,256,48350,6,0,L|129:339,1,85,0|0,3:0|0:0,0:0:0:0:
196,312,48710,1,0,0:0:0:0:
263,335,48830,2,0,P|305:344|347:340,1,85,0|0,1:0|0:0,0:0:0:0:
419,236,49190,2,0,P|431:173|417:112,1,127.5
288,44,49790,2,0,L|330:44,1,42.5,0|0,1:0|0:0,0:0:0:0:
108,52,50270,6,0,B|68:67|68:67|42:101,1,85,0|0,3:0|0:0,0:0:0:0:
104,232,50750,2,0,B|114:272|114:272|102:314,1,85,0|0,1:0|0:0,0:0:0:0:
244,284,51230,2,0,B|300:256|348:296|348:296|405:284,1,170,0|0,3:0|1:0,0:0:0:0:
344,152,51950,1,0,0:0:0:0:
168,212,52190,6,0,P|126:220|82:212,1,85,0|0,3:0|0:0,0:0:0:0:
128,92,52550,1,0,0:0:0:0:
128,92,52670,2,0,P|169:82|210:90,1,85,0|0,1:0|0:0,0:0:0:0:
272,128,53030,1,0,0:0:0:0:
332,88,53150,1,0,3:0:0:0:
415,91,53390,2,0,P|375:81|333:87,1,85,0|0,0:0|1:0,0:0:0:0:
332,164,53750,2,0,P|373:157|414:168,1,85
320,268,54110,6,0,B|276:264|276:264|235:268,1,85,0|0,3:0|0:0,0:0:0:0:
104,324,54590,2,0,B|99:283|99:283|103:239,1,85,0|0,1:0|0:0,0:0:0:0:
168,112,55070,2,0,B|236:100|312:112|312:112|302:136,1,170,0|0,3:0|1:0,0:0:0:0:
236,264,55790,1,0,0:0:0:0:
408,256,56030,5,0,3:0:0:0:
304,108,56270,1,0,0:0:0:0:
220,280,56510,1,0,1:0:0:0:
372,168,56750,1,0,0:0:0:0:
204,188,56990,2,0,P|161:193|119:187,1,85,0|0,3:0|0:0,0:0:0:0:
236,304,57470,2,0,P|279:299|321:305,1,85,0|0,1:0|0:0,0:0:0:0:
376,144,57950,5,0,3:0:0:0:
352,120,58190,1,0,0:0:0:0:
324,100,58430,2,0,B|264:67|264:67|262:83,1,85,0|0,1:0|0:0,0:0:0:0:
216,140,58790,1,0,0:0:0:0:
100,48,59030,2,0,L|48:48,1,42.5
96,132,59270,2,0,L|148:132,1,42.5,0|0,0:0|1:0,0:0:0:0:
100,224,59510,2,0,L|48:224,1,42.5
283,272,59870,6,0,P|299:232|297:190,1,85,0|0,3:0|0:0,0:0:0:0:
384,76,60350,2,0,P|345:92|316:123,1,85,0|0,1:0|0:0,0:0:0:0:
168,124,60830,2,0,P|207:139|249:137,1,85,0|0,3:0|1:0,0:0:0:0:
143,40,61310,2,0,P|104:55|77:87,1,85,0|0,1:0|0:0,0:0:0:0:
76,160,61670,1,0,0:0:0:0:
212,288,61790,6,0,L|180:204,1,85,4|0,3:2|0:0,0:0:0:0:
320,192,62270,2,0,L|364:108,1,85,0|0,1:0|0:0,0:0:0:0:
212,96,62750,2,0,L|176:4,1,85,0|0,3:0|0:0,0:0:0:0:
300,80,63230,5,0,1:0:0:0:
460,136,63470,1,0,0:0:0:0:
300,200,63710,1,0,3:0:0:0:
460,248,63950,1,0,0:0:0:0:
304,312,64190,2,0,L|304:356,2,42.5,0|0|0,1:0|0:0|0:0,0:0:0:0:
300,200,64670,2,0,P|329:169|336:128,1,85,0|0,3:0|0:0,0:0:0:0:
165,128,65150,2,0,P|145:84|165:12,1,85,0|0,1:0|0:0,0:0:0:0:
216,64,65630,6,0,P|256:84|312:40,1,85,0|0,3:0|0:0,0:0:0:0:
416,108,66110,1,0,1:0:0:0:
400,268,66350,1,0,0:0:0:0:
316,124,66590,1,0,3:0:0:0:
488,184,66830,1,0,0:0:0:0:
304,216,67070,6,0,L|260:328,1,85,0|0,1:0|0:0,0:0:0:0:
216,232,67550,1,0,3:0:0:0:
136,168,67790,1,0,0:0:0:0:
124,264,68030,1,0,1:0:0:0:
200,312,68150,1,0,0:0:0:0:
239,295,68270,1,0,0:0:0:0:
277,297,68390,1,0,0:0:0:0:
316,315,68510,1,0,3:0:0:0:
388,336,68750,2,0,P|416:308|416:244,1,85,0|0,0:0|1:0,0:0:0:0:
336,232,69110,6,0,L|352:272,2,42.5
332,232,69470,6,0,P|332:180|276:140,1,85,0|0,3:0|0:0,0:0:0:0:
216,92,69950,2,0,P|192:136|216:192,1,85,0|0,1:0|0:0,0:0:0:0:
144,208,70310,1,0,0:0:0:0:
188,264,70430,2,0,P|240:240|260:196,1,85,0|0,3:0|0:0,0:0:0:0:
264,148,70790,1,0,0:0:0:0:
304,88,70910,6,0,P|348:76|392:92,1,85,0|0,1:0|0:0,0:0:0:0:
468,148,71390,1,0,3:0:0:0:
376,176,71630,1,0,0:0:0:0:
392,72,71870,1,0,1:0:0:0:
480,152,72110,1,0,0:0:0:0:
368,188,72350,1,0,3:0:0:0:
392,56,72590,1,0,0:0:0:0:
492,160,72830,1,0,1:0:0:0:
360,200,73070,1,0,0:0:0:0:
412,128,73310,1,0,3:0:0:0:
464,236,73550,5,0,0:0:0:0:
340,352,73790,1,0,1:0:0:0:
200,264,73910,2,0,L|276:188,1,85
312,152,74270,1,0,3:0:0:0:
384,192,74510,5,0,0:0:0:0:
200,264,74750,2,0,L|160:304,2,42.5,0|0|0,1:0|0:0|0:0,0:0:0:0:
240,120,75230,1,0,3:0:0:0:
324,140,75470,5,0,0:0:0:0:
200,256,75710,1,0,1:0:0:0:
80,224,75830,2,0,B|55:187|55:187|80:152,1,85
168,76,76190,1,0,3:0:0:0:
324,140,76430,1,0,0:0:0:0:
200,256,76670,5,0,1:0:0:0:
44,192,76910,5,0,0:0:0:0:
256,135,77150,5,4,3:2:0:0:
256,135,77390,2,0,P|269:86|307:53,1,101.999996887207,0|0,0:0|1:0,0:0:0:0:
182,177,77750,2,0,P|146:140|137:91,1,101.999996887207
254,220,78110,1,0,3:0:0:0:
375,179,78350,1,0,0:0:0:0:
375,179,78470,1,0,0:0:0:0:
444,210,78590,2,0,L|489:232,1,50.9999984436036,0|0,1:0|0:0,0:0:0:0:
489,335,78830,2,0,L|444:313,1,50.9999984436036
340,310,79070,5,4,3:2:0:0:
132,256,79310,1,0,0:0:0:0:
322,182,79550,1,0,1:0:0:0:
322,182,79670,2,0,B|312:110|312:110|298:136,1,101.999996887207
254,220,80030,1,0,3:0:0:0:
420,120,80270,2,0,L|471:117,1,50.9999984436036
403,202,80510,1,0,1:0:0:0:
403,202,80630,1,0,0:0:0:0:
477,246,80750,2,0,L|481:296,1,50.9999984436036
400,288,80990,5,4,3:2:0:0:
399,288,81230,2,0,B|358:316|358:316|339:364,1,101.999996887207,0|0,0:0|1:0,0:0:0:0:
403,202,81590,2,0,B|353:192|353:192|306:212,1,101.999996887207
258,304,81950,1,0,3:0:0:0:
128,189,82190,2,0,L|144:132,1,50.9999984436036
227,56,82430,1,0,1:0:0:0:
227,56,82550,2,0,B|247:81|247:81|272:59|272:59|308:57,1,101.999996887207
308,144,82910,5,0,3:0:0:0:
437,29,83150,1,0,0:0:0:0:
423,201,83390,2,0,L|431:251,2,50.9999984436036,0|0|0,1:0|0:0|0:0,0:0:0:0:
354,147,83750,2,0,P|307:166|257:160,1,101.999996887207
180,119,84110,2,0,P|154:114|130:119,1,50.9999984436036
131,206,84350,2,0,P|156:210|180:205,1,50.9999984436036,0|0,1:0|0:0,0:0:0:0:
59,164,84590,2,0,P|49:187|48:212,1,50.9999984436036
153,295,84830,1,4,3:2:0:0:
153,295,85070,6,0,P|204:292|249:269,1,101.999996887207,0|0,0:0|1:0,0:0:0:0:
273,172,85430,2,0,P|251:218|249:269,1,101.999996887207
321,338,85790,1,0,3:0:0:0:
437,209,86030,2,0,L|430:152,1,50.9999984436036
369,84,86270,1,0,1:0:0:0:
368,84,86390,2,0,P|317:93|270:71,1,101.999996887207
181,118,86750,5,4,3:2:0:0:
328,8,86990,1,0,0:0:0:0:
155,30,87230,2,0,L|95:17,1,50.9999984436036,0|0,1:0|0:0,0:0:0:0:
42,89,87470,1,0,0:0:0:0:
42,89,87590,2,0,B|104:102|104:102|128:138,1,101.999996887207
120,221,87950,2,0,P|143:229|169:231,1,50.9999984436036
244,132,88190,2,0,P|235:155|233:181,1,50.9999984436036,0|0,1:0|0:0,0:0:0:0:
280,294,88430,2,0,P|288:270|290:244,1,50.9999984436036
201,306,88670,5,4,3:2:0:0:
313,173,88910,1,0,0:0:0:0:
445,285,89150,2,0,L|460:333,2,50.9999984436036,0|0|0,1:0|0:0|0:0,0:0:0:0:
360,305,89510,2,0,B|361:254|361:254|392:214,1,101.999996887207
472,182,89870,2,0,P|476:156|471:131,1,50.9999984436036
390,100,90110,2,0,P|373:80|363:56,1,50.9999984436036,0|0,1:0|0:0,0:0:0:0:
277,70,90350,2,0,P|256:54|232:45,1,50.9999984436036
153,79,90590,6,0,L|145:129,1,50.9999984436036,2|0,3:3|0:0,0:0:0:0:
212,185,90830,1,0,3:0:0:0:
212,185,90950,1,0,3:0:0:0:
135,86,91070,6,0,L|127:136,1,50.9999984436036,2|0,1:3|0:0,0:0:0:0:
194,192,91310,1,0,3:0:0:0:
194,192,91430,1,0,3:0:0:0:
117,93,91550,6,0,L|109:143,1,50.9999984436036,2|0,3:3|0:0,0:0:0:0:
176,199,91790,1,0,3:0:0:0:
176,199,91910,1,0,3:0:0:0:
227,82,92030,6,0,L|277:70,1,50.9999984436036,0|0,1:0|0:0,0:0:0:0:
374,134,92270,2,0,L|324:146,1,50.9999984436036,0|0,1:0|0:0,0:0:0:0:
448,40,92510,5,2,3:2:0:0:
452,44,92870,1,2,0:0:0:0:
456,48,93230,1,2,0:0:0:0:
460,52,93590,1,2,0:0:0:0:
464,56,93950,1,2,0:0:0:0:
340,128,94190,6,0,B|256:160|256:100|172:128,1,170,2|2,0:0|0:0,0:0:0:0:
40,300,95030,1,2,0:0:0:0:
256,300,95390,1,2,0:0:0:0:
472,300,95750,1,2,0:0:0:0:
512,240,95870,1,0,1:0:0:0:
256,372,96350,5,2,3:2:0:0:
256,156,96710,1,2,0:0:0:0:
296,96,96830,2,0,P|256:80|216:96,1,85,0|2,1:0|0:0,0:0:0:0:
116,196,97310,1,0,3:0:0:0:
116,196,97430,1,2,0:0:0:0:
310,290,97790,1,0,1:0:0:0:
172,334,98030,1,2,0:0:0:0:
235,205,98270,6,0,L|278:115,1,85,0|2,3:0|0:0,0:0:0:0:
176,20,98750,1,0,1:0:0:0:
128,76,98870,2,0,P|96:96|32:88,1,85,2|0,0:0|0:0,0:0:0:0:
20,164,99230,2,0,P|40:212|28:264,1,85,2|0,3:2|0:0,0:0:0:0:
4,308,99590,1,2,0:0:0:0:
60,356,99710,2,0,L|116:320,1,42.5,2|2,1:2|0:2,0:0:0:0:
160,364,99950,2,0,L|212:332,1,42.5,2|2,0:2|0:2,0:0:0:0:
236,220,100190,6,0,P|245:282|284:331,1,127.5,2|2,3:2|0:0,0:0:0:0:
356,348,100670,2,0,P|392:322|402:265,2,85,0|2|0,1:0|0:0|3:2,0:0:0:0:
332,277,101270,1,2,0:0:0:0:
260,72,101630,1,0,1:0:0:0:
116,80,101870,6,0,P|173:140|255:150,1,170,2|2,0:0|0:0,0:0:0:0:
312,16,102590,1,0,1:0:0:0:
380,40,102710,2,0,P|416:88|420:176,1,127.5,2|2,0:0|3:2,0:0:0:0:
264,300,103430,1,2,0:0:0:0:
336,296,103550,1,0,1:2:0:0:
336,296,104030,6,0,L|192:304,1,127.5,2|2,3:3|0:0,0:0:0:0:
136,304,104510,1,0,1:0:0:0:
172,164,104750,1,2,0:0:0:0:
208,303,104990,1,0,3:0:0:0:
280,300,105110,2,0,B|364:296|364:296|400:256,1,127.5,2|0,0:0|1:0,0:0:0:0:
368,120,105710,2,0,L|303:193,1,85,2|0,0:3|3:0,0:0:0:0:
176,240,106190,6,0,L|72:212,1,85,4|0,0:0|0:0,0:0:0:0:
93,217,106550,2,0,L|56:108,1,85,4|0,0:0|0:0,0:0:0:0:
65,136,106910,2,0,L|100:96,1,42.5,4|0,0:0|0:0,0:0:0:0:
144,52,107150,1,2,0:2:0:0:
256,144,107390,1,2,0:2:0:0:
368,52,107630,1,2,0:2:0:0:
435,198,107870,6,0,P|394:206|349:212,1,85,4|0,3:2|0:0,0:0:0:0:
274,164,108230,1,0,0:0:0:0:
256,144,108350,2,0,P|215:136|170:130,1,85,0|0,1:0|0:0,0:0:0:0:
88,247,108830,1,0,3:0:0:0:
106,227,108950,2,0,P|147:219|192:213,1,85
267,232,109310,1,0,1:0:0:0:
172,130,109550,1,0,0:0:0:0:
343,171,109790,6,0,P|351:212|357:257,1,85,0|0,3:0|0:0,0:0:0:0:
223,346,110270,1,0,1:0:0:0:
213,322,110390,2,0,P|218:279|226:238,1,85
264,160,110750,2,0,P|259:117|251:76,1,85,0|0,3:0|0:0,0:0:0:0:
196,18,111110,1,0,0:0:0:0:
196,18,111230,1,0,1:0:0:0:
334,76,111470,1,0,0:0:0:0:
174,134,111710,6,0,P|132:142|90:146,1,85,0|0,3:0|0:0,0:0:0:0:
17,94,112070,1,0,0:0:0:0:
7,118,112190,2,0,P|12:161|20:202,1,85,0|0,1:0|0:0,0:0:0:0:
111,355,112670,1,0,3:0:0:0:
129,335,112790,2,0,P|170:327|215:321,1,85
293,349,113150,1,0,1:0:0:0:
381,224,113390,1,0,0:0:0:0:
199,237,113630,6,0,P|203:279|212:321,1,85,0|0,3:0|0:0,0:0:0:0:
284,153,114110,1,0,1:0:0:0:
294,177,114230,2,0,P|289:220|281:261,1,85
212,321,114590,2,0,L|123:329,1,85,0|0,3:0|0:0,0:0:0:0:
50,340,114950,1,0,0:0:0:0:
50,340,115070,1,0,1:0:0:0:
162,238,115310,1,2,0:3:0:0:
288,380,115550,6,0,P|296:338|300:296,1,85,0|0,3:0|0:0,0:0:0:0:
247,215,115910,1,0,0:0:0:0:
228,193,116030,2,0,P|219:151|215:109,1,85,0|0,1:0|0:0,0:0:0:0:
373,53,116510,1,0,3:0:0:0:
367,80,116630,2,0,P|334:107|300:133,1,85
215,109,116990,1,0,1:0:0:0:
341,210,117230,1,0,0:0:0:0:
137,161,117470,6,0,P|128:119|124:77,1,85,0|0,3:0|0:0,0:0:0:0:
300,133,117950,1,0,1:0:0:0:
310,158,118070,2,0,P|305:201|297:242,1,85
222,288,118430,2,0,P|179:283|138:275,1,85,0|0,3:0|0:0,0:0:0:0:
79,222,118790,1,0,0:0:0:0:
79,222,118910,1,0,1:0:0:0:
132,358,119150,1,0,0:0:0:0:
219,197,119390,6,0,P|260:188|302:184,1,85,0|0,3:0|0:0,0:0:0:0:
379,234,119750,1,0,0:0:0:0:
389,209,119870,2,0,P|384:166|376:125,1,85,0|0,1:0|0:0,0:0:0:0:
278,8,120350,1,0,3:0:0:0:
262,29,120470,2,0,P|253:70|249:112,1,85
302,184,120830,1,0,1:0:0:0:
163,117,121070,1,0,0:0:0:0:
273,272,121310,6,0,P|315:267|356:259,1,85,0|0,3:0|0:0,0:0:0:0:
330,79,121790,1,0,1:0:0:0:
314,100,121910,2,0,P|306:141|302:184,1,85
356,259,122270,2,0,P|315:267|273:272,1,85,0|0,3:0|0:0,0:0:0:0:
193,251,122630,1,0,0:0:0:0:
170,239,122750,2,0,P|141:241|108:245,1,56.6666666666667,0|0,1:0|0:0,0:0:0:0:
95,252,122990,1,2,0:3:0:0:
254,188,123230,5,4,3:2:0:0:
360,296,123470,1,0,0:0:0:0:
360,296,123590,1,0,0:0:0:0:
360,296,123710,2,0,P|400:304|424:284,1,42.5,0|0,1:0|0:0,0:0:0:0:
293,179,123950,2,0,P|271:177|253:187,1,42.5
448,244,124190,1,0,3:0:0:0:
459,222,124310,1,0,0:0:0:0:
457,192,124430,1,0,0:0:0:0:
434,164,124550,1,0,0:0:0:0:
396,158,124670,1,0,1:0:0:0:
479,304,124910,1,0,0:0:0:0:
333,200,125150,6,0,P|319:155|332:112,1,85,0|0,3:0|0:0,0:0:0:0:
376,52,125510,1,0,0:0:0:0:
296,40,125630,2,0,L|244:32,1,42.5,0|0,1:0|0:0,0:0:0:0:
136,120,125870,2,0,L|192:132,1,42.5
259,143,126110,6,0,B|216:136|216:136|220:140|211:131|167:127,1,85,0|0,3:0|0:0,0:0:0:0:
140,200,126470,1,0,0:0:0:0:
104,280,126590,2,0,L|96:300,4,21.25,2|2|2|2|2,1:2|0:2|0:2|0:2|0:2,0:0:0:0:
256,344,127070,5,0,3:0:0:0:
344,192,127310,1,0,0:0:0:0:
344,192,127430,1,0,0:0:0:0:
344,192,127550,2,0,P|360:208|364:232,1,42.5,0|0,1:0|0:0,0:0:0:0:
256,344,127790,2,0,P|240:328|236:304,1,42.5
420,284,128030,1,0,3:0:0:0:
436,264,128150,1,0,0:0:0:0:
444,232,128270,1,0,0:0:0:0:
440,192,128390,1,0,0:0:0:0:
404,156,128510,5,0,1:0:0:0:
501,307,128750,1,0,0:0:0:0:
318,248,128990,1,0,3:0:0:0:
501,188,129230,1,0,0:0:0:0:
388,344,129470,1,0,1:0:0:0:
388,344,129590,1,0,0:0:0:0:
124,344,129830,1,0,0:0:0:0:
124,344,129950,2,0,P|104:296|120:256,1,85,0|2,3:0|0:3,0:0:0:0:
336,296,130430,1,0,1:0:0:0:
180,296,130670,1,0,0:0:0:0:
388,344,130910,6,0,P|408:296|392:256,1,85,0|0,3:0|0:0,0:0:0:0:
388,244,131270,1,0,0:0:0:0:
372,224,131390,2,0,P|360:200|364:168,1,42.5,0|0,1:0|0:0,0:0:0:0:
256,92,131630,2,0,L|256:152,1,42.5
140,224,131870,2,0,P|152:200|148:168,1,42.5,0|0,3:0|0:0,0:0:0:0:
144,156,132110,1,0,0:0:0:0:
112,136,132230,1,0,0:0:0:0:
72,148,132350,5,0,1:0:0:0:
256,300,132590,1,0,0:0:0:0:
52,352,132830,5,0,3:0:0:0:
184,184,133070,1,0,0:0:0:0:
168,200,133190,1,0,0:0:0:0:
152,220,133310,2,0,L|120:260,1,42.5,0|0,1:0|0:0,0:0:0:0:
232,128,133550,2,0,L|268:84,1,42.5
340,236,133790,6,0,P|352:288|308:332,2,85,0|2|0,3:0|0:3|1:0,0:0:0:0:
258,95,134510,1,0,0:0:0:0:
276,352,134750,5,0,3:0:0:0:
460,204,134990,1,0,0:0:0:0:
460,204,135110,1,0,0:0:0:0:
460,204,135230,2,0,P|440:240|416:248,1,42.5,0|0,1:0|0:0,0:0:0:0:
340,236,135470,2,0,P|360:200|384:192,1,42.5
280,352,135710,5,0,3:0:0:0:
260,324,135830,1,0,0:0:0:0:
220,308,135950,1,0,0:0:0:0:
168,320,136070,1,0,0:0:0:0:
128,368,136190,1,0,1:0:0:0:
280,352,136430,1,0,0:0:0:0:
196,192,136670,6,0,L|188:140,1,42.5,0|0,3:0|0:0,0:0:0:0:
111,119,137150,6,0,L|124:204,1,85,0|0,1:0|0:0,0:0:0:0:
48,216,137630,6,0,L|28:72,1,127.500004863739,0|0,3:0|0:0,0:0:0:0:
324,172,138110,6,0,P|382:197|319:207,1,170,0|0,1:0|0:0,0:0:0:0:
312,84,138590,6,0,P|354:79|396:84,1,85,4|0,3:2|0:0,0:0:0:0:
448,136,138950,1,0,0:0:0:0:
480,200,139070,2,0,P|484:242|479:284,1,85,0|0,1:0|0:0,0:0:0:0:
336,308,139550,2,0,P|273:296|212:310,1,127.5,0|0,3:0|0:0,0:0:0:0:
212,310,140030,1,0,1:0:0:0:
84,240,140270,1,0,0:0:0:0:
192,108,140510,6,0,B|224:80|224:80|263:63,1,85,0|0,3:0|0:0,0:0:0:0:
192,108,140870,2,0,B|233:99|233:99|275:105,1,85
192,108,141230,2,0,B|232:121|232:121|266:147,1,85,0|0,0:0|3:0,0:0:0:0:
332,276,141710,1,0,0:0:0:0:
384,140,141950,2,0,L|384:104,3,28.3333333333333,0|0|0|0,1:0|0:0|0:0|0:0,0:0:0:0:
232,264,142430,6,0,L|168:320,1,85,0|0,3:0|0:0,0:0:0:0:
104,288,142790,1,0,0:0:0:0:
80,220,142910,2,0,L|143:163,1,85,0|0,1:0|0:0,0:0:0:0:
248,64,143390,2,0,B|284:36|284:36|285:117,1,127.5,0|0,3:0|0:0,0:0:0:0:
285,117,143870,1,0,1:0:0:0:
364,240,144110,1,0,0:0:0:0:
207,335,144350,6,0,P|165:331|124:339,1,85,0|0,3:0|0:0,0:0:0:0:
116,196,144830,2,0,L|116:238,1,42.5,0|0,1:0|0:0,0:0:0:0:
144,96,145190,2,0,B|184:72|184:72|222:69,1,85
144,180,145550,1,0,0:0:0:0:
288,192,145790,2,0,B|326:194|326:194|366:218,1,85,0|0,1:0|0:0,0:0:0:0:
204,328,146270,6,0,P|161:332|120:321,1,85,0|0,3:0|0:0,0:0:0:0:
76,264,146630,1,0,0:0:0:0:
64,192,146750,2,0,P|59:149|70:108,1,85,0|0,1:0|0:0,0:0:0:0:
208,68,147230,2,0,P|212:110|201:151,1,85,0|0,3:0|0:0,0:0:0:0:
201,151,147590,1,0,0:0:0:0:
243,207,147710,2,0,P|286:212|328:209,1,85,0|0,1:0|0:0,0:0:0:0:
212,52,148190,6,0,P|169:47|127:54,1,85,0|0,3:0|0:0,0:0:0:0:
196,180,148670,2,0,P|238:184|280:177,1,85,0|0,1:0|0:0,0:0:0:0:
416,128,149150,2,0,P|420:85|413:43,1,85,0|0,3:0|0:0,0:0:0:0:
336,168,149630,2,0,P|331:210|338:252,1,85,0|0,1:0|0:0,0:0:0:0:
212,336,150110,6,0,L|161:336,1,50.9999984436036,4|0,3:2|0:0,0:0:0:0:
64,268,150470,2,0,L|115:268,1,50.9999984436036
212,208,150830,2,0,L|161:208,1,50.9999984436036,0|0,0:0|3:0,0:0:0:0:
64,144,151190,2,0,L|115:144,1,50.9999984436036
212,80,151550,2,0,L|161:80,1,50.9999984436036
339,152,152030,6,0,P|384:156|369:198,1,102,2|0,3:3|0:0,0:0:0:0:
276,247,152510,6,0,P|222:237|249:190,1,127.5,2|0,0:3|0:0,0:0:0:0:
351,140,152990,6,0,P|406:138|387:189,1,127.5,2|0,3:3|0:0,0:0:0:0:
264,263,153470,6,0,P|189:266|222:199,1,178.499994552612,2|0,1:3|0:0,0:0:0:0:
120,140,200030,6,0,L|216:152,1,85,4|0,3:2|0:0,0:0:0:0:
276,276,200510,2,0,L|180:288,1,85,0|0,1:0|0:0,0:0:0:0:
56,332,200990,2,0,P|60:280|64:232,1,85,0|0,3:0|0:0,0:0:0:0:
72,176,201350,1,0,0:0:0:0:
72,176,201470,2,0,L|120:180,1,42.5,0|0,1:0|0:0,0:0:0:0:
192,224,201710,2,0,L|240:228,1,42.5
332,264,201950,6,0,P|324:204|336:164,1,85,0|0,3:0|0:0,0:0:0:0:
412,60,202430,2,0,L|468:56,2,42.5,0|0|0,1:0|0:0|0:0,0:0:0:0:
268,80,202910,2,0,B|180:72|180:72|124:92,1,127.5,0|0,3:0|0:0,0:0:0:0:
60,112,203390,2,0,L|72:176,1,42.5,0|0,1:0|0:0,0:0:0:0:
128,232,203630,2,0,L|140:296,1,42.5
192,352,203870,6,0,P|228:320|292:300,1,85,0|0,3:0|0:0,0:0:0:0:
404,284,204350,1,0,1:0:0:0:
404,284,204470,1,0,0:0:0:0:
404,284,204590,1,0,0:0:0:0:
308,176,204830,2,0,P|284:112|312:52,1,127.5,0|0,3:0|0:0,0:0:0:0:
376,20,205310,2,0,L|428:32,1,42.5,0|0,1:0|0:0,0:0:0:0:
496,108,205550,2,0,L|444:120,1,42.5
380,184,205790,6,0,P|388:228|392:292,1,85,0|0,3:0|0:0,0:0:0:0:
284,368,206270,1,0,1:0:0:0:
232,232,206510,1,0,0:0:0:0:
236,220,206630,1,0,0:0:0:0:
240,208,206750,2,0,P|192:196|124:188,1,85,0|0,3:0|0:0,0:0:0:0:
68,144,207110,2,0,L|8:152,2,42.5,0|0|0,0:0|1:0|0:0,0:0:0:0:
168,96,207470,1,0,0:0:0:0:
296,160,207710,6,0,P|340:196|376:236,1,85,0|0,3:0|0:0,0:0:0:0:
460,320,208190,2,0,L|416:332,3,42.5,0|0|0|0,1:0|0:0|0:0|0:0,0:0:0:0:
328,360,208670,2,0,P|272:340|220:336,1,85,0|0,3:0|0:0,0:0:0:0:
156,344,209030,1,0,0:0:0:0:
144,332,209150,2,0,P|136:292|144:260,1,42.5,0|0,1:0|0:0,0:0:0:0:
108,208,209390,2,0,P|130:174|158:157,1,42.5
176,96,209630,6,0,P|244:96|292:108,1,85,0|0,3:0|0:0,0:0:0:0:
380,180,210110,1,0,1:0:0:0:
316,308,210350,1,0,0:0:0:0:
304,316,210470,1,0,0:0:0:0:
292,324,210590,2,0,L|228:308,1,42.5,0|0,3:0|0:0,0:0:0:0:
160,240,210830,2,0,L|224:224,1,42.5
288,172,211070,1,0,1:0:0:0:
317,175,211190,1,0,0:0:0:0:
347,179,211310,1,0,0:0:0:0:
376,182,211430,1,0,0:0:0:0:
406,186,211550,6,0,P|376:148|340:96,1,85,0|0,3:0|0:0,0:0:0:0:
256,12,212030,2,0,L|312:0,2,42.5,0|0|0,1:0|0:0|0:0,0:0:0:0:
120,64,212510,2,0,P|136:128|140:180,1,85,0|0,3:0|0:0,0:0:0:0:
140,240,212870,1,0,0:0:0:0:
140,240,212990,2,0,L|200:232,1,42.5,0|0,1:0|0:0,0:0:0:0:
256,180,213230,2,0,L|316:172,1,42.5
376,128,213470,5,0,3:0:0:0:
264,36,213710,1,0,0:0:0:0:
136,104,213950,2,0,L|88:96,3,42.5,0|0|0|0,1:0|0:0|0:0|0:0,0:0:0:0:
16,88,214430,2,0,P|32:160|36:204,1,85,4|0,3:2|0:0,0:0:0:0:
28,256,214790,2,0,P|100:240|144:236,1,85,4|0,0:0|0:0,0:0:0:0:
200,204,215150,1,4,0:0:0:0:
212,208,215270,1,0,0:0:0:0:
224,212,215390,5,4,0:0:0:0:
256,108,230750,5,4,3:2:0:0:
256,236,230990,1,2,0:0:0:0:
256,28,231230,1,2,0:0:0:0:
256,64,231350,1,2,0:0:0:0:
256,100,231470,1,0,0:0:0:0:
256,136,231590,1,0,0:0:0:0:
256,236,231710,6,0,B|244:280|244:280|256:320,1,85,2|2,0:0|0:3,0:0:0:0:
333,314,232070,2,0,P|289:302|241:334,1,85,2|0,0:2|0:0,0:0:0:0:
388,364,232430,1,2,0:0:0:0:
404,340,232550,1,0,0:0:0:0:
408,308,232670,1,2,0:0:0:0:
404,280,232790,1,0,0:0:0:0:
368,180,232910,2,0,L|344:128,1,42.5,2|0,0:0|0:0,0:0:0:0:
280,180,233150,6,0,P|332:164|356:120,1,85,2|0,0:0|0:0,0:0:0:0:
188,192,233630,2,0,L|212:252,1,42.5,2|0,0:0|0:0,0:0:0:0:
120,168,233870,2,0,L|104:124,1,42.5,2|2,0:3|0:0,0:0:0:0:
168,292,234230,1,2,0:0:0:0:
212,304,234350,1,2,0:0:0:0:
252,284,234470,1,2,0:0:0:0:
276,248,234590,6,0,P|292:232|316:224,1,42.5
332,296,234830,1,2,0:0:0:0:
192,136,235070,1,2,0:0:0:0:
185,129,235190,1,2,0:0:0:0:
179,123,235310,1,0,0:0:0:0:
172,116,235430,1,0,0:0:0:0:
244,196,235550,2,0,P|292:208|340:184,1,85,2|2,0:0|0:3,0:0:0:0:
348,115,235910,2,0,L|320:211,1,85,2|0,0:0|0:0,0:0:0:0:
304,280,236270,1,2,0:0:0:0:
420,112,236390,6,0,P|400:64|352:44,1,85
292,56,236750,1,2,0:0:0:0:
168,100,236990,2,0,P|120:96|168:36,1,127.5,2|2,0:0|0:0,0:0:0:0:
130,32,237470,1,2,0:0:0:0:
76,188,237710,1,2,0:3:0:0:
76,188,237830,1,2,0:0:0:0:
188,292,238070,1,2,0:0:0:0:
224,224,238190,1,2,3:2:0:0:
264,288,238310,1,0,0:0:0:0:
296,220,238430,6,0,B|324:160|324:160|340:196,1,85,0|2,3:0|0:0,0:0:0:0:
216,212,238910,1,2,0:0:0:0:
230,181,239030,1,2,0:0:0:0:
244,150,239150,1,0,0:0:0:0:
259,119,239270,1,0,0:0:0:0:
216,212,239390,2,0,P|224:264|264:296,1,85,2|2,0:0|0:3,0:0:0:0:
176,328,239750,2,0,P|212:292|260:288,1,85,2|0,0:0|0:0,0:0:0:0:
320,376,240110,2,0,P|272:380|240:356,1,85,2|0,0:0|0:0,0:0:0:0:
360,200,240590,1,2,0:0:0:0:
496,340,240830,1,2,0:0:0:0:
496,340,240950,2,0,L|460:312,2,42.5,2|0|0,0:0|0:0|0:0,0:0:0:0:
405,266,241310,6,0,P|374:241|361:178,1,85,2|2,0:0|0:3,0:0:0:0:
436,196,241670,1,2,0:0:0:0:
476,72,241910,1,0,0:0:0:0:
472,92,242030,1,2,0:0:0:0:
468,112,242150,1,0,0:0:0:0:
464,132,242270,1,2,0:0:0:0:
372,340,242510,1,2,0:0:0:0:
476,72,242750,2,0,P|472:24|444:-12,1,85,2|0,0:0|0:0,0:0:0:0:
400,56,243110,1,0,0:0:0:0:
312,168,243230,6,0,P|286:213|302:264,1,85,2|2,0:0|0:3,0:0:0:0:
363,221,243590,1,2,0:0:0:0:
252,112,243830,2,0,L|216:72,2,42.5,2|0|0,0:0|0:0|0:0,0:0:0:0:
172,132,244190,6,0,B|152:108|152:88|152:88|116:64,1,85,0|2,0:0|0:0,0:0:0:0:
56,240,244670,2,0,P|96:276|144:264,1,85,2|0,0:0|0:0,0:0:0:0:
196,244,245030,1,0,0:0:0:0:
184,320,245150,1,2,0:0:0:0:
256,112,245390,1,2,0:3:0:0:
256,112,245510,1,2,0:0:0:0:
332,320,245750,1,2,0:0:0:0:
312,248,245870,5,2,3:2:0:0:
384,268,245990,1,0,0:0:0:0:
364,196,246110,5,4,3:2:0:0:
212,223,246350,6,0,P|191:227|169:226,1,42.5,2|0,0:0|0:0,0:0:0:0:
256,160,246590,1,2,0:0:0:0:
256,160,246710,2,0,P|277:164|299:163,1,42.5,2|0,0:0|0:0,0:0:0:0:
196,112,246950,1,0,0:0:0:0:
196,112,247070,2,0,P|144:116|112:96,1,85,2|2,0:0|0:3,0:0:0:0:
168,40,247430,1,2,0:0:0:0:
396,84,247670,2,0,L|444:72,2,42.5,0|2|0,0:0|0:0|0:0,0:0:0:0:
344,140,248030,5,2,3:2:0:0:
300,288,248270,2,0,P|304:320|316:340,1,42.5,2|0,0:0|0:0,0:0:0:0:
348,228,248510,1,2,0:0:0:0:
348,228,248630,2,0,P|318:215|294:215,1,42.5,2|0,0:0|0:0,0:0:0:0:
376,296,248870,1,0,0:0:0:0:
376,296,248990,2,0,P|407:274|421:224,1,85,2|2,0:0|0:3,0:0:0:0:
400,156,249350,1,2,0:0:0:0:
304,328,249590,1,2,0:0:0:0:
276,340,249710,1,2,0:0:0:0:
244,344,249830,1,2,0:0:0:0:
212,340,249950,6,0,P|180:308|172:260,1,85,0|2,3:0|0:0,0:0:0:0:
223,100,250430,1,2,0:0:0:0:
223,100,250550,2,0,P|245:99|266:101,2,42.5,2|0|0,0:0|0:0|0:0,0:0:0:0:
152,124,250910,1,2,0:0:0:0:
336,156,251150,2,0,P|348:128|352:104,1,42.5,2|2,0:3|0:0,0:0:0:0:
161,82,251510,2,0,P|154:102|152:124,1,42.5,2|2,0:0|0:0,0:0:0:0:
172,200,251750,1,0,0:0:0:0:
124,264,251870,5,0,3:2:0:0:
224,140,252110,2,0,P|252:132|276:132,1,42.5,2|0,0:0|0:0,0:0:0:0:
372,160,252350,1,2,0:0:0:0:
372,160,252470,2,0,P|392:166|413:168,1,42.5
500,104,252710,1,2,0:0:0:0:
500,104,252830,1,2,0:0:0:0:
376,240,253070,1,2,0:3:0:0:
376,240,253190,2,0,P|364:280|383:347,1,85,2|2,0:0|0:0,0:0:0:0:
444,284,253550,1,2,3:2:0:0:
376,240,253670,1,0,0:0:0:0:
264,280,253790,6,0,P|200:292|152:280,1,85,0|2,3:0|0:0,0:0:0:0:
56,204,254270,1,2,0:0:0:0:
56,204,254390,2,0,L|60:144,1,42.5,2|0,0:0|0:0,0:0:0:0:
92,280,254630,1,0,0:0:0:0:
92,280,254750,2,0,P|103:340|134:362,1,85,2|2,0:0|0:3,0:0:0:0:
181,289,255110,1,2,0:0:0:0:
320,352,255350,2,0,P|339:360|360:361,2,42.5,0|2|0,0:0|0:0|0:0,0:0:0:0:
272,276,255710,5,0,3:0:0:0:
304,124,255950,2,0,P|308:103|306:82,1,42.5,2|0,0:0|0:0,0:0:0:0:
205,82,256190,1,2,0:0:0:0:
205,82,256310,2,0,P|203:103|208:124,1,42.5,2|0,0:0|0:0,0:0:0:0:
256,200,256550,1,0,0:0:0:0:
256,200,256670,2,0,L|376:192,1,85,2|2,0:0|0:3,0:0:0:0:
272,276,257030,2,0,L|187:270,1,85,2|2,0:0|0:0,0:0:0:0:
340,311,257390,2,0,P|347:292|348:271,1,42.5
256,200,257630,5,0,3:2:0:0:
104,227,257870,2,0,P|83:231|62:229,1,42.5,2|0,0:0|0:0,0:0:0:0:
144,164,258110,1,2,0:0:0:0:
144,164,258230,2,0,P|164:160|185:162,1,42.5,2|0,0:0|0:0,0:0:0:0:
256,200,258470,1,0,0:0:0:0:
187,270,258590,1,2,3:2:0:0:
100,100,258830,2,0,L|104:40,1,42.5,2|2,0:3|0:0,0:0:0:0:
248,100,259190,2,0,P|269:102|290:99,2,42.5,0|2|0,0:0|0:0|0:0,0:0:0:0:
264,24,259550,5,0,3:2:0:0:
400,96,259790,1,2,1:2:0:0:
328,296,260030,1,2,1:2:0:0:
176,272,260270,2,0,P|155:268|134:270,1,42.5,0|2,3:2|0:0,0:0:0:0:
52,304,260510,1,6,1:2:0:0:
52,304,260630,1,0,1:2:0:0:
52,304,260750,2,0,L|48:256,1,42.5,0|2,3:2|0:0,0:0:0:0:
96,120,260990,2,0,P|92:172|100:216,1,85,0|0,1:0|1:0,0:0:0:0:
200,320,261470,6,0,P|241:328|283:333,1,85,4|0,3:2|0:0,0:0:0:0:
365,288,261830,1,0,0:0:0:0:
354,269,261950,2,0,P|355:247|357:226,1,42.5,0|0,1:0|0:0,0:0:0:0:
407,160,262190,2,0,P|405:138|403:117,1,42.5
335,55,262430,6,0,P|313:53|292:51,1,42.5,0|0,3:0|0:0,0:0:0:0:
217,93,262670,2,0,P|195:94|174:96,1,42.5
101,46,262910,1,0,1:0:0:0:
86,63,263030,2,0,P|84:84|82:105,1,42.5
126,173,263270,1,0,0:0:0:0:
195,210,263390,6,0,P|196:231|198:252,1,42.5,0|0,3:0|0:0,0:0:0:0:
140,315,263630,2,0,P|138:336|136:357,1,42.5
225,337,263870,2,0,P|266:328|308:323,1,85,0|0,1:0|0:0,0:0:0:0:
382,363,264230,1,0,0:0:0:0:
449,314,264350,6,0,P|450:292|451:271,1,42.5,0|0,3:0|0:0,0:0:0:0:
400,195,264590,1,0,0:0:0:0:
390,175,264710,1,0,0:0:0:0:
381,155,264830,1,0,1:0:0:0:
372,135,264950,2,0,P|372:113|374:92,1,42.5
431,28,265190,1,0,0:0:0:0:
346,14,265310,6,0,P|303:18|262:28,1,85,0|0,3:0|0:0,0:0:0:0:
202,95,265670,1,0,0:0:0:0:
185,110,265790,2,0,P|164:112|143:114,1,42.5,0|0,1:0|0:0,0:0:0:0:
72,61,266030,1,0,0:0:0:0:
63,81,266150,1,0,0:0:0:0:
79,162,266270,6,0,P|79:183|77:204,1,42.5,0|0,3:0|0:0,0:0:0:0:
29,276,266510,2,0,P|29:297|31:318,1,42.5
117,351,266750,1,0,1:0:0:0:
137,341,266870,2,0,P|159:341|180:343,1,42.5
256,380,267110,1,0,0:0:0:0:
301,306,267230,6,0,P|303:284|303:263,1,42.5,0|0,3:0|0:0,0:0:0:0:
271,187,267470,2,0,P|257:170|242:155,1,42.5
165,103,267710,1,0,1:0:0:0:
144,94,267830,1,0,0:0:0:0:
124,85,267950,2,0,P|102:85|81:87,1,42.5
193,25,268190,6,0,P|215:25|236:27,1,42.5,0|0,3:0|0:0,0:0:0:0:
326,32,268430,1,0,0:0:0:0:
316,52,268550,1,0,0:0:0:0:
307,72,268670,1,0,1:0:0:0:
298,92,268790,2,0,P|298:114|300:135,1,42.5
361,197,269030,1,0,0:0:0:0:
428,136,269150,6,0,P|469:128|511:123,1,85,0|0,3:0|0:0,0:0:0:0:
489,239,269510,1,0,0:0:0:0:
470,250,269630,2,0,P|448:249|427:247,1,42.5,0|0,1:0|0:0,0:0:0:0:
361,197,269870,2,0,P|339:199|318:201,1,42.5
200,152,270110,6,0,P|222:154|243:156,1,42.5,0|0,3:0|0:0,0:0:0:0:
318,114,270350,2,0,P|340:113|361:111,1,42.5
432,160,270590,1,0,1:0:0:0:
372,224,270710,2,0,P|370:245|368:266,1,42.5
412,340,270950,1,0,0:0:0:0:
328,368,271070,6,0,P|307:369|286:371,1,42.5,0|0,3:0|0:0,0:0:0:0:
223,313,271310,2,0,P|202:311|181:309,1,42.5
104,272,271550,2,0,P|95:231|90:189,1,85,0|0,1:0|0:0,0:0:0:0:
112,108,271910,1,0,0:0:0:0:
196,120,272030,6,0,P|218:119|239:118,1,42.5,0|0,3:0|0:0,0:0:0:0:
300,64,272270,1,0,0:0:0:0:
320,54,272390,1,0,0:0:0:0:
340,45,272510,1,0,1:0:0:0:
360,36,272630,2,0,P|382:36|403:38,1,42.5
484,68,272870,1,0,0:0:0:0:
497,153,272990,6,0,P|493:196|483:237,1,85,0|0,3:0|0:0,0:0:0:0:
400,288,273350,1,0,0:0:0:0:
383,273,273470,2,0,P|362:271|341:269,1,42.5,0|0,1:0|0:0,0:0:0:0:
264,292,273710,1,0,0:0:0:0:
244,301,273830,1,0,0:0:0:0:
164,328,273950,6,0,P|143:328|122:326,1,42.5,0|0,3:0|0:0,0:0:0:0:
68,256,274190,2,0,P|68:235|70:214,1,42.5
128,144,274430,1,0,1:0:0:0:
148,154,274550,2,0,P|170:154|191:152,1,42.5
252,96,274790,1,0,0:0:0:0:
324,144,274910,6,0,P|326:166|326:187,1,42.5,0|0,3:0|0:0,0:0:0:0:
266,249,275150,2,0,P|263:270|263:292,1,42.5
336,360,275390,1,0,1:0:0:0:
345,339,275510,1,0,0:0:0:0:
354,319,275630,2,0,P|354:297|352:276,1,42.5
326,186,275870,6,0,P|324:164|324:143,1,42.5,0|0,3:0|0:0,0:0:0:0:
396,48,276110,1,4,1:2:0:0:
397,90,276230,1,0,3:0:0:0:
232,176,276350,2,0,P|231:154|233:133,1,42.5,0|0,1:0|3:0,0:0:0:0:
292,16,276590,1,4,3:2:0:0:
293,58,276710,1,0,3:2:0:0:
148,120,276830,5,4,3:2:0:0:
44,96,292430,6,0,P|80:104|116:72,1,85,2|0,0:0|1:0,0:0:0:0:
184,96,292790,2,0,P|220:104|256:72,1,85,2|0,0:0|0:0,0:0:0:0:
324,96,293150,2,0,P|384:110|437:78,1,127.5,2|0,3:2|0:0,0:0:0:0:
476,140,293630,5,0,1:0:0:0:
484,160,293750,1,0,0:0:0:0:
492,180,293870,1,0,0:0:0:0:
496,217,293990,1,0,0:0:0:0:
484,252,294110,6,0,P|453:279|413:272,1,85,2|0,3:2|0:0,0:0:0:0:
344,248,294470,2,0,P|303:241|273:268,1,85,2|0,0:0|0:0,0:0:0:0:
236,332,294830,1,0,0:0:0:0:
120,360,294950,5,0,0:0:0:0:
120,352,295070,2,0,L|100:212,1,127.5,2|0,3:2|0:0,0:0:0:0:
80,108,295550,2,0,L|24:92,1,42.5,0|0,1:0|0:0,0:0:0:0:
152,84,295790,2,0,L|192:72,1,42.5
264,52,296030,5,0,3:0:0:0:
408,68,296270,2,0,P|376:96|336:92,1,85,2|0,0:0|1:0,0:0:0:0:
232,144,296630,2,0,P|273:140|304:167,1,85,2|0,0:0|0:0,0:0:0:0:
348,276,296990,2,0,P|288:288|304:336,1,127.5,2|0,3:2|0:0,0:0:0:0:
416,308,297470,5,0,1:0:0:0:
424,288,297590,1,0,0:0:0:0:
424,264,297710,1,0,0:0:0:0:
407,231,297830,1,0,0:0:0:0:
376,210,297950,5,2,3:2:0:0:
256,128,298190,1,2,0:0:0:0:
364,40,298430,1,2,1:2:0:0:
344,48,298550,2,0,L|256:32,1,85
176,80,298910,6,0,L|88:96,1,85,2|0,3:2|0:0,0:0:0:0:
256,128,299390,1,2,1:2:0:0:
168,180,299630,1,0,0:0:0:0:
147,183,299750,1,0,0:0:0:0:
126,186,299870,5,4,3:2:0:0:
48,308,300110,2,0,B|56:328|56:328|128:344,1,85,2|0,0:0|1:0,0:0:0:0:
184,308,300470,2,0,B|192:328|192:328|264:344,1,85,2|0,0:0|0:0,0:0:0:0:
316,308,300830,2,0,B|326:334|326:334|423:356,1,127.5,2|0,3:2|0:0,0:0:0:0:
488,324,301310,5,0,1:0:0:0:
368,244,301550,1,0,0:0:0:0:
388,249,301670,1,0,0:0:0:0:
409,255,301790,6,0,P|433:215|425:175,1,85,0|2,3:2|0:0,0:0:0:0:
360,84,302150,1,0,0:0:0:0:
360,84,302270,2,0,P|336:124|344:164,1,85,0|0,1:0|0:0,0:0:0:0:
424,40,302750,6,0,P|368:8|304:28,1,127.5,2|0,3:2|0:0,0:0:0:0:
260,72,303230,2,0,P|199:86|146:55,1,127.5,2|0,1:2|0:0,0:0:0:0:
80,24,303710,5,2,3:2:0:0:
124,164,303950,1,2,0:0:0:0:
168,304,304190,1,0,1:0:0:0:
196,372,304310,2,0,L|284:352,1,85,2|2,0:0|0:0,0:0:0:0:
332,304,304670,6,0,L|420:284,1,85,0|2,3:2|0:0,0:0:0:0:
256,272,305150,1,2,1:2:0:0:
472,220,305390,1,2,0:0:0:0:
212,200,305630,6,0,L|344:188,1,127.5,2|0,3:2|0:0,0:0:0:0:
472,220,306110,1,2,1:2:0:0:
264,116,306350,1,0,0:0:0:0:
484,140,306590,1,2,3:2:0:0:
264,116,306830,6,0,L|208:120,1,42.5,4|0,0:3|0:0,0:0:0:0:
156,148,307070,1,4,1:3:0:0:
44,212,307190,1,0,0:0:0:0:
109,240,307310,2,0,L|151:243,1,42.5,8|8,0:3|0:3,0:0:0:0:
224,312,307550,1,4,0:0:0:0:
60,112,323150,6,0,L|88:144,1,42.5
188,216,323390,2,0,L|232:216,1,42.5,0|0,1:0|0:0,0:0:0:0:
88,280,323630,2,0,L|132:280,1,42.5,0|0,0:0|0:0,0:0:0:0:
221,141,323870,2,0,P|193:177|197:245,1,85,0|0,3:0|0:0,0:0:0:0:
188,224,324230,1,0,0:0:0:0:
188,232,324350,1,0,1:0:0:0:
392,240,324590,2,0,L|392:184,1,42.5,0|0,0:0|0:0,0:0:0:0:
304,316,324830,2,0,L|360:316,1,42.5,0|0,3:0|0:0,0:0:0:0:
280,212,325070,6,0,L|324:244,1,42.5,0|0,0:0|0:0,0:0:0:0:
468,244,325310,2,0,L|516:216,1,42.5,0|0,1:0|0:0,0:0:0:0:
424,316,325550,1,0,0:0:0:0:
428,328,325670,1,0,0:0:0:0:
432,336,325790,2,0,P|452:356|484:364,2,42.5,0|0|0,3:0|0:0|0:0,0:0:0:0:
392,197,326150,2,0,L|392:265,1,42.5,0|0,0:0|1:0,0:0:0:0:
346,316,326390,1,0,0:0:0:0:
504,222,326510,2,0,L|504:179,1,42.5,0|0,0:0|0:0,0:0:0:0:
424,56,326750,6,0,L|433:119,1,63.75,0|0,3:0|0:0,0:0:0:0:
280,144,326990,2,0,L|336:152,1,42.5
220,40,327230,2,0,L|296:28,1,42.5,0|0,1:0|0:0,0:0:0:0:
116,112,327470,1,0,0:0:0:0:
116,112,327590,1,0,0:0:0:0:
116,112,327710,2,0,L|116:56,2,42.5,0|0|0,3:0|0:0|0:0,0:0:0:0:
176,244,328070,2,0,L|224:236,1,42.5,0|0,0:0|1:0,0:0:0:0:
352,248,328310,1,0,0:0:0:0:
208,340,328430,2,0,L|144:352,1,42.5
56,200,328670,6,0,L|68:300,1,85,0|0,3:0|0:0,0:0:0:0:
176,244,329030,2,0,L|236:236,2,42.5,0|0|0,0:0|1:0|0:0,0:0:0:0:
248,148,329390,2,0,L|328:164,1,42.5
336,344,329630,2,0,P|320:312|324:228,1,85,0|0,3:0|0:0,0:0:0:0:
416,280,329990,1,0,0:0:0:0:
240,344,330110,2,0,L|164:340,1,42.5,0|0,1:0|0:0,0:0:0:0:
88,248,330350,2,0,L|168:256,1,42.5
16,288,330590,6,0,P|8:256|20:204,1,85,0|0,3:0|0:0,0:0:0:0:
24,200,330950,1,0,0:0:0:0:
136,60,331070,2,0,L|120:160,1,85,0|0,1:0|0:0,0:0:0:0:
124,152,331430,1,0,0:0:0:0:
328,84,331550,2,0,L|220:72,1,85,0|0,3:0|0:0,0:0:0:0:
236,76,331910,1,0,0:0:0:0:
228,80,332030,1,0,1:0:0:0:
0,72,332270,2,0,L|60:80,1,42.5,0|0,0:0|0:0,0:0:0:0:
128,164,332510,6,0,L|170:168,1,42.5,0|0,3:0|0:0,0:0:0:0:
28,48,332750,2,0,L|88:56,1,42.5,0|0,0:0|0:0,0:0:0:0:
148,188,332990,2,0,L|190:192,1,42.5,0|0,1:0|0:0,0:0:0:0:
356,208,333230,1,0,0:0:0:0:
368,204,333350,1,0,0:0:0:0:
376,200,333470,2,0,P|396:180|404:148,2,42.5,0|0|0,3:0|0:0|0:0,0:0:0:0:
268,312,333830,2,0,L|268:269,1,42.5,0|0,0:0|1:0,0:0:0:0:
401,124,334070,2,0,L|401:167,2,42.5,0|0|0,0:0|0:0|0:0,0:0:0:0:
508,48,334430,6,0,L|388:32,1,85,0|0,3:0|0:0,0:0:0:0:
416,40,334790,1,0,0:0:0:0:
236,108,334910,2,0,L|320:122,1,85,0|0,1:0|0:0,0:0:0:0:
296,32,335270,1,0,0:0:0:0:
180,176,335390,2,0,L|164:264,1,85,0|0,3:0|0:0,0:0:0:0:
80,176,335750,2,0,L|84:100,1,42.5,0|0,0:0|1:0,0:0:0:0:
169,301,335990,2,0,L|161:229,2,42.5
280,348,336350,6,0,P|332:332|380:352,1,85,0|0,3:0|0:0,0:0:0:0:
488,364,336710,2,0,L|492:308,1,42.5,0|0,0:0|1:0,0:0:0:0:
384,216,336950,2,0,L|372:164,2,42.5
360,339,337310,2,0,L|376:283,1,42.5,0|0,3:0|0:0,0:0:0:0:
504,240,337550,2,0,L|432:240,1,42.5,0|0,3:0|0:0,0:0:0:0:
374,132,337790,6,0,L|374:188,1,42.5,0|0,1:0|0:0,0:0:0:0:
244,72,338030,2,0,L|300:72,1,42.5,0|0,3:0|0:0,0:0:0:0:
354,111,338270,6,0,P|305:192|309:227,1,127.5,4|0,3:2|0:0,0:0:0:0:
399,195,338750,6,0,L|461:204,1,42.5,0|0,1:2|0:0,0:0:0:0:
491,291,338990,2,0,L|434:285,1,42.5
358,338,339230,2,0,B|329:335|298:362|298:362|259:366|221:336,1,127.5,0|0,3:0|0:0,0:0:0:0:
179,307,339710,1,0,1:0:0:0:
79,201,339950,1,0,0:0:0:0:
109,172,340070,1,0,0:0:0:0:
149,156,340190,5,0,3:0:0:0:
191,156,340310,1,0,0:0:0:0:
230,172,340430,2,0,L|285:150,1,42.5
317,53,340670,2,0,L|311:96,1,42.5,0|0,1:0|0:0,0:0:0:0:
379,181,340910,2,0,L|343:160,1,42.5
310,232,341150,5,0,3:0:0:0:
310,232,341270,1,0,0:0:0:0:
310,232,341390,1,0,0:0:0:0:
226,113,341630,2,0,B|167:92|165:136|95:110,1,127.5,0|0,1:0|0:0,0:0:0:0:
35,203,342110,6,0,L|53:278,1,42.5,0|0,3:0|0:0,0:0:0:0:
53,258,342350,1,0,0:0:0:0:
61,272,342470,1,0,0:0:0:0:
74,282,342590,2,0,P|129:316|181:306,1,85,0|0,1:0|0:0,0:0:0:0:
288,348,343070,6,0,P|330:329|394:342,1,85,0|0,3:0|0:0,0:0:0:0:
419,278,343430,1,0,0:0:0:0:
419,278,343550,2,0,L|422:201,1,42.5,0|0,1:0|0:0,0:0:0:0:
337,176,343790,2,0,L|336:238,1,42.5
258,132,344030,6,0,P|187:135|153:144,1,85,0|0,3:0|0:0,0:0:0:0:
156,140,344390,1,0,0:0:0:0:
137,143,344510,1,0,1:0:0:0:
48,256,344750,2,0,L|46:302,1,42.5
107,337,344990,6,0,P|179:357|216:342,1,85,0|0,3:0|0:0,0:0:0:0:
333,349,345350,2,0,P|296:330|254:331,1,85
202,279,345710,1,0,0:0:0:0:
200,261,345830,1,0,0:0:0:0:
198,243,345950,6,0,P|184:144|193:119,1,127.5,0|0,3:0|0:0,0:0:0:0:
245,71,346430,1,0,1:0:0:0:
287,68,346550,1,0,0:0:0:0:
329,65,346670,1,0,0:0:0:0:
372,62,346790,1,0,0:0:0:0:
414,60,346910,6,0,B|427:110|427:110|418:149|418:149|429:200,1,127.5,0|0,3:0|0:0,0:0:0:0:
406,253,347390,1,0,1:0:0:0:
321,369,347630,1,0,0:0:0:0:
279,377,347750,1,0,0:0:0:0:
237,375,347870,5,0,3:0:0:0:
197,361,347990,1,0,0:0:0:0:
161,338,348110,2,0,L|97:327,1,42.5
143,261,348350,2,0,L|93:254,1,42.5,0|0,1:0|0:0,0:0:0:0:
129,187,348590,2,0,L|84:180,1,42.5
126,65,348830,5,0,3:0:0:0:
126,65,348950,1,0,0:0:0:0:
126,65,349070,1,0,0:0:0:0:
268,88,349310,2,0,P|372:47|384:52,1,127.5,0|0,1:0|0:0,0:0:0:0:
422,151,349790,6,0,L|404:226,1,42.5,0|0,3:0|0:0,0:0:0:0:
404,206,350030,1,0,0:0:0:0:
396,220,350150,1,0,0:0:0:0:
383,230,350270,2,0,P|328:264|276:254,1,85,0|0,1:0|0:0,0:0:0:0:
168,298,350750,6,0,P|122:295|70:329,1,85,0|0,3:0|0:0,0:0:0:0:
37,257,351110,1,0,0:0:0:0:
37,257,351230,2,0,L|31:196,1,42.5,0|0,1:0|0:0,0:0:0:0:
88,167,351470,2,0,L|83:102,1,42.5
160,205,351710,6,0,P|224:212|277:200,1,85,0|0,3:0|0:0,0:0:0:0:
260,203,352070,1,0,0:0:0:0:
274,193,352190,1,0,1:0:0:0:
400,263,352430,2,0,L|405:314,1,42.5
473,322,352670,6,0,L|461:208,1,85,0|0,3:0|0:0,0:0:0:0:
422,177,353030,2,0,L|409:61,1,85,0|0,3:0|0:0,0:0:0:0:
327,102,353390,5,0,0:0:0:0:
247,132,353510,1,0,0:0:0:0:
192,196,353630,6,0,L|152:184,2,42.5,0|0|0,3:0|0:0|0:0,0:0:0:0:
276,288,354110,1,0,1:0:0:0:
305,285,354230,1,0,0:0:0:0:
335,283,354350,1,0,0:0:0:0:
364,280,354470,1,0,0:0:0:0:
394,278,354590,2,0,P|376:236|380:184,1,85,0|0,3:0|0:0,0:0:0:0:
432,120,354950,1,0,0:0:0:0:
432,120,355070,2,0,L|484:128,2,42.5,0|0|0,1:0|0:0|0:0,0:0:0:0:
300,64,355550,6,0,P|248:76|192:92,1,85,0|0,3:0|0:0,0:0:0:0:
100,168,356030,2,0,P|152:180|208:196,1,85,0|0,1:0|0:0,0:0:0:0:
324,228,356510,1,0,3:0:0:0:
316,236,356630,1,0,0:0:0:0:
308,244,356750,1,0,0:0:0:0:
300,252,356870,2,0,P|304:288|304:312,2,42.5,0|0|0,0:0|1:0|0:0,0:0:0:0:
276,144,357230,1,0,0:0:0:0:
268,136,357350,1,0,0:0:0:0:
260,128,357470,6,0,P|208:124|152:128,1,85,0|0,3:0|0:0,0:0:0:0:
36,168,357950,1,0,1:0:0:0:
80,304,358190,1,0,0:0:0:0:
216,256,358430,2,0,P|268:252|324:256,1,85,0|0,3:0|0:0,0:0:0:0:
392,304,358790,2,0,L|452:296,2,42.5,0|0|0,0:0|1:0|0:0,0:0:0:0:
304,360,359150,1,0,0:0:0:0:
292,352,359270,1,0,0:0:0:0:
280,344,359390,6,0,P|228:340|184:336,1,85,0|0,3:0|0:0,0:0:0:0:
52,368,359870,2,0,P|40:296|56:260,1,85,0|0,1:0|0:0,0:0:0:0:
128,172,360350,2,0,P|216:188|280:200,1,127.5,0|0,3:0|0:0,0:0:0:0:
344,232,360830,1,0,1:0:0:0:
336,240,360950,1,0,0:0:0:0:
328,248,361070,1,0,0:0:0:0:
320,256,361190,1,0,0:0:0:0:
312,264,361310,6,0,P|364:276|420:292,2,85,0|0|0,3:0|0:0|1:0,0:0:0:0:
172,232,362030,1,0,0:0:0:0:
264,120,362270,2,0,P|324:68|364:56,1,85,0|0,3:0|0:0,0:0:0:0:
416,52,362630,1,0,0:0:0:0:
424,60,362750,2,0,L|420:112,1,42.5,0|0,1:0|0:0,0:0:0:0:
388,180,362990,2,0,L|384:232,1,42.5
352,304,363230,5,0,3:0:0:0:
236,220,363470,1,0,0:0:0:0:
332,112,363710,2,0,P|392:100|436:100,1,85,0|0,1:0|0:0,0:0:0:0:
492,220,364190,2,0,P|432:208|388:208,1,85,0|0,3:0|0:0,0:0:0:0:
320,228,364550,2,0,L|328:180,2,42.5,0|0|0,0:0|1:0|0:0,0:0:0:0:
292,320,364910,1,0,0:0:0:0:
284,328,365030,1,0,0:0:0:0:
276,336,365150,6,0,P|232:344|184:348,1,85,0|0,3:0|0:0,0:0:0:0:
56,300,365630,1,0,1:0:0:0:
100,164,365870,1,0,0:0:0:0:
235,216,366110,2,0,P|279:224|327:228,1,85,0|0,3:0|0:0,0:0:0:0:
408,240,366470,1,0,0:0:0:0:
408,240,366590,2,0,L|400:180,1,42.5,0|0,1:0|0:0,0:0:0:0:
352,128,366830,2,0,L|343:67,1,42.5
296,16,367070,6,0,P|220:20|184:24,1,85,0|0,3:0|0:0,0:0:0:0:
116,132,367550,2,0,P|192:136|228:140,1,85,0|0,1:0|0:0,0:0:0:0:
340,176,368030,2,0,L|392:168,1,42.5,0|0,3:0|0:0,0:0:0:0:
440,96,368270,2,0,L|388:88,1,42.5
312,48,368510,1,0,1:0:0:0:
286,49,368630,1,0,0:0:0:0:
261,51,368750,1,0,0:0:0:0:
235,53,368870,1,0,0:0:0:0:
256,192,384350,5,4,0:0:0:0:
