osu file format v14

[General]
AudioFilename: audio.mp3
AudioLeadIn: 0
PreviewTime: 98626
Countdown: 1
SampleSet: Soft
StackLeniency: 0.7
Mode: 0
LetterboxInBreaks: 0
WidescreenStoryboard: 0

[Editor]
DistanceSpacing: 2.4
BeatDivisor: 6
GridSize: 8
TimelineZoom: 1

[Metadata]
Title:MyonMyonMyonMyonMyonMyon!
TitleUnicode:MyonMyonMyonMyonMyonMyon!
Artist:ShibayanRecords
ArtistUnicode:ShibayanRecords
Creator:ExpertBOT
Version:Expert
Source:ZUN feat. 3L
Tags:ShibayanRecords touhou thx for playing XD
BeatmapID:1452034
BeatmapSetID:685999

[Difficulty]
HPDrainRate:4
CircleSize:4
OverallDifficulty:8
ApproachRate:9.6
SliderMultiplier:1.4
SliderTickRate:1

[Events]
//Background and Video events
0,0,"50610442_p0.jpg",0,0
//Break Periods
2,4339,7318
2,38354,52673
//Storyboard Layer 0 (Background)
//Storyboard Layer 1 (Fail)
//Storyboard Layer 2 (Pass)
//Storyboard Layer 3 (Foreground)
//Storyboard Sound Samples

[TimingPoints]
1304,472.44094488189,4,2,0,20,1,0
7918,-100,4,2,0,100,0,0
38154,472.44094488189,4,2,0,100,1,0
98627,-100,4,2,0,100,0,1
128863,-100,4,2,0,100,0,0
249808,-100,4,2,0,100,0,1
280044,-100,4,2,0,100,0,0

[HitObjects]
256,192,1304,12,0,4139,0:0:0:0:
64,48,7918,5,0,0:0:0:0:
64,48,8154,1,0,0:0:0:0:
64,48,8390,1,0,0:0:0:0:
176,96,8863,1,0,0:0:0:0:
208,96,9099,1,0,0:0:0:0:
320,160,9571,1,0,0:0:0:0:
208,288,10044,1,0,0:0:0:0:
176,288,10280,1,0,0:0:0:0:
64,336,10753,5,0,0:0:0:0:
64,336,10989,1,0,0:0:0:0:
64,336,11225,2,0,L|176:272,1,116.666666666667
416,192,11698,5,0,0:0:0:0:
416,192,11934,1,0,0:0:0:0:
416,192,12170,1,0,0:0:0:0:
256,80,12643,1,0,0:0:0:0:
256,144,12879,1,0,0:0:0:0:
256,288,13351,1,0,0:0:0:0:
168,128,13824,1,0,0:0:0:0:
168,256,14060,1,0,0:0:0:0:
280,192,14296,1,0,0:0:0:0:
128,192,14532,1,0,0:0:0:0:
240,256,14769,1,0,0:0:0:0:
232,128,15004,2,0,B|296:168|312:144|248:104,1,116.666666666667
456,192,15477,5,0,0:0:0:0:
384,192,15714,1,0,0:0:0:0:
312,192,15950,1,0,0:0:0:0:
56,192,16422,1,0,0:0:0:0:
120,192,16658,1,0,0:0:0:0:
456,192,17130,5,0,0:0:0:0:
120,192,17603,1,0,0:0:0:0:
184,192,17839,1,0,0:0:0:0:
392,192,18311,1,0,0:0:0:0:
256,192,18548,1,0,0:0:0:0:
392,192,18784,2,0,P|360:152|392:104,1,116.666666666667
432,304,19256,5,0,0:0:0:0:
352,304,19492,1,0,0:0:0:0:
272,304,19729,1,0,0:0:0:0:
80,304,20201,1,0,0:0:0:0:
160,304,20437,1,0,0:0:0:0:
352,304,20910,5,0,0:0:0:0:
344,128,21382,1,0,0:0:0:0:
344,256,21618,1,0,0:0:0:0:
232,192,21854,1,0,0:0:0:0:
384,192,22090,1,0,0:0:0:0:
272,256,22327,1,0,0:0:0:0:
280,128,22562,2,0,B|216:168|200:144|264:104,1,116.666666666667
56,192,23036,5,0,0:0:0:0:
128,192,23273,1,0,0:0:0:0:
200,192,23509,1,0,0:0:0:0:
456,192,23981,1,0,0:0:0:0:
392,192,24217,1,0,0:0:0:0:
56,192,24689,5,0,0:0:0:0:
392,192,25162,1,0,0:0:0:0:
328,192,25398,1,0,0:0:0:0:
120,192,25870,1,0,0:0:0:0:
256,192,26107,1,0,0:0:0:0:
120,192,26343,2,0,P|152:152|120:104,1,116.666666666667
119,281,26815,5,0,0:0:0:0:
296,280,27052,1,0,0:0:0:0:
208,280,27288,1,0,0:0:0:0:
408,136,27760,1,0,0:0:0:0:
408,224,27996,1,0,0:0:0:0:
104,224,28469,5,0,0:0:0:0:
104,224,28941,1,0,0:0:0:0:
104,136,29178,1,0,0:0:0:0:
336,272,29414,1,0,0:0:0:0:
176,272,29650,1,0,0:0:0:0:
256,112,29886,1,0,0:0:0:0:
256,192,30122,2,0,P|208:216|168:176,1,116.666666666667
248,344,30595,5,0,0:0:0:0:
152,264,30831,1,0,0:0:0:0:
248,344,31067,1,0,0:0:0:0:
264,40,31540,1,0,0:0:0:0:
360,120,31776,1,0,0:0:0:0:
264,40,32248,5,0,0:0:0:0:
256,192,32721,1,0,0:0:0:0:
248,264,32957,1,0,0:0:0:0:
264,88,33429,1,0,0:0:0:0:
256,192,33666,1,0,0:0:0:0:
248,296,33902,2,0,B|248:320|248:320|352:328,1,116.666666666667
128,80,34374,5,0,0:0:0:0:
224,80,34611,1,0,0:0:0:0:
320,80,34847,1,0,0:0:0:0:
384,304,35319,1,0,0:0:0:0:
288,304,35555,1,0,0:0:0:0:
384,304,36028,5,0,0:0:0:0:
256,80,36500,1,0,0:0:0:0:
256,192,36737,1,0,0:0:0:0:
256,304,36973,1,0,0:0:0:0:
256,192,37210,12,4,38154,0:0:0:0:
256,192,53273,5,0,0:0:0:0:
