osu file format v14

[General]
AudioFilename: ShibayanRecords - Clockup Flowers.mp3
AudioLeadIn: 900
PreviewTime: 84166
Countdown: 0
SampleSet: Normal
StackLeniency: 0.7
Mode: 0
LetterboxInBreaks: 0
WidescreenStoryboard: 0

[Editor]
Bookmarks: 1666,16666,46666,52291,54166,65416,69166,95416,99166,114166,121666
DistanceSpacing: 1.1
BeatDivisor: 4
GridSize: 32
TimelineZoom: 1.4

[Metadata]
Title:Clockup Flowers
TitleUnicode:Clockup Flowers
Artist:ShibayanRecords
ArtistUnicode:ShibayanRecords
Creator:Grlgrl
Version:Hard
Source:東方Project
Tags:niconico1 Cyllinus c83 メイドと血の懐中時計 Izayoi Sakuya ランコ 83 月時計 ~ ルナ・ダイアル comiket 黒岩サトシ Mágico Catástrofe マジコカタストロフィ cut version Shibayan Ranko 東方紅魔郷 ~ the Embodiment of Scarlet Devil Touhou
BeatmapID:692071
BeatmapSetID:309598

[Difficulty]
HPDrainRate:5
CircleSize:4
OverallDifficulty:6
ApproachRate:8
SliderMultiplier:1.4
SliderTickRate:1

[Events]
//Background and Video events
0,0,"is2.jpg",0,0
//Break Periods
//Storyboard Layer 0 (Background)
//Storyboard Layer 1 (Fail)
//Storyboard Layer 2 (Pass)
//Storyboard Layer 3 (Foreground)
//Storyboard Sound Samples

[TimingPoints]
-209,468.75,4,1,0,40,1,0
1431,-100,4,1,0,10,0,0
1666,-100,4,1,0,40,0,0
16431,-80,4,1,0,50,0,0
47017,-100,4,1,0,40,0,0
52291,-80,4,1,0,60,0,0
65416,-80,4,1,0,90,0,0
68462,-80,4,1,0,60,0,0
95416,-80,4,1,0,90,0,0
98462,-80,4,1,0,70,0,0
99166,-80,4,1,0,70,0,1
114166,-100,4,1,0,45,0,0
116041,-100,4,1,0,40,0,0
117916,-100,4,1,0,30,0,0
120025,-100,4,1,0,20,0,0

[Colours]
Combo1 : 32,149,143
Combo2 : 0,128,255
Combo3 : 185,0,185
SliderBorder : 197,185,235

[HitObjects]
224,120,1197,6,0,P|196:148|196:208,1,70,0|0,0:0|2:0,0:0:0:0:
120,180,1666,6,0,P|160:84|192:60,1,140,0|8,0:0|0:0,0:0:0:0:
255,29,2369,1,0,0:0:0:0:
276,29,2486,1,0,0:0:0:0:
297,33,2603,2,0,P|351:66|360:82,1,70
389,139,3072,1,8,0:0:0:0:
389,215,3306,1,0,0:0:0:0:
389,292,3541,6,0,P|318:315|244:291,1,140,0|8,0:0|0:0,0:0:0:0:
208,359,4244,1,0,0:0:0:0:
192,343,4361,1,0,0:0:0:0:
176,327,4478,2,0,L|124:275,1,70
165,210,4947,1,8,0:0:0:0:
88,210,5181,1,0,0:0:0:0:
126,277,5416,6,0,L|254:221,1,140,0|8,0:0|0:0,0:0:0:0:
211,157,6119,1,0,0:0:0:0:
231,157,6236,1,0,0:0:0:0:
252,159,6353,2,0,L|324:171,1,70
280,236,6822,1,8,0:0:0:0:
203,236,7056,1,0,0:0:0:0:
203,158,7291,6,0,L|203:18,1,140,0|8,0:0|0:0,0:0:0:0:
148,72,7994,1,0,0:0:0:0:
165,83,8111,1,0,0:0:0:0:
185,95,8228,2,0,L|253:131,1,70
318,158,8697,1,8,0:0:0:0:
304,82,8931,1,0,0:0:0:0:
380,96,9166,6,0,B|400:120|424:132|424:132|456:136|456:136|480:148|508:196,1,140,0|8,0:0|0:0,0:0:0:0:
449,235,9869,1,0,0:0:0:0:
438,253,9986,1,0,0:0:0:0:
426,270,10103,2,0,P|391:294|361:294,1,70
365,218,10572,1,8,0:0:0:0:
326,152,10806,1,0,0:0:0:0:
289,84,11041,6,0,P|244:143|264:202,1,140,0|8,0:0|0:0,0:0:0:0:
212,259,11744,1,0,0:0:0:0:
195,246,11861,1,0,0:0:0:0:
179,232,11978,2,0,L|111:181,1,70
200,182,12447,1,8,0:0:0:0:
276,182,12681,1,0,0:0:0:0:
353,182,12916,6,0,P|318:115|256:106,1,140,0|8,0:0|0:0,0:0:0:0:
224,36,13619,1,0,0:0:0:0:
213,54,13736,1,0,0:0:0:0:
202,72,13853,2,0,L|154:142,1,70
108,75,14322,1,8,0:0:0:0:
108,151,14556,1,0,0:0:0:0:
44,108,14791,6,0,B|4:92|4:92|-12:152|8:216,1,140,0|8,0:0|0:0,0:0:0:0:
44,252,15494,1,0,0:0:0:0:
62,263,15611,1,0,0:0:0:0:
80,274,15728,2,0,P|120:283|150:274,1,70
206,225,16197,1,8,0:0:0:0:
116,192,16431,5,0,0:0:0:0:
188,128,16666,1,0,0:0:0:0:
200,132,16783,2,0,L|282:167,1,87.5,0|0,0:0|0:0,2:0:0:0:
304,178,17134,1,8,0:0:0:0:
368,252,17369,1,0,0:0:0:0:
380,156,17603,1,0,0:0:0:0:
384,143,17720,2,0,P|446:104|480:119,1,87.5,0|0,0:0|0:0,2:0:0:0:
481,112,18072,1,8,0:0:0:0:
463,206,18306,5,0,0:0:0:0:
368,228,18541,1,0,0:0:0:0:
355,226,18658,2,0,P|314:197|302:137,1,87.5,0|0,0:0|0:0,2:0:0:0:
300,137,19009,1,8,0:0:0:0:
300,233,19244,1,0,0:0:0:0:
260,320,19478,1,0,0:0:0:0:
164,320,19712,1,0,0:0:0:0:
158,320,19830,1,0,0:0:0:0:
152,320,19947,1,8,0:0:0:0:
156,224,20181,5,0,0:0:0:0:
246,189,20416,1,0,0:0:0:0:
259,189,20533,2,0,P|313:195|350:226,1,87.5,0|0,0:0|0:0,2:0:0:0:
354,232,20884,1,8,0:0:0:0:
351,329,21119,1,0,0:0:0:0:
261,364,21354,1,0,0:0:0:0:
247,363,21471,2,0,P|193:357|156:326,1,87.5,0|0,0:0|0:0,2:0:0:0:
152,320,21822,1,8,0:0:0:0:
232,264,22056,5,0,0:0:0:0:
293,189,22291,1,0,0:0:0:0:
298,177,22408,2,0,P|301:128|276:99,1,87.5,0|0,0:0|0:0,2:0:0:0:
254,87,22759,1,8,0:0:0:0:
158,87,22994,1,0,0:0:0:0:
226,154,23228,1,0,0:0:0:0:
322,154,23462,1,0,0:0:0:0:
328,154,23580,1,0,0:0:0:0:
334,154,23697,1,8,0:0:0:0:
268,84,23931,5,0,0:0:0:0:
171,84,24166,1,0,0:0:0:0:
158,87,24283,2,0,P|128:118|127:160,1,87.5,0|0,0:0|0:0,2:0:0:0:
138,185,24634,1,8,0:0:0:0:
232,202,24869,1,0,0:0:0:0:
176,278,25104,1,0,0:0:0:0:
167,287,25221,2,0,P|126:297|88:276,1,87.5,0|0,0:0|0:0,2:0:0:0:
73,256,25572,1,8,0:0:0:0:
138,185,25806,5,0,0:0:0:0:
232,202,26041,1,0,0:0:0:0:
243,205,26158,2,0,P|272:237|273:279,1,87.5,0|0,0:0|0:0,2:0:0:0:
264,302,26509,1,8,0:0:0:0:
176,340,26744,1,0,0:0:0:0:
108,272,26978,1,0,0:0:0:0:
175,204,27212,1,0,0:0:0:0:
181,204,27330,1,0,0:0:0:0:
187,204,27447,1,8,0:0:0:0:
254,271,27681,5,0,0:0:0:0:
322,202,27916,1,0,0:0:0:0:
325,188,28033,2,0,P|327:145|299:112,1,87.5,0|0,0:0|0:0,2:0:0:0:
275,102,28384,1,8,0:0:0:0:
204,168,28619,1,0,0:0:0:0:
107,168,28853,1,0,0:0:0:0:
107,154,28970,2,0,P|131:99|157:86,1,87.5,0|0,0:0|0:0,2:0:0:0:
179,79,29322,1,8,0:0:0:0:
275,79,29556,5,0,0:0:0:0:
356,132,29791,1,0,0:0:0:0:
366,153,29908,1,0,0:0:0:0:
368,179,30025,1,0,0:0:0:0:
362,205,30142,1,0,0:0:0:0:
348,227,30259,1,8,0:0:0:0:
279,295,30494,5,0,0:0:0:0:
211,227,30728,1,0,0:0:0:0:
143,294,30962,1,0,0:0:0:0:
138,298,31080,1,0,0:0:0:0:
134,302,31197,1,8,0:0:0:0:
201,369,31431,5,0,0:0:0:0:
104,369,31665,1,0,0:0:0:0:
93,364,31783,2,0,P|63:331|71:276,1,87.5,0|0,0:0|0:0,2:0:0:0:
75,266,32134,1,8,0:0:0:0:
171,266,32369,1,0,0:0:0:0:
156,172,32603,1,0,0:0:0:0:
149,160,32721,2,0,P|113:133|60:146,1,87.5,0|0,0:0|0:0,2:0:0:0:
49,152,33072,1,8,0:0:0:0:
84,243,33306,5,0,0:0:0:0:
181,241,33541,1,0,0:0:0:0:
203,229,33658,1,0,0:0:0:0:
219,208,33775,1,0,0:0:0:0:
228,183,33892,1,0,0:0:0:0:
228,158,34009,1,8,0:0:0:0:
198,76,34244,5,0,0:0:0:0:
265,8,34478,1,0,0:0:0:0:
332,75,34712,1,0,0:0:0:0:
336,79,34830,1,0,0:0:0:0:
340,83,34947,1,8,0:0:0:0:
406,16,35181,1,0,0:0:0:0:
406,112,35416,1,0,0:0:0:0:
402,123,35533,2,0,P|372:154|330:158,1,87.5,0|0,0:0|0:0,2:0:0:0:
307,150,35884,1,8,0:0:0:0:
224,200,36119,5,0,0:0:0:0:
285,275,36353,1,0,0:0:0:0:
305,259,36470,1,0,0:0:0:0:
319,238,36587,1,0,0:0:0:0:
324,211,36704,1,0,0:0:0:0:
320,186,36821,1,8,0:0:0:0:
251,117,37056,5,0,0:0:0:0:
164,156,37291,1,0,0:0:0:0:
152,158,37408,2,0,P|110:147|85:113,1,87.5,0|0,0:0|0:0,2:0:0:0:
81,89,37759,1,8,0:0:0:0:
172,56,37994,1,0,0:0:0:0:
251,117,38228,1,0,0:0:0:0:
183,184,38462,1,0,0:0:0:0:
178,188,38580,1,0,0:0:0:0:
174,192,38697,1,8,0:0:0:0:
270,192,38931,5,0,0:0:0:0:
330,116,39166,1,0,0:0:0:0:
338,106,39283,2,0,P|352:54|333:17,1,87.5,0|0,0:0|0:0,2:0:0:0:
329,5,39634,1,8,0:0:0:0:
235,30,39869,1,0,0:0:0:0:
270,119,40104,1,0,0:0:0:0:
275,131,40221,2,0,P|312:169|353:171,1,87.5,0|0,0:0|0:0,2:0:0:0:
367,174,40572,1,8,0:0:0:0:
392,80,40806,5,0,0:0:0:0:
298,66,41041,1,0,0:0:0:0:
285,64,41158,2,0,P|232:77|210:111,1,87.5,0|0,0:0|0:0,2:0:0:0:
202,123,41509,1,8,0:0:0:0:
228,216,41744,1,0,0:0:0:0:
275,131,41978,1,0,0:0:0:0:
322,216,42212,1,0,0:0:0:0:
325,221,42330,1,0,0:0:0:0:
328,226,42447,1,8,0:0:0:0:
281,311,42681,5,0,0:0:0:0:
193,348,42916,1,0,0:0:0:0:
181,350,43033,2,0,P|139:338|115:303,1,87.5,0|0,0:0|0:0,2:0:0:0:
111,280,43384,1,8,0:0:0:0:
179,211,43619,1,0,0:0:0:0:
246,278,43853,1,0,0:0:0:0:
313,210,44087,1,0,0:0:0:0:
317,206,44205,1,0,0:0:0:0:
322,202,44322,1,8,0:0:0:0:
389,269,44556,5,0,0:0:0:0:
429,181,44791,2,0,L|469:93,1,87.5,0|0,0:0|0:0,2:0:0:0:
342,101,45259,2,0,L|332:4,1,87.5,0|0,0:0|0:0,2:0:0:0:
226,75,45728,2,0,L|169:-3,1,87.5,0|0,0:0|0:0,2:0:0:0:
112,110,46197,2,0,L|24:70,1,87.5,0|0,0:0|0:0,2:0:0:0:
30,197,46666,1,0,0:0:0:0:
168,292,47017,6,0,L|286:241,1,105
316,84,47720,2,0,L|198:134,1,105
70,181,48423,2,0,P|62:161|77:142,3,35,8|0|8|0,3:0|0:0|3:0|0:0,0:0:0:0:
188,32,49126,2,0,L|244:144,1,105
234,294,49830,2,0,L|306:192,1,105
364,120,50416,6,0,L|420:232,1,105
242,219,51119,2,0,L|130:159,1,105
318,164,51822,2,0,L|430:224,1,105
473,246,52291,6,0,B|473:270|473:270|441:283,11,43.75
407,279,53697,2,0,L|295:267,1,87.5
268,188,54166,6,0,L|355:198,1,87.5,0|0,0:0|0:0,2:0:0:0:
451,205,54634,1,8,0:0:0:0:
464,109,54869,1,0,0:0:0:0:
369,100,55103,2,0,L|281:91,1,87.5,0|0,0:0|0:0,2:0:0:0:
186,79,55572,5,8,0:0:0:0:
186,176,55806,1,0,0:0:0:0:
282,176,56041,1,0,0:0:0:0:
282,273,56275,1,0,0:0:0:0:
378,273,56509,5,8,0:0:0:0:
282,273,56744,1,0,0:0:0:0:
185,273,56978,2,0,P|146:255|128:217,1,87.5,0|0,0:0|0:0,2:0:0:0:
130,119,57447,1,8,0:0:0:0:
128,217,57681,1,0,0:0:0:0:
190,154,57916,6,0,P|237:131|278:146,1,87.5,0|0,0:0|0:0,2:0:0:0:
380,225,58384,2,0,P|333:248|292:233,1,87.5,8|0,0:0|0:0,2:0:0:0:
376,121,58853,2,0,P|423:98|464:113,2,87.5,0|0|8,0:0|0:0|0:0,2:0:0:0:
308,189,59556,5,0,0:0:0:0:
220,229,59791,1,0,0:0:0:0:
133,189,60025,1,0,0:0:0:0:
84,105,60259,2,0,P|96:49|136:33,1,87.5,8|0,0:0|0:0,2:0:0:0:
192,111,60728,1,0,0:0:0:0:
247,22,60962,1,0,0:0:0:0:
296,113,61197,1,8,0:0:0:0:
351,24,61431,1,0,0:0:0:0:
404,113,61666,6,0,L|449:189,1,87.5,0|0,0:0|0:0,2:0:0:0:
360,221,62134,2,0,L|345:308,1,87.5,8|0,0:0|0:0,2:0:0:0:
256,277,62603,2,0,L|188:334,2,87.5,0|0|8,0:0|0:0|0:0,2:0:0:0:
330,214,63306,5,0,0:0:0:0:
330,117,63541,1,0,0:0:0:0:
243,77,63775,1,0,0:0:0:0:
160,125,64009,2,0,P|134:165|140:205,1,87.5,8|0,0:0|0:0,2:0:0:0:
230,256,64478,1,0,0:0:0:0:
127,276,64712,1,0,0:0:0:0:
221,324,64947,1,8,0:0:0:0:
118,344,65181,1,0,0:0:0:0:
54,284,65416,6,0,P|38:243|51:202,1,87.5,4|0,0:0|2:0,0:0:0:0:
49,120,65767,2,0,P|92:127|121:159,1,87.5,4|0,0:0|2:0,0:0:0:0:
123,240,66119,2,0,B|176:240|208:200|204:160|202:155|201:141|201:141|224:128|224:128|244:120,1,175,4|0,0:0|2:0,0:0:0:0:
293,192,66822,2,0,L|336:236,3,43.75
355,254,67291,2,0,B|384:283|384:283|441:272,1,87.5,4|0,0:0|2:0,0:0:0:0:
409,203,67642,2,0,B|449:193|449:193|469:139,1,87.5,4|0,0:0|2:0,0:0:0:0:
392,133,67994,2,0,B|408:69|408:69|360:21,1,131.25,4|0,0:0|2:0,0:0:0:0:
320,24,68462,5,0,0:0:0:0:
232,24,68697,2,0,L|180:24,3,43.75,0|0|0|0,0:0|0:0|0:0|0:0,2:0:0:0:
146,37,69166,2,0,P|110:65|94:113,1,87.5,0|0,0:0|0:0,2:0:0:0:
100,208,69634,2,0,P|134:181|151:142,1,87.5,8|0,0:0|0:0,2:0:0:0:
212,56,70103,6,0,L|304:32,1,87.5,0|0,0:0|0:0,2:0:0:0:
258,132,70572,2,0,L|350:108,1,87.5,8|0,0:0|0:0,2:0:0:0:
304,208,71041,2,0,L|396:184,1,87.5,0|0,0:0|0:0,2:0:0:0:
350,284,71509,2,0,L|442:260,1,87.5,8|0,0:0|0:0,2:0:0:0:
464,152,71978,1,0,0:0:0:0:
386,71,72212,1,0,0:0:0:0:
337,176,72447,1,8,0:0:0:0:
260,96,72681,1,0,0:0:0:0:
211,200,72916,6,0,P|229:252|257:261,1,87.5,0|0,0:0|0:0,2:0:0:0:
317,124,73385,2,0,P|261:113|239:134,1,87.5,8|0,0:0|0:0,2:0:0:0:
329,256,73854,2,0,P|364:213|357:185,1,87.5,0|0,0:0|0:0,2:0:0:0:
211,200,74322,6,0,P|229:252|257:261,1,87.5,8|0,0:0|0:0,2:0:0:0:
360,245,74791,1,0,0:0:0:0:
388,144,75025,1,0,0:0:0:0:
320,64,75259,2,0,P|279:48|228:79,1,87.5,8|0,0:0|0:0,2:0:0:0:
223,83,75611,1,0,0:0:0:0:
210,106,75728,2,0,B|188:156|188:156|200:188,1,87.5,0|0,0:0|0:0,2:0:0:0:
212,208,76080,1,0,0:0:0:0:
229,228,76197,2,0,P|269:259|311:252,1,87.5,8|0,0:0|0:0,2:0:0:0:
356,184,76666,6,0,P|376:152|420:132,1,87.5,0|0,0:0|0:0,2:0:0:0:
452,232,77134,2,0,P|432:264|388:284,1,87.5,8|0,0:0|0:0,2:0:0:0:
296,232,77603,2,0,P|265:201|223:193,1,87.5,0|0,0:0|0:0,2:0:0:0:
142,260,78072,2,0,P|172:290|214:298,1,87.5,8|0,0:0|0:0,2:0:0:0:
314,263,78541,2,0,B|358:231|358:231|358:195,1,87.5,0|0,0:0|0:0,2:0:0:0:
324,100,79009,2,0,B|280:132|280:132|280:167,1,87.5,8|0,0:0|0:0,2:0:0:0:
280,279,79478,1,0,0:0:0:0:
199,198,79712,1,0,0:0:0:0:
279,117,79947,1,8,0:0:0:0:
359,197,80181,1,0,0:0:0:0:
280,279,80416,6,0,B|244:316|244:316|168:316,1,87.5,0|0,0:0|0:0,2:0:0:0:
94,316,80884,1,8,0:0:0:0:
188,252,81119,1,0,0:0:0:0:
99,181,81353,1,0,0:0:0:0:
193,117,81587,1,0,0:0:0:0:
104,46,81822,6,0,P|60:56|36:88,1,87.5,8|0,0:0|0:0,2:0:0:0:
35,193,82291,1,0,0:0:0:0:
109,267,82525,1,0,0:0:0:0:
213,267,82759,2,0,L|303:266,1,87.5,8|0,0:0|0:0,2:0:0:0:
326,259,83111,5,0,0:0:0:0:
349,247,83228,1,0,0:0:0:0:
368,229,83345,1,0,0:0:0:0:
381,206,83462,1,0,0:0:0:0:
387,181,83579,1,0,0:0:0:0:
387,155,83697,2,0,L|387:54,1,87.5,8|0,0:0|0:0,2:0:0:0:
296,12,84166,6,0,L|208:48,1,87.5,0|0,0:0|0:0,2:0:0:0:
116,84,84634,2,0,L|204:120,1,87.5,8|0,0:0|0:0,2:0:0:0:
297,156,85103,2,0,L|209:192,1,87.5,0|0,0:0|0:0,2:0:0:0:
117,228,85572,2,0,L|205:264,1,87.5,8|0,0:0|0:0,2:0:0:0:
276,332,86041,2,0,L|160:332,1,87.5,0|0,0:0|0:0,2:0:0:0:
268,261,86509,2,0,L|348:227,1,87.5,8|0,0:0|0:0,2:0:0:0:
452,180,86978,1,0,0:0:0:0:
342,150,87212,1,0,0:0:0:0:
444,104,87447,1,8,0:0:0:0:
334,74,87681,1,0,0:0:0:0:
219,74,87916,6,0,L|129:74,1,87.5,0|0,0:0|0:0,2:0:0:0:
17,74,88384,1,8,0:0:0:0:
98,155,88618,1,0,0:0:0:0:
98,269,88853,1,0,0:0:0:0:
179,188,89087,1,0,0:0:0:0:
293,188,89322,6,0,L|231:126,1,87.5,8|0,0:0|0:0,2:0:0:0:
117,126,89791,2,0,L|178:187,1,87.5,0|0,0:0|0:0,2:0:0:0:
178,301,90259,2,0,L|116:239,1,87.5,8|0,0:0|0:0,2:0:0:0:
101,217,90611,1,0,0:0:0:0:
92,192,90728,2,0,L|92:98,1,87.5,0|0,0:0|0:0,2:0:0:0:
197,104,91197,2,0,L|197:191,1,87.5,8|0,0:0|0:0,2:0:0:0:
206,216,91548,1,0,0:0:0:0:
221,238,91666,2,0,L|283:300,2,87.5,0|0|8,0:0|0:0|0:0,2:0:0:0:
146,163,92369,6,0,L|115:132,2,43.75,0|0|0,0:0|0:0|0:0,2:0:0:0:
250,163,92837,2,0,L|280:193,2,43.75,0|0|8,0:0|0:0|0:0,2:0:0:0:
250,57,93306,1,0,0:0:0:0:
355,57,93541,2,0,L|446:57,1,87.5,0|0,0:0|0:0,2:0:0:0:
366,129,94009,2,0,L|278:129,1,87.5,8|0,0:0|0:0,2:0:0:0:
355,201,94478,2,0,L|446:201,1,87.5,0|0,0:0|0:0,2:0:0:0:
366,273,94947,1,8,0:0:0:0:
366,273,95064,1,0,0:0:0:0:
234,273,95416,6,0,B|192:273|192:273|160:224,1,87.5,4|0,0:0|2:0,0:0:0:0:
232,198,95767,2,0,B|210:162|210:162|234:110,1,87.5,4|0,0:0|2:0,0:0:0:0:
293,161,96119,2,0,B|326:104|326:104|372:104|372:104|400:160,1,175,4|0,0:0|2:0,0:0:0:0:
400,248,96822,2,0,L|361:291,3,43.75
341,313,97291,6,0,P|306:338|262:336,1,87.5,4|0,0:0|2:0,0:0:0:0:
186,360,97642,2,0,P|181:317|204:280,1,87.5,4|0,0:0|2:0,0:0:0:0:
282,257,97994,2,0,P|224:197|145:223,1,175,4|0,0:0|2:0,0:0:0:0:
204,280,98697,5,8,0:0:0:0:
300,280,98931,1,0,0:0:0:0:
326,264,99048,1,0,0:0:0:0:
349,244,99166,2,0,P|375:202|368:157,1,87.5,0|0,0:0|0:0,2:0:0:0:
362,136,99517,1,0,0:0:0:0:
346,109,99634,2,0,P|309:73|273:65,1,87.5,8|0,0:0|0:0,2:0:0:0:
244,65,99986,5,0,0:0:0:0:
214,71,100103,2,0,P|154:97|136:125,1,87.5,0|0,0:0|0:0,2:0:0:0:
131,142,100455,1,0,0:0:0:0:
127,172,100572,2,0,P|139:220|183:236,1,87.5,8|0,0:0|0:0,2:0:0:0:
201,238,100923,1,0,0:0:0:0:
231,231,101041,2,0,L|344:93,1,175,0|8,0:0|0:0,2:0:0:0:
432,96,101744,5,0,0:0:0:0:
432,126,101861,1,0,0:0:0:0:
430,157,101978,2,0,P|413:210|368:245,1,87.5,0|0,0:0|0:0,2:0:0:0:
366,253,102330,1,0,0:0:0:0:
338,265,102447,2,0,P|274:277|242:261,1,87.5,8|0,0:0|0:0,2:0:0:0:
230,253,102798,5,0,0:0:0:0:
210,229,102916,2,0,P|191:167|213:127,1,87.5,0|0,0:0|0:0,2:0:0:0:
215,122,103267,1,0,0:0:0:0:
241,104,103384,2,0,P|285:84|325:96,1,87.5,8|0,0:0|0:0,2:0:0:0:
348,109,103736,1,0,0:0:0:0:
367,133,103853,2,0,P|380:179|371:219,2,87.5,0|0|8,0:0|0:0|0:0,2:0:0:0:
294,181,104556,5,0,0:0:0:0:
213,100,104791,1,0,0:0:0:0:
213,213,105025,1,0,0:0:0:0:
132,132,105259,2,0,L|55:54,1,87.5,8|0,0:0|0:0,2:0:0:0:
70,183,105728,2,0,L|146:261,1,87.5,0|0,0:0|0:0,2:0:0:0:
211,326,106197,1,8,0:0:0:0:
211,212,106431,1,0,0:0:0:0:
291,292,106666,2,0,L|367:370,1,87.5,0|0,0:0|0:0,2:0:0:0:
382,357,107017,5,0,0:0:0:0:
414,354,107134,2,0,L|475:291,1,87.5,8|0,0:0|0:0,2:0:0:0:
479,263,107486,1,0,0:0:0:0:
476,231,107603,2,0,L|413:170,1,87.5,0|0,0:0|0:0,2:0:0:0:
332,89,108072,5,8,0:0:0:0:
218,89,108306,1,0,0:0:0:0:
137,170,108541,2,0,L|74:231,1,87.5,0|0,0:0|0:0,2:0:0:0:
187,230,109009,2,0,L|250:169,1,87.5,8|0,0:0|0:0,2:0:0:0:
271,147,109361,1,0,0:0:0:0:
292,125,109478,2,0,L|355:64,1,87.5,0|0,0:0|0:0,2:0:0:0:
354,178,109947,5,8,0:0:0:0:
332,199,110064,2,0,L|263:267,1,87.5,0|0,0:0|0:0,2:0:0:0:
247,282,110416,1,0,0:0:0:0:
133,282,110650,2,0,L|101:314,2,43.75,0|0|8,0:0|0:0|0:0,2:0:0:0:
133,167,111119,2,0,L|163:136,2,43.75,0|0|0,0:0|0:0|0:0,2:0:0:0:
133,282,111587,2,0,L|101:314,2,43.75,0|0|8,0:0|0:0|0:0,2:0:0:0:
195,219,112056,5,0,0:0:0:0:
275,138,112291,2,0,L|275:37,1,87.5,0|0,0:0|0:0,2:0:0:0:
195,131,112760,2,0,L|195:235,1,87.5,0|0,0:0|0:0,2:0:0:0:
238,94,113228,2,0,L|137:94,1,87.5,0|0,0:0|0:0,2:0:0:0:
231,174,113697,2,0,L|335:174,1,87.5,0|0,0:0|0:0,2:0:0:0:
380,111,114166,5,4,0:0:0:0:
325,56,114400,1,0,0:0:0:0:
270,110,114634,1,8,0:0:0:0:
215,55,114869,1,0,0:0:0:0:
160,109,115103,1,4,0:0:0:0:
105,54,115337,2,0,L|78:25,4,35,0|0|8|0|0,0:0|0:0|0:0|0:0|0:0,0:0:0:0:
105,131,116041,6,0,P|147:184|175:193,1,70,4|0,0:0|0:0,0:0:0:0:
219,209,116509,1,8,0:0:0:0:
295,209,116743,1,0,0:0:0:0:
296,132,116978,1,4,0:0:0:0:
372,132,117212,1,0,0:0:0:0:
444,107,117446,2,0,P|471:85|486:54,1,70,8|0,0:0|0:0,0:0:0:0:
410,41,117916,5,4,0:0:0:0:
333,41,118150,1,0,0:0:0:0:
371,108,118384,2,0,L|371:184,1,70,8|0,0:0|0:0,0:0:0:0:
316,232,118853,1,4,0:0:0:0:
261,286,119087,2,0,L|218:337,5,35,0|0|8|0|0|0,0:0|0:0|0:0|0:0|0:0|0:0,0:0:0:0:
278,268,119791,6,0,P|293:237|285:203,1,70,4|0,0:0|0:0,0:0:0:0:
235,144,120260,1,8,0:0:0:0:
180,198,120494,1,0,0:0:0:0:
125,143,120728,2,0,P|120:97|135:66,1,70,4|0,0:0|0:0,0:0:0:0:
183,21,121197,1,8,0:0:0:0:
259,21,121431,1,0,0:0:0:0:
265,21,121549,1,0,0:0:0:0:
271,21,121666,1,4,0:0:0:0:
