osu file format v14

[General]
AudioFilename: audio.mp3
AudioLeadIn: 0
PreviewTime: 261549
Countdown: 0
SampleSet: Soft
StackLeniency: 0.7
Mode: 0
LetterboxInBreaks: 0
WidescreenStoryboard: 1

[Editor]
Bookmarks: 13929,22329,23529,46809,77289,92649,154089,215529,230649,261609,292329,323049,384489,399849
DistanceSpacing: 0.2
BeatDivisor: 8
GridSize: 32
TimelineZoom: 2.1

[Metadata]
Title:Oznei Haman wa Mou Iranai
TitleUnicode:オズネイ・ハマンはもういらない
Artist:Shibayan feat. yana
ArtistUnicode:Shibayan feat. yana
Creator:itay
Version:Selfish Desire
Source:東方星蓮船 ~ Undefined Fantastic Object.
Tags:Shibayan Records TH12 UFO Toragara no Bishamonten 寅丸 星 虎柄の毘沙門天 the tiger-patterned tiger patterned vaisravana video game electronic yanaginagi touhou zun 東方project japanese shou toramaru chie fukami dream materialise Musou Materiaraizu midorijeon
BeatmapID:3642792
BeatmapSetID:1778687

[Difficulty]
HPDrainRate:5
CircleSize:4.7
OverallDifficulty:8
ApproachRate:8.3
SliderMultiplier:1.8
SliderTickRate:1

[Events]
//Background and Video events
0,0,"shou z.jpg",0,0
//Break Periods
2,215729,229945
//Storyboard Layer 0 (Background)
//Storyboard Layer 1 (Fail)
//Storyboard Layer 2 (Pass)
//Storyboard Layer 3 (Foreground)
//Storyboard Layer 4 (Overlay)
//Storyboard Sound Samples

[TimingPoints]
489,480,4,2,1,50,1,0
489,-133.333333333333,4,2,1,50,0,0
13929,-100,4,2,1,60,0,0
15849,-133.333333333333,4,2,1,65,0,0
16329,-133.333333333333,4,2,2,65,0,0
17769,-133.333333333333,4,2,1,65,0,0
18249,-133.333333333333,4,2,2,65,0,0
19689,-133.333333333333,4,2,1,65,0,0
20169,-133.333333333333,4,2,2,65,0,0
21609,-133.333333333333,4,2,1,65,0,0
22089,-133.333333333333,4,2,2,65,0,0
23289,-133.333333333333,4,2,1,65,0,0
24009,-133.333333333333,4,2,2,65,0,0
25449,-133.333333333333,4,2,1,65,0,0
25929,-133.333333333333,4,2,2,65,0,0
27369,-133.333333333333,4,2,1,65,0,0
27849,-133.333333333333,4,2,2,65,0,0
29289,-133.333333333333,4,2,1,65,0,0
29769,-133.333333333333,4,2,2,65,0,0
30249,-133.333333333333,4,2,1,65,0,0
30729,-133.333333333333,4,2,2,65,0,0
31209,-90.9090909090909,4,2,1,65,0,0
31689,-117.647058823529,4,2,3,65,0,0
31809,-117.647058823529,4,2,2,65,0,0
32649,-117.647058823529,4,2,3,65,0,0
32889,-117.647058823529,4,2,1,65,0,0
33129,-117.647058823529,4,2,3,65,0,0
33369,-117.647058823529,4,2,1,65,0,0
33609,-117.647058823529,4,2,3,65,0,0
33729,-117.647058823529,4,2,2,65,0,0
34569,-117.647058823529,4,2,3,65,0,0
34689,-117.647058823529,4,2,1,65,0,0
35049,-117.647058823529,4,2,3,65,0,0
35289,-117.647058823529,4,2,1,65,0,0
35529,-117.647058823529,4,2,3,65,0,0
35649,-117.647058823529,4,2,2,65,0,0
36489,-117.647058823529,4,2,3,65,0,0
36609,-117.647058823529,4,2,1,65,0,0
36969,-117.647058823529,4,2,3,65,0,0
37209,-117.647058823529,4,2,1,65,0,0
37449,-117.647058823529,4,2,3,65,0,0
37569,-117.647058823529,4,2,2,65,0,0
38409,-117.647058823529,4,2,3,65,0,0
38529,-117.647058823529,4,2,4,65,0,0
38769,-117.647058823529,4,2,1,65,0,0
38889,-117.647058823529,4,2,3,65,0,0
39129,-117.647058823529,4,2,1,65,0,0
39369,-117.647058823529,4,2,3,65,0,0
39489,-117.647058823529,4,2,2,65,0,0
40329,-117.647058823529,4,2,3,65,0,0
40449,-117.647058823529,4,2,1,65,0,0
40809,-117.647058823529,4,2,3,65,0,0
41049,-117.647058823529,4,2,1,65,0,0
41289,-117.647058823529,4,2,3,65,0,0
41409,-117.647058823529,4,2,2,65,0,0
42249,-117.647058823529,4,2,3,65,0,0
42369,-117.647058823529,4,2,1,65,0,0
42729,-117.647058823529,4,2,3,65,0,0
42969,-117.647058823529,4,2,1,65,0,0
43209,-117.647058823529,4,2,3,65,0,0
43329,-117.647058823529,4,2,2,65,0,0
44169,-117.647058823529,4,2,3,65,0,0
44409,-117.647058823529,4,2,1,65,0,0
44649,-117.647058823529,4,2,3,65,0,0
44769,-117.647058823529,4,2,1,65,0,0
45129,-117.647058823529,4,2,3,65,0,0
45249,-117.647058823529,4,2,1,65,0,0
45609,-117.647058823529,4,2,3,65,0,0
45729,-117.647058823529,4,2,1,65,0,0
46089,-133.333333333333,4,2,1,65,0,0
46569,-133.333333333333,4,2,1,70,0,0
46809,-100,4,2,1,70,0,0
47049,-100,4,2,3,70,0,0
47289,-100,4,2,1,70,0,0
47529,-100,4,2,3,70,0,0
48009,-100,4,2,5,70,0,0
48249,-100,4,2,4,70,0,0
48729,-100,4,2,1,70,0,0
48969,-100,4,2,3,70,0,0
49089,-100,4,2,2,70,0,0
49929,-100,4,2,5,70,0,0
50169,-100,4,2,1,70,0,0
50409,-100,4,2,5,70,0,0
50649,-100,4,2,1,70,0,0
50889,-100,4,2,3,70,0,0
51129,-100,4,2,1,70,0,0
51369,-100,4,2,3,70,0,0
51849,-100,4,2,5,70,0,0
52089,-100,4,2,4,70,0,0
52569,-100,4,2,1,70,0,0
52809,-100,4,2,3,70,0,0
52929,-100,4,2,2,70,0,0
53769,-100,4,2,4,70,0,0
53889,-100,4,2,1,70,0,0
54249,-100,4,2,4,70,0,0
54489,-100,4,2,1,70,0,0
54729,-100,4,2,3,70,0,0
54969,-100,4,2,1,70,0,0
55209,-100,4,2,3,70,0,0
55689,-100,4,2,5,70,0,0
55929,-100,4,2,4,70,0,0
56409,-100,4,2,1,70,0,0
56649,-100,4,2,3,70,0,0
56889,-100,4,2,1,70,0,0
57129,-100,4,2,3,70,0,0
57369,-100,4,2,1,70,0,0
57609,-100,4,2,4,70,0,0
57729,-100,4,2,1,70,0,0
57849,-100,4,2,4,70,0,0
58089,-100,4,2,5,70,0,0
58329,-100,4,2,1,70,0,0
58569,-100,4,2,3,70,0,0
58689,-100,4,2,2,70,0,0
59529,-100,4,2,4,70,0,0
59649,-100,4,2,1,70,0,0
60009,-100,4,2,5,70,0,0
60249,-100,4,2,1,70,0,0
60489,-100,4,2,3,70,0,0
60729,-100,4,2,1,70,0,0
60969,-100,4,2,3,70,0,0
61209,-100,4,2,2,70,0,0
61449,-100,4,2,4,70,0,0
61569,-100,4,2,2,70,0,0
61929,-100,4,2,1,70,0,0
62409,-100,4,2,3,70,0,0
62649,-100,4,2,1,70,0,0
62889,-100,4,2,3,70,0,0
63369,-100,4,2,5,70,0,0
63609,-100,4,2,4,70,0,0
64089,-100,4,2,1,70,0,0
64329,-100,4,2,3,70,0,0
64449,-100,4,2,2,70,0,0
65289,-100,4,2,4,70,0,0
65409,-100,4,2,1,70,0,0
65769,-100,4,2,4,70,0,0
66009,-100,4,2,1,70,0,0
66249,-100,4,2,3,70,0,0
66489,-100,4,2,1,70,0,0
66729,-100,4,2,3,70,0,0
67209,-100,4,2,5,70,0,0
67449,-100,4,2,4,70,0,0
67929,-100,4,2,1,70,0,0
68169,-100,4,2,3,70,0,0
68289,-100,4,2,2,70,0,0
69129,-100,4,2,4,70,0,0
69249,-100,4,2,1,70,0,0
69609,-100,4,2,4,70,0,0
69849,-100,4,2,1,70,0,0
70089,-100,4,2,3,70,0,0
70329,-100,4,2,1,70,0,0
70569,-100,4,2,3,70,0,0
71049,-100,4,2,5,70,0,0
71289,-100,4,2,4,70,0,0
71769,-100,4,2,1,70,0,0
72009,-100,4,2,3,70,0,0
72249,-100,4,2,1,70,0,0
72489,-100,4,2,3,70,0,0
72729,-100,4,2,1,70,0,0
72969,-100,4,2,4,70,0,0
73449,-100,4,2,5,70,0,0
73689,-100,4,2,1,70,0,0
73929,-100,4,2,3,70,0,0
74049,-100,4,2,2,70,0,0
74889,-100,4,2,4,70,0,0
75009,-100,4,2,1,70,0,0
75369,-100,4,2,5,70,0,0
75609,-100,4,2,1,70,0,0
75849,-100,4,2,3,70,0,0
75969,-100,4,2,2,70,0,0
76809,-100,4,2,4,70,0,0
77289,-100,4,2,1,70,0,0
77529,-111.111111111111,4,2,1,70,0,0
77769,-111.111111111111,4,2,6,70,0,0
77889,-111.111111111111,4,2,1,70,0,0
78249,-111.111111111111,4,2,3,70,0,0
79209,-111.111111111111,4,2,1,70,0,0
79689,-111.111111111111,4,2,3,70,0,0
79809,-111.111111111111,4,2,1,70,0,0
80169,-111.111111111111,4,2,3,70,0,0
80769,-111.111111111111,4,2,5,70,0,0
81129,-111.111111111111,4,2,1,70,0,0
81609,-111.111111111111,4,2,6,70,0,0
81729,-111.111111111111,4,2,1,70,0,0
82089,-111.111111111111,4,2,3,70,0,0
82569,-111.111111111111,4,2,6,70,0,0
83289,-111.111111111111,4,2,1,70,0,0
83529,-111.111111111111,4,2,7,70,0,0
83649,-111.111111111111,4,2,1,70,0,0
84009,-111.111111111111,4,2,6,70,0,0
84249,-111.111111111111,4,2,4,70,0,0
84489,-111.111111111111,4,2,2,70,0,0
84969,-111.111111111111,4,2,1,70,0,0
85449,-111.111111111111,4,2,6,70,0,0
85569,-111.111111111111,4,2,1,70,0,0
85929,-111.111111111111,4,2,3,70,0,0
86889,-111.111111111111,4,2,1,70,0,0
87369,-111.111111111111,4,2,3,70,0,0
87489,-111.111111111111,4,2,2,70,0,0
88449,-111.111111111111,4,2,5,70,0,0
88569,-111.111111111111,4,2,1,70,0,0
89289,-111.111111111111,4,2,3,70,0,0
89409,-111.111111111111,4,2,2,70,0,0
90249,-111.111111111111,4,2,3,70,0,0
90489,-111.111111111111,4,2,1,70,0,0
90729,-111.111111111111,4,2,3,70,0,0
92169,-111.111111111111,4,2,2,70,0,0
92289,-111.111111111111,4,2,5,70,0,0
92649,-111.111111111111,4,2,1,55,0,0
96009,-111.111111111111,4,2,2,55,0,0
96489,-111.111111111111,4,2,1,60,0,0
96969,-111.111111111111,4,2,2,60,0,0
99369,-111.111111111111,4,2,1,60,0,0
99849,-111.111111111111,4,2,2,60,0,0
100329,-111.111111111111,4,2,1,65,0,0
100809,-111.111111111111,4,2,2,65,0,0
103209,-111.111111111111,4,2,1,65,0,0
103689,-111.111111111111,4,2,3,65,0,0
104529,-111.111111111111,4,2,2,65,0,0
105609,-111.111111111111,4,2,3,65,0,0
105849,-111.111111111111,4,2,4,65,0,0
106329,-125,4,2,4,65,0,0
107289,-125,4,2,1,65,0,0
107409,-125,4,2,4,65,0,0
107529,-125,4,2,2,65,0,0
108009,-111.111111111111,4,2,1,65,0,0
108489,-125,4,2,3,65,0,0
109689,-125,4,2,2,65,0,0
110409,-125,4,2,3,65,0,0
110649,-125,4,2,1,65,0,0
110889,-125,4,2,3,65,0,0
111129,-125,4,2,1,65,0,0
111369,-125,4,2,6,65,0,0
111609,-125,4,2,1,65,0,0
111849,-125,4,2,3,65,0,0
112569,-125,4,2,1,65,0,0
112809,-125,4,2,3,65,0,0
113529,-125,4,2,2,65,0,0
114249,-125,4,2,3,65,0,0
114489,-125,4,2,2,65,0,0
115209,-125,4,2,6,65,0,0
115449,-125,4,2,4,65,0,0
115689,-125,4,2,3,65,0,0
117369,-125,4,2,2,65,0,0
118089,-125,4,2,3,65,0,0
118329,-125,4,2,2,65,0,0
119049,-125,4,2,6,65,0,0
119289,-125,4,2,1,65,0,0
119529,-125,4,2,3,65,0,0
121209,-125,4,2,2,65,0,0
121929,-125,4,2,3,65,0,0
122169,-125,4,2,1,65,0,0
122409,-125,4,2,3,65,0,0
122649,-125,4,2,1,65,0,0
122889,-125,4,2,6,65,0,0
123129,-125,4,2,8,65,0,0
123369,-111.111111111111,4,2,1,70,0,0
123849,-111.111111111111,4,2,6,70,0,0
123969,-111.111111111111,4,2,1,70,0,0
124329,-111.111111111111,4,2,3,70,0,0
124809,-111.111111111111,4,2,6,70,0,0
125049,-111.111111111111,4,2,1,70,0,0
125289,-111.111111111111,4,2,3,70,0,0
125529,-111.111111111111,4,2,1,70,0,0
125769,-111.111111111111,4,2,6,70,0,0
125889,-111.111111111111,4,2,1,70,0,0
126249,-111.111111111111,4,2,3,70,0,0
126489,-111.111111111111,4,2,1,70,0,0
126729,-111.111111111111,4,2,3,70,0,0
126809,-111.111111111111,4,2,2,70,0,0
127689,-111.111111111111,4,2,6,70,0,0
127809,-111.111111111111,4,2,1,70,0,0
128169,-111.111111111111,4,2,3,70,0,0
128649,-111.111111111111,4,2,6,70,0,0
128889,-111.111111111111,4,2,1,70,0,0
129129,-111.111111111111,4,2,3,70,0,0
129369,-111.111111111111,4,2,1,70,0,0
129609,-111.111111111111,4,2,3,70,0,0
129729,-111.111111111111,4,2,2,70,0,0
130329,-111.111111111111,4,2,4,70,0,0
130569,-111.111111111111,4,2,3,70,0,0
130809,-111.111111111111,4,2,2,70,0,0
131529,-111.111111111111,4,2,6,70,0,0
131649,-111.111111111111,4,2,1,70,0,0
132009,-111.111111111111,4,2,3,70,0,0
132729,-111.111111111111,4,2,2,70,0,0
133449,-111.111111111111,4,2,3,70,0,0
133569,-111.111111111111,4,2,2,70,0,0
134169,-111.111111111111,4,2,4,70,0,0
134409,-111.111111111111,4,2,3,70,0,0
134649,-111.111111111111,4,2,2,70,0,0
135369,-111.111111111111,4,2,3,70,0,0
135489,-111.111111111111,4,2,2,70,0,0
136329,-111.111111111111,4,2,3,70,0,0
136569,-111.111111111111,4,2,1,70,0,0
136809,-111.111111111111,4,2,3,70,0,0
138009,-111.111111111111,4,2,1,70,0,0
138249,-142.857142857143,4,2,3,70,0,0
138729,-111.111111111111,4,2,1,70,0,0
139209,-111.111111111111,4,2,6,70,0,0
139329,-111.111111111111,4,2,1,70,0,0
139689,-111.111111111111,4,2,3,70,0,0
140169,-111.111111111111,4,2,6,70,0,0
140409,-111.111111111111,4,2,1,70,0,0
140649,-111.111111111111,4,2,3,70,0,0
140889,-111.111111111111,4,2,1,70,0,0
141129,-111.111111111111,4,2,6,70,0,0
141369,-111.111111111111,4,2,1,70,0,0
141609,-111.111111111111,4,2,3,70,0,0
141849,-111.111111111111,4,2,1,70,0,0
142089,-111.111111111111,4,2,3,70,0,0
142169,-111.111111111111,4,2,2,70,0,0
143049,-111.111111111111,4,2,6,70,0,0
143169,-111.111111111111,4,2,1,70,0,0
143529,-111.111111111111,4,2,3,70,0,0
144009,-111.111111111111,4,2,6,70,0,0
144249,-111.111111111111,4,2,1,70,0,0
144489,-111.111111111111,4,2,3,70,0,0
144729,-111.111111111111,4,2,1,70,0,0
144969,-111.111111111111,4,2,3,70,0,0
145089,-111.111111111111,4,2,2,70,0,0
145689,-111.111111111111,4,2,4,70,0,0
145929,-111.111111111111,4,2,3,70,0,0
146169,-111.111111111111,4,2,2,70,0,0
146889,-111.111111111111,4,2,6,70,0,0
147009,-111.111111111111,4,2,1,70,0,0
147369,-111.111111111111,4,2,3,70,0,0
148089,-111.111111111111,4,2,2,70,0,0
148809,-111.111111111111,4,2,3,70,0,0
148929,-111.111111111111,4,2,2,70,0,0
149529,-111.111111111111,4,2,4,70,0,0
149769,-111.111111111111,4,2,3,70,0,0
150009,-111.111111111111,4,2,1,70,0,0
150489,-111.111111111111,4,2,1,55,0,0
152169,-111.111111111111,4,2,3,55,0,0
153369,-111.111111111111,4,2,3,70,0,0
153609,-142.857142857143,4,2,1,70,0,0
154089,-90.9090909090909,4,2,1,80,0,1
154569,-90.9090909090909,4,2,3,80,0,1
155529,-90.9090909090909,4,2,4,80,0,1
156009,-90.9090909090909,4,2,5,80,0,1
156249,-90.9090909090909,4,2,1,80,0,1
156489,-90.9090909090909,4,2,3,80,0,1
157329,-90.9090909090909,4,2,4,80,0,1
157569,-90.9090909090909,4,2,1,80,0,1
157929,-90.9090909090909,4,2,3,80,0,1
158169,-90.9090909090909,4,2,1,80,0,1
158409,-90.9090909090909,4,2,3,80,0,1
159249,-90.9090909090909,4,2,1,80,0,1
159369,-90.9090909090909,4,2,5,80,0,1
159489,-90.9090909090909,4,2,1,80,0,1
159849,-90.9090909090909,4,2,5,80,0,1
159969,-90.9090909090909,4,2,1,80,0,1
160329,-90.9090909090909,4,2,3,80,0,1
160689,-90.9090909090909,4,2,2,80,0,1
161169,-90.9090909090909,4,2,4,80,0,1
161409,-90.9090909090909,4,2,1,80,0,1
161529,-90.9090909090909,4,2,4,80,0,1
161769,-90.9090909090909,4,2,2,80,0,1
162249,-90.9090909090909,4,2,3,80,0,1
163209,-90.9090909090909,4,2,4,80,0,1
163689,-90.9090909090909,4,2,5,80,0,1
163929,-90.9090909090909,4,2,1,80,0,1
164169,-90.9090909090909,4,2,3,80,0,1
164769,-90.9090909090909,4,2,1,80,0,1
165009,-90.9090909090909,4,2,4,80,0,1
165249,-90.9090909090909,4,2,1,80,0,1
165609,-90.9090909090909,4,2,3,80,0,1
165849,-90.9090909090909,4,2,1,80,0,1
166089,-90.9090909090909,4,2,3,80,0,1
166929,-90.9090909090909,4,2,1,80,0,1
167049,-90.9090909090909,4,2,5,80,0,1
167169,-90.9090909090909,4,2,1,80,0,1
167529,-90.9090909090909,4,2,5,80,0,1
167649,-90.9090909090909,4,2,1,80,0,1
168009,-90.9090909090909,4,2,3,80,0,1
168849,-90.9090909090909,4,2,4,80,0,1
169449,-90.9090909090909,4,2,1,80,0,1
169929,-90.9090909090909,4,2,3,80,0,1
170889,-90.9090909090909,4,2,4,80,0,1
171369,-90.9090909090909,4,2,5,80,0,1
171609,-90.9090909090909,4,2,1,80,0,1
171849,-90.9090909090909,4,2,3,80,0,1
172689,-90.9090909090909,4,2,4,80,0,1
172929,-90.9090909090909,4,2,1,80,0,1
173769,-90.9090909090909,4,2,3,80,0,1
174609,-90.9090909090909,4,2,1,80,0,1
174729,-90.9090909090909,4,2,5,80,0,1
174849,-90.9090909090909,4,2,1,80,0,1
175209,-90.9090909090909,4,2,5,80,0,1
175329,-90.9090909090909,4,2,1,80,0,1
175689,-90.9090909090909,4,2,3,80,0,1
176049,-90.9090909090909,4,2,2,80,0,1
176529,-90.9090909090909,4,2,4,80,0,1
176769,-90.9090909090909,4,2,1,80,0,1
176889,-90.9090909090909,4,2,4,80,0,1
177129,-90.9090909090909,4,2,2,80,0,1
177609,-90.9090909090909,4,2,3,80,0,1
178569,-90.9090909090909,4,2,4,80,0,1
179049,-90.9090909090909,4,2,5,80,0,1
179289,-90.9090909090909,4,2,1,80,0,1
179529,-90.9090909090909,4,2,3,80,0,1
180129,-90.9090909090909,4,2,1,80,0,1
180369,-90.9090909090909,4,2,4,80,0,1
180609,-90.9090909090909,4,2,1,80,0,1
181449,-90.9090909090909,4,2,3,80,0,1
182289,-90.9090909090909,4,2,1,80,0,1
182409,-90.9090909090909,4,2,5,80,0,1
182529,-90.9090909090909,4,2,1,80,0,1
182889,-90.9090909090909,4,2,5,80,0,1
183009,-90.9090909090909,4,2,1,80,0,1
183369,-90.9090909090909,4,2,3,80,0,1
184809,-90.9090909090909,4,2,1,80,0,1
185289,-90.9090909090909,4,2,9,80,0,1
185769,-90.9090909090909,4,2,7,80,0,1
186249,-90.9090909090909,4,2,10,80,0,1
186489,-90.9090909090909,4,2,4,80,0,1
186729,-90.9090909090909,4,2,8,80,0,1
186969,-90.9090909090909,4,2,1,80,0,1
187209,-90.9090909090909,4,2,9,80,0,1
187689,-90.9090909090909,4,2,7,80,0,1
188049,-90.9090909090909,4,2,4,80,0,1
188169,-90.9090909090909,4,2,11,80,0,1
188289,-90.9090909090909,4,2,1,80,0,1
188649,-90.9090909090909,4,2,7,80,0,1
188889,-90.9090909090909,4,2,1,80,0,1
189129,-90.9090909090909,4,2,9,80,0,1
189609,-90.9090909090909,4,2,7,80,0,1
189969,-90.9090909090909,4,2,1,80,0,1
190089,-90.9090909090909,4,2,12,80,0,1
190209,-90.9090909090909,4,2,1,80,0,1
190569,-90.9090909090909,4,2,8,80,0,1
190689,-90.9090909090909,4,2,1,80,0,1
191049,-90.9090909090909,4,2,9,80,0,1
191409,-90.9090909090909,4,2,1,80,0,1
191529,-90.9090909090909,4,2,9,80,0,1
191889,-90.9090909090909,4,2,4,80,0,1
192009,-90.9090909090909,4,2,11,80,0,1
192129,-90.9090909090909,4,2,1,80,0,1
192249,-90.9090909090909,4,2,4,80,0,1
192489,-90.9090909090909,4,2,9,80,0,1
192729,-90.9090909090909,4,2,1,80,0,1
192969,-90.9090909090909,4,2,9,80,0,1
193449,-90.9090909090909,4,2,7,80,0,1
193929,-90.9090909090909,4,2,10,80,0,1
194169,-90.9090909090909,4,2,4,80,0,1
194409,-90.9090909090909,4,2,8,80,0,1
194649,-90.9090909090909,4,2,1,80,0,1
194889,-90.9090909090909,4,2,9,80,0,1
195369,-90.9090909090909,4,2,7,80,0,1
195489,-90.9090909090909,4,2,1,80,0,1
195729,-90.9090909090909,4,2,4,80,0,1
195849,-90.9090909090909,4,2,11,80,0,1
195969,-90.9090909090909,4,2,1,80,0,1
196329,-90.9090909090909,4,2,7,80,0,1
196569,-90.9090909090909,4,2,1,80,0,1
196809,-90.9090909090909,4,2,9,80,0,1
197289,-90.9090909090909,4,2,7,80,0,1
197649,-90.9090909090909,4,2,1,80,0,1
197769,-90.9090909090909,4,2,12,80,0,1
197889,-90.9090909090909,4,2,1,80,0,1
198249,-90.9090909090909,4,2,8,80,0,1
198369,-90.9090909090909,4,2,1,80,0,1
198729,-90.9090909090909,4,2,3,80,0,1
199569,-90.9090909090909,4,2,4,80,0,1
199689,-90.9090909090909,4,2,11,80,0,1
199929,-90.9090909090909,4,2,4,80,0,1
200169,-90.9090909090909,4,2,1,80,0,1
200649,-90.9090909090909,4,2,9,80,0,1
201129,-90.9090909090909,4,2,7,80,0,1
201609,-90.9090909090909,4,2,10,80,0,1
201849,-90.9090909090909,4,2,4,80,0,1
202089,-90.9090909090909,4,2,8,80,0,1
202329,-90.9090909090909,4,2,1,80,0,1
202569,-90.9090909090909,4,2,9,80,0,1
203049,-90.9090909090909,4,2,7,80,0,1
203409,-90.9090909090909,4,2,4,80,0,1
203529,-90.9090909090909,4,2,11,80,0,1
203649,-90.9090909090909,4,2,1,80,0,1
204009,-90.9090909090909,4,2,10,80,0,1
204249,-90.9090909090909,4,2,1,80,0,1
204489,-90.9090909090909,4,2,9,80,0,1
204969,-90.9090909090909,4,2,7,80,0,1
205329,-90.9090909090909,4,2,1,80,0,1
205449,-90.9090909090909,4,2,12,80,0,1
205569,-90.9090909090909,4,2,1,80,0,1
205929,-90.9090909090909,4,2,8,80,0,1
206049,-90.9090909090909,4,2,1,80,0,1
206409,-90.9090909090909,4,2,9,80,0,1
206769,-90.9090909090909,4,2,1,80,0,1
206889,-90.9090909090909,4,2,9,80,0,1
207249,-90.9090909090909,4,2,4,80,0,1
207369,-90.9090909090909,4,2,11,80,0,1
207489,-90.9090909090909,4,2,1,80,0,1
207609,-90.9090909090909,4,2,4,80,0,1
207849,-90.9090909090909,4,2,9,80,0,1
208089,-90.9090909090909,4,2,1,80,0,1
208329,-90.9090909090909,4,2,9,80,0,1
208809,-90.9090909090909,4,2,7,80,0,1
209289,-90.9090909090909,4,2,10,80,0,1
209529,-90.9090909090909,4,2,4,80,0,1
209769,-90.9090909090909,4,2,8,80,0,1
210009,-90.9090909090909,4,2,1,80,0,1
210249,-90.9090909090909,4,2,9,80,0,1
210729,-90.9090909090909,4,2,7,80,0,1
210849,-90.9090909090909,4,2,1,80,0,1
211089,-90.9090909090909,4,2,4,80,0,1
211209,-90.9090909090909,4,2,11,80,0,1
211329,-90.9090909090909,4,2,1,80,0,1
211689,-90.9090909090909,4,2,10,80,0,1
211929,-90.9090909090909,4,2,1,80,0,1
212169,-90.9090909090909,4,2,9,80,0,1
212649,-90.9090909090909,4,2,7,80,0,1
213009,-90.9090909090909,4,2,1,80,0,1
213129,-90.9090909090909,4,2,12,80,0,1
213249,-90.9090909090909,4,2,1,80,0,1
213609,-90.9090909090909,4,2,8,80,0,1
213729,-90.9090909090909,4,2,1,80,0,1
214089,-90.9090909090909,4,2,3,80,0,1
215529,-142.857142857143,4,2,1,60,0,0
230889,-142.857142857143,4,2,1,65,0,0
231129,-142.857142857143,4,2,13,65,0,0
231249,-142.857142857143,4,2,2,65,0,0
231609,-142.857142857143,4,2,13,65,0,0
231729,-142.857142857143,4,2,1,65,0,0
231849,-142.857142857143,4,2,13,65,0,0
232089,-142.857142857143,4,2,4,65,0,0
232209,-142.857142857143,4,2,1,65,0,0
232569,-142.857142857143,4,2,13,65,0,0
232689,-142.857142857143,4,2,1,65,0,0
232809,-142.857142857143,4,2,13,65,0,0
233169,-142.857142857143,4,2,2,65,0,0
233529,-142.857142857143,4,2,13,65,0,0
233649,-142.857142857143,4,2,1,65,0,0
233769,-142.857142857143,4,2,13,65,0,0
234009,-142.857142857143,4,2,4,65,0,0
234129,-142.857142857143,4,2,1,65,0,0
234489,-142.857142857143,4,2,13,65,0,0
234609,-142.857142857143,4,2,1,65,0,0
234729,-142.857142857143,4,2,13,65,0,0
235089,-142.857142857143,4,2,2,65,0,0
235449,-142.857142857143,4,2,13,65,0,0
235569,-142.857142857143,4,2,1,65,0,0
235689,-142.857142857143,4,2,13,65,0,0
235929,-142.857142857143,4,2,4,65,0,0
236049,-142.857142857143,4,2,1,65,0,0
236409,-142.857142857143,4,2,13,65,0,0
236529,-142.857142857143,4,2,1,65,0,0
236649,-142.857142857143,4,2,13,65,0,0
237009,-142.857142857143,4,2,2,65,0,0
237369,-142.857142857143,4,2,13,65,0,0
237489,-142.857142857143,4,2,1,65,0,0
237609,-142.857142857143,4,2,13,65,0,0
237849,-142.857142857143,4,2,4,65,0,0
237969,-142.857142857143,4,2,1,65,0,0
238329,-142.857142857143,4,2,11,65,0,0
238449,-142.857142857143,4,2,1,65,0,0
238569,-142.857142857143,4,2,11,65,0,0
238809,-142.857142857143,4,2,13,65,0,0
238929,-142.857142857143,4,2,2,65,0,0
239289,-142.857142857143,4,2,13,65,0,0
239409,-142.857142857143,4,2,1,65,0,0
239529,-142.857142857143,4,2,13,65,0,0
239769,-142.857142857143,4,2,4,65,0,0
239889,-142.857142857143,4,2,1,65,0,0
240249,-142.857142857143,4,2,13,65,0,0
240369,-142.857142857143,4,2,1,65,0,0
240489,-142.857142857143,4,2,13,65,0,0
240849,-142.857142857143,4,2,2,65,0,0
241209,-142.857142857143,4,2,13,65,0,0
241329,-142.857142857143,4,2,1,65,0,0
241449,-142.857142857143,4,2,13,65,0,0
241689,-142.857142857143,4,2,4,65,0,0
241809,-142.857142857143,4,2,1,65,0,0
242169,-142.857142857143,4,2,13,65,0,0
242289,-142.857142857143,4,2,1,65,0,0
242409,-142.857142857143,4,2,13,65,0,0
242769,-142.857142857143,4,2,2,65,0,0
243129,-142.857142857143,4,2,13,65,0,0
243249,-142.857142857143,4,2,1,65,0,0
243369,-142.857142857143,4,2,13,65,0,0
243609,-142.857142857143,4,2,4,65,0,0
243729,-142.857142857143,4,2,1,65,0,0
244089,-142.857142857143,4,2,13,65,0,0
244209,-142.857142857143,4,2,1,65,0,0
244329,-142.857142857143,4,2,13,65,0,0
244689,-142.857142857143,4,2,2,65,0,0
245049,-142.857142857143,4,2,13,65,0,0
245169,-142.857142857143,4,2,1,65,0,0
245289,-142.857142857143,4,2,13,65,0,0
245529,-142.857142857143,4,2,4,65,0,0
245649,-142.857142857143,4,2,1,65,0,0
246009,-142.857142857143,4,2,11,65,0,0
246129,-142.857142857143,4,2,1,65,0,0
246489,-142.857142857143,4,2,13,65,0,0
246609,-142.857142857143,4,2,2,65,0,0
246969,-142.857142857143,4,2,13,65,0,0
247089,-142.857142857143,4,2,1,65,0,0
247209,-142.857142857143,4,2,13,65,0,0
247449,-142.857142857143,4,2,4,65,0,0
247569,-142.857142857143,4,2,1,65,0,0
247929,-142.857142857143,4,2,13,65,0,0
248049,-142.857142857143,4,2,1,65,0,0
248169,-142.857142857143,4,2,11,65,0,0
248409,-142.857142857143,4,2,13,65,0,0
248529,-142.857142857143,4,2,2,65,0,0
248889,-142.857142857143,4,2,13,65,0,0
249009,-142.857142857143,4,2,1,65,0,0
249129,-142.857142857143,4,2,13,65,0,0
249369,-142.857142857143,4,2,4,65,0,0
249489,-142.857142857143,4,2,1,65,0,0
249849,-142.857142857143,4,2,13,65,0,0
249969,-142.857142857143,4,2,1,65,0,0
250089,-142.857142857143,4,2,11,65,0,0
250329,-142.857142857143,4,2,13,65,0,0
250449,-142.857142857143,4,2,2,65,0,0
250809,-142.857142857143,4,2,13,65,0,0
250929,-142.857142857143,4,2,1,65,0,0
251049,-142.857142857143,4,2,13,65,0,0
251289,-142.857142857143,4,2,4,65,0,0
251409,-142.857142857143,4,2,1,65,0,0
251769,-142.857142857143,4,2,13,65,0,0
251889,-142.857142857143,4,2,1,65,0,0
252009,-142.857142857143,4,2,11,65,0,0
252249,-142.857142857143,4,2,13,65,0,0
252369,-142.857142857143,4,2,2,65,0,0
252729,-142.857142857143,4,2,13,65,0,0
252849,-142.857142857143,4,2,1,65,0,0
252969,-142.857142857143,4,2,13,65,0,0
253209,-142.857142857143,4,2,4,65,0,0
253329,-142.857142857143,4,2,1,65,0,0
253689,-142.857142857143,4,2,11,65,0,0
253809,-142.857142857143,4,2,1,65,0,0
253929,-142.857142857143,4,2,11,65,0,0
254169,-142.857142857143,4,2,13,65,0,0
254289,-142.857142857143,4,2,2,65,0,0
254649,-142.857142857143,4,2,13,65,0,0
254769,-142.857142857143,4,2,1,65,0,0
254889,-142.857142857143,4,2,13,65,0,0
255129,-142.857142857143,4,2,4,65,0,0
255249,-142.857142857143,4,2,1,65,0,0
255609,-142.857142857143,4,2,13,65,0,0
255729,-142.857142857143,4,2,1,65,0,0
255849,-142.857142857143,4,2,11,65,0,0
256089,-142.857142857143,4,2,13,65,0,0
256209,-142.857142857143,4,2,2,65,0,0
256569,-142.857142857143,4,2,13,65,0,0
256689,-142.857142857143,4,2,1,65,0,0
256809,-142.857142857143,4,2,13,65,0,0
257049,-142.857142857143,4,2,4,65,0,0
257169,-142.857142857143,4,2,1,65,0,0
257529,-142.857142857143,4,2,13,65,0,0
257649,-142.857142857143,4,2,1,65,0,0
257769,-142.857142857143,4,2,11,65,0,0
258009,-142.857142857143,4,2,13,65,0,0
258129,-142.857142857143,4,2,2,65,0,0
258489,-142.857142857143,4,2,13,65,0,0
258609,-142.857142857143,4,2,1,65,0,0
258729,-142.857142857143,4,2,11,65,0,0
258969,-142.857142857143,4,2,4,65,0,0
259089,-142.857142857143,4,2,1,65,0,0
259449,-142.857142857143,4,2,13,65,0,0
259569,-142.857142857143,4,2,1,65,0,0
259689,-142.857142857143,4,2,3,65,0,0
259929,-111.111111111111,4,2,2,65,0,0
260169,-111.111111111111,4,2,6,65,0,0
260289,-111.111111111111,4,2,1,65,0,0
260649,-111.111111111111,4,2,3,65,0,0
260889,-111.111111111111,4,2,1,65,0,0
261129,-111.111111111111,4,2,6,65,0,0
261249,-111.111111111111,4,2,1,65,0,0
261609,-100,4,2,1,80,0,0
262089,-100,4,2,3,80,0,0
262329,-100,4,2,1,80,0,0
262569,-100,4,2,3,80,0,0
262809,-100,4,2,1,80,0,0
263049,-100,4,2,3,80,0,0
263169,-100,4,2,1,80,0,0
263529,-100,4,2,5,80,0,0
263769,-100,4,2,1,80,0,0
264009,-100,4,2,3,80,0,0
264249,-100,4,2,1,80,0,0
264489,-100,4,2,3,80,0,0
264969,-100,4,2,6,80,0,0
265209,-100,4,2,1,80,0,0
265449,-100,4,2,5,80,0,0
265689,-100,4,2,1,80,0,0
265929,-100,4,2,3,80,0,0
266169,-100,4,2,1,80,0,0
266409,-100,4,2,3,80,0,0
266649,-100,4,2,1,80,0,0
266889,-100,4,2,3,80,0,0
267009,-100,4,2,1,80,0,0
267369,-100,4,2,5,80,0,0
267609,-100,4,2,1,80,0,0
267849,-100,4,2,3,80,0,0
268089,-100,4,2,1,80,0,0
268329,-100,4,2,3,80,0,0
268569,-100,4,2,1,80,0,0
268809,-100,4,2,3,80,0,0
268929,-100,4,2,1,80,0,0
269169,-100,4,2,5,80,0,0
269529,-100,4,2,1,80,0,0
269769,-100,4,2,3,80,0,0
270009,-100,4,2,1,80,0,0
270249,-100,4,2,3,80,0,0
270489,-100,4,2,1,80,0,0
270729,-100,4,2,3,80,0,0
270849,-100,4,2,1,80,0,0
271209,-100,4,2,5,80,0,0
271449,-100,4,2,1,80,0,0
271689,-100,4,2,3,80,0,0
271929,-100,4,2,1,80,0,0
272169,-100,4,2,3,80,0,0
272649,-100,4,2,6,80,0,0
272889,-100,4,2,1,80,0,0
273129,-100,4,2,5,80,0,0
273369,-100,4,2,1,80,0,0
273609,-100,4,2,3,80,0,0
273849,-100,4,2,1,80,0,0
274089,-100,4,2,3,80,0,0
274329,-100,4,2,1,80,0,0
274569,-100,4,2,3,80,0,0
274689,-100,4,2,1,80,0,0
275049,-100,4,2,5,80,0,0
275289,-100,4,2,1,80,0,0
275529,-100,4,2,3,80,0,0
275769,-100,4,2,1,80,0,0
276009,-100,4,2,3,80,0,0
276249,-100,4,2,2,80,0,0
276489,-100,4,2,3,80,0,0
276609,-100,4,2,1,80,0,0
276729,-100,4,2,2,80,0,0
276969,-100,4,2,1,80,0,0
277449,-100,4,2,3,80,0,0
277689,-100,4,2,1,80,0,0
277929,-100,4,2,3,80,0,0
278169,-100,4,2,1,80,0,0
278409,-100,4,2,3,80,0,0
278529,-100,4,2,1,80,0,0
278889,-100,4,2,5,80,0,0
279129,-100,4,2,1,80,0,0
279369,-100,4,2,3,80,0,0
279609,-100,4,2,1,80,0,0
279849,-100,4,2,3,80,0,0
280329,-100,4,2,6,80,0,0
280569,-100,4,2,1,80,0,0
280809,-100,4,2,5,80,0,0
281049,-100,4,2,1,80,0,0
281289,-100,4,2,3,80,0,0
281529,-100,4,2,1,80,0,0
281769,-100,4,2,3,80,0,0
282009,-100,4,2,1,80,0,0
282249,-100,4,2,3,80,0,0
282369,-100,4,2,1,80,0,0
282729,-100,4,2,5,80,0,0
282969,-100,4,2,1,80,0,0
283209,-100,4,2,3,80,0,0
283449,-100,4,2,1,80,0,0
283689,-100,4,2,3,80,0,0
283929,-100,4,2,1,80,0,0
284169,-100,4,2,3,80,0,0
284289,-100,4,2,1,80,0,0
284649,-100,4,2,5,80,0,0
284889,-100,4,2,1,80,0,0
285129,-100,4,2,3,80,0,0
285369,-100,4,2,1,80,0,0
285609,-100,4,2,3,80,0,0
285849,-100,4,2,1,80,0,0
286089,-100,4,2,3,80,0,0
286209,-100,4,2,1,80,0,0
286569,-100,4,2,5,80,0,0
286809,-100,4,2,1,80,0,0
287049,-100,4,2,3,80,0,0
287289,-100,4,2,1,80,0,0
287529,-100,4,2,3,80,0,0
288009,-100,4,2,6,80,0,0
288249,-100,4,2,1,80,0,0
288489,-100,4,2,5,80,0,0
288729,-100,4,2,1,80,0,0
288969,-100,4,2,3,80,0,0
289209,-100,4,2,1,80,0,0
289449,-100,4,2,3,80,0,0
289689,-100,4,2,1,80,0,0
289929,-100,4,2,6,80,0,0
290049,-100,4,2,1,80,0,0
290409,-100,4,2,5,80,0,0
290649,-100,4,2,1,80,0,0
290889,-100,4,2,3,80,0,0
291129,-100,4,2,2,80,0,0
291369,-100,4,2,3,80,0,0
291489,-100,4,2,1,80,0,0
291729,-100,4,2,3,80,0,0
291969,-100,4,2,2,80,0,0
292089,-100,4,2,6,80,0,0
292209,-100,4,2,2,80,0,0
292329,-100,4,2,1,80,0,0
292809,-100,4,2,14,80,0,0
292929,-100,4,2,1,80,0,0
293289,-100,4,2,7,80,0,0
293529,-100,4,2,1,80,0,0
293769,-100,4,2,14,80,0,0
293889,-100,4,2,1,80,0,0
294009,-100,4,2,4,80,0,0
294249,-100,4,2,12,80,0,0
294489,-100,4,2,1,80,0,0
294729,-100,4,2,14,80,0,0
294849,-100,4,2,1,80,0,0
295209,-100,4,2,7,80,0,0
295449,-100,4,2,1,80,0,0
295689,-100,4,2,14,80,0,0
295809,-100,4,2,1,80,0,0
295929,-100,4,2,4,80,0,0
296049,-100,4,2,1,80,0,0
296169,-100,4,2,12,80,0,0
296409,-100,4,2,1,80,0,0
296649,-100,4,2,14,80,0,0
296769,-100,4,2,1,80,0,0
297129,-100,4,2,7,80,0,0
297369,-100,4,2,1,80,0,0
297609,-100,4,2,14,80,0,0
297729,-100,4,2,1,80,0,0
297849,-100,4,2,4,80,0,0
297969,-100,4,2,1,80,0,0
298089,-100,4,2,12,80,0,0
298329,-100,4,2,1,80,0,0
298569,-100,4,2,9,80,0,0
298689,-100,4,2,1,80,0,0
299049,-100,4,2,9,80,0,0
299289,-100,4,2,1,80,0,0
299529,-100,4,2,9,80,0,0
299769,-100,4,2,4,80,0,0
300009,-100,4,2,8,80,0,0
300249,-100,4,2,1,80,0,0
300489,-100,4,2,14,80,0,0
300609,-100,4,2,1,80,0,0
300969,-100,4,2,7,80,0,0
301209,-100,4,2,1,80,0,0
301449,-100,4,2,14,80,0,0
301569,-100,4,2,1,80,0,0
301689,-100,4,2,4,80,0,0
301809,-100,4,2,1,80,0,0
301929,-100,4,2,12,80,0,0
302169,-100,4,2,1,80,0,0
302409,-100,4,2,9,80,0,0
302529,-100,4,2,1,80,0,0
302889,-100,4,2,9,80,0,0
303129,-100,4,2,1,80,0,0
303369,-100,4,2,9,80,0,0
303609,-100,4,2,4,80,0,0
303849,-100,4,2,8,80,0,0
304089,-100,4,2,1,80,0,0
304329,-100,4,2,9,80,0,0
304449,-100,4,2,1,80,0,0
304809,-100,4,2,9,80,0,0
305049,-100,4,2,1,80,0,0
305289,-100,4,2,9,80,0,0
305529,-100,4,2,4,80,0,0
306249,-100,4,2,3,80,0,0
307089,-100,4,2,2,80,0,0
307449,-100,4,2,6,80,0,0
307689,-100,4,2,1,80,0,0
308169,-100,4,2,14,80,0,0
308289,-100,4,2,1,80,0,0
308649,-100,4,2,7,80,0,0
308889,-100,4,2,1,80,0,0
309129,-100,4,2,14,80,0,0
309249,-100,4,2,1,80,0,0
309369,-100,4,2,4,80,0,0
309609,-100,4,2,12,80,0,0
309849,-100,4,2,1,80,0,0
310089,-100,4,2,14,80,0,0
310209,-100,4,2,1,80,0,0
310569,-100,4,2,7,80,0,0
310809,-100,4,2,1,80,0,0
311049,-100,4,2,14,80,0,0
311169,-100,4,2,1,80,0,0
311289,-100,4,2,4,80,0,0
311409,-100,4,2,1,80,0,0
311529,-100,4,2,12,80,0,0
311769,-100,4,2,1,80,0,0
312009,-100,4,2,14,80,0,0
312129,-100,4,2,1,80,0,0
312489,-100,4,2,7,80,0,0
312729,-100,4,2,1,80,0,0
312969,-100,4,2,14,80,0,0
313089,-100,4,2,1,80,0,0
313209,-100,4,2,4,80,0,0
313329,-100,4,2,1,80,0,0
313449,-100,4,2,12,80,0,0
313689,-100,4,2,1,80,0,0
313929,-100,4,2,9,80,0,0
314049,-100,4,2,1,80,0,0
314409,-100,4,2,9,80,0,0
314649,-100,4,2,4,80,0,0
314889,-100,4,2,7,80,0,0
315129,-100,4,2,4,80,0,0
315369,-100,4,2,8,80,0,0
315609,-100,4,2,1,80,0,0
315849,-100,4,2,14,80,0,0
315969,-100,4,2,1,80,0,0
316329,-100,4,2,7,80,0,0
316569,-100,4,2,1,80,0,0
316809,-100,4,2,14,80,0,0
316929,-100,4,2,1,80,0,0
317049,-100,4,2,4,80,0,0
317169,-100,4,2,1,80,0,0
317289,-100,4,2,12,80,0,0
317529,-100,4,2,1,80,0,0
317769,-100,4,2,9,80,0,0
317889,-100,4,2,1,80,0,0
318249,-100,4,2,9,80,0,0
318369,-100,4,2,1,80,0,0
318729,-100,4,2,9,80,0,0
318969,-100,4,2,4,80,0,0
319209,-100,4,2,8,80,0,0
319449,-100,4,2,1,80,0,0
319689,-100,4,2,9,80,0,0
319809,-100,4,2,1,80,0,0
320169,-100,4,2,9,80,0,0
320409,-100,4,2,1,80,0,0
320649,-100,4,2,9,80,0,0
320889,-100,4,2,4,80,0,0
321609,-100,4,2,3,80,0,0
322449,-100,4,2,2,80,0,0
322809,-100,4,2,6,80,0,0
323049,-90.9090909090909,4,2,1,75,0,1
323529,-90.9090909090909,4,2,3,75,0,1
323769,-90.9090909090909,4,2,1,75,0,1
324009,-90.9090909090909,4,2,3,75,0,1
324489,-90.9090909090909,4,2,6,75,0,1
324729,-90.9090909090909,4,2,4,75,0,1
325209,-90.9090909090909,4,2,1,75,0,1
325449,-90.9090909090909,4,2,6,75,0,1
325569,-90.9090909090909,4,2,1,75,0,1
325929,-90.9090909090909,4,2,3,75,0,1
326409,-90.9090909090909,4,2,6,75,0,1
326649,-90.9090909090909,4,2,4,75,0,1
327369,-90.9090909090909,4,2,6,75,0,1
327609,-90.9090909090909,4,2,1,75,0,1
327849,-90.9090909090909,4,2,3,75,0,1
328329,-90.9090909090909,4,2,6,75,0,1
328569,-90.9090909090909,4,2,4,75,0,1
329049,-90.9090909090909,4,2,1,75,0,1
329289,-90.9090909090909,4,2,6,75,0,1
329409,-90.9090909090909,4,2,1,75,0,1
329769,-90.9090909090909,4,2,3,75,0,1
330249,-90.9090909090909,4,2,6,75,0,1
330489,-90.9090909090909,4,2,4,75,0,1
331209,-90.9090909090909,4,2,6,75,0,1
331449,-90.9090909090909,4,2,1,75,0,1
331689,-90.9090909090909,4,2,3,75,0,1
332169,-90.9090909090909,4,2,6,75,0,1
332409,-90.9090909090909,4,2,4,75,0,1
332889,-90.9090909090909,4,2,1,75,0,1
333129,-90.9090909090909,4,2,6,75,0,1
333249,-90.9090909090909,4,2,1,75,0,1
333609,-90.9090909090909,4,2,3,75,0,1
334089,-90.9090909090909,4,2,6,75,0,1
334329,-90.9090909090909,4,2,4,75,0,1
335049,-90.9090909090909,4,2,6,75,0,1
335289,-90.9090909090909,4,2,1,75,0,1
335529,-90.9090909090909,4,2,3,75,0,1
336009,-90.9090909090909,4,2,6,75,0,1
336249,-90.9090909090909,4,2,4,75,0,1
336729,-90.9090909090909,4,2,1,75,0,1
336969,-90.9090909090909,4,2,6,75,0,1
337089,-90.9090909090909,4,2,1,75,0,1
337449,-90.9090909090909,4,2,3,75,0,1
337929,-90.9090909090909,4,2,6,75,0,1
338169,-90.9090909090909,4,2,2,75,0,1
338409,-90.9090909090909,4,2,1,75,0,1
338889,-90.9090909090909,4,2,6,75,0,1
339129,-90.9090909090909,4,2,1,75,0,1
339369,-90.9090909090909,4,2,3,75,0,1
339849,-90.9090909090909,4,2,6,75,0,1
340089,-90.9090909090909,4,2,4,75,0,1
340569,-90.9090909090909,4,2,1,75,0,1
340809,-90.9090909090909,4,2,6,75,0,1
340929,-90.9090909090909,4,2,1,75,0,1
341289,-90.9090909090909,4,2,3,75,0,1
341769,-90.9090909090909,4,2,6,75,0,1
342009,-90.9090909090909,4,2,4,75,0,1
342729,-90.9090909090909,4,2,6,75,0,1
342969,-90.9090909090909,4,2,1,75,0,1
343209,-90.9090909090909,4,2,3,75,0,1
343689,-90.9090909090909,4,2,6,75,0,1
343929,-90.9090909090909,4,2,4,75,0,1
344409,-90.9090909090909,4,2,1,75,0,1
344649,-90.9090909090909,4,2,6,75,0,1
344769,-90.9090909090909,4,2,1,75,0,1
345129,-90.9090909090909,4,2,3,75,0,1
345609,-90.9090909090909,4,2,6,75,0,1
345849,-90.9090909090909,4,2,4,75,0,1
346569,-90.9090909090909,4,2,6,75,0,1
346809,-90.9090909090909,4,2,1,75,0,1
347049,-90.9090909090909,4,2,3,75,0,1
347529,-90.9090909090909,4,2,6,75,0,1
347769,-90.9090909090909,4,2,4,75,0,1
348249,-90.9090909090909,4,2,1,75,0,1
348489,-90.9090909090909,4,2,6,75,0,1
348609,-90.9090909090909,4,2,1,75,0,1
348969,-90.9090909090909,4,2,3,75,0,1
349449,-90.9090909090909,4,2,6,75,0,1
349689,-90.9090909090909,4,2,4,75,0,1
350409,-90.9090909090909,4,2,6,75,0,1
350649,-90.9090909090909,4,2,1,75,0,1
350889,-90.9090909090909,4,2,3,75,0,1
351369,-90.9090909090909,4,2,6,75,0,1
351609,-90.9090909090909,4,2,4,75,0,1
351849,-90.9090909090909,4,2,5,75,0,1
352089,-90.9090909090909,4,2,1,75,0,1
352329,-90.9090909090909,4,2,3,75,0,1
352569,-90.9090909090909,4,2,2,75,0,1
352809,-90.9090909090909,4,2,3,75,0,1
353169,-90.9090909090909,4,2,2,75,0,1
353529,-90.9090909090909,4,2,6,75,0,1
353769,-181.818181818182,4,2,6,75,0,1
354009,-181.818181818182,4,2,2,75,0,1
354129,-83.3333333333333,4,2,2,75,0,1
354729,-83.3333333333333,4,2,7,75,0,1
355209,-83.3333333333333,4,2,14,75,0,1
355449,-83.3333333333333,4,2,4,75,0,1
355689,-83.3333333333333,4,2,12,75,0,1
355929,-83.3333333333333,4,2,1,75,0,1
356169,-83.3333333333333,4,2,14,75,0,1
356289,-83.3333333333333,4,2,1,75,0,1
356649,-83.3333333333333,4,2,7,75,0,1
357129,-83.3333333333333,4,2,14,75,0,1
357369,-83.3333333333333,4,2,4,75,0,1
357609,-83.3333333333333,4,2,12,75,0,1
358089,-83.3333333333333,4,2,14,75,0,1
358329,-83.3333333333333,4,2,1,75,0,1
358569,-83.3333333333333,4,2,7,75,0,1
359049,-83.3333333333333,4,2,14,75,0,1
359289,-83.3333333333333,4,2,4,75,0,1
359529,-83.3333333333333,4,2,12,75,0,1
359769,-83.3333333333333,4,2,1,75,0,1
360009,-83.3333333333333,4,2,14,75,0,1
360129,-83.3333333333333,4,2,1,75,0,1
360489,-83.3333333333333,4,2,7,75,0,1
360969,-83.3333333333333,4,2,14,75,0,1
361209,-83.3333333333333,4,2,4,75,0,1
361449,-83.3333333333333,4,2,12,75,0,1
361929,-83.3333333333333,4,2,14,75,0,1
362169,-83.3333333333333,4,2,1,75,0,1
362409,-83.3333333333333,4,2,7,75,0,1
362889,-83.3333333333333,4,2,14,75,0,1
363129,-83.3333333333333,4,2,4,75,0,1
363369,-83.3333333333333,4,2,12,75,0,1
363609,-83.3333333333333,4,2,1,75,0,1
363849,-83.3333333333333,4,2,14,75,0,1
363969,-83.3333333333333,4,2,1,75,0,1
364329,-83.3333333333333,4,2,7,75,0,1
364809,-83.3333333333333,4,2,14,75,0,1
365049,-83.3333333333333,4,2,4,75,0,1
365289,-83.3333333333333,4,2,12,75,0,1
365769,-83.3333333333333,4,2,14,75,0,1
366009,-83.3333333333333,4,2,1,75,0,1
366249,-83.3333333333333,4,2,7,75,0,1
366729,-83.3333333333333,4,2,14,75,0,1
366969,-83.3333333333333,4,2,4,75,0,1
367449,-83.3333333333333,4,2,1,75,0,1
367689,-83.3333333333333,4,2,6,75,0,1
367809,-83.3333333333333,4,2,1,75,0,1
368169,-83.3333333333333,4,2,3,75,0,1
368529,-83.3333333333333,4,2,2,75,0,1
368889,-83.3333333333333,4,2,3,75,0,1
369129,-83.3333333333333,4,2,1,75,0,1
369609,-83.3333333333333,4,2,14,75,0,1
369849,-83.3333333333333,4,2,1,75,0,1
370089,-83.3333333333333,4,2,7,75,0,1
370569,-83.3333333333333,4,2,14,75,0,1
370809,-83.3333333333333,4,2,4,75,0,1
371049,-83.3333333333333,4,2,12,75,0,1
371289,-83.3333333333333,4,2,1,75,0,1
371529,-83.3333333333333,4,2,14,75,0,1
371649,-83.3333333333333,4,2,1,75,0,1
372009,-83.3333333333333,4,2,7,75,0,1
372489,-83.3333333333333,4,2,14,75,0,1
372729,-83.3333333333333,4,2,4,75,0,1
372969,-83.3333333333333,4,2,12,75,0,1
373449,-83.3333333333333,4,2,14,75,0,1
373689,-83.3333333333333,4,2,1,75,0,1
373929,-83.3333333333333,4,2,7,75,0,1
374409,-83.3333333333333,4,2,14,75,0,1
374529,-83.3333333333333,4,2,4,75,0,1
374889,-83.3333333333333,4,2,12,75,0,1
375129,-83.3333333333333,4,2,1,75,0,1
375369,-83.3333333333333,4,2,14,75,0,1
375489,-83.3333333333333,4,2,1,75,0,1
375849,-83.3333333333333,4,2,7,75,0,1
376329,-83.3333333333333,4,2,14,75,0,1
376569,-83.3333333333333,4,2,4,75,0,1
376809,-83.3333333333333,4,2,12,75,0,1
377289,-83.3333333333333,4,2,14,75,0,1
377529,-83.3333333333333,4,2,1,75,0,1
377769,-83.3333333333333,4,2,7,75,0,1
378249,-83.3333333333333,4,2,14,75,0,1
378489,-83.3333333333333,4,2,4,75,0,1
378729,-83.3333333333333,4,2,12,75,0,1
378969,-83.3333333333333,4,2,1,75,0,1
379209,-83.3333333333333,4,2,14,75,0,1
379329,-83.3333333333333,4,2,1,75,0,1
379689,-83.3333333333333,4,2,7,75,0,1
380169,-83.3333333333333,4,2,14,75,0,1
380409,-83.3333333333333,4,2,4,75,0,1
380649,-83.3333333333333,4,2,12,75,0,1
381129,-83.3333333333333,4,2,14,75,0,1
381369,-83.3333333333333,4,2,1,75,0,1
381609,-83.3333333333333,4,2,7,75,0,1
382089,-83.3333333333333,4,2,14,75,0,1
382209,-83.3333333333333,4,2,4,75,0,1
382569,-83.3333333333333,4,2,5,75,0,1
382809,-83.3333333333333,4,2,1,75,0,1
383049,-83.3333333333333,4,2,3,75,0,1
383289,-83.3333333333333,4,2,2,75,0,1
383529,-83.3333333333333,4,2,1,75,0,1
383769,-83.3333333333333,4,2,2,75,0,1
384489,-100,4,2,1,70,0,0
384969,-100,4,2,6,70,0,0
385089,-100,4,2,1,70,0,0
385449,-100,4,2,3,70,0,0
385689,-100,4,2,1,70,0,0
385929,-100,4,2,6,70,0,0
386049,-100,4,2,1,70,0,0
386169,-100,4,2,4,70,0,0
386289,-100,4,2,1,70,0,0
386409,-100,4,2,4,70,0,0
386649,-100,4,2,1,70,0,0
386889,-100,4,2,6,70,0,0
387009,-100,4,2,1,70,0,0
387369,-100,4,2,3,70,0,0
387609,-100,4,2,1,70,0,0
387729,-100,4,2,3,70,0,0
387969,-100,4,2,1,70,0,0
388089,-100,4,2,4,70,0,0
388209,-100,4,2,1,70,0,0
388329,-100,4,2,3,70,0,0
388569,-100,4,2,1,70,0,0
388809,-100,4,2,6,70,0,0
388929,-100,4,2,1,70,0,0
389289,-100,4,2,3,70,0,0
389529,-100,4,2,1,70,0,0
389769,-100,4,2,6,70,0,0
389889,-100,4,2,1,70,0,0
390009,-100,4,2,4,70,0,0
390129,-100,4,2,1,70,0,0
390249,-100,4,2,4,70,0,0
390489,-100,4,2,1,70,0,0
390729,-100,4,2,6,70,0,0
390849,-100,4,2,1,70,0,0
391209,-100,4,2,3,70,0,0
391449,-100,4,2,1,70,0,0
391569,-100,4,2,3,70,0,0
391809,-100,4,2,1,70,0,0
391929,-100,4,2,4,70,0,0
392049,-100,4,2,2,70,0,0
392169,-100,4,2,3,70,0,0
392409,-100,4,2,1,70,0,0
392649,-100,4,2,6,70,0,0
392769,-100,4,2,1,70,0,0
393129,-100,4,2,3,70,0,0
393369,-100,4,2,1,70,0,0
393609,-100,4,2,6,70,0,0
393729,-100,4,2,1,70,0,0
393849,-100,4,2,4,70,0,0
393969,-100,4,2,1,70,0,0
394089,-100,4,2,4,70,0,0
394329,-100,4,2,1,70,0,0
394569,-100,4,2,6,70,0,0
394689,-100,4,2,1,70,0,0
395049,-100,4,2,3,70,0,0
395289,-100,4,2,1,70,0,0
395409,-100,4,2,3,70,0,0
395649,-100,4,2,1,70,0,0
395769,-100,4,2,4,70,0,0
395889,-100,4,2,1,70,0,0
396009,-100,4,2,3,70,0,0
396249,-100,4,2,1,70,0,0
396489,-100,4,2,6,70,0,0
396609,-100,4,2,1,70,0,0
396969,-100,4,2,3,70,0,0
397209,-100,4,2,1,70,0,0
397449,-100,4,2,6,70,0,0
397569,-100,4,2,1,70,0,0
397689,-100,4,2,4,70,0,0
397809,-100,4,2,1,70,0,0
397929,-100,4,2,4,70,0,0
398169,-100,4,2,1,70,0,0
398409,-100,4,2,6,70,0,0
398529,-100,4,2,1,70,0,0
398889,-100,4,2,3,70,0,0
399129,-100,4,2,2,70,0,0
399249,-100,4,2,3,70,0,0
399489,-100,4,2,1,70,0,0
399609,-100,4,2,3,70,0,0
399729,-100,4,2,2,70,0,0
399849,-100,4,2,1,70,0,0

[Colours]
Combo1 : 226,128,93
Combo2 : 180,37,56
Combo3 : 254,223,94
Combo4 : 140,224,249

[HitObjects]
371,69,13929,5,10,2:1:0:0:
438,93,14049,2,0,L|457:40,2,45,10|2|8,2:1|2:2|2:1,0:0:0:0:
413,174,14409,1,10,2:1:0:0:
344,193,14529,2,0,L|363:246,2,45,10|2|8,2:1|2:2|2:1,0:0:0:0:
229,77,14889,5,10,2:1:0:0:
250,71,15009,1,10,2:1:0:0:
271,76,15129,1,2,2:2:0:0:
314,131,15249,1,8,2:1:0:0:
314,131,15369,2,0,L|153:91,1,157.5,10|0,2:2|0:0,0:0:0:0:
149,82,15849,6,0,L|171:180,1,101.250003862381,14|0,2:1|0:0,0:0:0:0:
105,214,16329,1,10,2:2:0:0:
105,214,16449,1,2,2:2:0:0:
57,312,16689,1,2,2:2:0:0:
7,357,16809,2,0,L|83:329,1,67.5000025749208,8|2,2:1|2:2,0:0:0:0:
253,264,17289,1,10,2:2:0:0:
184,171,17529,1,2,2:2:0:0:
250,333,17769,6,0,L|280:234,1,101.250003862381,10|0,2:1|0:0,0:0:0:0:
352,220,18249,1,10,2:2:0:0:
352,220,18369,1,2,2:2:0:0:
293,102,18609,1,2,2:2:0:0:
365,89,18729,2,0,P|345:115|303:123,1,67.5000025749208,8|2,2:1|2:2,0:0:0:0:
133,30,19209,1,10,2:2:0:0:
170,46,19329,1,2,2:2:0:0:
191,76,19449,1,2,2:2:0:0:
193,106,19569,1,2,2:2:0:0:
193,106,19689,6,0,L|168:213,1,101.250003862381,10|0,2:1|0:0,0:0:0:0:
104,231,20169,1,10,2:2:0:0:
104,231,20289,1,2,2:2:0:0:
184,303,20529,1,2,2:2:0:0:
234,361,20649,2,0,L|214:286,1,67.5000025749208,8|2,2:1|2:2,0:0:0:0:
381,255,21129,2,0,L|427:268,2,33.7500012874604,10|2|2,2:2|2:2|2:2,0:0:0:0:
356,183,21489,1,0,0:0:0:0:
342,173,21609,6,0,L|236:196,1,101.250003862381,10|0,2:1|0:0,0:0:0:0:
173,171,22089,1,10,2:2:0:0:
173,171,22209,1,2,2:2:0:0:
261,108,22449,1,2,2:2:0:0:
246,28,22569,2,0,L|230:105,1,67.5000025749208,8|2,2:1|2:2,0:0:0:0:
261,108,22929,1,0,0:0:0:0:
319,68,23049,5,10,2:2:0:0:
333,64,23169,1,2,2:2:0:0:
401,77,23289,1,10,2:1:0:0:
415,73,23409,1,2,2:2:0:0:
474,35,23529,5,10,2:1:0:0:
401,177,23769,2,0,L|360:164,1,33.7500012874604,2|0,2:2|0:0,0:0:0:0:
358,244,24009,1,10,2:2:0:0:
358,244,24129,1,2,2:2:0:0:
308,339,24369,1,2,2:2:0:0:
264,272,24489,2,0,L|282:339,1,67.5000025749208,8|2,2:1|2:2,0:0:0:0:
169,236,24969,2,0,L|178:203,2,33.7500012874604,10|2|2,2:2|2:2|2:2,0:0:0:0:
107,193,25329,1,2,2:2:0:0:
92,184,25449,6,0,L|67:70,1,101.250003862381,10|0,2:1|0:0,0:0:0:0:
125,31,25929,1,10,2:2:0:0:
125,31,26049,1,2,2:2:0:0:
212,94,26289,1,2,2:2:0:0:
182,162,26409,2,0,L|201:91,1,67.5000025749208,8|2,2:1|2:2,0:0:0:0:
371,152,26889,1,10,2:2:0:0:
263,189,27129,1,2,2:2:0:0:
437,182,27369,6,0,L|333:158,1,101.250003862381,10|0,2:1|0:0,0:0:0:0:
263,189,27849,1,10,2:2:0:0:
263,189,27969,1,2,2:2:0:0:
299,290,28209,1,2,2:2:0:0:
238,333,28329,2,0,L|316:314,1,67.5000025749208,8|2,2:1|2:2,0:0:0:0:
184,252,28809,2,0,L|141:238,1,33.7500012874604,10|0,2:2|0:0,0:0:0:0:
98,196,29049,2,0,L|55:182,1,33.7500012874604,2|0,2:2|0:0,0:0:0:0:
220,133,29289,5,10,2:1:0:0:
336,54,29529,1,2,2:2:0:0:
354,62,29649,1,2,2:2:0:0:
372,69,29769,2,0,L|364:109,1,33.7500012874604,10|0,2:2|0:0,0:0:0:0:
394,234,30009,1,2,2:2:0:0:
377,241,30129,1,2,2:2:0:0:
311,267,30249,5,10,2:1:0:0:
305,251,30369,1,2,2:2:0:0:
299,235,30489,1,2,2:2:0:0:
293,219,30609,1,2,2:2:0:0:
286,203,30729,2,0,L|243:217,2,33.7500012874604,10|2|0,2:2|2:2|0:0,0:0:0:0:
317,124,31089,1,2,2:2:0:0:
187,158,31209,6,0,L|328:204,1,148.50000453186,14|0,2:1|0:0,0:0:0:0:
409,174,31689,1,10,2:2:0:0:
409,174,31809,1,2,2:2:0:0:
325,84,32049,1,2,2:2:0:0:
242,69,32169,2,0,L|315:49,1,76.5000014591217,10|2,2:1|2:2,0:0:0:0:
421,27,32529,1,0,0:0:0:0:
421,27,32649,2,0,L|408:74,1,38.2500007295609,10|0,2:2|0:0,0:0:0:0:
476,148,32889,2,0,L|465:111,1,38.2500007295609,2|0,2:2|0:0,0:0:0:0:
335,254,33129,6,0,L|451:206,1,114.750002188683,10|0,2:1|0:0,0:0:0:0:
476,148,33609,1,10,2:2:0:0:
476,148,33729,1,2,2:2:0:0:
415,254,33969,1,2,2:2:0:0:
473,314,34089,2,0,L|441:232,1,76.5000014591217,10|2,2:1|2:2,0:0:0:0:
373,143,34449,1,0,0:0:0:0:
373,143,34569,1,10,2:2:0:0:
373,143,34689,2,0,L|322:131,2,38.2500007295609,2|2|2,2:2|2:2|2:2,0:0:0:0:
423,35,35049,6,0,L|300:67,1,114.750002188683,10|0,2:1|0:0,0:0:0:0:
230,86,35529,1,10,2:2:0:0:
230,86,35649,1,2,2:2:0:0:
122,35,35889,1,2,2:2:0:0:
61,93,36009,2,0,P|97:108|142:122,1,76.5000014591217,10|2,2:1|2:2,0:0:0:0:
187,197,36369,1,0,0:0:0:0:
187,197,36489,2,0,P|178:220|173:243,2,38.2500007295609,10|2|2,2:2|2:2|2:2,0:0:0:0:
173,317,36848,1,0,0:0:0:0:
109,286,36969,6,0,P|55:268|0:255,1,114.750002188683,10|0,2:1|0:0,0:0:0:0:
60,197,37449,1,10,2:2:0:0:
60,197,37569,1,2,2:2:0:0:
158,124,37809,1,2,2:2:0:0:
162,39,37929,2,0,L|141:119,1,76.5000014591217,10|2,2:1|2:2,0:0:0:0:
158,124,38289,1,0,0:0:0:0:
218,179,38409,5,10,2:2:0:0:
211,194,38529,1,2,2:2:0:0:
158,252,38649,1,8,2:1:0:0:
165,267,38769,1,2,2:2:0:0:
206,345,38889,6,0,L|226:294,2,38.2500007295609,10|0|2,2:1|0:0|2:2,0:0:0:0:
114,196,39369,1,10,2:2:0:0:
114,196,39489,1,2,2:2:0:0:
231,230,39729,1,2,2:2:0:0:
231,314,39849,2,0,L|264:226,1,76.5000014591217,10|2,2:1|2:2,0:0:0:0:
320,380,40209,1,0,0:0:0:0:
320,380,40329,1,10,2:2:0:0:
320,380,40449,2,0,L|270:366,2,38.2500007295609,2|2|2,2:2|2:2|2:2,0:0:0:0:
438,375,40809,6,0,L|378:259,1,114.750002188683,10|0,2:1|0:0,0:0:0:0:
359,197,41289,1,10,2:2:0:0:
359,197,41409,1,2,2:2:0:0:
418,81,41649,1,2,2:2:0:0:
486,39,41769,2,0,L|419:103,1,76.5000014591217,10|2,2:1|2:2,0:0:0:0:
335,111,42129,1,0,0:0:0:0:
335,111,42249,2,0,L|320:63,1,38.2500007295609,10|2,2:2|2:2,0:0:0:0:
242,140,42489,2,0,L|265:95,1,38.2500007295609,2|0,2:2|0:0,0:0:0:0:
148,195,42729,6,0,L|173:83,1,114.750002188683,10|0,2:1|0:0,0:0:0:0:
118,24,43209,1,10,2:2:0:0:
118,24,43329,1,2,2:2:0:0:
25,108,43569,1,2,2:2:0:0:
62,182,43689,2,0,L|39:108,1,76.5000014591217,10|2,2:1|2:2,0:0:0:0:
155,217,44049,1,0,0:0:0:0:
155,217,44169,2,0,P|132:223|104:236,1,38.2500007295609,10|0,2:2|0:0,0:0:0:0:
91,329,44409,2,0,P|85:306|72:278,1,38.2500007295609,2|0,2:2|0:0,0:0:0:0:
232,231,44649,5,10,2:1:0:0:
241,194,44769,1,10,2:1:0:0:
227,158,44889,1,2,2:2:0:0:
194,138,45009,1,8,2:1:0:0:
175,141,45129,5,10,2:1:0:0:
162,150,45249,1,10,2:1:0:0:
157,160,45369,1,2,2:2:0:0:
158,171,45489,1,8,2:1:0:0:
185,188,45609,5,10,2:1:0:0:
194,138,45729,1,10,2:1:0:0:
171,89,45849,1,2,2:2:0:0:
117,67,45969,1,8,2:1:0:0:
65,81,46089,6,0,P|92:42|105:19,2,67.5000025749208,10|0|12,2:2|0:0|2:1,0:0:0:0:
103,159,46809,2,0,P|111:187|127:217,1,45,2|0,2:2|0:0,0:0:0:0:
40,284,47049,2,0,P|60:275|82:269,1,45,10|0,2:2|0:0,0:0:0:0:
147,346,47289,1,2,2:2:0:0:
146,334,47409,1,0,0:0:0:0:
145,323,47529,2,0,L|243:347,1,90,10|0,2:1|0:0,0:0:0:0:
247,333,47889,1,0,0:0:0:0:
342,295,48009,2,0,L|314:391,1,90,10|2,2:2|2:2,0:0:0:0:
439,267,48369,1,0,0:0:0:0:
431,259,48489,6,0,P|444:223|501:207,1,90,10|2,2:1|2:2,0:0:0:0:
461,114,48969,1,10,2:2:0:0:
461,114,49089,2,0,P|443:98|432:79,1,45,2|0,2:2|0:0,0:0:0:0:
380,20,49329,2,0,P|360:35|288:80,1,90,2|0,2:2|0:0,0:0:0:0:
340,214,49689,2,0,P|315:175|289:139,2,90,2|10|2,2:2|2:2|2:3,0:0:0:0:
420,214,50409,5,10,2:1:0:0:
313,352,50649,2,0,L|362:328,1,45,2|0,2:2|0:0,0:0:0:0:
215,286,50889,2,0,L|266:303,1,45,10|0,2:2|0:0,0:0:0:0:
193,212,51129,1,2,2:2:0:0:
180,216,51249,1,0,0:0:0:0:
167,220,51369,2,0,L|190:114,1,90,10|0,2:1|0:0,0:0:0:0:
173,118,51729,1,0,0:0:0:0:
257,169,51849,2,0,L|348:189,1,90,10|2,2:2|2:2,0:0:0:0:
462,77,52209,1,0,0:0:0:0:
470,66,52329,6,0,P|413:80|405:116,1,90,10|2,2:1|2:2,0:0:0:0:
368,225,52809,1,10,2:2:0:0:
368,225,52929,2,0,P|353:208|344:188,1,45,2|0,2:2|0:0,0:0:0:0:
257,169,53169,2,0,B|187:165|186:223|134:215,1,135,2|2,2:2|2:2,0:0:0:0:
157,97,53649,1,0,0:0:0:0:
212,55,53769,1,10,2:2:0:0:
240,69,53889,1,2,2:2:0:0:
312,73,54009,1,2,2:3:0:0:
318,53,54129,1,2,2:2:0:0:
306,58,54249,6,0,L|344:190,1,135,10|0,2:1|0:0,0:0:0:0:
444,251,54729,2,0,L|385:230,1,45,10|0,2:2|0:0,0:0:0:0:
453,359,54969,1,2,2:2:0:0:
466,362,55089,1,0,0:0:0:0:
477,366,55209,2,0,L|509:279,1,90,10|0,2:1|0:0,0:0:0:0:
500,264,55569,1,0,0:0:0:0:
391,326,55689,2,0,B|349:330|359:362|302:362,1,90,10|2,2:2|2:2,0:0:0:0:
194,255,56049,1,0,0:0:0:0:
186,265,56169,6,0,L|238:281,1,45,10|0,2:1|0:0,0:0:0:0:
160,153,56409,2,0,L|146:196,1,45,2|0,2:2|0:0,0:0:0:0:
272,127,56649,2,0,L|228:113,1,45,10|0,2:2|0:0,0:0:0:0:
202,1,56889,1,2,2:2:0:0:
202,1,57009,1,0,0:0:0:0:
202,1,57129,2,0,L|186:53,1,45,10|0,2:1|0:0,0:0:0:0:
36,68,57369,2,0,B|75:80|75:80|84:77|84:77|138:93,2,90,2|10|2,2:2|2:2|2:2,0:0:0:0:
0,135,57969,1,0,0:0:0:0:
0,135,58089,5,10,2:1:0:0:
105,260,58329,2,0,L|92:214,1,45,2|0,2:2|0:0,0:0:0:0:
205,261,58569,1,10,2:2:0:0:
190,263,58689,2,0,L|178:307,1,45,2|0,2:2|0:0,0:0:0:0:
220,371,58929,2,0,L|264:384,1,45,2|10,2:2|2:1,0:0:0:0:
330,350,59169,1,2,2:2:0:0:
372,297,59289,1,2,2:2:0:0:
357,274,59409,1,2,2:2:0:0:
400,222,59529,1,10,2:2:0:0:
429,223,59649,2,0,L|412:179,1,45,2|2,2:2|2:3,0:0:0:0:
272,166,59889,6,0,L|370:113,1,90,2|0,2:2|0:0,0:0:0:0:
423,116,60249,1,2,2:2:0:0:
449,23,60489,1,10,2:2:0:0:
449,23,60609,1,0,0:0:0:0:
449,23,60729,2,0,L|406:44,1,45,2|0,2:2|0:0,0:0:0:0:
256,123,60969,2,0,L|271:165,1,45,10|0,2:1|0:0,0:0:0:0:
192,245,61209,2,0,L|234:229,1,45,10|0,2:2|0:0,0:0:0:0:
172,384,61449,2,0,L|140:290,1,90,10|8,2:2|2:1,0:0:0:0:
0,224,61809,1,10,2:2:0:0:
60,255,61929,6,0,B|80:192|80:192|78:187|78:187|101:124,1,135,14|0,2:1|0:0,0:0:0:0:
215,107,62409,2,0,L|162:91,1,45,10|0,2:2|0:0,0:0:0:0:
291,30,62649,1,2,2:2:0:0:
278,33,62769,1,0,0:0:0:0:
264,37,62889,2,0,L|296:135,1,90,10|0,2:1|0:0,0:0:0:0:
308,129,63249,1,0,0:0:0:0:
430,175,63369,2,0,B|412:166|412:166|336:203,1,90,10|2,2:2|2:2,0:0:0:0:
417,355,63729,1,0,0:0:0:0:
427,346,63849,6,0,P|424:305|374:285,1,90,10|2,2:1|2:2,0:0:0:0:
277,352,64329,1,10,2:2:0:0:
277,352,64449,2,0,L|333:330,1,45,2|0,2:2|0:0,0:0:0:0:
311,250,64689,2,0,L|209:226,1,90,2|0,2:2|0:0,0:0:0:0:
146,356,65049,2,0,L|170:254,2,90,2|10|2,2:2|2:2|2:3,0:0:0:0:
78,311,65769,5,10,2:1:0:0:
223,229,66009,2,0,L|236:272,1,45,2|0,2:2|0:0,0:0:0:0:
168,151,66249,2,0,L|154:194,1,45,10|0,2:2|0:0,0:0:0:0:
230,73,66489,1,2,2:2:0:0:
233,85,66609,1,0,0:0:0:0:
236,98,66729,2,0,L|335:137,1,90,10|0,2:1|0:0,0:0:0:0:
335,121,67089,1,0,0:0:0:0:
362,216,67209,2,0,L|322:307,1,90,10|2,2:2|2:2,0:0:0:0:
463,214,67569,1,0,0:0:0:0:
451,221,67689,6,0,P|422:152|419:136,1,90,10|2,2:1|2:2,0:0:0:0:
473,25,68169,1,10,2:2:0:0:
473,25,68289,2,0,P|453:47|427:55,1,45,2|0,2:2|0:0,0:0:0:0:
354,81,68529,2,0,B|273:77|324:28|220:27,1,135,2|2,2:2|2:2,0:0:0:0:
137,99,69009,1,0,0:0:0:0:
75,127,69129,1,10,2:2:0:0:
62,121,69249,1,2,2:2:0:0:
28,62,69369,1,2,2:3:0:0:
37,41,69489,1,2,2:2:0:0:
54,50,69609,6,0,L|1:185,1,135,10|0,2:1|0:0,0:0:0:0:
107,201,70089,2,0,L|65:218,1,45,10|0,2:2|0:0,0:0:0:0:
170,304,70329,1,2,2:2:0:0:
157,297,70449,1,0,0:0:0:0:
145,292,70569,2,0,L|115:380,1,90,10|0,2:1|0:0,0:0:0:0:
98,384,70929,1,0,0:0:0:0:
25,281,71049,2,0,B|83:277|62:323|118:319,1,90,10|2,2:2|2:2,0:0:0:0:
202,191,71409,1,0,0:0:0:0:
191,182,71529,6,0,P|168:190|141:219,1,45,10|0,2:1|0:0,0:0:0:0:
50,141,71769,2,0,P|67:157|78:196,1,45,2|0,2:2|0:0,0:0:0:0:
135,122,72009,1,10,2:2:0:0:
256,76,72249,1,2,2:2:0:0:
256,76,72369,1,0,0:0:0:0:
256,76,72489,2,0,L|214:62,1,45,10|0,2:1|0:0,0:0:0:0:
282,180,72729,2,0,L|297:138,1,45,2|0,2:2|0:0,0:0:0:0:
140,196,72969,2,0,L|223:229,1,90,10|2,2:2|2:2,0:0:0:0:
240,224,73329,1,0,0:0:0:0:
230,375,73449,6,0,L|263:291,1,90,10|2,2:1|2:2,0:0:0:0:
169,286,73929,1,10,2:2:0:0:
177,296,74049,2,0,L|123:322,1,45,2|0,2:2|0:0,0:0:0:0:
68,194,74289,2,0,L|175:224,1,90,2|0,2:2|0:0,0:0:0:0:
371,110,74649,1,2,2:2:0:0:
339,95,74769,1,0,0:0:0:0:
304,103,74889,1,10,2:2:0:0:
283,128,75009,1,2,2:2:0:0:
285,157,75129,1,2,2:3:0:0:
285,157,75249,6,0,L|322:295,1,135,2|2,2:2|2:2,0:0:0:0:
381,340,75849,2,0,L|430:353,1,45,10|2,2:2|2:2,0:0:0:0:
250,300,76089,1,0,0:0:0:0:
250,300,76209,1,2,2:2:0:0:
250,300,76329,1,10,2:1:0:0:
250,74,76569,1,10,2:2:0:0:
250,300,76809,5,10,2:2:0:0:
259,279,76929,1,0,0:0:0:0:
230,208,77049,1,8,2:1:0:0:
224,186,77169,1,8,2:2:0:0:
281,137,77289,5,12,2:1:0:0:
250,74,77409,1,0,0:0:0:0:
250,74,77529,2,0,P|246:32|229:-15,1,80.9999975280763,2|10,2:2|2:2,0:0:0:0:
281,137,77889,2,0,P|263:173|260:218,1,80.9999975280763,2|0,2:2|0:0,0:0:0:0:
251,373,78249,2,0,P|241:310|195:282,1,121.499996292114,10|8,2:1|2:1,0:0:0:0:
152,194,78729,1,8,2:2:0:0:
127,197,78849,1,8,2:1:0:0:
108,212,78969,1,0,0:0:0:0:
101,234,79089,1,8,2:1:0:0:
62,303,79209,6,0,L|191:254,1,121.499996292114,12|0,2:1|0:0,0:0:0:0:
249,203,79689,1,10,2:2:0:0:
249,203,79809,2,0,L|300:218,1,40.4999987640381,2|0,2:2|0:0,0:0:0:0:
385,160,80049,1,2,2:2:0:0:
358,175,80169,2,0,L|323:46,1,121.499996292114,10|8,2:1|2:1,0:0:0:0:
220,33,80649,2,0,L|268:19,2,40.4999987640381,8|10|8,2:2|2:1|2:1,0:0:0:0:
127,3,81129,6,0,L|162:132,1,121.499996292114,12|0,2:1|0:0,0:0:0:0:
63,220,81609,1,10,2:2:0:0:
63,220,81729,2,0,P|104:205|144:174,1,80.9999975280763,2|0,2:2|0:0,0:0:0:0:
51,384,82089,2,0,P|49:331|6:279,1,121.499996292114,10|8,2:1|2:1,0:0:0:0:
156,252,82569,1,10,2:2:0:0:
136,265,82689,1,8,2:1:0:0:
127,287,82809,1,0,0:0:0:0:
129,310,82929,1,8,2:1:0:0:
190,342,83049,6,0,B|244:329|240:389|299:384,1,121.499996292114,10|0,2:1|0:0,0:0:0:0:
385,325,83529,2,0,L|436:304,2,40.4999987640381,10|2|0,2:2|2:2|0:0,0:0:0:0:
297,384,83889,2,0,P|310:335|326:289,1,80.9999975280763,2|0,2:2|0:0,0:0:0:0:
219,231,84249,1,2,2:2:0:0:
219,231,84369,1,0,0:0:0:0:
219,231,84489,2,0,P|208:191|196:153,1,80.9999975280763,14|2,2:2|2:2,0:0:0:0:
205,145,84849,1,0,0:0:0:0:
121,280,84969,6,0,L|239:237,1,121.499996292114,12|0,2:1|0:0,0:0:0:0:
324,86,85449,1,10,2:2:0:0:
307,92,85569,2,0,L|330:173,1,80.9999975280763,2|0,2:2|0:0,0:0:0:0:
234,30,85929,2,0,L|196:156,1,121.499996292114,10|8,2:1|2:1,0:0:0:0:
160,234,86409,1,8,2:2:0:0:
145,212,86529,1,8,2:1:0:0:
123,202,86649,1,0,0:0:0:0:
99,207,86769,1,8,2:1:0:0:
53,266,86889,6,0,P|62:303|80:385,1,121.499996292114,12|0,2:1|0:0,0:0:0:0:
192,335,87369,1,10,2:2:0:0:
192,335,87489,2,0,L|236:353,1,40.4999987640381,2|0,2:2|0:0,0:0:0:0:
311,278,87729,2,0,L|296:316,1,40.4999987640381,2|10,2:2|2:1,0:0:0:0:
229,252,87969,1,2,2:2:0:0:
229,252,88089,1,2,2:2:0:0:
334,183,88329,5,10,2:2:0:0:
340,159,88449,1,10,2:1:0:0:
345,135,88569,1,10,2:1:0:0:
350,111,88689,1,0,0:0:0:0:
355,88,88809,6,0,L|441:65,1,80.9999975280763,12|2,2:1|2:2,0:0:0:0:
450,175,89289,1,10,2:2:0:0:
450,175,89409,2,0,L|409:164,1,40.4999987640381,2|0,2:2|0:0,0:0:0:0:
446,288,89649,2,0,L|370:225,1,80.9999975280763,2|0,2:2|0:0,0:0:0:0:
381,361,90009,2,0,L|364:308,1,40.4999987640381,2|8,2:2|2:1,0:0:0:0:
195,263,90249,5,10,2:2:0:0:
226,254,90369,1,8,2:1:0:0:
257,259,90489,1,2,2:2:0:0:
282,278,90609,1,8,2:1:0:0:
301,343,90729,5,10,2:1:0:0:
278,349,90849,1,8,2:1:0:0:
255,355,90969,1,8,2:2:0:0:
232,361,91089,1,8,2:1:0:0:
164,379,91209,5,10,2:1:0:0:
158,356,91329,1,8,2:1:0:0:
152,333,91449,1,8,2:2:0:0:
146,310,91569,1,8,2:1:0:0:
179,249,91689,5,10,2:1:0:0:
195,244,91809,1,8,2:1:0:0:
211,240,91929,1,8,2:2:0:0:
227,236,92049,1,8,2:1:0:0:
270,177,92169,5,10,2:2:0:0:
266,164,92289,1,10,2:1:0:0:
263,150,92409,1,8,2:2:0:0:
259,138,92529,1,8,2:2:0:0:
200,94,92649,5,10,2:1:0:0:
190,98,93009,1,2,2:2:0:0:
180,102,93369,1,2,2:2:0:0:
170,106,93729,1,2,2:2:0:0:
160,110,94089,1,2,2:2:0:0:
69,98,94329,2,0,L|93:191,1,80.9999975280763,2|0,2:2|0:0,0:0:0:0:
24,246,94809,5,2,2:2:0:0:
34,250,95169,1,2,2:2:0:0:
44,254,95529,1,2,2:2:0:0:
122,282,95889,1,2,2:2:0:0:
122,282,96009,1,8,2:2:0:0:
169,359,96489,6,0,P|228:334|289:309,1,121.499996292114,10|2,2:1|2:2,0:0:0:0:
302,242,96969,1,8,2:2:0:0:
311,82,97209,2,0,P|334:137|357:194,2,121.499996292114,2|2|10,2:2|2:2|2:2,0:0:0:0:
423,36,98169,6,0,P|367:59|310:82,1,121.499996292114,2|0,2:2|0:0,0:0:0:0:
168,128,98649,2,0,P|211:121|245:194,2,121.499996292114,2|2|10,2:2|2:2|2:1,0:0:0:0:
93,186,99729,1,2,2:2:0:0:
31,225,99849,1,8,2:2:0:0:
21,247,99969,1,0,0:0:0:0:
55,311,100089,1,0,0:0:0:0:
77,321,100209,1,0,0:0:0:0:
143,291,100329,6,0,B|209:291|189:356|250:352,1,121.499996292114,10|2,2:1|2:2,0:0:0:0:
303,313,100809,1,8,2:2:0:0:
434,384,101049,2,0,L|391:259,2,121.499996292114,2|2|10,2:2|2:2|2:2,0:0:0:0:
322,256,102009,2,0,L|365:131,1,121.499996292114,2|0,2:2|0:0,0:0:0:0:
344,28,102729,2,0,L|392:7,2,40.4999987640381,8|2|0,2:2|2:2|0:0,0:0:0:0:
282,69,103089,1,0,0:0:0:0:
282,69,103209,2,0,P|237:66|217:22,1,80.9999975280763,10|0,2:1|0:0,0:0:0:0:
162,0,103569,1,2,2:2:0:0:
162,0,103689,1,8,2:2:0:0:
34,130,104169,6,0,L|161:81,1,121.499996292114,10|2,2:1|2:2,0:0:0:0:
215,60,104649,1,8,2:2:0:0:
325,182,104889,2,0,P|270:185|247:130,2,121.499996292114,2|2|10,2:2|2:2|2:2,0:0:0:0:
376,122,105849,2,0,P|402:101|449:92,1,80.9999975280763,2|8,2:2|2:1,0:0:0:0:
447,91,106329,6,0,L|465:167,1,72,2|8,2:2|2:2,0:0:0:0:
431,224,106689,2,0,L|360:240,1,72,2|0,2:2|0:0,0:0:0:0:
327,302,107049,2,0,L|344:373,1,72,10|2,2:1|2:2,0:0:0:0:
416,384,107409,1,2,2:2:0:0:
416,384,107529,1,10,2:2:0:0:
360,239,107769,1,2,2:2:0:0:
246,328,108009,6,0,B|196:311|196:311|192:313|192:313|130:293,1,121.499996292114,14|0,2:1|0:0,0:0:0:0:
130,293,108489,2,0,L|104:372,1,72,10|0,2:2|0:0,0:0:0:0:
9,252,108969,2,0,P|57:253|88:197,1,108,10|0,2:1|0:0,0:0:0:0:
50,153,109449,1,10,2:2:0:0:
136,36,109689,6,0,B|175:30|210:48|203:85|226:103|258:107,1,144,2|2,2:2|2:2,0:0:0:0:
254,237,110289,1,0,0:0:0:0:
254,237,110409,2,0,P|271:195|291:160,1,72,10|2,2:2|2:2,0:0:0:0:
350,334,110889,2,0,P|318:317|284:304,2,72,10|2|10,2:1|2:2|2:2,0:0:0:0:
417,309,111489,1,0,0:0:0:0:
417,309,111609,1,2,2:2:0:0:
284,304,111849,6,0,B|230:297|226:342|169:332,1,108,10|0,2:1|0:0,0:0:0:0:
182,333,112329,2,0,P|170:293|152:254,1,72,10|2,2:2|2:2,0:0:0:0:
286,125,112809,2,0,P|268:178|253:242,1,108,10|0,2:1|0:0,0:0:0:0:
195,198,113289,1,10,2:2:0:0:
62,126,113529,1,2,2:2:0:0:
62,126,113649,1,0,0:0:0:0:
62,126,113769,6,0,P|115:106|176:81,1,108,10|0,2:1|0:0,0:0:0:0:
220,49,114249,1,10,2:2:0:0:
311,168,114489,1,2,2:2:0:0:
430,77,114729,1,10,2:1:0:0:
311,168,114969,1,2,2:2:0:0:
419,301,115209,1,10,2:2:0:0:
419,301,115329,2,0,P|432:285|458:269,2,36,0|2|0,0:0|2:2|0:0,0:0:0:0:
371,359,115689,6,0,P|333:323|265:320,1,108,10|0,2:1|0:0,0:0:0:0:
279,315,116169,2,0,P|241:337|201:338,1,72,10|0,2:2|0:0,0:0:0:0:
96,197,116649,2,0,P|122:255|142:312,1,108,10|0,2:1|0:0,0:0:0:0:
213,339,117129,1,10,2:2:0:0:
240,214,117369,6,0,P|270:167|307:113,1,108,2|0,2:2|0:0,0:0:0:0:
301,48,117849,1,2,2:2:0:0:
301,48,117969,1,0,0:0:0:0:
301,48,118089,2,0,P|267:27|236:6,1,72,10|2,2:2|2:2,0:0:0:0:
156,60,118449,1,0,0:0:0:0:
161,38,118569,2,0,P|104:58|43:75,1,108,10|0,2:1|0:0,0:0:0:0:
89,135,119049,1,10,2:2:0:0:
21,260,119289,1,2,2:2:0:0:
140,343,119529,6,0,B|202:335|190:378|253:378,1,108,10|0,2:1|0:0,0:0:0:0:
239,377,120009,2,0,P|285:348|353:339,1,108,10|0,2:2|0:0,0:0:0:0:
417,267,120489,2,0,P|386:241|381:200,1,72,10|0,2:1|0:0,0:0:0:0:
397,49,120969,1,10,2:2:0:0:
246,104,121209,2,0,P|249:164|323:167,1,144,2|2,2:2|2:2,0:0:0:0:
294,18,121929,2,0,B|266:23|266:23|257:30|257:30|210:40,2,72,10|2|10,2:2|2:2|2:1,0:0:0:0:
191,110,122649,1,2,2:2:0:0:
70,17,122889,1,10,2:2:0:0:
70,17,123009,2,0,L|84:63,2,36,0|10|0,0:0|2:2|0:0,0:0:0:0:
35,110,123369,6,0,L|6:197,1,80.9999975280763,12|2,2:1|2:2,0:0:0:0:
89,315,123729,1,0,0:0:0:0:
98,305,123849,2,0,P|87:276|30:265,1,80.9999975280763,10|0,2:2|0:0,0:0:0:0:
163,158,124209,1,0,0:0:0:0:
146,233,124329,2,0,B|203:221|203:221|207:217|207:217|274:204,1,121.499996292114,10|0,2:1|0:0,0:0:0:0:
338,289,124809,2,0,L|289:262,1,40.4999987640381,10|0,2:2|0:0,0:0:0:0:
413,226,125049,1,2,2:2:0:0:
423,220,125169,1,0,0:0:0:0:
433,214,125289,6,0,L|424:257,1,40.4999987640381,10|0,2:1|0:0,0:0:0:0:
512,162,125529,1,2,2:2:0:0:
467,103,125649,2,0,P|448:97|424:94,1,40.4999987640381,2|10,2:2|2:2,0:0:0:0:
383,39,125889,2,0,P|389:20|392:-4,1,40.4999987640381,2|0,2:2|0:0,0:0:0:0:
303,90,126129,1,2,2:2:0:0:
310,62,126249,2,0,L|179:96,1,121.499996292114,10|0,2:1|0:0,0:0:0:0:
85,32,126729,2,0,L|97:76,3,26.9999991760254,10|2|2|2,2:2|2:2|2:2|2:2,0:0:0:0:
231,179,127209,6,0,P|193:163|154:158,1,80.9999975280763,10|2,2:1|2:2,0:0:0:0:
269,320,127569,1,0,0:0:0:0:
257,323,127689,2,0,P|262:283|278:245,1,80.9999975280763,10|0,2:2|0:0,0:0:0:0:
393,128,128049,1,0,0:0:0:0:
337,171,128169,2,0,P|299:128|259:78,1,121.499996292114,10|0,2:1|0:0,0:0:0:0:
338,0,128649,2,0,L|305:23,1,40.4999987640381,10|0,2:2|0:0,0:0:0:0:
417,63,128889,1,2,2:2:0:0:
427,68,129009,1,0,0:0:0:0:
438,73,129129,6,0,L|453:120,1,40.4999987640381,10|0,2:1|0:0,0:0:0:0:
512,170,129369,2,0,L|499:208,1,40.4999987640381,2|0,2:2|0:0,0:0:0:0:
437,246,129609,1,10,2:2:0:0:
474,311,129729,2,0,L|512:324,1,40.4999987640381,2|0,2:2|0:0,0:0:0:0:
376,361,129969,2,0,B|336:354|336:393|287:383,1,80.9999975280763,2|0,2:2|0:0,0:0:0:0:
244,262,130329,2,0,L|233:301,1,40.4999987640381,2|0,2:2|0:0,0:0:0:0:
158,194,130569,2,0,L|197:204,1,40.4999987640381,10|0,2:2|0:0,0:0:0:0:
166,40,130809,1,2,2:2:0:0:
155,45,130929,1,0,0:0:0:0:
144,50,131049,6,0,L|124:129,1,80.9999975280763,10|2,2:1|2:2,0:0:0:0:
290,190,131409,1,0,0:0:0:0:
278,185,131529,2,0,L|258:106,1,80.9999975280763,10|0,2:2|0:0,0:0:0:0:
190,242,131889,1,0,0:0:0:0:
129,298,132009,2,0,B|195:300|176:345|236:351,1,121.499996292114,10|0,2:1|0:0,0:0:0:0:
300,273,132489,2,0,L|343:254,1,40.4999987640381,10|0,2:2|0:0,0:0:0:0:
392,308,132729,2,0,L|375:345,1,40.4999987640381,2|0,2:2|0:0,0:0:0:0:
430,189,132969,5,10,2:1:0:0:
512,86,133209,2,0,P|492:89|475:100,1,40.4999987640381,2|0,2:2|0:0,0:0:0:0:
394,28,133449,1,10,2:2:0:0:
394,28,133569,2,0,P|405:44|410:64,1,40.4999987640381,2|0,2:2|0:0,0:0:0:0:
330,126,133809,2,0,P|301:99|290:61,1,80.9999975280763,2|0,2:2|0:0,0:0:0:0:
229,246,134169,2,0,B|264:223|264:223|264:219|264:219|302:194,2,80.9999975280763,2|10|2,2:2|2:2|2:2,0:0:0:0:
82,361,134769,1,0,0:0:0:0:
67,337,134889,6,0,B|95:327|126:336|128:377|152:386|187:373,1,121.499996292114,10|0,2:1|0:0,0:0:0:0:
246,344,135369,2,0,P|260:323|270:292,2,40.4999987640381,10|2|0,2:2|2:2|0:0,0:0:0:0:
339,322,135729,2,0,B|346:312|346:312|427:284,1,80.9999975280763,2|0,2:2|0:0,0:0:0:0:
421,132,136089,2,0,L|436:177,1,40.4999987640381,2|0,2:2|0:0,0:0:0:0:
492,55,136329,2,0,L|447:70,1,40.4999987640381,10|0,2:2|0:0,0:0:0:0:
355,152,136569,2,0,L|367:190,1,40.4999987640381,2|0,2:2|0:0,0:0:0:0:
289,83,136809,5,10,2:1:0:0:
264,68,136929,1,0,0:0:0:0:
235,67,137049,1,0,0:0:0:0:
210,80,137169,1,0,0:0:0:0:
172,137,137289,2,0,L|185:175,3,40.4999987640381,10|0|0|0,2:2|0:0|0:0|0:0,0:0:0:0:
144,231,137769,5,10,2:1:0:0:
127,231,137889,1,0,0:0:0:0:
111,224,138009,1,2,2:3:0:0:
100,211,138129,1,0,0:0:0:0:
31,215,138249,2,0,B|123:194,1,94.499997116089,10|0,2:2|0:0,0:0:0:0:
226,28,138729,6,0,L|172:137,1,121.499996292114,12|0,2:1|0:0,0:0:0:0:
332,17,139209,2,0,P|309:10|281:-5,1,40.4999987640381,10|2,2:2|2:2,0:0:0:0:
373,94,139449,1,0,0:0:0:0:
384,90,139569,1,0,0:0:0:0:
395,86,139689,2,0,L|439:201,1,121.499996292114,10|0,2:1|0:0,0:0:0:0:
349,277,140169,2,0,P|367:268|386:263,1,40.4999987640381,10|0,2:2|0:0,0:0:0:0:
289,368,140409,1,2,2:2:0:0:
278,362,140529,1,0,0:0:0:0:
267,356,140649,6,0,L|215:375,1,40.4999987640381,10|0,2:1|0:0,0:0:0:0:
110,296,140889,1,2,2:2:0:0:
175,269,141009,2,0,L|182:229,1,40.4999987640381,2|10,2:2|2:2,0:0:0:0:
126,179,141249,2,0,L|118:139,1,40.4999987640381,0|2,0:0|2:2,0:0:0:0:
31,43,141489,1,0,0:0:0:0:
42,16,141609,2,0,B|100:28|100:28|104:33|104:33|167:45,1,121.499996292114,10|0,2:1|0:0,0:0:0:0:
283,29,142089,2,0,B|268:28|268:28|253:52,3,26.9999991760254,10|2|2|2,2:2|2:2|2:2|2:2,0:0:0:0:
343,170,142569,6,0,B|335:156|335:156|362:85,1,80.9999975280763,10|2,2:1|2:2,0:0:0:0:
454,184,142929,1,0,0:0:0:0:
445,192,143049,2,0,L|469:271,1,80.9999975280763,10|0,2:2|0:0,0:0:0:0:
369,371,143409,1,0,0:0:0:0:
333,312,143529,2,0,B|282:325|282:325|278:331|278:331|213:349,1,121.499996292114,10|0,2:1|0:0,0:0:0:0:
150,266,144009,2,0,L|164:316,1,40.4999987640381,10|0,2:2|0:0,0:0:0:0:
58,236,144249,1,2,2:2:0:0:
68,229,144369,1,0,0:0:0:0:
78,222,144489,6,0,L|88:182,1,40.4999987640381,10|0,2:1|0:0,0:0:0:0:
210,240,144729,2,0,L|200:200,1,40.4999987640381,2|0,2:2|0:0,0:0:0:0:
291,78,144969,1,10,2:2:0:0:
291,78,145089,2,0,L|301:118,1,40.4999987640381,2|0,2:2|0:0,0:0:0:0:
405,13,145329,2,0,L|383:104,1,80.9999975280763,2|0,2:2|0:0,0:0:0:0:
477,172,145689,2,0,L|427:150,1,40.4999987640381,2|0,2:2|0:0,0:0:0:0:
481,316,145929,2,0,L|518:229,1,80.9999975280763,10|2,2:2|2:2,0:0:0:0:
504,232,146289,1,0,0:0:0:0:
405,300,146409,6,0,B|377:294|347:312|346:354|300:351,1,121.499996292114,10|0,2:1|0:0,0:0:0:0:
194,288,146889,2,0,P|223:296|233:314,1,40.4999987640381,10|2,2:2|2:2,0:0:0:0:
136,356,147129,1,0,0:0:0:0:
125,362,147249,1,0,0:0:0:0:
114,368,147369,2,0,P|87:349|98:269,1,121.499996292114,10|0,2:1|0:0,0:0:0:0:
167,206,147849,2,0,P|166:187|157:158,1,40.4999987640381,10|0,2:2|0:0,0:0:0:0:
242,146,148089,2,0,P|231:126|208:111,1,40.4999987640381,2|0,2:2|0:0,0:0:0:0:
316,23,148329,5,10,2:1:0:0:
141,82,148569,1,2,2:2:0:0:
130,78,148689,1,0,0:0:0:0:
119,75,148809,2,0,L|99:32,1,40.4999987640381,10|2,2:2|2:2,0:0:0:0:
281,84,149049,1,0,0:0:0:0:
217,115,149169,2,0,L|199:151,1,40.4999987640381,2|10,2:2|2:1,0:0:0:0:
271,232,149409,2,0,L|234:214,2,40.4999987640381,2|2|0,2:2|2:2|0:0,0:0:0:0:
296,384,149769,2,0,B|318:328|318:328|316:323|316:323|340:266,1,121.499996292114,10|0,2:2|0:0,0:0:0:0:
409,220,150249,5,12,2:1:0:0:
481,147,150489,2,0,L|448:101,1,40.4999987640381,2|0,2:2|0:0,0:0:0:0:
498,56,150729,1,2,2:2:0:0:
506,47,150849,1,2,2:2:0:0:
417,0,151089,1,2,2:2:0:0:
310,152,151449,5,2,2:2:0:0:
218,31,151689,1,2,2:2:0:0:
95,126,151929,2,0,L|108:178,1,40.4999987640381,2|0,2:2|0:0,0:0:0:0:
247,205,152169,5,2,2:2:0:0:
216,215,152289,1,0,0:0:0:0:
185,225,152409,1,0,0:0:0:0:
154,235,152529,1,0,0:0:0:0:
103,287,152649,5,2,2:2:0:0:
115,307,152769,1,0,0:0:0:0:
135,319,152889,1,0,0:0:0:0:
159,321,153009,1,0,0:0:0:0:
233,355,153129,5,2,2:2:0:0:
233,355,153249,1,0,0:0:0:0:
233,355,153369,2,0,L|280:339,1,40.4999987640381,8|0,2:2|0:0,0:0:0:0:
384,359,153609,2,0,B|371:317|371:317|366:312|366:312|350:265,1,94.499997116089,10|0,2:2|0:0,0:0:0:0:
352,270,154089,6,0,L|375:204,1,49.5000015106202,12|0,2:1|0:0,0:0:0:0:
293,112,154329,2,0,L|359:134,1,49.5000015106202,2|0,2:2|0:0,0:0:0:0:
254,27,154569,1,10,2:2:0:0:
112,96,154809,1,0,0:0:0:0:
112,96,154929,1,0,0:0:0:0:
112,96,155049,2,0,P|93:76|68:67,1,49.5000015106202,10|0,2:1|0:0,0:0:0:0:
102,180,155289,1,0,0:0:0:0:
36,205,155409,2,0,L|55:262,1,49.5000015106202,0|10,0:0|2:2,0:0:0:0:
128,303,155649,1,0,0:0:0:0:
128,303,155769,2,0,L|181:285,1,49.5000015106202,2|0,2:2|0:0,0:0:0:0:
283,223,156009,5,10,2:1:0:0:
346,357,156249,2,0,L|326:305,1,49.5000015106202,2|0,2:2|0:0,0:0:0:0:
271,226,156489,2,0,B|289:178|289:178|288:173|288:173|303:130,1,99.0000030212403,10|0,2:2|0:0,0:0:0:0:
343,39,156849,1,0,0:0:0:0:
363,53,156969,2,0,L|418:40,1,49.5000015106202,10|0,2:1|0:0,0:0:0:0:
435,37,157209,1,0,0:0:0:0:
496,108,157329,2,0,L|476:170,1,49.5000015106202,2|8,2:2|2:2,0:0:0:0:
345,258,157569,2,0,L|450:215,1,99.0000030212403,2|2,2:2|2:2,0:0:0:0:
494,263,157929,5,10,2:1:0:0:
393,345,158169,2,0,L|335:328,1,49.5000015106202,2|0,2:2|0:0,0:0:0:0:
275,205,158409,2,0,L|322:191,1,49.5000015106202,10|0,2:2|0:0,0:0:0:0:
423,69,158649,1,0,0:0:0:0:
423,69,158769,1,0,0:0:0:0:
423,69,158889,2,0,L|389:164,1,99.0000030212403,10|0,2:1|0:0,0:0:0:0:
295,74,159249,2,0,L|274:27,1,49.5000015106202,2|10,2:2|2:2,0:0:0:0:
185,124,159489,2,0,L|206:77,1,49.5000015106202,2|2,2:2|2:3,0:0:0:0:
135,40,159729,1,2,2:2:0:0:
135,40,159849,5,10,2:1:0:0:
18,169,160089,2,0,L|61:193,1,49.5000015106202,2|0,2:2|0:0,0:0:0:0:
109,281,160329,2,0,B|155:259|155:259|156:255|156:255|216:227,1,99.0000030212403,10|0,2:2|0:0,0:0:0:0:
209,212,160689,1,2,2:2:0:0:
284,275,160809,2,0,P|278:297|270:325,1,49.5000015106202,10|0,2:1|0:0,0:0:0:0:
385,260,161049,1,0,0:0:0:0:
407,250,161169,2,0,L|389:189,1,49.5000015106202,2|8,2:2|2:2,0:0:0:0:
483,118,161409,2,0,L|427:139,2,49.5000015106202,2|2|8,2:2|2:2|2:2,0:0:0:0:
499,7,161769,6,0,B|463:32|463:32|461:36|461:36|403:79,1,99.0000030212403,10|2,2:1|2:2,0:0:0:0:
363,109,162129,1,0,0:0:0:0:
363,109,162249,1,10,2:2:0:0:
212,33,162489,1,0,0:0:0:0:
212,33,162609,1,0,0:0:0:0:
212,33,162729,2,0,P|239:35|261:60,1,49.5000015106202,10|0,2:1|0:0,0:0:0:0:
125,124,162969,1,0,0:0:0:0:
125,124,163089,2,0,L|144:62,1,49.5000015106202,0|10,0:0|2:2,0:0:0:0:
122,57,163329,1,0,0:0:0:0:
10,145,163449,2,0,L|59:161,1,49.5000015106202,2|0,2:2|0:0,0:0:0:0:
164,219,163689,5,10,2:1:0:0:
243,331,163929,2,0,L|305:308,1,49.5000015106202,2|0,2:2|0:0,0:0:0:0:
321,224,164169,2,0,B|365:240|365:240|371:238|371:238|413:255,1,99.0000030212403,10|0,2:2|0:0,0:0:0:0:
472,161,164529,1,0,0:0:0:0:
493,149,164649,2,0,L|480:98,1,49.5000015106202,10|2,2:1|2:2,0:0:0:0:
496,81,164889,1,0,0:0:0:0:
423,20,165009,2,0,L|376:36,1,49.5000015106202,2|8,2:2|2:2,0:0:0:0:
255,99,165249,2,0,L|227:3,1,99.0000030212403,2|2,2:2|2:2,0:0:0:0:
323,83,165609,5,10,2:1:0:0:
201,175,165849,2,0,L|140:157,1,49.5000015106202,2|0,2:2|0:0,0:0:0:0:
62,115,166089,2,0,B|78:175|78:175|76:180|76:180|100:271,1,148.50000453186,10|0,2:2|0:0,0:0:0:0:
246,283,166569,2,0,B|230:274|230:274|151:308,1,99.0000030212403,10|0,2:1|0:0,0:0:0:0:
306,362,166929,2,0,P|318:338|320:315,1,49.5000015106202,2|10,2:2|2:2,0:0:0:0:
423,384,167169,2,0,P|413:363|391:349,1,49.5000015106202,2|2,2:2|2:3,0:0:0:0:
478,305,167409,1,2,2:2:0:0:
478,305,167529,5,10,2:1:0:0:
393,158,167769,2,0,P|383:178|374:214,1,49.5000015106202,2|0,2:2|0:0,0:0:0:0:
491,107,168009,2,0,P|479:78|400:68,1,99.0000030212403,10|0,2:2|0:0,0:0:0:0:
404,79,168369,1,0,0:0:0:0:
337,15,168489,2,0,L|282:30,1,49.5000015106202,10|0,2:1|0:0,0:0:0:0:
204,90,168729,1,8,2:2:0:0:
180,82,168849,1,10,2:1:0:0:
119,35,168969,5,8,2:2:0:0:
112,66,169089,1,8,2:1:0:0:
83,86,169209,1,10,2:2:0:0:
49,83,169329,1,8,2:2:0:0:
49,83,169449,6,0,L|77:188,1,99.0000030212403,12|2,2:1|2:2,0:0:0:0:
154,245,169809,1,0,0:0:0:0:
154,245,169929,2,0,B|136:284|136:284|138:289|138:289|113:342,1,99.0000030212403,10|0,2:2|0:0,0:0:0:0:
235,297,170289,1,8,2:1:0:0:
253,280,170409,2,0,L|310:266,1,49.5000015106202,10|8,2:1|2:1,0:0:0:0:
318,250,170649,1,0,0:0:0:0:
375,175,170769,2,0,L|437:189,1,49.5000015106202,0|10,0:0|2:2,0:0:0:0:
337,60,171009,1,0,0:0:0:0:
337,60,171129,2,0,L|323:122,1,49.5000015106202,2|0,2:2|0:0,0:0:0:0:
401,10,171369,5,10,2:1:0:0:
423,185,171609,2,0,L|375:175,1,49.5000015106202,2|0,2:2|0:0,0:0:0:0:
335,289,171849,2,0,L|383:278,1,49.5000015106202,10|0,2:2|0:0,0:0:0:0:
261,206,172089,1,0,0:0:0:0:
239,217,172209,1,0,0:0:0:0:
217,229,172329,2,0,P|233:284|248:347,1,99.0000030212403,10|0,2:1|0:0,0:0:0:0:
107,201,172689,2,0,P|130:192|165:183,1,49.5000015106202,2|8,2:2|2:2,0:0:0:0:
288,133,172929,2,0,P|247:110|200:75,1,99.0000030212403,2|2,2:2|2:2,0:0:0:0:
159,27,173289,5,10,2:1:0:0:
340,102,173529,2,0,L|293:118,1,49.5000015106202,2|0,2:2|0:0,0:0:0:0:
417,191,173769,2,0,L|402:143,1,49.5000015106202,10|0,2:2|0:0,0:0:0:0:
274,236,174009,1,0,0:0:0:0:
274,236,174129,1,8,2:1:0:0:
274,236,174249,2,0,L|314:345,1,99.0000030212403,10|0,2:1|0:0,0:0:0:0:
433,264,174609,2,0,L|379:285,1,49.5000015106202,2|10,2:2|2:2,0:0:0:0:
289,159,174849,2,0,L|335:141,1,49.5000015106202,10|2,2:1|2:3,0:0:0:0:
405,115,175089,1,2,2:2:0:0:
405,115,175209,5,10,2:1:0:0:
213,64,175449,2,0,L|234:118,1,49.5000015106202,2|0,2:2|0:0,0:0:0:0:
356,0,175689,2,0,P|304:3|277:52,1,99.0000030212403,10|0,2:2|0:0,0:0:0:0:
278,38,176049,1,2,2:2:0:0:
278,38,176169,1,10,2:1:0:0:
393,163,176409,5,0,0:0:0:0:
399,139,176529,1,2,2:2:0:0:
405,115,176649,1,8,2:2:0:0:
412,90,176769,2,0,L|460:78,2,49.5000015106202,2|2|0,2:2|2:2|0:0,0:0:0:0:
292,172,177129,6,0,P|339:176|381:205,1,99.0000030212403,10|2,2:1|2:2,0:0:0:0:
417,269,177489,1,0,0:0:0:0:
417,269,177609,1,10,2:2:0:0:
275,346,177849,1,0,0:0:0:0:
275,346,177969,1,8,2:1:0:0:
275,346,178089,2,0,P|287:310|314:297,1,49.5000015106202,10|8,2:1|2:1,0:0:0:0:
219,208,178329,1,0,0:0:0:0:
219,208,178449,2,0,P|252:219|272:242,1,49.5000015106202,0|10,0:0|2:2,0:0:0:0:
282,213,178689,1,0,0:0:0:0:
161,271,178809,2,0,L|149:222,1,49.5000015106202,2|0,2:2|0:0,0:0:0:0:
75,142,179049,5,10,2:1:0:0:
199,23,179289,2,0,P|192:52|178:77,1,49.5000015106202,2|0,2:2|0:0,0:0:0:0:
307,174,179529,2,0,P|270:146|213:127,1,99.0000030212403,10|0,2:2|0:0,0:0:0:0:
314,72,179889,1,0,0:0:0:0:
333,57,180009,2,0,L|387:75,1,49.5000015106202,10|10,2:1|2:1,0:0:0:0:
400,58,180249,1,0,0:0:0:0:
447,138,180369,2,0,L|504:157,1,49.5000015106202,2|8,2:2|2:2,0:0:0:0:
376,181,180609,2,0,L|335:272,1,99.0000030212403,2|2,2:2|2:2,0:0:0:0:
368,334,180969,5,10,2:1:0:0:
255,236,181209,2,0,L|191:258,1,49.5000015106202,2|0,2:2|0:0,0:0:0:0:
117,290,181449,2,0,B|138:222|138:222|148:214|148:214|169:146,1,148.50000453186,10|8,2:2|2:1,0:0:0:0:
238,46,181929,2,0,P|189:44|151:87,1,99.0000030212403,10|0,2:1|0:0,0:0:0:0:
289,139,182289,2,0,P|296:117|314:92,1,49.5000015106202,2|10,2:2|2:2,0:0:0:0:
255,236,182529,2,0,P|247:212|233:192,1,49.5000015106202,10|2,2:1|2:3,0:0:0:0:
239,308,182769,1,2,2:2:0:0:
239,308,182889,5,10,2:1:0:0:
353,374,183129,2,0,L|402:339,1,49.5000015106202,2|0,2:2|0:0,0:0:0:0:
489,303,183369,2,0,P|428:281|422:243,1,99.0000030212403,10|0,2:2|0:0,0:0:0:0:
420,253,183729,1,8,2:2:0:0:
420,253,183849,6,0,L|430:196,1,49.5000015106202,10|0,2:1|0:0,0:0:0:0:
479,156,184089,1,0,0:0:0:0:
425,65,184209,2,0,P|382:64|350:128,1,99.0000030212403,10|8,2:1|2:2,0:0:0:0:
225,123,184569,1,10,2:1:0:0:
292,147,184689,1,8,2:2:0:0:
278,77,184809,6,0,L|171:109,1,99.0000030212403,12|2,2:1|2:2,0:0:0:0:
157,101,185169,1,0,0:0:0:0:
85,174,185289,2,0,P|55:146|-3:148,1,99.0000030212403,10|0,2:2|0:0,0:0:0:0:
70,261,185649,1,0,0:0:0:0:
87,243,185769,2,0,L|151:229,1,49.5000015106202,10|0,2:1|0:0,0:0:0:0:
244,170,186009,1,0,0:0:0:0:
244,170,186129,2,0,L|195:180,1,49.5000015106202,0|10,0:0|2:2,0:0:0:0:
175,166,186369,1,0,0:0:0:0:
305,227,186489,2,0,L|320:170,1,49.5000015106202,2|0,2:2|0:0,0:0:0:0:
331,106,186729,5,10,2:1:0:0:
404,294,186969,2,0,L|351:276,1,49.5000015106202,2|0,2:2|0:0,0:0:0:0:
446,384,187209,2,0,L|464:331,1,49.5000015106202,10|0,2:2|0:0,0:0:0:0:
438,200,187449,1,0,0:0:0:0:
459,187,187569,1,0,0:0:0:0:
480,175,187689,2,0,L|452:71,1,99.0000030212403,10|0,2:1|0:0,0:0:0:0:
345,60,188049,2,0,L|393:43,1,49.5000015106202,2|10,2:2|2:2,0:0:0:0:
285,119,188289,2,0,L|264:51,1,49.5000015106202,2|2,2:2|2:3,0:0:0:0:
216,23,188529,1,2,2:2:0:0:
216,23,188649,5,10,2:1:0:0:
104,164,188889,2,0,L|42:149,1,49.5000015106202,2|0,2:2|0:0,0:0:0:0:
110,262,189129,2,0,L|172:247,1,49.5000015106202,10|0,2:2|0:0,0:0:0:0:
271,352,189369,1,0,0:0:0:0:
271,352,189489,1,0,0:0:0:0:
271,352,189609,2,0,P|216:346|196:290,1,99.0000030212403,10|0,2:1|0:0,0:0:0:0:
110,262,189969,2,0,L|158:250,1,49.5000015106202,2|10,2:2|2:2,0:0:0:0:
318,292,190209,2,0,L|306:243,1,49.5000015106202,2|2,2:2|2:3,0:0:0:0:
322,225,190449,1,2,2:2:0:0:
339,207,190569,6,0,L|327:158,1,49.5000015106202,10|2,2:1|2:2,0:0:0:0:
391,58,190809,2,0,L|379:107,1,49.5000015106202,2|0,2:2|0:0,0:0:0:0:
220,34,191049,2,0,P|233:69|305:62,1,99.0000030212403,10|0,2:2|0:0,0:0:0:0:
288,77,191409,1,2,2:2:0:0:
288,77,191529,1,10,2:1:0:0:
191,170,191769,5,0,0:0:0:0:
158,156,191889,1,2,2:2:0:0:
124,150,192009,1,10,2:2:0:0:
89,147,192129,2,0,L|23:157,2,49.5000015106202,2|2|8,2:2|2:2|2:2,0:0:0:0:
0,49,192489,6,0,L|95:74,1,99.0000030212403,10|2,2:1|2:2,0:0:0:0:
115,59,192849,1,0,0:0:0:0:
195,131,192969,2,0,B|251:122|238:172|300:164,1,99.0000030212403,10|0,2:2|0:0,0:0:0:0:
410,57,193329,1,0,0:0:0:0:
376,66,193449,2,0,L|359:125,1,49.5000015106202,10|0,2:1|0:0,0:0:0:0:
447,192,193689,1,0,0:0:0:0:
447,192,193809,2,0,L|399:178,1,49.5000015106202,0|10,0:0|2:2,0:0:0:0:
377,190,194049,1,0,0:0:0:0:
474,306,194169,2,0,L|486:257,1,49.5000015106202,2|0,2:2|0:0,0:0:0:0:
447,192,194409,5,10,2:1:0:0:
273,247,194649,2,0,L|320:234,1,49.5000015106202,2|0,2:2|0:0,0:0:0:0:
357,112,194889,2,0,L|309:99,1,49.5000015106202,10|0,2:2|0:0,0:0:0:0:
214,291,195129,1,0,0:0:0:0:
238,285,195249,1,0,0:0:0:0:
261,278,195369,2,0,L|371:248,1,99.0000030212403,10|0,2:1|0:0,0:0:0:0:
357,112,195729,2,0,L|309:99,1,49.5000015106202,2|10,2:2|2:2,0:0:0:0:
411,198,195969,2,0,L|426:149,1,49.5000015106202,2|2,2:2|2:3,0:0:0:0:
442,83,196209,1,2,2:2:0:0:
442,83,196329,5,10,2:1:0:0:
313,11,196569,2,0,P|289:17|272:34,1,49.5000015106202,2|0,2:2|0:0,0:0:0:0:
291,138,196809,2,0,P|270:124|258:103,1,49.5000015106202,10|0,2:2|0:0,0:0:0:0:
434,144,197049,1,0,0:0:0:0:
434,144,197169,1,0,0:0:0:0:
434,144,197289,2,0,P|393:154|349:210,1,99.0000030212403,10|0,2:1|0:0,0:0:0:0:
258,103,197649,2,0,P|270:124|291:138,1,49.5000015106202,2|10,2:2|2:2,0:0:0:0:
427,236,197889,2,0,P|406:249|394:270,1,49.5000015106202,2|2,2:2|2:3,0:0:0:0:
404,292,198129,1,2,2:2:0:0:
415,313,198249,6,0,L|350:299,1,49.5000015106202,10|2,2:1|2:2,0:0:0:0:
250,358,198489,2,0,L|315:344,1,49.5000015106202,2|0,2:2|0:0,0:0:0:0:
200,278,198729,2,0,P|162:279|127:234,1,99.0000030212403,10|0,2:2|0:0,0:0:0:0:
140,213,199089,1,0,0:0:0:0:
203,150,199209,2,0,L|185:88,1,49.5000015106202,10|0,2:1|0:0,0:0:0:0:
126,19,199449,1,8,2:2:0:0:
102,25,199569,1,10,2:1:0:0:
32,42,199689,5,10,2:2:0:0:
41,80,199809,1,8,2:1:0:0:
73,100,199929,1,10,2:2:0:0:
115,98,200049,1,8,2:2:0:0:
115,98,200169,6,0,B|102:135|102:135|98:138|98:138|74:202,1,99.0000030212403,12|2,2:1|2:2,0:0:0:0:
56,201,200529,1,0,0:0:0:0:
131,279,200649,2,0,B|171:299|171:299|176:311|176:311|224:334,1,99.0000030212403,10|0,2:2|0:0,0:0:0:0:
285,229,201009,1,8,2:1:0:0:
297,207,201129,2,0,L|232:227,1,49.5000015106202,10|8,2:1|2:1,0:0:0:0:
348,307,201369,1,0,0:0:0:0:
348,307,201489,2,0,P|354:276|372:254,1,49.5000015106202,0|10,0:0|2:2,0:0:0:0:
386,250,201729,1,0,0:0:0:0:
512,235,201849,2,0,P|488:234|465:210,1,49.5000015106202,2|0,2:2|0:0,0:0:0:0:
419,164,202089,5,10,2:1:0:0:
353,21,202329,2,0,L|399:3,1,49.5000015106202,2|0,2:2|0:0,0:0:0:0:
333,125,202569,2,0,L|315:78,1,49.5000015106202,10|0,2:2|0:0,0:0:0:0:
419,164,202809,1,0,0:0:0:0:
441,153,202929,1,0,0:0:0:0:
463,143,203049,2,0,L|437:243,1,99.0000030212403,10|0,2:1|0:0,0:0:0:0:
372,352,203409,2,0,P|358:331|351:308,1,49.5000015106202,2|10,2:2|2:2,0:0:0:0:
285,274,203649,2,0,P|264:287|241:295,1,49.5000015106202,2|2,2:2|2:3,0:0:0:0:
210,364,203889,1,2,2:2:0:0:
210,364,204009,5,10,2:1:0:0:
105,226,204249,2,0,L|171:241,1,49.5000015106202,2|0,2:2|0:0,0:0:0:0:
76,104,204489,2,0,L|58:160,1,49.5000015106202,10|0,2:2|0:0,0:0:0:0:
222,75,204729,1,0,0:0:0:0:
222,75,204849,1,8,2:1:0:0:
222,75,204969,2,0,P|146:53|142:25,1,99.0000030212403,10|0,2:1|0:0,0:0:0:0:
60,151,205329,2,0,L|76:104,1,49.5000015106202,2|10,2:2|2:2,0:0:0:0:
153,236,205569,2,0,L|105:226,1,49.5000015106202,10|2,2:1|2:3,0:0:0:0:
84,240,205809,1,2,2:2:0:0:
64,255,205929,6,0,L|44:323,1,49.5000015106202,10|2,2:1|2:2,0:0:0:0:
162,370,206169,2,0,L|175:322,1,49.5000015106202,2|0,2:2|0:0,0:0:0:0:
258,245,206409,2,0,B|317:241|303:280|363:287,1,99.0000030212403,10|0,2:2|0:0,0:0:0:0:
345,283,206769,1,2,2:2:0:0:
345,283,206889,1,10,2:1:0:0:
425,184,207129,1,0,0:0:0:0:
434,150,207249,1,2,2:2:0:0:
445,117,207369,1,10,2:2:0:0:
464,88,207489,2,0,L|517:78,2,49.5000015106202,2|2|0,2:2|2:2|0:0,0:0:0:0:
394,18,207849,6,0,L|295:4,1,99.0000030212403,10|2,2:1|2:2,0:0:0:0:
272,12,208209,1,0,0:0:0:0:
340,103,208329,2,0,L|241:117,1,99.0000030212403,10|0,2:2|0:0,0:0:0:0:
90,57,208689,1,8,2:1:0:0:
113,48,208809,2,0,P|140:53|161:73,1,49.5000015106202,10|8,2:1|2:1,0:0:0:0:
184,158,209049,1,0,0:0:0:0:
184,158,209169,2,0,P|179:185|159:206,1,49.5000015106202,0|10,0:0|2:2,0:0:0:0:
149,221,209409,1,0,0:0:0:0:
20,250,209529,2,0,P|49:258|72:286,1,49.5000015106202,2|0,2:2|0:0,0:0:0:0:
101,330,209769,5,10,2:1:0:0:
216,377,210009,2,0,L|198:314,1,49.5000015106202,2|0,2:2|0:0,0:0:0:0:
307,247,210249,2,0,L|293:294,1,49.5000015106202,10|0,2:2|0:0,0:0:0:0:
217,138,210489,1,0,0:0:0:0:
193,144,210609,1,0,0:0:0:0:
169,151,210729,2,0,L|200:254,1,99.0000030212403,10|0,2:1|0:0,0:0:0:0:
306,299,211089,2,0,L|320:252,1,49.5000015106202,2|10,2:2|2:2,0:0:0:0:
421,220,211329,2,0,L|374:206,1,49.5000015106202,2|2,2:2|2:3,0:0:0:0:
464,283,211569,1,2,2:2:0:0:
464,283,211689,5,10,2:1:0:0:
512,116,211929,2,0,P|492:132|451:122,1,49.5000015106202,2|0,2:2|0:0,0:0:0:0:
378,46,212169,2,0,P|379:70|395:88,1,49.5000015106202,10|0,2:2|0:0,0:0:0:0:
216,39,212409,1,0,0:0:0:0:
216,39,212529,1,8,2:1:0:0:
216,39,212649,2,0,P|262:20|329:0,1,99.0000030212403,10|0,2:1|0:0,0:0:0:0:
395,88,213009,2,0,P|379:70|378:46,1,49.5000015106202,2|10,2:2|2:2,0:0:0:0:
319,171,213249,2,0,P|337:155|361:154,1,49.5000015106202,10|2,2:1|2:3,0:0:0:0:
242,131,213489,6,0,B|231:172|231:172|233:179|233:179|217:238,1,99.0000030212403,2|2,2:2|2:2,0:0:0:0:
161,269,213849,2,0,L|112:257,1,49.5000015106202,2|0,2:2|0:0,0:0:0:0:
11,363,214089,2,0,L|49:258,1,99.0000030212403,10|0,2:2|0:0,0:0:0:0:
44,269,214449,1,8,2:2:0:0:
44,269,214569,1,10,2:1:0:0:
138,188,214809,5,0,0:0:0:0:
77,160,214929,2,0,L|64:105,1,49.5000015106202,10|0,2:1|0:0,0:0:0:0:
23,32,215169,1,8,2:2:0:0:
61,41,215289,1,10,2:1:0:0:
94,49,215409,1,8,2:2:0:0:
124,55,215529,5,6,2:2:0:0:
441,57,230649,5,10,2:1:0:0:
336,132,230889,2,0,L|302:34,1,94.499997116089,14|2,2:1|2:2,0:0:0:0:
305,42,231369,1,2,2:3:0:0:
197,181,231849,2,0,P|227:176|248:153,1,62.9999980773926,2|2,2:2|2:2,0:0:0:0:
248,152,232209,1,2,2:2:0:0:
108,156,232449,1,2,2:2:0:0:
108,156,232569,6,0,B|121:194|121:194|119:203|119:203|136:254,1,94.499997116089,2|0,2:2|0:0,0:0:0:0:
94,306,233049,2,0,L|54:326,1,31.4999990386963,2|2,2:2|2:2,0:0:0:0:
160,335,233289,2,0,B|208:332|205:364|264:358,1,94.499997116089,2|2,2:3|2:2,0:0:0:0:
249,358,233769,1,2,2:2:0:0:
366,333,234009,1,2,2:2:0:0:
366,333,234129,2,0,L|354:294,1,31.4999990386963,2|0,2:2|0:0,0:0:0:0:
440,196,234369,1,2,2:2:0:0:
440,196,234609,6,0,P|426:224|413:262,1,62.9999980773926,2|0,2:2|0:0,0:0:0:0:
415,253,234969,1,2,2:2:0:0:
386,104,235209,1,2,2:3:0:0:
266,190,235689,2,0,L|194:161,1,62.9999980773926,2|2,2:2|2:2,0:0:0:0:
207,166,236049,1,2,2:2:0:0:
157,70,236289,1,2,2:2:0:0:
58,134,236529,1,2,2:2:0:0:
146,232,236889,6,0,L|126:302,2,62.9999980773926,2|2|2,2:2|2:3|2:2,0:0:0:0:
164,230,237489,1,2,2:2:0:0:
164,230,237609,2,0,P|193:230|231:252,1,62.9999980773926,2|2,2:2|2:2,0:0:0:0:
223,244,237969,1,2,2:2:0:0:
342,301,238209,1,2,2:2:0:0:
347,315,238329,1,10,2:1:0:0:
352,329,238449,1,2,2:2:0:0:
359,345,238569,6,0,B|406:355|406:355|409:358|409:358|458:367,1,94.499997116089,10|2,2:1|2:2,0:0:0:0:
450,365,239049,1,2,2:3:0:0:
503,199,239529,2,0,P|469:207|454:237,1,62.9999980773926,2|2,2:2|2:2,0:0:0:0:
455,229,239889,1,2,2:2:0:0:
353,108,240129,1,2,2:2:0:0:
353,108,240249,6,0,L|450:135,1,94.499997116089,2|0,2:2|0:0,0:0:0:0:
504,89,240729,2,0,L|512:56,1,31.4999990386963,2|2,2:2|2:2,0:0:0:0:
444,133,240969,2,0,L|353:108,1,94.499997116089,2|2,2:3|2:2,0:0:0:0:
353,108,241449,1,2,2:2:0:0:
263,184,241689,1,2,2:2:0:0:
263,184,241809,2,0,L|225:193,1,31.4999990386963,2|0,2:2|0:0,0:0:0:0:
123,84,242049,1,2,2:2:0:0:
123,84,242289,6,0,P|138:123|147:151,1,62.9999980773926,2|0,2:2|0:0,0:0:0:0:
144,143,242649,1,2,2:2:0:0:
270,59,242889,1,2,2:3:0:0:
326,199,243369,2,0,L|395:232,1,62.9999980773926,2|2,2:2|2:2,0:0:0:0:
382,226,243729,1,2,2:2:0:0:
484,275,243969,1,2,2:2:0:0:
435,379,244209,1,2,2:2:0:0:
317,317,244569,6,0,L|246:335,2,62.9999980773926,2|2|2,2:2|2:3|2:2,0:0:0:0:
330,308,245169,1,2,2:2:0:0:
330,308,245289,2,0,P|331:280|306:252,1,62.9999980773926,2|2,2:2|2:2,0:0:0:0:
309,253,245649,1,2,2:2:0:0:
233,152,245889,1,2,2:2:0:0:
221,141,246009,1,10,2:1:0:0:
209,129,246129,1,2,2:2:0:0:
198,117,246249,6,0,B|206:73|206:73|210:68|210:68|219:20,1,94.499997116089,14|2,2:1|2:2,0:0:0:0:
217,25,246729,1,2,2:3:0:0:
69,118,247209,2,0,L|137:94,1,62.9999980773926,2|2,2:2|2:2,0:0:0:0:
128,97,247569,1,2,2:2:0:0:
50,251,247809,1,2,2:2:0:0:
50,251,247929,2,0,L|35:210,1,31.4999990386963,2|2,2:2|2:2,0:0:0:0:
98,183,248169,5,10,2:1:0:0:
213,251,248409,1,2,2:2:0:0:
213,251,248649,2,0,B|264:254|259:279|310:284,1,94.499997116089,2|2,2:3|2:2,0:0:0:0:
300,282,249129,1,2,2:2:0:0:
375,164,249369,1,2,2:2:0:0:
390,159,249489,1,2,2:2:0:0:
404,154,249609,1,0,0:0:0:0:
419,149,249729,2,0,L|458:155,2,31.4999990386963,2|2|2,2:2|2:2|2:2,0:0:0:0:
313,118,250089,5,10,2:1:0:0:
392,233,250329,2,0,L|400:263,1,31.4999990386963,2|2,2:2|2:2,0:0:0:0:
314,283,250569,2,0,B|306:309|306:309|302:315|302:315|282:376,1,94.499997116089,2|2,2:3|2:2,0:0:0:0:
283,372,251049,2,0,L|212:353,1,62.9999980773926,2|2,2:2|2:2,0:0:0:0:
222,355,251409,1,2,2:2:0:0:
187,276,251649,2,0,L|149:287,1,31.4999990386963,2|2,2:2|2:2,0:0:0:0:
62,319,251889,1,2,2:2:0:0:
62,319,252009,6,0,B|76:273|76:273|74:268|74:268|89:217,1,94.499997116089,10|2,2:1|2:2,0:0:0:0:
13,74,252489,2,0,L|-2:141,1,62.9999980773926,2|2,2:3|2:2,0:0:0:0:
8,148,252849,1,2,2:2:0:0:
8,148,252969,2,0,L|81:164,1,62.9999980773926,2|2,2:2|2:2,0:0:0:0:
69,161,253329,1,2,2:2:0:0:
187,81,253569,1,2,2:2:0:0:
172,86,253689,1,10,2:1:0:0:
160,97,253809,1,2,2:2:0:0:
157,114,253929,6,0,L|173:210,1,94.499997116089,10|2,2:1|2:2,0:0:0:0:
172,207,254409,2,0,B|201:201|221:220|221:220|241:240|267:233,1,94.499997116089,2|2,2:3|2:2,0:0:0:0:
156,345,254889,2,0,P|145:315|131:287,1,62.9999980773926,2|2,2:2|2:2,0:0:0:0:
131,287,255249,1,2,2:2:0:0:
57,168,255489,1,2,2:2:0:0:
57,168,255609,2,0,L|99:186,1,31.4999990386963,2|2,2:2|2:2,0:0:0:0:
0,212,255849,5,10,2:1:0:0:
53,45,256089,1,2,2:2:0:0:
53,45,256329,2,0,B|83:77|83:77|83:83|83:83|116:116,1,94.499997116089,2|2,2:3|2:2,0:0:0:0:
114,114,256809,1,2,2:2:0:0:
232,51,257049,1,2,2:2:0:0:
234,66,257169,1,2,2:2:0:0:
236,81,257289,1,0,0:0:0:0:
238,96,257409,2,0,L|198:114,2,31.4999990386963,2|2|2,2:2|2:2|2:2,0:0:0:0:
309,64,257769,6,0,L|403:99,1,94.499997116089,10|2,2:1|2:2,0:0:0:0:
397,96,258249,1,2,2:3:0:0:
382,269,258489,1,2,2:2:0:0:
382,269,258609,1,2,2:2:0:0:
382,269,258729,2,0,P|395:239|437:178,1,94.499997116089,10|2,2:1|2:2,0:0:0:0:
428,187,259209,1,0,0:0:0:0:
284,287,259449,1,2,2:2:0:0:
284,287,259569,1,2,2:2:0:0:
284,287,259689,6,0,P|302:294|318:306,1,31.4999990386963,10|0,2:1|0:0,0:0:0:0:
211,369,259929,2,0,P|196:351|199:325,1,40.4999987640381,10|2,2:2|2:2,0:0:0:0:
107,309,260169,2,0,P|116:287|137:269,1,40.4999987640381,10|2,2:2|2:2,0:0:0:0:
218,202,260409,1,10,2:1:0:0:
237,195,260529,1,2,2:2:0:0:
248,178,260649,2,0,P|242:162|225:142,2,40.4999987640381,10|8|10,2:2|2:2|2:1,0:0:0:0:
197,31,261009,1,2,2:2:0:0:
156,33,261129,1,10,2:2:0:0:
129,57,261249,1,2,2:2:0:0:
111,84,261369,1,10,2:2:0:0:
83,90,261489,1,2,2:2:0:0:
60,81,261609,6,0,L|82:180,1,90,12|2,2:1|2:2,0:0:0:0:
64,185,261969,1,0,0:0:0:0:
174,248,262089,2,0,P|186:208|268:190,1,135,10|0,2:2|0:0,0:0:0:0:
269,191,262569,1,10,2:1:0:0:
377,310,262809,1,2,2:2:0:0:
397,300,262929,1,0,0:0:0:0:
397,300,263049,2,0,L|449:307,2,45,10|2|2,2:2|2:2|2:3,0:0:0:0:
491,191,263409,6,0,L|356:227,1,135,2|2,2:2|2:2,0:0:0:0:
360,225,263889,1,0,0:0:0:0:
360,225,264009,1,10,2:2:0:0:
321,64,264249,1,2,2:2:0:0:
186,150,264489,1,10,2:1:0:0:
381,171,264729,1,0,0:0:0:0:
363,185,264849,1,0,0:0:0:0:
363,185,264969,2,0,L|316:177,2,45,10|0|2,2:2|0:0|2:3,0:0:0:0:
244,149,265329,6,0,B|233:197|233:197|235:203|235:203|217:283,1,135,2|2,2:2|2:2,0:0:0:0:
231,298,265809,1,0,0:0:0:0:
128,354,265929,2,0,B|156:340|156:340|256:387,1,135,10|0,2:2|0:0,0:0:0:0:
249,384,266409,1,10,2:1:0:0:
355,311,266649,1,2,2:2:0:0:
374,329,266769,1,0,0:0:0:0:
374,329,266889,2,0,L|425:316,2,45,10|2|2,2:2|2:2|2:3,0:0:0:0:
473,369,267249,6,0,B|486:325|486:325|485:316|485:316|510:233,1,135,2|2,2:2|2:2,0:0:0:0:
509,239,267729,1,0,0:0:0:0:
509,239,267849,1,10,2:2:0:0:
416,130,268089,1,2,2:2:0:0:
416,130,268209,1,0,0:0:0:0:
416,130,268329,2,0,P|448:142|467:162,1,45,10|0,2:1|0:0,0:0:0:0:
329,200,268569,2,0,P|341:168|361:149,1,45,2|0,2:2|0:0,0:0:0:0:
365,279,268809,1,10,2:2:0:0:
376,298,268929,6,0,B|315:274|315:274|310:275|310:275|237:247,1,135,2|10,2:2|2:1,0:0:0:0:
86,360,269529,1,2,2:2:0:0:
86,360,269649,1,0,0:0:0:0:
86,360,269769,2,0,P|115:366|169:282,1,135,10|0,2:2|0:0,0:0:0:0:
172,293,270249,1,10,2:1:0:0:
77,184,270489,1,2,2:2:0:0:
92,168,270609,1,0,0:0:0:0:
92,168,270729,2,0,L|141:160,2,45,10|2|2,2:2|2:2|2:3,0:0:0:0:
7,57,271089,6,0,P|81:48|121:99,1,135,2|2,2:2|2:2,0:0:0:0:
215,138,271569,1,0,0:0:0:0:
215,138,271689,2,0,P|199:122|192:94,1,45,10|0,2:2|0:0,0:0:0:0:
240,45,271929,2,0,P|256:29|284:22,1,45,2|0,2:2|0:0,0:0:0:0:
341,75,272169,2,0,L|447:93,1,90,10|0,2:1|0:0,0:0:0:0:
429,90,272529,1,0,0:0:0:0:
429,90,272649,2,0,P|428:117|418:136,2,45,10|0|2,2:2|0:0|2:3,0:0:0:0:
489,221,273009,1,2,2:2:0:0:
499,201,273129,6,0,B|428:187|439:258|371:248,1,135,10|0,2:1|0:0,0:0:0:0:
379,248,273609,1,10,2:2:0:0:
254,358,273849,1,2,2:2:0:0:
260,336,273969,1,0,0:0:0:0:
266,314,274089,1,10,2:1:0:0:
273,292,274209,2,0,L|337:306,2,45,0|2|0,0:0|2:2|0:0,0:0:0:0:
175,336,274569,1,10,2:2:0:0:
175,336,274689,2,0,L|155:276,1,45,2|2,2:2|2:3,0:0:0:0:
169,213,274929,6,0,L|37:261,1,135,2|2,2:2|2:2,0:0:0:0:
24,245,275409,1,0,0:0:0:0:
87,152,275529,2,0,P|136:149|165:178,1,90,10|2,2:2|2:2,0:0:0:0:
164,176,275889,1,0,0:0:0:0:
164,176,276009,1,10,2:1:0:0:
297,249,276249,1,10,2:2:0:0:
275,256,276369,1,8,2:1:0:0:
355,301,276489,5,10,2:2:0:0:
363,265,276609,1,10,2:1:0:0:
371,229,276729,1,8,2:2:0:0:
382,194,276849,1,10,2:2:0:0:
382,194,276969,6,0,L|473:211,1,90,12|2,2:1|2:2,0:0:0:0:
374,100,277449,1,10,2:2:0:0:
508,91,277689,2,0,L|457:113,1,45,2|8,2:2|2:1,0:0:0:0:
374,100,277929,1,10,2:1:0:0:
367,78,278049,1,8,2:1:0:0:
361,56,278169,1,2,2:2:0:0:
357,37,278289,1,0,0:0:0:0:
357,37,278409,2,0,L|298:50,2,45,10|2|2,2:2|2:2|2:3,0:0:0:0:
302,113,278769,6,0,B|244:96|244:96|238:98|238:98|172:80,1,135,2|2,2:2|2:2,0:0:0:0:
172,80,279249,1,0,0:0:0:0:
172,80,279369,1,10,2:2:0:0:
245,224,279609,2,0,L|291:203,1,45,2|0,2:2|0:0,0:0:0:0:
258,367,279849,2,0,L|215:289,2,90,10|0|10,2:1|0:0|2:2,0:0:0:0:
379,247,280569,2,0,P|396:233|406:211,1,45,2|2,2:3|2:2,0:0:0:0:
408,103,280809,6,0,P|350:111|339:184,1,135,10|0,2:1|0:0,0:0:0:0:
335,177,281289,1,10,2:2:0:0:
244,249,281529,1,2,2:2:0:0:
223,240,281649,1,8,2:1:0:0:
201,232,281769,1,10,2:1:0:0:
183,226,281889,2,0,L|124:240,2,45,0|2|0,0:0|2:2|0:0,0:0:0:0:
72,148,282249,1,10,2:2:0:0:
72,148,282369,2,0,L|90:202,1,45,10|2,2:1|2:3,0:0:0:0:
198,290,282609,6,0,L|244:158,1,135,2|2,2:2|2:2,0:0:0:0:
259,147,283089,1,0,0:0:0:0:
322,227,283209,2,0,P|354:201|417:217,1,90,10|2,2:2|2:2,0:0:0:0:
400,204,283569,1,0,0:0:0:0:
399,203,283689,1,10,2:1:0:0:
421,358,283929,1,2,2:2:0:0:
415,336,284049,1,0,0:0:0:0:
409,314,284169,1,10,2:2:0:0:
404,290,284289,2,0,L|455:269,2,45,2|2|0,2:2|2:3|0:0,0:0:0:0:
502,218,284649,6,0,B|443:204|443:204|439:206|439:206|369:189,1,135,10|0,2:1|0:0,0:0:0:0:
371,189,285129,1,10,2:2:0:0:
299,47,285369,1,2,2:2:0:0:
299,47,285489,1,8,2:1:0:0:
299,47,285609,2,0,P|318:58|332:89,1,45,10|8,2:1|2:1,0:0:0:0:
270,128,285849,2,0,P|259:147|228:161,1,45,2|0,2:2|0:0,0:0:0:0:
140,187,286089,1,10,2:2:0:0:
140,187,286209,2,0,P|164:198|177:229,1,45,2|2,2:2|2:3,0:0:0:0:
52,349,286449,6,0,P|62:316|156:281,1,135,2|2,2:2|2:2,0:0:0:0:
147,278,286929,1,0,0:0:0:0:
147,278,287049,1,10,2:2:0:0:
304,368,287289,2,0,P|277:363|258:336,1,45,2|0,2:2|0:0,0:0:0:0:
250,240,287529,2,0,L|279:133,2,90,10|0|10,2:1|0:0|2:2,0:0:0:0:
412,155,288249,5,2,2:3:0:0:
422,135,288369,2,0,L|325:110,1,90,2|0,2:2|0:0,0:0:0:0:
252,25,288729,2,0,P|276:35|288:60,1,45,2|0,2:2|0:0,0:0:0:0:
285,191,288969,2,0,L|197:213,1,90,10|2,2:2|2:2,0:0:0:0:
177,203,289329,1,8,2:1:0:0:
273,272,289449,2,0,P|280:293|283:315,1,45,10|0,2:1|0:0,0:0:0:0:
351,365,289689,1,2,2:2:0:0:
351,365,289809,2,0,P|367:343|378:317,2,45,2|10|10,2:2|2:2|2:1,0:0:0:0:
486,281,290169,5,2,2:3:0:0:
495,260,290289,2,0,B|434:274|434:274|429:280|429:280|354:297,1,135,2|2,2:2|2:2,0:0:0:0:
345,284,290769,1,0,0:0:0:0:
272,325,290889,2,0,L|285:367,1,45,10|0,2:2|0:0,0:0:0:0:
132,259,291129,1,2,2:2:0:0:
132,259,291369,2,0,L|151:198,2,45,10|2|0,2:1|2:2|0:0,0:0:0:0:
24,110,291729,2,0,P|33:141|97:147,1,90,10|10,2:1|2:2,0:0:0:0:
193,107,292089,1,10,2:2:0:0:
254,158,292209,1,10,2:2:0:0:
194,122,292329,6,0,L|338:150,1,135,12|0,2:1|0:0,0:0:0:0:
163,253,292809,2,0,L|118:259,1,45,10|2,2:2|2:2,0:0:0:0:
226,339,293049,1,0,0:0:0:0:
226,339,293169,1,0,0:0:0:0:
226,339,293289,2,0,L|359:357,1,135,10|2,2:1|2:2,0:0:0:0:
359,357,293769,1,10,2:2:0:0:
481,289,294009,1,2,2:2:0:0:
470,280,294129,1,0,0:0:0:0:
460,270,294249,6,0,L|469:217,1,45,10|0,2:1|0:0,0:0:0:0:
349,244,294489,1,2,2:2:0:0:
362,178,294609,2,0,L|353:125,1,45,2|10,2:2|2:2,0:0:0:0:
467,225,294849,6,0,L|460:270,1,45,2|0,2:2|0:0,0:0:0:0:
405,373,295089,1,2,2:2:0:0:
416,353,295209,2,0,B|383:342|346:352|350:381|311:383|271:375,1,135,10|2,2:1|2:2,0:0:0:0:
193,304,295689,2,0,P|216:308|227:325,1,45,10|2,2:2|2:2,0:0:0:0:
151,384,295929,2,0,P|126:388|96:375,1,45,2|2,2:2|2:2,0:0:0:0:
29,319,296169,6,0,P|70:285|140:210,1,135,10|0,2:1|0:0,0:0:0:0:
69,123,296649,2,0,P|82:135|117:161,1,45,10|2,2:2|2:2,0:0:0:0:
218,246,296889,1,0,0:0:0:0:
218,246,297009,1,0,0:0:0:0:
218,246,297129,2,0,B|244:227|244:227|355:254,1,135,10|2,2:1|2:2,0:0:0:0:
343,251,297609,1,10,2:2:0:0:
415,352,297849,2,0,L|396:303,1,45,2|2,2:2|2:2,0:0:0:0:
336,241,298089,6,0,B|356:184|356:184|353:178|353:178|377:104,1,135,10|0,2:1|0:0,0:0:0:0:
437,67,298569,2,0,L|480:77,1,45,10|2,2:2|2:2,0:0:0:0:
285,133,298809,1,0,0:0:0:0:
285,133,298929,1,2,2:2:0:0:
285,133,299049,2,0,P|217:141|135:154,1,135,10|0,2:1|0:0,0:0:0:0:
88,117,299529,1,10,2:2:0:0:
242,281,299769,2,0,L|297:265,1,45,2|8,2:2|2:2,0:0:0:0:
173,252,300009,6,0,P|153:291|112:385,1,135,10|0,2:1|0:0,0:0:0:0:
19,313,300489,2,0,L|66:302,1,45,10|2,2:2|2:2,0:0:0:0:
210,362,300729,1,0,0:0:0:0:
210,362,300849,1,0,0:0:0:0:
210,362,300969,2,0,B|275:371|275:371|284:366|284:366|357:378,1,135,10|2,2:1|2:2,0:0:0:0:
435,322,301449,2,0,P|414:307|401:279,1,45,10|2,2:2|2:2,0:0:0:0:
327,243,301689,2,0,P|334:209|350:192,1,45,2|2,2:2|2:2,0:0:0:0:
431,113,301929,5,10,2:1:0:0:
290,160,302169,1,2,2:2:0:0:
277,164,302289,1,0,0:0:0:0:
264,168,302409,2,0,L|280:218,2,45,10|2|0,2:2|2:2|0:0,0:0:0:0:
323,338,302769,1,2,2:2:0:0:
315,317,302889,2,0,P|252:305|173:287,1,135,10|0,2:1|0:0,0:0:0:0:
60,382,303369,2,0,P|78:359|145:352,1,90,10|2,2:2|2:2,0:0:0:0:
183,290,303729,1,0,0:0:0:0:
183,290,303849,6,0,P|218:264|294:204,1,135,10|0,2:1|0:0,0:0:0:0:
256,98,304329,2,0,L|280:136,2,45,10|2|0,2:2|2:2|0:0,0:0:0:0:
161,117,304689,2,0,P|118:104|28:88,1,135,2|2,2:2|2:2,0:0:0:0:
104,297,305169,1,0,0:0:0:0:
104,297,305289,2,0,P|107:274|116:254,1,45,10|0,2:2|0:0,0:0:0:0:
68,194,305529,2,0,P|87:180|122:172,1,45,2|0,2:2|0:0,0:0:0:0:
226,69,305769,5,10,2:1:0:0:
211,96,305889,1,0,0:0:0:0:
217,126,306009,1,0,0:0:0:0:
243,143,306129,1,0,0:0:0:0:
311,132,306249,2,0,P|331:124|366:120,3,45,10|0|0|0,2:2|0:0|0:0|0:0,0:0:0:0:
429,228,306729,6,0,P|408:219|385:216,1,45,10|0,2:1|0:0,0:0:0:0:
309,282,306969,1,8,2:2:0:0:
294,256,307089,1,10,2:1:0:0:
237,201,307209,1,10,2:2:0:0:
222,227,307329,1,8,2:1:0:0:
170,291,307449,1,10,2:2:0:0:
155,265,307569,1,8,2:2:0:0:
80,235,307689,6,0,B|119:180|119:180|124:178|124:178|163:121,1,135,12|0,2:1|0:0,0:0:0:0:
107,13,308169,2,0,L|152:52,1,45,10|2,2:2|2:2,0:0:0:0:
311,99,308409,1,0,0:0:0:0:
311,99,308529,1,8,2:1:0:0:
311,99,308649,2,0,P|276:109|209:189,1,135,10|2,2:1|2:2,0:0:0:0:
211,180,309129,1,10,2:2:0:0:
301,282,309369,1,2,2:2:0:0:
313,287,309489,1,0,0:0:0:0:
325,292,309609,6,0,L|375:277,1,45,10|0,2:1|0:0,0:0:0:0:
189,384,309849,1,2,2:2:0:0:
254,359,309969,2,0,L|239:309,1,45,2|10,2:2|2:2,0:0:0:0:
352,178,310209,2,0,L|339:221,2,45,2|0|2,2:2|0:0|2:2,0:0:0:0:
421,195,310569,5,10,2:1:0:0:
433,189,310689,1,8,2:1:0:0:
445,183,310809,1,2,2:2:0:0:
457,177,310929,1,2,2:2:0:0:
469,171,311049,2,0,L|446:122,2,45,10|2|2,2:2|2:2|2:2,0:0:0:0:
495,43,311409,1,2,2:2:0:0:
495,43,311529,6,0,B|436:59|436:59|432:64|432:64|354:85,1,135,10|0,2:1|0:0,0:0:0:0:
228,21,312009,2,0,P|254:24|280:50,1,45,10|2,2:2|2:2,0:0:0:0:
326,142,312249,1,0,0:0:0:0:
326,142,312369,1,8,2:1:0:0:
326,142,312489,2,0,P|317:178|292:281,1,135,10|2,2:1|2:2,0:0:0:0:
221,337,312969,1,10,2:2:0:0:
214,324,313089,1,10,2:1:0:0:
208,311,313209,2,0,L|159:300,1,45,2|2,2:2|2:2,0:0:0:0:
94,384,313449,6,0,L|103:340,1,45,10|0,2:1|0:0,0:0:0:0:
80,204,313689,2,0,L|123:213,1,45,2|0,2:2|0:0,0:0:0:0:
250,240,313929,1,10,2:2:0:0:
268,227,314049,2,0,L|311:236,2,45,2|0|2,2:2|0:0|2:2,0:0:0:0:
257,368,314409,1,10,2:1:0:0:
269,362,314529,1,8,2:1:0:0:
281,356,314649,1,2,2:2:0:0:
293,350,314769,1,0,0:0:0:0:
305,344,314889,2,0,L|356:351,1,45,10|0,2:2|0:0,0:0:0:0:
386,256,315129,2,0,L|439:274,1,45,2|0,2:2|0:0,0:0:0:0:
501,291,315369,5,10,2:1:0:0:
494,135,315609,2,0,P|456:125|442:73,1,90,2|10,2:2|2:2,0:0:0:0:
312,0,315969,2,0,P|350:10|363:62,1,90,2|8,2:2|2:1,0:0:0:0:
269,160,316329,2,0,P|276:138|300:108,1,45,10|8,2:1|2:1,0:0:0:0:
215,90,316569,1,2,2:2:0:0:
202,95,316689,1,2,2:2:0:0:
189,100,316809,1,10,2:2:0:0:
176,105,316929,2,0,L|115:90,2,45,2|2|2,2:2|2:2|2:2,0:0:0:0:
47,65,317289,6,0,B|62:124|62:124|61:132|61:132|79:206,1,135,10|0,2:1|0:0,0:0:0:0:
191,212,317769,2,0,L|134:231,1,45,10|2,2:2|2:2,0:0:0:0:
283,372,318009,1,0,0:0:0:0:
283,372,318129,1,2,2:2:0:0:
283,372,318249,2,0,P|281:307|220:284,1,135,10|0,2:1|0:0,0:0:0:0:
222,283,318729,1,10,2:2:0:0:
336,210,318969,1,2,2:2:0:0:
349,206,319089,1,0,0:0:0:0:
362,203,319209,6,0,L|414:222,1,45,10|0,2:1|0:0,0:0:0:0:
402,78,319449,1,2,2:2:0:0:
459,117,319569,2,0,L|501:101,2,45,0|10|2,0:0|2:2|2:2,0:0:0:0:
317,61,319929,1,0,0:0:0:0:
325,50,320049,2,0,L|232:75,1,90,10|0,2:1|0:0,0:0:0:0:
196,178,320409,2,0,P|184:159|183:131,1,45,2|0,2:2|0:0,0:0:0:0:
117,257,320649,2,0,P|136:245|164:244,1,45,10|8,2:2|2:1,0:0:0:0:
44,231,320889,1,2,2:2:0:0:
30,227,321009,1,0,0:0:0:0:
16,223,321129,6,0,L|39:328,1,90,10|0,2:1|0:0,0:0:0:0:
167,345,321489,1,0,0:0:0:0:
167,345,321609,2,0,L|116:362,1,45,10|0,2:2|0:0,0:0:0:0:
288,305,321849,1,0,0:0:0:0:
288,305,321969,1,8,2:2:0:0:
288,305,322089,1,10,2:1:0:0:
185,179,322449,6,0,L|199:221,1,45,10|2,2:1|2:2,0:0:0:0:
340,102,322689,1,8,2:2:0:0:
275,129,322809,1,10,2:2:0:0:
285,59,322929,1,8,2:2:0:0:
302,46,323049,6,0,L|150:88,1,148.50000453186,12|0,2:1|0:0,0:0:0:0:
143,200,323529,2,0,P|170:194|191:159,1,49.5000015106202,10|0,2:2|0:0,0:0:0:0:
41,202,323769,1,2,2:2:0:0:
41,202,323889,1,0,0:0:0:0:
41,202,324009,2,0,P|61:214|72:237,1,49.5000015106202,10|0,2:1|0:0,0:0:0:0:
171,303,324249,1,0,0:0:0:0:
107,329,324369,2,0,L|122:386,1,49.5000015106202,0|10,0:0|2:2,0:0:0:0:
238,271,324609,1,0,0:0:0:0:
238,271,324729,2,0,L|250:223,1,49.5000015106202,2|0,2:2|0:0,0:0:0:0:
311,114,324969,6,0,L|361:97,1,49.5000015106202,10|0,2:1|0:0,0:0:0:0:
232,27,325209,2,0,L|246:74,1,49.5000015106202,2|2,2:2|2:2,0:0:0:0:
414,159,325449,2,0,L|319:188,1,99.0000030212403,10|2,2:2|2:2,0:0:0:0:
358,277,325809,1,0,0:0:0:0:
340,293,325929,2,0,L|288:278,1,49.5000015106202,10|0,2:1|0:0,0:0:0:0:
268,285,326169,1,0,0:0:0:0:
173,330,326289,2,0,L|200:267,2,49.5000015106202,0|10|0,0:0|2:2|0:0,0:0:0:0:
40,228,326649,1,2,2:2:0:0:
40,228,326769,1,0,0:0:0:0:
40,228,326889,6,0,P|94:225|121:278,1,99.0000030212403,10|0,2:1|0:0,0:0:0:0:
112,270,327249,1,0,0:0:0:0:
216,200,327369,2,0,L|266:213,1,49.5000015106202,10|0,2:2|0:0,0:0:0:0:
322,125,327609,1,2,2:2:0:0:
336,120,327729,1,0,0:0:0:0:
350,115,327849,2,0,L|466:109,1,99.0000030212403,10|0,2:1|0:0,0:0:0:0:
467,244,328209,1,0,0:0:0:0:
467,244,328329,2,0,L|403:233,2,49.5000015106202,10|0|2,2:2|0:0|2:2,0:0:0:0:
313,344,328689,1,0,0:0:0:0:
322,355,328809,6,0,P|368:353|403:306,1,99.0000030212403,10|2,2:1|2:2,0:0:0:0:
392,302,329169,1,2,2:2:0:0:
310,227,329289,2,0,L|213:249,1,99.0000030212403,10|2,2:2|2:2,0:0:0:0:
198,252,329649,1,0,0:0:0:0:
150,310,329769,2,0,P|128:298|120:275,1,49.5000015106202,10|0,2:1|0:0,0:0:0:0:
29,198,330009,1,0,0:0:0:0:
52,206,330129,2,0,L|70:145,1,49.5000015106202,0|10,0:0|2:2,0:0:0:0:
43,88,330369,2,0,P|23:75|0:70,1,49.5000015106202,0|2,0:0|2:2,0:0:0:0:
175,163,330609,1,8,2:2:0:0:
156,146,330729,6,0,B|202:136|202:136|207:132|207:132|266:119,1,99.0000030212403,10|0,2:1|0:0,0:0:0:0:
260,110,331089,1,0,0:0:0:0:
361,149,331209,2,0,L|375:197,1,49.5000015106202,10|0,2:2|0:0,0:0:0:0:
486,237,331449,1,2,2:2:0:0:
486,237,331569,1,0,0:0:0:0:
486,237,331689,2,0,P|440:254|414:311,1,99.0000030212403,10|0,2:1|0:0,0:0:0:0:
321,384,332049,2,0,L|301:321,1,49.5000015106202,0|10,0:0|2:2,0:0:0:0:
203,353,332289,1,0,0:0:0:0:
203,353,332409,2,0,L|223:290,1,49.5000015106202,2|0,2:2|0:0,0:0:0:0:
111,177,332649,6,0,L|174:197,1,49.5000015106202,10|0,2:1|0:0,0:0:0:0:
71,71,332889,2,0,L|8:91,1,49.5000015106202,2|2,2:2|2:2,0:0:0:0:
12,226,333129,2,0,L|116:194,1,99.0000030212403,10|2,2:2|2:2,0:0:0:0:
193,112,333489,1,0,0:0:0:0:
216,105,333609,2,0,L|202:163,1,49.5000015106202,10|0,2:1|0:0,0:0:0:0:
222,170,333849,1,0,0:0:0:0:
342,152,333969,2,0,L|286:140,2,49.5000015106202,0|10|0,0:0|2:2|0:0,0:0:0:0:
435,9,334329,1,2,2:2:0:0:
435,9,334449,1,0,0:0:0:0:
435,9,334569,6,0,L|404:103,1,99.0000030212403,10|0,2:1|0:0,0:0:0:0:
411,116,334929,1,0,0:0:0:0:
467,197,335049,2,0,L|481:254,1,49.5000015106202,10|0,2:2|0:0,0:0:0:0:
378,364,335289,1,2,2:2:0:0:
363,359,335409,1,0,0:0:0:0:
349,353,335529,2,0,L|446:309,1,99.0000030212403,10|0,2:1|0:0,0:0:0:0:
284,247,335889,1,0,0:0:0:0:
284,247,336009,2,0,P|314:256|332:288,1,49.5000015106202,10|0,2:2|0:0,0:0:0:0:
257,137,336249,2,0,P|240:154|235:178,1,49.5000015106202,2|0,2:2|0:0,0:0:0:0:
194,348,336489,6,0,P|137:343|118:290,1,99.0000030212403,10|2,2:1|2:2,0:0:0:0:
124,296,336849,1,2,2:2:0:0:
27,246,336969,2,0,P|62:207|98:165,1,99.0000030212403,10|2,2:2|2:2,0:0:0:0:
92,158,337329,1,0,0:0:0:0:
44,100,337449,2,0,L|27:46,1,49.5000015106202,10|0,2:1|0:0,0:0:0:0:
135,12,337689,1,8,2:2:0:0:
155,17,337809,1,8,2:1:0:0:
236,0,337929,5,10,2:2:0:0:
227,28,338049,1,8,2:1:0:0:
218,56,338169,1,10,2:2:0:0:
214,88,338289,1,8,2:2:0:0:
214,88,338409,6,0,L|316:122,1,99.0000030212403,14|0,2:1|0:0,0:0:0:0:
363,208,338769,1,0,0:0:0:0:
363,208,338889,2,0,B|383:162|383:162|382:157|382:157|403:113,1,99.0000030212403,10|2,2:2|2:2,0:0:0:0:
503,240,339249,1,8,2:1:0:0:
485,222,339369,2,0,L|431:250,1,49.5000015106202,10|8,2:1|2:1,0:0:0:0:
418,255,339609,1,0,0:0:0:0:
358,328,339729,2,0,L|380:371,1,49.5000015106202,0|10,0:0|2:2,0:0:0:0:
261,314,339969,1,0,0:0:0:0:
268,301,340089,1,2,2:2:0:0:
275,288,340209,1,0,0:0:0:0:
283,274,340329,6,0,L|217:255,1,49.5000015106202,10|0,2:1|0:0,0:0:0:0:
219,141,340569,2,0,L|205:188,1,49.5000015106202,2|2,2:2|2:2,0:0:0:0:
358,328,340809,2,0,L|392:226,1,99.0000030212403,10|2,2:2|2:2,0:0:0:0:
345,150,341169,1,0,0:0:0:0:
365,135,341289,2,0,L|380:85,1,49.5000015106202,10|8,2:1|2:1,0:0:0:0:
398,71,341529,1,0,0:0:0:0:
454,164,341649,2,0,L|508:149,2,49.5000015106202,0|10|0,0:0|2:2|0:0,0:0:0:0:
383,314,342009,1,2,2:2:0:0:
383,314,342129,1,0,0:0:0:0:
383,314,342249,6,0,P|330:312|301:272,1,99.0000030212403,10|0,2:1|0:0,0:0:0:0:
303,263,342609,1,0,0:0:0:0:
227,184,342729,2,0,L|158:200,1,49.5000015106202,10|0,2:2|0:0,0:0:0:0:
86,246,342969,2,0,L|74:199,1,49.5000015106202,2|8,2:2|2:1,0:0:0:0:
209,270,343209,1,10,2:1:0:0:
206,284,343329,1,0,0:0:0:0:
203,298,343449,1,0,0:0:0:0:
200,312,343569,2,0,L|136:330,2,49.5000015106202,0|10|8,0:0|2:2|2:1,0:0:0:0:
347,384,343929,1,2,2:2:0:0:
347,384,344049,1,0,0:0:0:0:
347,384,344169,6,0,P|300:368|281:310,1,99.0000030212403,10|2,2:1|2:2,0:0:0:0:
289,313,344529,1,2,2:2:0:0:
377,249,344649,2,0,L|421:149,1,99.0000030212403,10|2,2:2|2:2,0:0:0:0:
430,152,345009,1,0,0:0:0:0:
495,117,345129,2,0,L|472:62,1,49.5000015106202,10|8,2:1|2:1,0:0:0:0:
362,48,345369,1,0,0:0:0:0:
366,26,345489,2,0,P|344:37|311:49,1,49.5000015106202,0|10,0:0|2:2,0:0:0:0:
296,119,345729,2,0,P|304:142|315:164,1,49.5000015106202,0|2,0:0|2:2,0:0:0:0:
283,266,345969,1,0,0:0:0:0:
290,242,346089,6,0,L|187:297,1,99.0000030212403,10|0,2:1|0:0,0:0:0:0:
149,376,346449,1,0,0:0:0:0:
149,376,346569,2,0,L|55:321,1,99.0000030212403,10|2,2:2|2:2,0:0:0:0:
167,204,346929,1,8,2:1:0:0:
182,184,347049,2,0,L|241:168,1,49.5000015106202,10|8,2:1|2:1,0:0:0:0:
250,157,347289,1,0,0:0:0:0:
335,195,347409,2,0,L|345:146,1,49.5000015106202,0|10,0:0|2:2,0:0:0:0:
304,273,347649,1,0,0:0:0:0:
318,276,347769,1,2,2:2:0:0:
332,279,347889,1,0,0:0:0:0:
346,283,348009,6,0,L|407:297,1,49.5000015106202,10|0,2:1|0:0,0:0:0:0:
345,146,348249,2,0,L|335:195,1,49.5000015106202,2|2,2:2|2:2,0:0:0:0:
251,26,348489,2,0,L|267:139,1,99.0000030212403,10|2,2:2|2:2,0:0:0:0:
203,196,348849,1,0,0:0:0:0:
182,181,348969,2,0,L|131:202,1,49.5000015106202,10|8,2:1|2:1,0:0:0:0:
112,192,349209,1,0,0:0:0:0:
181,276,349329,2,0,L|168:332,2,49.5000015106202,0|10|0,0:0|2:2|0:0,0:0:0:0:
18,356,349689,1,2,2:2:0:0:
18,356,349809,1,0,0:0:0:0:
18,356,349929,6,0,P|52:356|96:300,1,99.0000030212403,10|0,2:1|0:0,0:0:0:0:
89,297,350289,1,0,0:0:0:0:
39,213,350409,2,0,B|29:170|29:170|26:167|26:167|14:113,1,99.0000030212403,10|2,2:2|2:2,0:0:0:0:
173,37,350769,1,8,2:1:0:0:
173,37,350889,2,0,P|140:43|105:103,1,99.0000030212403,10|0,2:1|0:0,0:0:0:0:
273,107,351249,2,0,P|264:85|243:73,1,49.5000015106202,0|10,0:0|2:2,0:0:0:0:
213,213,351489,2,0,P|222:191|215:168,1,49.5000015106202,8|2,2:1|2:2,0:0:0:0:
141,163,351729,1,0,0:0:0:0:
141,163,351849,5,10,2:1:0:0:
141,163,352089,2,0,P|116:163|93:154,1,49.5000015106202,2|0,2:2|0:0,0:0:0:0:
51,20,352329,2,0,P|73:43|80:68,1,49.5000015106202,10|0,2:2|0:0,0:0:0:0:
242,100,352569,1,2,2:2:0:0:
242,100,352689,1,8,2:2:0:0:
242,100,352809,6,0,P|230:131|223:161,1,49.5000015106202,10|0,2:1|0:0,0:0:0:0:
108,254,353049,1,0,0:0:0:0:
178,234,353169,2,0,P|190:265|197:295,1,49.5000015106202,10|2,2:1|2:2,0:0:0:0:
132,365,353409,1,8,2:2:0:0:
108,356,353529,1,10,2:2:0:0:
89,349,353649,1,8,2:2:0:0:
75,343,353769,6,0,L|69:316,2,24.7500007553101,0|8|2,0:0|2:1|2:2,0:0:0:0:
209,119,354249,1,10,2:2:0:0:
222,149,354369,1,8,2:2:0:0:
174,200,354489,1,10,2:2:0:0:
218,263,354609,1,8,2:2:0:0:
149,294,354729,2,0,B|116:331|116:331|117:337|117:337|78:382,1,107.999996704102,10|0,2:1|0:0,0:0:0:0:
0,282,355089,1,0,0:0:0:0:
21,265,355209,2,0,P|49:266|70:281,1,53.9999983520508,14|0,2:2|0:0,0:0:0:0:
18,143,355449,2,0,P|17:171|2:192,1,53.9999983520508,2|0,2:2|0:0,0:0:0:0:
174,200,355689,6,0,L|125:176,1,53.9999983520508,10|0,2:1|0:0,0:0:0:0:
185,315,355929,2,0,L|209:255,1,53.9999983520508,2|2,2:2|2:2,0:0:0:0:
355,203,356169,2,0,P|316:194|305:120,1,107.999996704102,10|2,2:2|2:2,0:0:0:0:
332,61,356529,1,0,0:0:0:0:
352,42,356649,2,0,L|404:54,2,53.9999983520508,10|0|0,2:1|0:0|0:0,0:0:0:0:
430,50,357009,1,0,0:0:0:0:
499,104,357129,2,0,L|513:51,1,53.9999983520508,10|0,2:2|0:0,0:0:0:0:
512,230,357369,1,2,2:2:0:0:
512,230,357489,1,0,0:0:0:0:
512,302,357609,6,0,B|468:286|468:286|461:289|461:289|406:268,1,107.999996704102,10|0,2:1|0:0,0:0:0:0:
406,285,357969,1,0,0:0:0:0:
327,184,358089,2,0,P|350:202|359:242,1,53.9999983520508,10|0,2:2|0:0,0:0:0:0:
317,335,358329,1,2,2:2:0:0:
317,335,358449,1,0,0:0:0:0:
317,335,358569,2,0,P|299:358|259:367,1,53.9999983520508,10|0,2:1|0:0,0:0:0:0:
327,184,358809,1,0,0:0:0:0:
327,184,358929,2,0,P|350:202|359:242,1,53.9999983520508,0|10,0:0|2:2,0:0:0:0:
239,128,359169,2,0,P|252:104|293:87,1,53.9999983520508,0|2,0:0|2:2,0:0:0:0:
406,86,359409,1,0,0:0:0:0:
423,65,359529,6,0,P|362:50|325:3,1,107.999996704102,10|2,2:1|2:2,0:0:0:0:
317,25,359889,1,2,2:2:0:0:
239,128,360009,2,0,B|191:116|191:116|186:118|186:118|122:103,1,107.999996704102,10|2,2:2|2:2,0:0:0:0:
124,118,360369,1,0,0:0:0:0:
54,154,360489,2,0,P|74:174|82:200,1,53.9999983520508,10|0,2:1|0:0,0:0:0:0:
51,297,360729,1,0,0:0:0:0:
27,311,360849,2,0,P|7:291|-1:265,1,53.9999983520508,0|10,0:0|2:2,0:0:0:0:
145,246,361089,2,0,L|203:263,1,53.9999983520508,0|2,0:0|2:2,0:0:0:0:
215,362,361329,1,8,2:2:0:0:
196,345,361449,6,0,B|247:330|247:330|250:325|250:325|302:312,1,107.999996704102,10|0,2:1|0:0,0:0:0:0:
303,298,361809,1,0,0:0:0:0:
409,347,361929,2,0,L|371:232,1,107.999996704102,10|2,2:2|2:2,0:0:0:0:
479,171,362289,1,0,0:0:0:0:
462,149,362409,2,0,L|397:172,1,53.9999983520508,10|0,2:1|0:0,0:0:0:0:
390,149,362649,1,0,0:0:0:0:
480,24,362769,2,0,L|498:75,1,53.9999983520508,0|10,0:0|2:2,0:0:0:0:
352,89,363009,1,0,0:0:0:0:
336,84,363129,1,2,2:2:0:0:
320,79,363249,1,0,0:0:0:0:
304,74,363369,6,0,L|285:124,1,53.9999983520508,10|0,2:1|0:0,0:0:0:0:
172,148,363609,2,0,P|206:154|230:176,1,53.9999983520508,2|2,2:2|2:2,0:0:0:0:
70,289,363849,2,0,L|114:186,1,107.999996704102,10|2,2:2|2:2,0:0:0:0:
168,266,364209,1,0,0:0:0:0:
189,282,364329,2,0,L|240:267,2,53.9999983520508,10|0|0,2:1|0:0|0:0,0:0:0:0:
265,279,364689,1,0,0:0:0:0:
348,323,364809,2,0,L|360:376,1,53.9999983520508,10|0,2:2|0:0,0:0:0:0:
468,261,365049,1,2,2:2:0:0:
468,261,365169,1,0,0:0:0:0:
405,222,365289,6,0,L|442:117,1,107.999996704102,10|0,2:1|0:0,0:0:0:0:
455,112,365649,1,0,0:0:0:0:
358,63,365769,2,0,P|337:45|336:4,1,53.9999983520508,10|0,2:2|0:0,0:0:0:0:
211,26,366009,1,2,2:2:0:0:
211,26,366129,1,0,0:0:0:0:
211,26,366249,2,0,P|229:5|270:4,1,53.9999983520508,10|0,2:1|0:0,0:0:0:0:
358,63,366489,1,0,0:0:0:0:
358,63,366609,2,0,P|337:45|336:4,1,53.9999983520508,0|10,0:0|2:2,0:0:0:0:
239,111,366849,2,0,P|233:136|199:168,1,53.9999983520508,0|2,0:0|2:2,0:0:0:0:
94,242,367089,1,0,0:0:0:0:
110,225,367209,6,0,P|153:227|190:292,1,107.999996704102,10|2,2:1|2:2,0:0:0:0:
186,291,367569,1,2,2:2:0:0:
314,354,367689,2,0,L|272:249,1,107.999996704102,10|2,2:2|2:2,0:0:0:0:
282,240,368049,1,0,0:0:0:0:
318,163,368169,2,0,P|341:148|377:143,1,53.9999983520508,10|0,2:1|0:0,0:0:0:0:
229,87,368409,1,8,2:2:0:0:
244,92,368529,1,10,2:1:0:0:
309,54,368649,5,8,2:2:0:0:
299,22,368769,1,8,2:1:0:0:
273,2,368889,1,10,2:2:0:0:
244,0,369009,1,8,2:2:0:0:
244,0,369129,6,0,B|221:-3|192:9|197:37|171:45|130:36,1,107.999996704102,14|0,2:1|0:0,0:0:0:0:
133,30,369489,1,0,0:0:0:0:
147,143,369609,2,0,L|23:122,1,107.999996704102,10|2,2:2|2:2,0:0:0:0:
8,251,369969,1,8,2:1:0:0:
30,265,370089,2,0,L|85:244,1,53.9999983520508,10|8,2:1|2:1,0:0:0:0:
105,256,370329,1,0,0:0:0:0:
21,383,370449,2,0,L|5:327,1,53.9999983520508,0|10,0:0|2:2,0:0:0:0:
191,274,370689,1,0,0:0:0:0:
188,289,370809,1,2,2:2:0:0:
185,305,370929,1,0,0:0:0:0:
182,321,371049,6,0,L|169:380,1,53.9999983520508,10|0,2:1|0:0,0:0:0:0:
316,292,371289,2,0,L|257:279,1,53.9999983520508,2|2,2:2|2:2,0:0:0:0:
143,153,371529,2,0,L|266:180,1,107.999996704102,10|2,2:2|2:2,0:0:0:0:
333,141,371889,1,0,0:0:0:0:
352,122,372009,2,0,L|335:66,2,53.9999983520508,10|8|0,2:1|2:1|0:0,0:0:0:0:
348,46,372369,1,0,0:0:0:0:
448,14,372489,2,0,L|434:76,1,53.9999983520508,10|0,2:2|0:0,0:0:0:0:
333,141,372729,1,2,2:2:0:0:
333,141,372849,1,8,2:2:0:0:
270,103,372969,6,0,B|222:94|222:94|217:97|217:97|141:83,1,107.999996704102,10|0,2:1|0:0,0:0:0:0:
152,76,373329,1,0,0:0:0:0:
97,155,373449,2,0,P|129:163|155:197,1,53.9999983520508,10|0,2:2|0:0,0:0:0:0:
0,228,373689,1,2,2:2:0:0:
0,228,373809,1,8,2:1:0:0:
0,228,373929,2,0,P|8:196|42:170,1,53.9999983520508,10|0,2:1|0:0,0:0:0:0:
97,155,374169,1,0,0:0:0:0:
97,155,374289,2,0,P|124:160|145:176,1,53.9999983520508,0|10,0:0|2:2,0:0:0:0:
89,312,374529,2,0,P|57:304|31:270,1,53.9999983520508,8|2,2:1|2:2,0:0:0:0:
214,380,374769,1,0,0:0:0:0:
187,384,374889,6,0,B|207:334|207:334|206:329|206:329|233:268,1,107.999996704102,10|2,2:1|2:2,0:0:0:0:
239,275,375249,1,2,2:2:0:0:
355,220,375369,2,0,L|244:187,1,107.999996704102,10|2,2:2|2:2,0:0:0:0:
247,173,375729,1,0,0:0:0:0:
329,94,375849,2,0,P|352:113|365:140,1,53.9999983520508,10|8,2:1|2:1,0:0:0:0:
213,36,376089,1,0,0:0:0:0:
237,46,376209,2,0,P|260:32|277:11,1,53.9999983520508,0|10,0:0|2:2,0:0:0:0:
80,29,376449,2,0,L|99:86,1,53.9999983520508,0|10,0:0|2:2,0:0:0:0:
179,177,376689,1,8,2:2:0:0:
162,156,376809,6,0,B|146:198|146:198|146:204|146:204|121:274,1,107.999996704102,10|0,2:1|0:0,0:0:0:0:
135,271,377169,1,0,0:0:0:0:
37,324,377289,2,0,B|87:342|87:342|94:341|94:341|145:360,1,107.999996704102,10|2,2:2|2:2,0:0:0:0:
241,294,377649,1,8,2:1:0:0:
260,275,377769,2,0,L|313:295,1,53.9999983520508,10|8,2:1|2:1,0:0:0:0:
334,282,378009,1,0,0:0:0:0:
255,150,378129,2,0,L|235:203,1,53.9999983520508,0|10,0:0|2:2,0:0:0:0:
364,117,378369,1,0,0:0:0:0:
356,102,378489,1,2,2:2:0:0:
349,87,378609,1,0,0:0:0:0:
341,72,378729,6,0,L|398:38,1,53.9999983520508,10|0,2:1|0:0,0:0:0:0:
223,23,378969,2,0,P|251:23|279:47,1,53.9999983520508,2|2,2:2|2:2,0:0:0:0:
338,193,379209,2,0,P|286:191|253:137,1,107.999996704102,10|2,2:2|2:2,0:0:0:0:
181,234,379569,1,0,0:0:0:0:
162,214,379689,2,0,L|110:234,2,53.9999983520508,10|8|0,2:1|2:1|0:0,0:0:0:0:
89,218,380049,1,0,0:0:0:0:
20,157,380169,2,0,L|1:96,1,53.9999983520508,10|0,2:2|0:0,0:0:0:0:
105,304,380409,1,2,2:2:0:0:
105,304,380529,1,8,2:2:0:0:
155,352,380649,6,0,B|191:313|191:313|192:307|192:307|230:265,1,107.999996704102,10|0,2:1|0:0,0:0:0:0:
220,255,381009,1,0,0:0:0:0:
313,323,381129,2,0,P|339:323|363:298,1,53.9999983520508,10|0,2:2|0:0,0:0:0:0:
490,384,381369,1,2,2:2:0:0:
490,384,381489,1,8,2:1:0:0:
490,384,381609,2,0,P|490:358|427:304,1,107.999996704102,10|0,2:1|0:0,0:0:0:0:
313,323,381969,2,0,P|339:323|363:298,1,53.9999983520508,0|10,0:0|2:2,0:0:0:0:
319,178,382209,2,0,P|319:204|344:228,1,53.9999983520508,8|2,2:1|2:2,0:0:0:0:
384,137,382449,1,0,0:0:0:0:
384,137,382569,5,10,2:1:0:0:
384,137,382809,2,0,P|377:114|336:100,1,53.9999983520508,2|0,2:2|0:0,0:0:0:0:
225,77,383049,2,0,P|253:76|278:51,1,53.9999983520508,10|0,2:2|0:0,0:0:0:0:
158,15,383289,1,2,2:2:0:0:
31,163,383529,1,10,2:1:0:0:
31,163,383769,5,8,2:2:0:0:
104,126,383889,1,8,2:1:0:0:
139,154,384009,1,10,2:2:0:0:
230,211,384129,1,8,2:1:0:0:
204,223,384249,1,8,2:2:0:0:
193,204,384369,1,8,2:2:0:0:
203,192,384489,6,0,L|181:292,1,90,14|2,2:1|2:2,0:0:0:0:
