osu file format v14

[General]
AudioFilename: audio.mp3
AudioLeadIn: 0
PreviewTime: 29990
Countdown: 0
SampleSet: Soft
StackLeniency: 0.4
Mode: 0
LetterboxInBreaks: 0
WidescreenStoryboard: 1

[Editor]
Bookmarks: 59990,89990,119990,149990,179990,209990,239990,269990,299990,300107,300224,300341,300458,329521,329638,329755,329872,329990,344990,359990,374990,404990,419990,434990,464990,494990,524990,554990
DistanceSpacing: 0.9
BeatDivisor: 4
GridSize: 32
TimelineZoom: 1.6

[Metadata]
Title:Fall in the Dark
TitleUnicode:Fall in the Dark
Artist:Shibayan feat. yana
ArtistUnicode:Shibayan feat. yana
Creator:UberFazz
Version:Lunatic
Source:東方紅魔郷 ~ the Embodiment of Scarlet Devil.
Tags:ShibayanRecords touhou 東方Project japanese electronic house video game しばやん rumia ルーミア yanaginagi ほおずきみたいに紅い魂 A Soul as Scarlet as a Ground Cherry th6 th06 eosd 2hu ZUN
BeatmapID:3264665
BeatmapSetID:1531566

[Difficulty]
HPDrainRate:5
CircleSize:4
OverallDifficulty:7
ApproachRate:8
SliderMultiplier:1.79999990463257
SliderTickRate:1

[Events]
//Background and Video events
0,0,"rumia.jpg",0,0
//Break Periods
2,333940,344240
//Storyboard Layer 0 (Background)
//Storyboard Layer 1 (Fail)
//Storyboard Layer 2 (Pass)
//Storyboard Layer 3 (Foreground)
//Storyboard Layer 4 (Overlay)
//Storyboard Sound Samples

[TimingPoints]
-10,468.75,4,2,1,60,1,0
29990,-100,4,2,1,60,0,0
59990,-83.3333333333333,4,2,1,60,0,0
89990,-125,4,2,1,60,0,0
119990,-83.3333333333333,4,2,1,60,0,0
149990,-76.9230769230769,4,2,1,70,0,0
179990,-125,4,2,1,60,0,0
209990,-83.3333333333333,4,2,1,60,0,0
269990,-125,4,2,1,60,0,0
299990,-100,4,2,1,70,0,1
300458,-62.5,4,2,1,70,0,1
305380,-100,4,2,1,70,0,1
306552,-62.5,4,2,1,70,0,1
320966,-55.5555555555556,4,2,1,70,0,1
322958,-71.4285714285714,4,2,1,70,0,1
323427,-100,4,2,1,70,0,1
326240,-71.4285714285714,4,2,1,70,0,1
326943,-62.5,4,2,1,70,0,1
327646,-55.5555555555556,4,2,1,70,0,1
328349,-50,4,2,1,70,0,1
329833,-100,4,2,1,70,0,1
329990,-500,4,2,1,70,0,0
330107,-500,4,2,1,60,0,0
333740,-500,4,2,1,20,0,0
344990,-500,4,2,1,40,0,0
347216,-1000,4,2,1,40,0,0
349091,-333.333333333333,4,2,1,40,0,0
350966,-200,4,2,1,40,0,0
351904,-333.333333333333,4,2,1,40,0,0
352841,-1000,4,2,1,40,0,0
354716,-333.333333333333,4,2,1,40,0,0
356591,-200,4,2,1,40,0,0
359990,-125,4,2,1,40,0,0
371357,-125,4,2,1,50,0,0
373115,-100,4,2,1,50,0,0
374990,-83.3333333333333,4,2,1,60,0,0
404990,-76.9230769230769,4,2,1,70,0,0
494990,-125,4,2,1,70,0,0
495458,-125,4,2,1,60,0,0
524990,-500,4,2,1,50,0,0

[Colours]
Combo1 : 255,0,128
Combo2 : 239,231,69
Combo3 : 117,236,123
Combo4 : 255,0,0

[HitObjects]
9,46,29990,6,0,P|55:45|109:63,1,89.9999952316285,4|2,1:0|0:2,0:0:0:0:
96,57,30458,1,8,0:2:0:0:
348,109,30810,2,0,P|302:110|248:92,1,89.9999952316285,2|2,0:2|0:2,0:0:0:0:
183,23,31279,1,2,0:2:0:0:
183,23,31396,2,0,P|184:70|158:165,1,134.999992847443,10|0,0:2|0:0,0:0:0:0:
0,149,31865,6,0,L|93:137,2,89.9999952316285,2|2|8,1:2|0:2|0:2,0:0:0:0:
94,311,32685,2,0,L|1:299,1,89.9999952316285,2|2,0:2|0:2,0:0:0:0:
68,223,33154,1,2,0:2:0:0:
68,223,33271,2,0,L|121:222,1,44.9999976158143,10|0,0:2|0:0,0:0:0:0:
31,384,33622,1,0,0:0:0:0:
31,384,33740,6,0,P|82:368|173:266,1,179.999990463257,2|8,1:2|0:2,0:0:0:0:
192,207,34560,2,0,L|202:303,1,89.9999952316285,2|2,0:2|0:2,0:0:0:0:
213,381,35029,1,2,0:2:0:0:
213,381,35146,2,0,L|302:371,1,89.9999952316285,10|0,0:2|0:0,0:0:0:0:
383,360,35497,1,0,0:0:0:0:
383,360,35615,6,0,P|381:312|370:265,2,89.9999952316285,6|2|10,1:2|0:2|0:2,0:0:0:0:
488,370,36318,1,0,0:0:0:0:
488,370,36435,1,0,0:0:0:0:
488,370,36552,2,0,B|515:304|457:267|483:184,1,179.999990463257,6|10,1:2|0:2,0:0:0:0:
480,193,37490,6,0,P|431:180|385:179,1,89.9999952316285,6|2,1:2|0:2,0:0:0:0:
391,178,37958,1,8,0:2:0:0:
479,15,38310,2,0,P|490:63|487:114,1,89.9999952316285,2|2,0:2|0:2,0:0:0:0:
401,94,38779,1,2,0:2:0:0:
401,94,38896,2,0,B|355:84|306:84|306:84|289:40|309:-7,1,179.999990463257,10|2,0:2|1:2,0:0:0:0:
392,12,39599,5,2,0:2:0:0:
392,12,39833,1,8,0:2:0:0:
311,168,40185,2,0,P|282:201|226:223,1,89.9999952316285,2|2,0:2|0:2,0:0:0:0:
219,47,40654,1,2,0:2:0:0:
219,47,40771,2,0,P|220:16|225:-1,1,44.9999976158143,10|2,0:2|0:0,0:0:0:0:
228,136,41122,1,0,0:0:0:0:
228,136,41240,6,0,B|149:118|141:196|41:170,1,179.999990463257,2|8,1:2|0:2,0:0:0:0:
86,88,42060,2,0,P|74:39|53:3,1,89.9999952316285,2|2,0:2|0:2,0:0:0:0:
206,218,42529,1,2,0:2:0:0:
206,218,42646,2,0,P|194:267|173:303,1,89.9999952316285,10|0,0:2|0:0,0:0:0:0:
108,255,42997,1,0,0:0:0:0:
108,255,43115,5,6,1:2:0:0:
57,173,43349,1,2,0:0:0:0:
106,338,43583,1,10,0:2:0:0:
20,250,43818,1,0,0:0:0:0:
20,250,43935,1,0,0:0:0:0:
20,250,44052,2,0,B|38:298|23:355|23:355|56:331|118:339,1,179.999990463257,6|8,1:2|0:0,0:0:0:0:
188,324,44755,2,0,L|182:384,1,44.9999976158143,2|0,0:0|0:0,0:0:0:0:
328,368,44990,6,0,L|319:274,2,89.9999952316285,4|2|8,1:0|0:2|0:2,0:0:0:0:
429,309,45810,2,0,L|395:220,1,89.9999952316285,2|2,0:2|0:2,0:0:0:0:
510,225,46279,1,2,0:2:0:0:
510,225,46396,2,0,L|454:148,1,89.9999952316285,10|0,0:2|0:0,0:0:0:0:
512,308,46747,1,0,0:0:0:0:
512,308,46865,5,2,1:2:0:0:
486,381,47099,1,2,0:2:0:0:
406,384,47333,1,8,0:2:0:0:
457,151,47685,2,0,P|469:104|487:65,1,89.9999952316285,2|2,0:2|0:2,0:0:0:0:
403,7,48154,1,2,0:2:0:0:
403,7,48271,2,0,P|391:54|373:93,1,89.9999952316285,10|0,0:2|0:0,0:0:0:0:
375,173,48622,1,0,0:0:0:0:
375,173,48740,6,0,B|312:157|298:209|215:182,1,134.999992847443,2|0,1:2|0:0,0:0:0:0:
267,106,49208,1,8,0:2:0:0:
350,246,49560,2,0,L|363:298,1,44.9999976158143,2|0,0:2|0:0,0:0:0:0:
275,313,49794,2,0,L|264:269,1,44.9999976158143,2|0,0:2|0:0,0:0:0:0:
243,188,50029,1,2,0:2:0:0:
243,188,50146,2,0,L|138:212,1,89.9999952316285,10|0,0:2|0:0,0:0:0:0:
187,286,50497,1,0,0:0:0:0:
187,286,50615,6,0,P|160:327|145:382,2,89.9999952316285,6|2|10,1:2|0:2|0:2,0:0:0:0:
61,366,51318,1,0,0:0:0:0:
61,366,51435,1,0,0:0:0:0:
61,366,51552,2,0,P|46:323|21:286,1,89.9999952316285,6|0,1:2|0:0,0:0:0:0:
103,268,52021,1,10,0:2:0:0:
10,115,52490,6,0,L|23:260,1,134.999992847443,6|0,1:2|0:0,0:0:0:0:
22,249,52958,1,8,0:2:0:0:
11,1,53310,2,0,L|0:116,1,89.9999952316285,2|2,0:2|0:2,0:0:0:0:
93,90,53779,1,2,0:2:0:0:
93,90,53896,2,0,L|103:205,1,89.9999952316285,10|0,0:2|0:0,0:0:0:0:
94,7,54247,1,0,0:0:0:0:
94,7,54365,6,0,B|131:8|159:39|159:39|219:40|266:-7,1,179.999990463257,2|8,1:2|0:2,0:0:0:0:
255,2,55185,2,0,L|243:97,1,89.9999952316285,2|2,0:2|0:2,0:0:0:0:
418,26,55654,1,2,0:2:0:0:
418,26,55771,2,0,L|425:83,1,44.9999976158143,10|2,0:2|0:0,0:0:0:0:
338,62,56005,1,0,0:0:0:0:
338,62,56122,1,0,0:0:0:0:
338,62,56240,6,0,B|356:141|313:122|344:226,1,134.999992847443,2|0,1:2|0:0,0:0:0:0:
416,161,56708,1,8,0:2:0:0:
243,91,57060,2,0,P|197:102|161:126,1,89.9999952316285,2|2,0:2|0:2,0:0:0:0:
214,239,57529,1,2,0:2:0:0:
214,239,57646,2,0,P|260:228|296:204,1,89.9999952316285,10|0,0:2|0:0,0:0:0:0:
129,210,57997,1,0,0:0:0:0:
129,210,58115,6,0,B|122:259|150:303|150:303|129:337|61:362,1,179.999990463257,6|10,1:2|0:2,0:0:0:0:
54,275,58818,1,0,0:0:0:0:
54,275,58935,1,0,0:0:0:0:
54,275,59052,2,0,P|78:334|133:381,1,134.999992847443,6|2,1:2|0:0,0:0:0:0:
205,359,59521,1,12,0:0:0:0:
7,367,59755,1,2,0:0:0:0:
221,361,59990,6,0,L|234:246,1,107.999990982056,6|0,1:0|0:0,0:0:0:0:
403,253,60458,2,0,L|415:360,1,107.999990982056,10|0,0:2|0:0,0:0:0:0:
315,382,60927,2,0,B|299:305|335:300|316:215,2,161.999986473084,2|2|2,1:2|0:2|0:2,0:0:0:0:
386,172,61865,5,2,1:0:0:0:
246,175,62216,1,2,0:2:0:0:
386,172,62568,1,2,0:2:0:0:
317,221,62802,1,2,1:2:0:0:
317,221,62919,1,0,0:0:0:0:
320,127,63154,1,0,0:0:0:0:
320,127,63271,1,8,0:0:0:0:
480,179,63505,1,0,0:0:0:0:
480,179,63622,1,0,0:0:0:0:
480,179,63740,6,0,B|494:320|494:320|474:362|414:376,1,215.999981964112,2|10,1:0|0:2,0:0:0:0:
408,287,64443,2,0,B|394:146|394:146|414:104|474:90,1,215.999981964112,2|2,0:2|0:2,0:0:0:0:
448,97,65029,1,0,0:0:0:0:
448,97,65146,1,10,0:2:0:0:
480,179,65380,1,2,0:2:0:0:
382,6,65615,6,0,P|437:22|512:20,2,107.999990982056,2|2|10,1:0|0:2|0:2,0:0:0:0:
334,80,66318,1,2,0:2:0:0:
334,80,66435,1,0,0:0:0:0:
334,80,66552,2,0,B|260:73|260:73|187:113|187:113|107:104,1,215.999981964112,2|8,1:0|0:0,0:0:0:0:
110,0,67490,6,0,P|124:59|128:126,1,107.999990982056,2|0,1:0|0:0,0:0:0:0:
352,186,67958,2,0,P|338:127|334:60,1,107.999990982056,10|0,0:2|0:0,0:0:0:0:
228,7,68427,2,0,L|234:169,2,161.999986473084,2|2|2,1:2|0:2|0:2,0:0:0:0:
150,188,69365,5,2,1:0:0:0:
314,2,69716,1,2,0:2:0:0:
150,188,70068,1,2,0:2:0:0:
30,19,70302,1,2,1:2:0:0:
30,19,70419,1,0,0:0:0:0:
42,102,70654,1,0,0:0:0:0:
42,102,70771,1,8,0:0:0:0:
8,177,71005,1,2,0:2:0:0:
8,177,71122,1,2,0:2:0:0:
8,177,71240,6,0,B|72:269|-24:303|46:392,1,215.999981964112,2|10,1:0|0:2,0:0:0:0:
100,322,71943,2,0,P|146:295|211:299,1,107.999990982056,2|0,0:2|0:0,0:0:0:0:
199,295,72411,1,2,0:2:0:0:
170,375,72646,1,10,0:2:0:0:
108,227,72880,1,2,0:2:0:0:
283,271,73115,6,0,P|317:311|337:368,1,107.999990982056,2|2,1:0|0:2,0:0:0:0:
336,362,73466,1,0,0:0:0:0:
336,362,73583,1,10,0:2:0:0:
258,376,73818,1,2,0:2:0:0:
258,376,73935,1,0,0:0:0:0:
258,376,74052,2,0,B|269:313|295:278|346:254|346:254|377:270|392:317,1,215.999981964112,2|10,1:0|0:2,0:0:0:0:
472,339,74755,2,0,L|428:370,1,53.999995491028
434,158,74990,6,0,P|454:219|447:286,1,107.999990982056,6|0,1:0|0:0,0:0:0:0:
428,370,75458,1,10,0:2:0:0:
509,130,75927,2,0,P|452:169|346:176,2,161.999986473084,2|2|2,1:2|0:2|0:2,0:0:0:0:
285,200,76865,5,2,1:0:0:0:
512,228,77216,1,2,0:2:0:0:
285,200,77568,1,2,0:2:0:0:
361,179,77802,1,2,1:2:0:0:
361,179,77919,1,0,0:0:0:0:
440,170,78154,1,0,0:0:0:0:
440,170,78271,1,8,0:0:0:0:
509,130,78505,1,2,0:0:0:0:
509,130,78622,1,2,0:0:0:0:
509,130,78740,6,0,P|487:58|362:2,1,215.999981964112,2|10,1:0|0:2,0:0:0:0:
224,130,79443,2,0,P|323:97|366:1,1,215.999981964112,2|2,0:2|0:2,0:0:0:0:
366,1,80146,1,10,0:2:0:0:
420,95,80380,1,2,0:2:0:0:
214,13,80615,6,0,L|76:17,2,107.999990982056,2|2|10,1:0|0:2|0:2,0:0:0:0:
298,55,81318,1,2,0:2:0:0:
298,55,81435,1,0,0:0:0:0:
298,55,81552,2,0,B|244:150|338:172|298:264,1,215.999981964112,2|8,1:0|0:0,0:0:0:0:
122,229,82490,6,0,P|185:229|239:208,1,107.999990982056,2|0,1:0|0:0,0:0:0:0:
469,98,82958,2,0,P|406:98|352:119,1,107.999990982056,10|0,0:2|0:0,0:0:0:0:
234,112,83427,2,0,P|301:163|354:229,2,161.999986473084,2|2|2,1:2|0:2|0:2,0:0:0:0:
426,185,84365,5,2,1:0:0:0:
234,112,84716,1,2,0:2:0:0:
426,185,85068,1,2,0:2:0:0:
350,222,85302,1,2,1:2:0:0:
350,222,85419,1,0,0:0:0:0:
234,112,85654,1,0,0:0:0:0:
234,112,85771,1,8,0:0:0:0:
256,334,86005,1,2,0:2:0:0:
256,334,86122,1,2,0:2:0:0:
256,334,86240,6,0,B|226:298|229:254|229:254|266:228|264:172,1,161.999986473084,2|0,1:0|0:0,0:0:0:0:
264,190,86708,1,10,0:2:0:0:
188,39,86943,2,0,B|218:75|215:119|215:119|178:145|180:201,1,161.999986473084,2|0,0:2|0:0,0:0:0:0:
181,184,87411,1,2,0:2:0:0:
127,91,87646,1,10,0:2:0:0:
0,214,87880,1,2,0:2:0:0:
56,43,88115,6,0,B|6:148|127:162|67:281,1,215.999981964112,6|10,1:2|0:2,0:0:0:0:
170,275,88818,1,2,0:2:0:0:
170,275,88935,1,0,0:0:0:0:
170,275,89052,2,0,P|99:297|10:295,1,161.999986473084,2|0,1:0|0:0,0:0:0:0:
12,295,89521,1,10,0:2:0:0:
13,384,89755,1,0,0:0:0:0:
170,275,89990,1,0,1:2:0:0:
256,384,90224,6,0,L|256:256,1,107.999994277954,2|2,0:0|0:0,0:0:0:0:
256,192,90810,1,2,0:0:0:0:
256,192,90927,1,2,1:2:0:0:
256,96,91161,1,2,0:0:0:0:
256,0,91396,1,2,1:2:0:0:
416,0,91630,1,2,0:0:0:0:
416,0,91747,1,2,0:1:0:0:
128,384,92099,6,0,L|128:256,1,107.999994277954,2|2,0:0|0:0,0:0:0:0:
256,192,92685,1,2,0:0:0:0:
256,192,92802,1,2,1:2:0:0:
256,96,93036,1,2,0:0:0:0:
160,0,93271,2,0,L|203:0,1,35.9999980926514,2|2,1:2|0:0,0:0:0:0:
352,0,93505,2,0,L|309:0,1,35.9999980926514,2|2,0:0|0:1,0:0:0:0:
256,384,93974,6,0,L|256:256,1,107.999994277954,2|2,0:0|0:0,0:0:0:0:
256,192,94560,1,2,0:0:0:0:
256,192,94677,1,2,1:2:0:0:
256,96,94911,1,2,0:0:0:0:
256,0,95146,1,2,1:2:0:0:
96,0,95380,1,2,0:0:0:0:
96,0,95497,1,2,0:1:0:0:
384,384,95849,6,0,L|384:256,1,107.999994277954,2|2,0:0|0:0,0:0:0:0:
256,192,96435,1,2,0:0:0:0:
256,192,96552,1,2,1:0:0:0:
160,96,96786,1,2,0:0:0:0:
256,0,97021,1,2,1:0:0:0:
352,96,97255,1,2,0:0:0:0:
352,96,97372,1,2,0:1:0:0:
256,384,97724,6,0,L|256:256,1,107.999994277954,2|2,0:0|0:0,0:0:0:0:
256,192,98310,1,2,0:0:0:0:
256,192,98427,1,2,1:2:0:0:
256,96,98661,1,2,0:0:0:0:
256,0,98896,1,2,1:2:0:0:
416,0,99130,1,2,0:0:0:0:
416,0,99247,1,2,0:1:0:0:
128,384,99599,6,0,L|128:256,1,107.999994277954,2|2,0:0|0:0,0:0:0:0:
256,192,100185,1,2,0:0:0:0:
256,192,100302,1,2,1:2:0:0:
256,96,100536,1,2,0:0:0:0:
160,0,100771,2,0,L|203:0,1,35.9999980926514,2|2,1:2|0:0,0:0:0:0:
352,0,101005,2,0,L|309:0,1,35.9999980926514,2|2,0:0|0:1,0:0:0:0:
256,384,101474,6,0,L|256:256,1,107.999994277954,2|2,0:0|0:0,0:0:0:0:
256,192,102060,1,2,0:0:0:0:
256,192,102177,1,2,1:2:0:0:
256,96,102411,1,2,0:0:0:0:
256,0,102646,1,2,1:2:0:0:
96,0,102880,1,2,0:0:0:0:
96,0,102997,1,2,0:1:0:0:
384,384,103349,6,0,L|384:256,1,107.999994277954,2|2,0:0|0:0,0:0:0:0:
256,192,103935,1,2,0:0:0:0:
256,192,104052,1,2,1:0:0:0:
352,96,104286,1,2,0:0:0:0:
256,0,104521,1,2,1:0:0:0:
160,96,104755,1,2,0:0:0:0:
160,96,104872,1,2,0:1:0:0:
256,384,105224,6,0,L|256:256,1,107.999994277954,2|2,0:0|0:0,0:0:0:0:
256,192,105810,1,2,0:0:0:0:
256,192,105927,1,2,1:2:0:0:
256,96,106161,1,2,0:0:0:0:
256,0,106396,1,2,1:2:0:0:
416,0,106630,1,2,0:0:0:0:
416,0,106747,1,2,0:1:0:0:
128,384,107099,6,0,L|128:256,1,107.999994277954,2|2,0:0|0:0,0:0:0:0:
256,192,107685,1,2,0:0:0:0:
256,192,107802,1,2,1:2:0:0:
256,96,108036,1,2,0:0:0:0:
160,0,108271,2,0,L|203:0,1,35.9999980926514,2|2,1:2|0:0,0:0:0:0:
352,0,108505,2,0,L|309:0,1,35.9999980926514,2|2,0:0|0:1,0:0:0:0:
384,384,108974,6,0,L|384:256,1,107.999994277954,2|2,0:0|0:0,0:0:0:0:
256,192,109560,1,2,0:0:0:0:
256,192,109677,1,2,1:2:0:0:
256,96,109911,1,2,0:0:0:0:
256,0,110146,1,2,1:2:0:0:
96,0,110380,1,2,0:0:0:0:
96,0,110497,1,2,0:1:0:0:
256,384,110849,6,0,L|256:256,1,107.999994277954,2|2,0:0|0:0,0:0:0:0:
256,192,111435,1,2,0:0:0:0:
256,192,111552,1,2,1:0:0:0:
160,96,111786,1,2,0:0:0:0:
256,0,112021,1,2,1:0:0:0:
352,96,112255,1,2,0:0:0:0:
352,96,112372,1,2,0:1:0:0:
512,384,112724,6,0,L|512:256,1,107.999994277954,2|2,0:0|0:0,0:0:0:0:
256,192,113310,1,2,0:0:0:0:
256,192,113427,1,2,1:0:0:0:
352,96,113661,1,2,0:0:0:0:
256,0,113896,1,2,1:0:0:0:
160,96,114130,1,2,0:0:0:0:
160,96,114247,1,2,0:1:0:0:
0,384,114599,6,0,L|0:256,1,107.999994277954,2|2,0:0|0:0,0:0:0:0:
160,192,115185,1,2,0:0:0:0:
160,171,115302,1,2,1:0:0:0:
352,0,115536,1,2,0:1:0:0:
160,0,115771,1,2,1:0:0:0:
352,192,116005,1,2,0:1:0:0:
352,192,116122,1,2,0:1:0:0:
256,384,116474,6,0,L|256:256,1,107.999994277954,2|2,0:0|0:0,0:0:0:0:
256,192,117060,1,2,0:0:0:0:
256,192,117177,1,2,1:2:0:0:
256,96,117411,1,2,0:1:0:0:
256,0,117646,5,2,1:0:0:0:
256,192,117880,1,2,0:1:0:0:
256,192,117997,1,2,0:0:0:0:
256,192,118115,5,4,1:0:0:0:
256,192,118232,12,0,119521,1:0:0:0:
291,105,119990,5,4,1:0:0:0:
209,118,120224,2,0,P|159:107|101:76,1,107.999990982056,2|10,0:0|0:0,0:0:0:0:
7,0,120927,2,0,P|27:54|12:169,1,161.999986473084,2|2,1:2|0:0,0:0:0:0:
98,167,121513,2,0,P|108:197|110:220,1,53.999995491028,2|0,0:0|0:0,0:0:0:0:
31,239,121747,1,2,0:0:0:0:
31,239,121865,6,2,L|13:353,1,107.999990982056,4|2,1:2|0:0,0:1:0:0:
95,384,122333,1,10,0:0:0:0:
95,384,122450,1,2,0:0:0:0:
107,300,122685,1,2,0:0:0:0:
107,300,122802,2,0,L|168:291,1,53.999995491028,0|0,1:0|0:0,0:0:0:0:
283,358,123154,2,0,L|176:373,1,107.999990982056,2|0,0:0|0:0,0:0:0:0:
247,278,123622,1,2,0:0:0:0:
247,278,123740,6,2,P|297:270|350:241,1,107.999990982056,4|2,1:2|0:0,0:1:0:0:
397,178,124208,1,10,0:0:0:0:
463,376,124443,1,0,0:0:0:0:
463,376,124560,2,0,P|481:328|471:215,1,161.999986473084,2|2,0:0|0:0,0:0:0:0:
397,178,125146,1,10,0:0:0:0:
377,364,125380,1,2,0:0:0:0:
377,364,125497,1,2,0:0:0:0:
377,364,125615,6,2,P|370:296|387:233,1,107.999990982056,4|2,1:2|0:0,0:1:0:0:
476,137,126083,1,10,0:0:0:0:
476,137,126200,1,2,0:0:0:0:
476,137,126318,1,0,0:0:0:0:
476,137,126435,1,2,0:0:0:0:
476,137,126552,2,2,B|490:89|490:89|473:26,1,107.999990982056,4|2,1:2|0:0,0:1:0:0:
394,79,127021,1,8,0:0:0:0:
390,81,127138,1,0,0:0:0:0:
386,83,127255,1,2,0:0:0:0:
382,85,127372,1,0,0:0:0:0:
378,87,127490,5,4,1:2:0:0:
318,204,127724,2,0,L|310:137,1,53.999995491028,2|2,0:0|0:0,0:0:0:0:
313,0,127958,1,10,0:0:0:0:
313,0,128427,2,0,L|175:12,1,107.999990982056,2|0,1:2|0:0,0:0:0:0:
164,93,128779,2,0,L|239:86,1,53.999995491028,2|8,0:0|0:0,0:0:0:0:
296,76,129013,1,2,0:0:0:0:
125,19,129247,6,0,B|124:81|90:120|90:120|96:84|81:53,1,161.999986473084,2|2,0:0|0:0,0:0:0:0:
23,14,129833,1,10,0:0:0:0:
23,14,129950,1,2,0:0:0:0:
8,94,130185,1,2,0:0:0:0:
8,94,130302,2,0,P|9:124|18:155,1,53.999995491028,0|0,1:0|0:0,0:0:0:0:
74,201,130654,2,0,P|88:260|85:309,2,107.999990982056,2|0|2,0:0|0:0|0:0,0:0:0:0:
0,224,131240,5,4,1:2:0:0:
28,367,131474,1,2,0:0:0:0:
85,306,131708,2,0,P|136:276|199:261,1,107.999990982056,10|0,0:0|0:0,0:0:0:0:
182,262,132060,2,0,P|191:298|187:334,1,53.999995491028,2|0,0:0|1:0,0:0:0:0:
144,383,132411,1,2,0:0:0:0:
144,383,132529,1,0,0:0:0:0:
144,383,132646,2,0,L|260:367,1,107.999990982056,10|0,0:0|0:0,0:0:0:0:
272,288,132997,1,2,0:0:0:0:
272,288,133115,6,2,B|286:267|315:258|315:258|342:308|328:380,1,161.999986473084,4|0,1:2|0:0,0:1:0:0:
336,368,133583,1,10,0:0:0:0:
343,371,133700,1,2,0:0:0:0:
350,374,133818,1,0,0:0:0:0:
357,377,133935,1,2,0:0:0:0:
364,380,134052,2,2,P|424:375|485:350,1,107.999990982056,4|2,1:2|0:0,0:1:0:0:
421,290,134521,1,10,0:0:0:0:
421,290,134638,1,0,0:0:0:0:
421,290,134755,1,0,0:0:0:0:
421,290,134872,1,0,0:0:0:0:
421,290,134990,5,4,1:2:0:0:
461,163,135224,2,0,P|459:196|461:222,1,53.999995491028,2|2,0:0|0:0,0:0:0:0:
468,358,135458,1,10,0:0:0:0:
461,163,135927,2,0,P|460:101|444:54,1,107.999990982056,2|2,1:2|0:0,0:0:0:0:
504,2,136279,1,2,0:0:0:0:
461,163,136513,1,2,0:0:0:0:
445,57,136747,1,2,0:0:0:0:
445,57,136865,6,2,L|322:65,1,107.999990982056,4|2,1:2|0:0,0:1:0:0:
381,143,137333,1,10,0:0:0:0:
381,143,137450,1,2,0:0:0:0:
337,64,137685,1,0,0:0:0:0:
337,64,137802,2,0,L|281:67,1,53.999995491028,0|0,1:0|0:0,0:0:0:0:
297,147,138154,2,0,L|183:140,1,107.999990982056,2|0,0:0|0:0,0:0:0:0:
206,65,138622,1,2,0:0:0:0:
206,65,138740,6,2,P|187:122|194:172,1,107.999990982056,4|2,1:2|0:0,0:1:0:0:
253,220,139208,1,10,0:0:0:0:
269,18,139443,1,0,0:0:0:0:
269,18,139560,2,0,P|175:42|92:27,1,161.999986473084,2|2,0:0|0:0,0:0:0:0:
38,5,140146,1,10,0:0:0:0:
1,79,140380,1,0,0:0:0:0:
1,79,140497,1,2,0:0:0:0:
1,79,140615,6,2,L|11:206,1,107.999990982056,4|2,1:2|0:0,0:1:0:0:
84,111,141083,1,10,0:0:0:0:
84,111,141200,1,2,0:0:0:0:
27,267,141435,1,2,0:0:0:0:
27,267,141552,2,2,P|80:241|91:182,2,107.999990982056,4|2|10,1:2|0:0|0:0,0:1:0:0:
27,267,142255,1,2,0:0:0:0:
159,148,142490,5,4,1:2:0:0:
159,148,142724,2,0,L|181:217,1,53.999995491028,2|0,0:0|0:0,0:0:0:0:
124,329,142958,2,0,L|107:277,1,53.999995491028,10|0,0:0|0:0,0:0:0:0:
8,365,143310,1,0,0:0:0:0:
8,365,143427,2,0,L|140:336,1,107.999990982056,2|2,1:2|0:0,0:0:0:0:
197,280,143779,2,0,L|270:296,1,53.999995491028,2|8,0:0|0:0,0:0:0:0:
199,361,144013,1,2,0:0:0:0:
256,212,144247,6,0,P|282:263|276:371,1,161.999986473084,2|2,0:0|0:0,0:0:0:0:
278,365,144833,1,10,0:0:0:0:
278,365,144950,1,2,0:0:0:0:
418,363,145185,1,2,0:0:0:0:
418,363,145302,2,0,P|391:364|364:368,1,53.999995491028,0|0,1:0|0:0,0:0:0:0:
424,279,145654,2,0,P|451:280|477:284,1,53.999995491028,2|8,0:0|0:0,0:0:0:0:
500,360,145888,1,0,0:0:0:0:
341,286,146122,1,2,0:0:0:0:
341,286,146240,6,2,P|332:232|347:151,1,107.999990982056,4|2,1:2|0:0,0:1:0:0:
505,210,146708,1,10,0:0:0:0:
423,194,146943,1,0,0:0:0:0:
423,194,147060,2,0,P|424:112|402:27,1,161.999986473084,2|2,0:0|0:0,0:0:0:0:
487,8,147646,1,10,0:0:0:0:
512,120,147880,1,0,0:0:0:0:
512,120,147997,1,2,0:0:0:0:
512,120,148115,6,2,L|377:110,1,107.999990982056,4|2,1:2|0:0,0:1:0:0:
405,34,148583,1,10,0:0:0:0:
405,34,148700,1,2,0:0:0:0:
405,34,148818,1,0,0:0:0:0:
405,34,148935,1,2,0:0:0:0:
405,34,149052,5,4,1:2:0:0:
247,51,149286,1,2,0:0:0:0:
264,209,149521,1,14,0:0:0:0:
422,192,149755,1,2,0:0:0:0:
201,135,149990,5,6,1:0:0:0:
201,135,150224,2,0,L|142:142,1,58.4999942226413,2|0,0:0|0:0,0:0:0:0:
76,69,150458,2,0,P|105:152|99:248,1,175.499982667924,10|0,0:0|0:0,0:0:0:0:
192,277,150927,2,0,L|183:207,1,58.4999942226413,2|0,1:2|0:2,0:0:0:0:
160,64,151161,1,0,0:0:0:0:
160,64,151279,1,2,0:2:0:0:
10,0,151513,2,0,L|-2:64,1,58.4999942226413,2|0,0:2|0:0,0:0:0:0:
0,141,151747,1,2,0:2:0:0:
0,141,151865,6,2,L|24:255,1,116.999988445283,4|2,1:2|0:2,0:1:0:0:
10,339,152333,1,8,0:2:0:0:
10,339,152450,1,2,0:2:0:0:
111,238,152685,1,2,0:2:0:0:
111,238,152802,1,0,1:2:0:0:
111,238,152919,1,2,0:2:0:0:
149,384,153154,1,2,0:2:0:0:
91,320,153388,1,2,0:2:0:0:
190,205,153622,1,2,0:2:0:0:
190,205,153740,6,2,P|238:182|316:163,1,116.999988445283,4|2,1:2|0:2,0:1:0:0:
508,144,154208,1,10,0:2:0:0:
422,158,154443,1,2,0:2:0:0:
409,171,154560,1,2,0:2:0:0:
391,146,154677,1,2,1:2:0:0:
410,115,154794,1,2,0:2:0:0:
349,231,155029,1,2,0:2:0:0:
484,64,155263,1,2,0:2:0:0:
487,44,155380,1,2,0:2:0:0:
473,17,155497,1,2,0:2:0:0:
438,4,155615,6,2,P|376:4|308:23,1,116.999988445283,4|2,1:2|0:2,0:1:0:0:
204,87,156083,1,10,0:2:0:0:
217,105,156200,1,2,0:0:0:0:
251,123,156318,1,2,0:0:0:0:
294,110,156435,1,2,0:2:0:0:
258,67,156552,2,2,P|196:67|129:43,1,116.999988445283,4|2,1:2|0:2,0:1:0:0:
73,8,156904,1,2,0:2:0:0:
11,103,157138,1,2,0:0:0:0:
23,92,157255,1,2,0:2:0:0:
0,83,157372,1,2,0:2:0:0:
14,72,157490,5,4,1:2:0:0:
97,119,157724,1,2,0:2:0:0:
74,169,157841,1,2,0:2:0:0:
23,186,157958,1,10,0:2:0:0:
23,186,158427,2,0,L|35:263,1,58.4999942226413,2|0,1:2|0:0,0:0:0:0:
6,335,158662,1,2,0:2:0:0:
6,335,158779,2,0,L|63:325,1,58.4999942226413,2|8,0:2|0:0,0:0:0:0:
108,254,159013,2,0,L|165:263,1,58.4999942226413,2|0,0:2|0:0,0:0:0:0:
147,351,159247,6,0,L|181:166,1,175.499982667924,2|2,0:2|0:2,0:0:0:0:
178,178,159833,1,10,0:2:0:0:
178,178,159950,1,2,0:2:0:0:
241,382,160185,1,2,0:2:0:0:
241,382,160302,1,0,1:0:0:0:
241,382,160419,1,2,0:2:0:0:
165,262,160654,1,2,0:2:0:0:
249,300,160888,1,2,0:2:0:0:
234,120,161122,1,2,0:2:0:0:
234,120,161240,6,2,P|288:108|360:101,1,116.999988445283,4|2,1:2|0:2,0:1:0:0:
512,100,161708,1,10,0:2:0:0:
422,43,161943,1,2,0:2:0:0:
434,74,162060,1,2,0:2:0:0:
429,104,162177,1,2,1:2:0:0:
441,136,162294,1,2,0:2:0:0:
264,198,162529,1,2,0:2:0:0:
465,212,162763,1,2,0:2:0:0:
476,219,162880,1,2,0:2:0:0:
484,206,162997,1,2,0:2:0:0:
504,209,163115,6,2,L|481:324,1,116.999988445283,4|2,1:2|0:2,0:1:0:0:
353,171,163583,1,10,0:2:0:0:
379,191,163700,1,2,0:0:0:0:
380,225,163818,1,2,0:0:0:0:
369,215,163935,1,2,0:2:0:0:
362,208,164052,6,2,L|385:323,1,116.999988445283,4|2,1:2|0:2,0:1:0:0:
434,381,164404,1,2,0:2:0:0:
504,209,164638,1,2,0:0:0:0:
504,209,164755,2,0,L|498:142,1,58.4999942226413,2|2,0:2|0:2,0:0:0:0:
481,0,164990,5,4,1:2:0:0:
299,12,165224,2,0,L|365:19,1,58.4999942226413,2|0,0:2|0:0,0:0:0:0:
475,78,165458,2,0,L|416:71,1,58.4999942226413,10|0,0:2|0:0,0:0:0:0:
339,106,165810,1,0,0:0:0:0:
319,96,165927,1,2,1:2:0:0:
328,105,166044,1,2,0:2:0:0:
231,55,166279,2,0,P|232:86|239:121,1,58.4999942226413,2|8,0:2|0:0,0:0:0:0:
287,175,166513,2,0,P|287:236|277:308,1,116.999988445283,2|2,0:2|0:2,0:0:0:0:
205,184,166865,5,4,1:2:0:0:
328,356,167099,1,2,0:2:0:0:
371,188,167333,1,10,0:2:0:0:
371,188,167450,1,2,0:2:0:0:
243,360,167685,1,2,0:2:0:0:
243,360,167802,1,0,1:2:0:0:
243,360,167919,1,2,0:2:0:0:
9,231,168154,1,2,0:2:0:0:
155,362,168388,2,0,P|160:329|172:301,1,58.4999942226413,2|2,0:2|0:2,0:0:0:0:
98,196,168622,6,0,P|86:279|24:357,1,175.499982667924,2|2,0:2|0:2,0:0:0:0:
32,350,169208,1,10,0:2:0:0:
32,350,169325,1,2,0:2:0:0:
24,148,169560,2,0,L|0:85,1,58.4999942226413,2|0,0:2|1:0,0:0:0:0:
126,113,169794,2,0,L|119:46,1,58.4999942226413,2|0,0:2|0:0,0:0:0:0:
233,105,170029,2,0,L|244:38,1,58.4999942226413,2|8,0:2|0:0,0:0:0:0:
184,172,170263,2,0,L|193:229,1,58.4999942226413,2|0,0:2|0:2,0:0:0:0:
43,17,170497,6,0,B|128:-11|151:55|226:12,1,175.499982667924,2|2,0:2|0:2,0:0:0:0:
386,167,171083,2,0,P|329:179|270:177,1,116.999988445283,10|2,0:2|0:2,0:0:0:0:
233,105,171435,1,2,0:2:0:0:
249,94,171552,1,6,1:2:0:0:
266,83,171669,2,0,L|275:209,1,116.999988445283,2|2,0:2|0:2,0:0:0:0:
267,290,172138,1,2,0:2:0:0:
270,305,172255,1,0,0:2:0:0:
257,302,172372,1,2,0:2:0:0:
266,297,172490,5,4,1:2:0:0:
489,371,172724,2,0,L|483:304,1,58.4999942226413,2|0,0:2|0:0,0:0:0:0:
507,95,172958,2,0,L|512:153,1,58.4999942226413,10|0,0:2|0:0,0:0:0:0:
498,234,173427,2,0,L|427:226,1,58.4999942226413,2|0,1:2|0:0,0:0:0:0:
405,304,173661,1,2,0:2:0:0:
405,304,173779,2,0,L|346:310,1,58.4999942226413,2|8,0:2|0:0,0:0:0:0:
353,227,174013,2,0,L|282:219,1,58.4999942226413,2|0,0:2|0:0,0:0:0:0:
404,60,174247,6,0,P|433:115|434:248,1,175.499982667924,2|2,0:2|0:2,0:0:0:0:
408,384,174833,1,10,0:2:0:0:
408,384,174950,2,0,P|335:388|271:377,1,116.999988445283,2|2,0:2|0:2,0:0:0:0:
217,359,175302,1,2,1:2:0:0:
225,347,175419,1,2,0:2:0:0:
338,144,175654,2,0,P|337:108|330:75,1,58.4999942226413,2|8,0:2|0:0,0:0:0:0:
344,4,175888,2,0,P|345:40|352:73,1,58.4999942226413,2|2,0:2|0:2,0:0:0:0:
474,15,176122,1,2,0:2:0:0:
474,15,176240,5,4,1:2:0:0:
344,4,176474,1,2,0:2:0:0:
338,144,176708,1,10,0:2:0:0:
208,133,176942,1,2,0:2:0:0:
202,273,177177,1,2,1:2:0:0:
202,273,177294,2,0,L|135:291,1,58.4999942226413,2|0,0:2|0:0,0:0:0:0:
90,362,177529,2,0,L|33:346,1,58.4999942226413,2|8,0:2|0:0,0:0:0:0:
181,374,177763,1,2,0:2:0:0:
181,374,177880,1,2,0:2:0:0:
181,374,177997,1,2,0:2:0:0:
181,374,178115,6,2,P|169:309|169:246,1,116.999988445283,4|2,1:2|0:2,0:1:0:0:
55,157,178583,2,0,P|67:222|67:285,1,116.999988445283,10|2,0:2|0:2,0:0:0:0:
147,183,178935,1,2,0:2:0:0:
147,183,179052,1,6,1:2:0:0:
147,183,179169,2,0,P|146:143|140:107,1,58.4999942226413,2|0,0:2|0:0,0:0:0:0:
81,23,179404,2,0,P|80:63|74:99,1,58.4999942226413,2|8,0:2|0:2,0:0:0:0:
175,48,179638,1,2,0:2:0:0:
175,48,179755,1,0,1:0:0:0:
175,48,179872,1,0,0:2:0:0:
175,48,179990,1,0,1:2:0:0:
256,352,180224,6,0,L|256:224,1,107.999994277954,2|2,0:0|0:0,0:0:0:0:
256,244,180810,2,0,L|256:308,1,35.9999980926514,2|2,0:0|1:2,0:0:0:0:
256,160,181161,2,0,L|256:79,1,71.9999961853028,2|2,0:0|1:2,0:0:0:0:
256,0,181630,1,2,0:0:0:0:
256,0,181747,1,2,0:1:0:0:
256,352,182099,6,0,L|256:224,1,107.999994277954,2|2,0:0|0:0,0:0:0:0:
256,244,182685,2,0,L|256:308,1,35.9999980926514,2|2,0:0|1:2,0:0:0:0:
256,160,183036,2,0,L|256:79,1,71.9999961853028,2|2,0:0|1:2,0:0:0:0:
256,64,183388,1,2,0:0:0:0:
256,64,183505,2,0,L|256:2,1,35.9999980926514,2|2,0:0|0:1,0:0:0:0:
256,352,183974,6,0,L|256:224,1,107.999994277954,2|2,0:0|0:0,0:0:0:0:
256,244,184560,2,0,L|256:308,1,35.9999980926514,2|2,0:0|1:2,0:0:0:0:
256,160,184911,2,0,L|256:79,1,71.9999961853028,2|2,0:0|1:2,0:0:0:0:
256,0,185380,1,2,0:0:0:0:
256,0,185497,1,2,0:1:0:0:
256,352,185849,6,0,L|256:224,1,107.999994277954,2|2,0:0|0:0,0:0:0:0:
256,160,186435,1,2,0:0:0:0:
256,160,186552,1,2,1:0:0:0:
256,0,186786,2,0,L|256:72,1,71.9999961853028,2|2,0:0|1:0,0:0:0:0:
256,160,187255,1,2,0:0:0:0:
256,160,187372,1,2,0:1:0:0:
256,352,187724,6,0,L|256:224,1,107.999994277954,2|2,0:0|0:0,0:0:0:0:
256,244,188310,2,0,L|256:308,1,35.9999980926514,2|2,0:0|1:2,0:0:0:0:
256,160,188661,2,0,L|256:79,1,71.9999961853028,2|2,0:0|1:2,0:0:0:0:
256,0,189130,1,2,0:0:0:0:
256,0,189247,1,2,0:1:0:0:
256,352,189599,6,0,L|256:224,1,107.999994277954,2|2,0:0|0:0,0:0:0:0:
256,244,190185,2,0,L|256:308,1,35.9999980926514,2|2,0:0|1:2,0:0:0:0:
256,160,190536,2,0,L|256:79,1,71.9999961853028,2|2,0:0|1:2,0:0:0:0:
256,64,190888,1,2,0:0:0:0:
256,64,191005,2,0,L|256:0,1,35.9999980926514,2|2,0:0|0:1,0:0:0:0:
256,352,191474,6,0,L|256:224,1,107.999994277954,2|2,0:0|0:0,0:0:0:0:
256,244,192060,2,0,L|256:308,1,35.9999980926514,2|2,0:0|1:2,0:0:0:0:
256,160,192411,2,0,L|256:79,1,71.9999961853028,2|2,0:0|1:2,0:0:0:0:
256,0,192880,1,2,0:0:0:0:
256,0,192997,1,2,0:1:0:0:
256,352,193349,6,0,L|256:224,1,107.999994277954,2|2,0:0|0:0,0:0:0:0:
256,160,193935,1,2,0:0:0:0:
256,160,194052,1,2,1:0:0:0:
256,0,194286,2,0,L|256:72,1,71.9999961853028,2|2,0:0|1:0,0:0:0:0:
256,160,194755,1,2,0:0:0:0:
256,160,194872,1,2,0:1:0:0:
256,352,195224,6,0,L|256:224,1,107.999994277954,2|2,0:0|0:0,0:0:0:0:
256,244,195810,2,0,L|256:308,1,35.9999980926514,2|2,0:0|1:2,0:0:0:0:
256,160,196161,2,0,L|256:79,1,71.9999961853028,2|2,0:0|1:2,0:0:0:0:
256,0,196630,1,2,0:0:0:0:
256,0,196747,1,2,0:1:0:0:
256,352,197099,6,0,L|256:224,1,107.999994277954,2|2,0:0|0:0,0:0:0:0:
256,244,197685,2,0,L|256:308,1,35.9999980926514,2|2,0:0|1:2,0:0:0:0:
256,160,198036,2,0,L|256:79,1,71.9999961853028,2|2,0:0|1:2,0:0:0:0:
256,64,198388,1,2,0:0:0:0:
256,64,198505,2,0,L|256:2,1,35.9999980926514,2|2,0:0|0:1,0:0:0:0:
256,352,198974,6,0,L|256:224,1,107.999994277954,2|2,0:0|0:0,0:0:0:0:
256,244,199560,2,0,L|256:308,1,35.9999980926514,2|2,0:0|1:2,0:0:0:0:
256,160,199911,2,0,L|256:79,1,71.9999961853028,2|2,0:0|1:2,0:0:0:0:
256,0,200380,1,2,0:0:0:0:
256,0,200497,1,2,0:1:0:0:
256,352,200849,6,0,L|256:224,1,107.999994277954,2|2,0:0|0:0,0:0:0:0:
256,160,201435,1,2,0:0:0:0:
256,160,201552,1,2,1:0:0:0:
256,0,201786,2,0,L|256:72,1,71.9999961853028,2|2,0:0|1:0,0:0:0:0:
256,160,202255,1,2,0:0:0:0:
256,160,202372,1,2,0:1:0:0:
256,352,202724,6,0,L|256:224,1,107.999994277954,2|2,0:0|0:0,0:0:0:0:
256,160,203310,1,2,0:0:0:0:
256,160,203427,1,2,1:0:0:0:
256,0,203661,2,0,L|256:72,1,71.9999961853028,2|2,0:0|1:0,0:0:0:0:
256,160,204130,1,2,0:0:0:0:
256,160,204247,1,2,0:1:0:0:
256,352,204599,6,0,L|256:224,1,107.999994277954,2|2,0:0|0:0,0:0:0:0:
160,160,205185,1,2,0:0:0:0:
160,160,205302,1,2,1:0:0:0:
256,0,205536,1,2,0:1:0:0:
256,96,205771,1,2,1:0:0:0:
352,160,206005,1,2,0:1:0:0:
352,160,206122,1,2,0:1:0:0:
256,352,206474,6,0,L|256:224,1,107.999994277954,2|2,0:0|0:0,0:0:0:0:
256,244,207060,2,0,L|256:308,1,35.9999980926514,2|2,0:0|1:2,0:0:0:0:
256,160,207411,2,0,L|256:79,1,71.9999961853028,2|2,0:1|1:0,0:0:0:0:
256,88,207880,2,0,L|256:24,1,35.9999980926514,2|2,0:1|0:0,0:0:0:0:
256,0,208115,5,4,1:0:0:0:
256,192,208232,12,0,209521,1:0:0:0:
488,12,209990,6,0,B|523:112|441:132|477:232,1,215.999981964112,6|10,1:0|0:2,0:0:0:0:
512,288,210927,2,0,P|514:212|490:101,2,161.999986473084,2|2|2,1:2|0:2|0:2,0:0:0:0:
472,362,211865,1,2,1:0:0:0:
480,207,212216,1,2,0:2:0:0:
472,362,212568,1,2,0:2:0:0:
435,285,212802,1,2,1:2:0:0:
435,285,212919,1,0,0:0:0:0:
343,287,213154,1,0,0:0:0:0:
343,287,213271,1,8,0:0:0:0:
389,374,213505,1,0,0:0:0:0:
389,374,213622,1,0,0:0:0:0:
389,374,213740,6,0,P|392:320|386:200,1,161.999986473084,2|0,1:0|0:0,0:0:0:0:
386,212,214208,1,10,0:2:0:0:
387,134,214443,6,0,P|380:201|340:290,1,161.999986473084,2|0,0:2|0:0,0:0:0:0:
313,358,214911,1,2,0:2:0:0:
280,225,215146,1,10,0:2:0:0:
196,310,215380,2,0,L|258:299,1,53.999995491028,2|0,0:2|0:0,0:0:0:0:
188,185,215615,6,0,P|193:247|183:299,1,107.999990982056,2|2,1:0|0:2,0:0:0:0:
122,115,216083,2,0,P|95:171|60:211,1,107.999990982056,10|2,0:2|0:2,0:0:0:0:
109,277,216435,1,0,0:0:0:0:
109,277,216552,1,2,1:0:0:0:
5,356,216786,2,0,P|44:350|80:353,1,53.999995491028
139,368,217021,1,8,0:0:0:0:
23,274,217255,1,0,0:0:0:0:
6,84,217490,6,0,L|22:202,1,107.999990982056,2|0,1:0|0:0,0:0:0:0:
223,80,217958,2,0,L|208:187,1,107.999990982056,10|0,0:2|0:0,0:0:0:0:
35,165,218427,2,0,B|119:195|114:136|203:162,1,161.999986473084,2|2,1:2|0:2,0:0:0:0:
192,159,219130,1,2,0:2:0:0:
81,90,219365,5,2,1:0:0:0:
159,238,219716,1,2,0:2:0:0:
81,90,220068,1,2,0:2:0:0:
96,169,220302,1,2,1:2:0:0:
96,169,220419,1,0,0:0:0:0:
141,33,220654,1,0,0:0:0:0:
141,33,220771,1,8,0:0:0:0:
212,83,221005,1,2,0:2:0:0:
212,83,221122,1,2,0:2:0:0:
212,83,221240,6,0,P|274:82|361:35,1,161.999986473084,2|0,1:0|0:0,0:0:0:0:
360,35,221708,1,10,0:2:0:0:
280,0,221943,2,0,P|281:62|328:149,1,161.999986473084,2|0,0:2|0:0,0:0:0:0:
327,148,222411,1,2,0:2:0:0:
327,148,222529,1,0,0:0:0:0:
327,148,222646,1,10,0:2:0:0:
451,17,222880,2,0,L|446:86,1,53.999995491028,2|0,0:2|0:0,0:0:0:0:
424,146,223115,6,0,P|444:203|450:267,1,107.999990982056,2|2,1:0|0:2,0:0:0:0:
391,340,223466,1,0,0:0:0:0:
391,340,223583,2,0,P|372:289|365:235,1,107.999990982056,10|2,0:2|0:2,0:0:0:0:
475,335,223935,1,0,0:0:0:0:
475,335,224052,2,0,B|355:298|385:384|245:343,1,215.999981964112,2|10,1:0|0:2,0:0:0:0:
265,348,224755,2,0,L|273:288,1,53.999995491028
200,206,224990,6,0,P|194:263|148:324,1,107.999990982056,6|0,1:0|0:0,0:0:0:0:
89,346,225458,2,0,P|146:352|207:398,1,107.999990982056,10|0,0:2|0:0,0:0:0:0:
0,223,225927,6,0,L|9:400,2,161.999986473084,2|2|2,1:2|0:2|0:2,0:0:0:0:
92,266,226865,1,2,1:0:0:0:
280,217,227216,1,2,0:2:0:0:
92,266,227568,1,2,0:2:0:0:
72,187,227802,1,2,1:2:0:0:
72,187,227919,1,0,0:0:0:0:
0,147,228154,1,0,0:0:0:0:
0,147,228271,1,8,0:0:0:0:
6,64,228505,1,2,0:0:0:0:
6,64,228622,1,2,0:0:0:0:
6,64,228740,6,0,P|59:50|138:54,1,107.999990982056,2|0,1:0|0:0,0:0:0:0:
111,49,229208,1,10,0:2:0:0:
192,7,229443,2,0,P|244:21|311:64,1,107.999990982056,2|0,0:2|0:0,0:0:0:0:
192,89,229911,1,2,0:2:0:0:
290,47,230146,1,10,0:2:0:0:
126,155,230380,1,2,0:2:0:0:
126,155,230497,1,0,0:0:0:0:
126,155,230615,6,0,P|182:174|232:173,1,107.999990982056,2|2,1:0|0:2,0:0:0:0:
399,145,231083,2,0,P|343:126|293:127,1,107.999990982056,10|2,0:2|0:2,0:0:0:0:
304,210,231435,1,0,0:0:0:0:
304,210,231552,1,2,1:0:0:0:
371,54,231904,1,0,0:0:0:0:
371,54,232021,1,8,0:0:0:0:
512,24,232255,1,0,0:0:0:0:
433,0,232490,6,0,P|478:60|499:153,1,161.999986473084,2|0,1:0|0:0,0:0:0:0:
383,225,232958,2,0,P|428:165|449:72,1,161.999986473084,10|0,0:2|0:0,0:0:0:0:
448,81,233427,2,0,P|474:147|487:255,2,161.999986473084,2|2|2,1:2|0:2|0:2,0:0:0:0:
372,59,234365,5,2,1:0:0:0:
431,286,234716,1,2,0:2:0:0:
372,59,235068,1,2,0:2:0:0:
343,139,235302,1,2,1:2:0:0:
343,139,235419,1,0,0:0:0:0:
369,222,235654,1,0,0:0:0:0:
369,222,235771,1,8,0:0:0:0:
350,302,236005,1,2,0:2:0:0:
350,302,236122,1,2,0:2:0:0:
350,302,236240,6,0,P|304:348|148:376,1,215.999981964112,2|10,1:0|0:2,0:0:0:0:
221,347,236943,2,0,P|114:336|31:270,1,215.999981964112,2|2,0:2|0:2,0:0:0:0:
16,188,237646,1,10,0:2:0:0:
9,367,237880,1,2,0:2:0:0:
16,188,238115,6,0,L|0:74,1,107.999990982056,6|2,1:0|0:2,0:0:0:0:
78,9,238583,2,0,L|93:115,1,107.999990982056,10|2,0:2|0:2,0:0:0:0:
108,198,238935,1,0,0:0:0:0:
108,198,239052,1,2,1:0:0:0:
0,2,239404,1,0,0:0:0:0:
0,2,239521,1,14,0:2:0:0:
168,3,239755,1,0,0:0:0:0:
178,103,239990,6,0,P|234:102|341:132,1,161.999986473084,6|0,1:0|0:0,0:0:0:0:
354,26,240458,2,0,P|298:27|191:-3,1,161.999986473084,10|0,0:2|0:0,0:0:0:0:
409,90,240927,2,0,B|432:117|432:117|391:268,2,161.999986473084,2|2|2,1:2|0:2|0:2,0:0:0:0:
436,12,241865,5,2,1:0:0:0:
477,244,242216,1,2,0:2:0:0:
436,12,242568,1,2,0:2:0:0:
512,76,242802,1,2,1:2:0:0:
512,76,242919,1,2,0:0:0:0:
512,164,243154,1,2,0:0:0:0:
512,164,243271,1,8,0:0:0:0:
477,244,243505,1,0,0:0:0:0:
477,244,243622,1,0,0:0:0:0:
477,244,243740,6,0,P|479:307|502:363,1,107.999990982056,2|0,1:0|0:0,0:0:0:0:
493,348,244208,1,10,0:2:0:0:
394,364,244443,2,0,P|392:301|369:245,1,107.999990982056,2|0,0:2|0:0,0:0:0:0:
415,185,244911,1,2,0:2:0:0:
415,185,245029,1,0,0:0:0:0:
415,185,245146,1,10,0:2:0:0:
314,363,245380,1,2,0:2:0:0:
314,363,245498,1,0,0:0:0:0:
314,363,245615,5,2,1:0:0:0:
325,200,245849,1,2,0:2:0:0:
291,280,246083,1,10,0:2:0:0:
101,371,246318,2,0,L|169:367,1,53.999995491028,2|0,0:2|0:0,0:0:0:0:
235,368,246552,6,0,B|266:255|186:261|218:146,1,215.999981964112,2|8,1:0|0:0,0:0:0:0:
214,158,247490,2,0,L|87:167,1,107.999990982056,2|0,1:0|0:0,0:0:0:0:
5,257,247958,2,0,L|112:249,1,107.999990982056,10|0,0:2|0:0,0:0:0:0:
189,289,248427,1,2,1:2:0:0:
25,177,248779,1,2,0:2:0:0:
189,289,249130,1,2,0:2:0:0:
66,98,249365,5,2,1:0:0:0:
21,342,249716,1,2,0:2:0:0:
66,98,250068,1,2,0:2:0:0:
2,40,250302,1,2,1:2:0:0:
2,40,250419,1,2,0:0:0:0:
91,14,250654,1,2,0:0:0:0:
91,14,250771,1,8,0:0:0:0:
158,80,251005,1,2,0:2:0:0:
158,80,251122,1,2,0:2:0:0:
158,80,251240,6,0,L|350:56,1,161.999986473084,2|0,1:0|0:0,0:0:0:0:
318,59,251708,1,10,0:2:0:0:
351,231,251943,2,0,L|463:245,1,107.999990982056,2|0,0:2|0:0,0:0:0:0:
512,179,252411,1,2,0:2:0:0:
512,179,252529,1,0,0:0:0:0:
512,179,252646,1,10,0:2:0:0:
357,143,252880,2,0,L|284:163,1,53.999995491028,2|0,0:2|0:0,0:0:0:0:
450,36,253115,6,0,P|441:87|437:162,2,107.999990982056,2|2|10,1:0|0:2|0:2,0:0:0:0:
264,234,253818,1,2,0:2:0:0:
264,234,253935,1,0,0:0:0:0:
264,234,254052,2,0,B|272:295|272:295|428:322,1,215.999981964112,2|10,1:0|0:2,0:0:0:0:
506,369,254755,2,0,L|444:358,1,53.999995491028
273,373,254990,6,0,P|230:378|162:378,1,107.999990982056,6|0,1:0|0:0,0:0:0:0:
20,364,255458,2,0,P|63:359|131:359,1,107.999990982056,10|0,0:2|0:0,0:0:0:0:
197,303,255927,1,2,1:2:0:0:
0,283,256279,1,2,0:2:0:0:
197,303,256630,1,2,0:2:0:0:
99,281,256865,5,2,1:0:0:0:
119,78,257216,1,2,0:2:0:0:
99,281,257568,1,2,0:2:0:0:
72,204,257802,1,2,1:2:0:0:
72,204,257919,1,2,0:0:0:0:
146,159,258154,1,2,0:0:0:0:
146,159,258271,1,8,0:0:0:0:
119,78,258505,1,2,0:0:0:0:
119,78,258622,1,2,0:0:0:0:
119,78,258740,6,0,P|78:45|7:22,1,107.999990982056,2|0,1:0|0:0,0:0:0:0:
26,25,259208,1,10,0:2:0:0:
163,0,259443,2,0,P|204:33|275:56,1,107.999990982056,2|0,0:2|0:0,0:0:0:0:
33,121,259911,1,2,0:2:0:0:
231,128,260146,1,10,0:2:0:0:
315,0,260380,1,2,0:2:0:0:
501,17,260615,6,0,L|485:134,1,107.999990982056,2|2,1:0|0:2,0:0:0:0:
486,124,260966,1,0,0:0:0:0:
486,124,261083,1,10,0:2:0:0:
380,211,261318,1,2,0:2:0:0:
380,211,261435,1,0,0:0:0:0:
380,211,261552,2,0,B|444:115|348:91|405:-3,1,215.999981964112,2|8,1:0|0:0,0:0:0:0:
482,216,262490,6,0,P|451:279|319:362,2,215.999981964112,2|10|2,1:0|0:2|1:2,0:0:0:0:
251,370,263779,1,2,0:2:0:0:
381,209,264130,1,2,0:2:0:0:
307,279,264365,5,2,1:0:0:0:
45,268,264716,1,2,0:2:0:0:
307,279,265068,1,2,0:2:0:0:
228,292,265302,1,2,1:2:0:0:
228,292,265419,1,2,0:0:0:0:
133,266,265654,1,2,0:0:0:0:
133,266,265771,1,8,0:0:0:0:
212,179,266005,1,2,0:2:0:0:
212,179,266122,1,2,0:2:0:0:
212,179,266240,6,0,P|214:284|171:385,1,215.999981964112,2|10,1:0|0:2,0:0:0:0:
92,367,266943,2,0,P|90:262|133:161,1,215.999981964112,2|2,0:2|0:2,0:0:0:0:
132,161,267646,1,10,0:2:0:0:
4,242,267880,1,2,0:2:0:0:
7,371,268115,6,0,L|-1:252,1,107.999990982056,6|2,1:0|0:2,0:0:0:0:
30,62,268583,2,0,L|37:169,1,107.999990982056,10|2,0:2|0:2,0:0:0:0:
37,169,268935,1,0,0:0:0:0:
37,169,269052,1,2,1:0:0:0:
95,8,269404,1,0,0:0:0:0:
95,8,269521,1,14,0:2:0:0:
188,104,269755,1,0,0:0:0:0:
154,270,269990,1,0,1:2:0:0:
256,384,270224,6,0,L|256:256,1,107.999994277954,2|2,0:0|0:0,0:0:0:0:
256,192,270810,1,2,0:0:0:0:
256,192,270927,1,2,1:2:0:0:
256,96,271161,1,2,0:0:0:0:
256,0,271396,1,2,1:2:0:0:
416,0,271630,1,2,0:0:0:0:
416,0,271747,1,2,0:1:0:0:
128,384,272099,6,0,L|128:256,1,107.999994277954,2|2,0:0|0:0,0:0:0:0:
256,192,272685,1,2,0:0:0:0:
256,192,272802,1,2,1:2:0:0:
256,96,273036,1,2,0:0:0:0:
160,0,273271,2,0,L|203:0,1,35.9999980926514,2|2,1:2|0:0,0:0:0:0:
352,0,273505,2,0,L|309:0,1,35.9999980926514,2|2,0:0|0:1,0:0:0:0:
256,384,273974,6,0,L|256:256,1,107.999994277954,2|2,0:0|0:0,0:0:0:0:
256,192,274560,1,2,0:0:0:0:
256,192,274677,1,2,1:2:0:0:
256,96,274911,1,2,0:0:0:0:
256,0,275146,1,2,1:2:0:0:
96,0,275380,1,2,0:0:0:0:
96,0,275497,1,2,0:1:0:0:
384,384,275849,6,0,L|384:256,1,107.999994277954,2|2,0:0|0:0,0:0:0:0:
256,192,276435,1,2,0:0:0:0:
256,192,276552,1,2,1:0:0:0:
160,96,276786,1,2,0:0:0:0:
256,0,277021,1,2,1:0:0:0:
352,96,277255,1,2,0:0:0:0:
352,96,277372,1,2,0:1:0:0:
256,384,277724,6,0,L|256:256,1,107.999994277954,2|2,0:0|0:0,0:0:0:0:
256,192,278310,1,2,0:0:0:0:
256,192,278427,1,2,1:2:0:0:
256,96,278661,1,2,0:0:0:0:
256,0,278896,1,2,1:2:0:0:
416,0,279130,1,2,0:0:0:0:
416,0,279247,1,2,0:1:0:0:
128,384,279599,6,0,L|128:256,1,107.999994277954,2|2,0:0|0:0,0:0:0:0:
256,192,280185,1,2,0:0:0:0:
256,192,280302,1,2,1:2:0:0:
256,96,280536,1,2,0:0:0:0:
160,0,280771,2,0,L|203:0,1,35.9999980926514,2|2,1:2|0:0,0:0:0:0:
352,0,281005,2,0,L|309:0,1,35.9999980926514,2|2,0:0|0:1,0:0:0:0:
256,384,281474,6,0,L|256:256,1,107.999994277954,2|2,0:0|0:0,0:0:0:0:
256,192,282060,1,2,0:0:0:0:
256,192,282177,1,2,1:2:0:0:
256,96,282411,1,2,0:0:0:0:
256,0,282646,1,2,1:2:0:0:
96,0,282880,1,2,0:0:0:0:
96,0,282997,1,2,0:1:0:0:
384,384,283349,6,0,L|384:256,1,107.999994277954,2|2,0:0|0:0,0:0:0:0:
256,192,283935,1,2,0:0:0:0:
256,192,284052,1,2,1:0:0:0:
352,96,284286,1,2,0:0:0:0:
256,0,284521,1,2,1:0:0:0:
160,96,284755,1,2,0:0:0:0:
160,96,284872,1,2,0:1:0:0:
256,384,285224,6,0,L|256:256,1,107.999994277954,2|2,0:0|0:0,0:0:0:0:
256,192,285810,1,2,0:0:0:0:
256,192,285927,1,2,1:2:0:0:
256,96,286161,1,2,0:0:0:0:
256,0,286396,1,2,1:2:0:0:
416,0,286630,1,2,0:0:0:0:
416,0,286747,1,2,0:1:0:0:
128,384,287099,6,0,L|128:256,1,107.999994277954,2|2,0:0|0:0,0:0:0:0:
256,192,287685,1,2,0:0:0:0:
256,192,287802,1,2,1:2:0:0:
256,96,288036,1,2,0:0:0:0:
160,0,288271,2,0,L|203:0,1,35.9999980926514,2|2,1:2|0:0,0:0:0:0:
352,0,288505,2,0,L|309:0,1,35.9999980926514,2|2,0:0|0:1,0:0:0:0:
384,384,288974,6,0,L|384:256,1,107.999994277954,2|2,0:0|0:0,0:0:0:0:
256,192,289560,1,2,0:0:0:0:
256,192,289677,1,2,1:2:0:0:
256,96,289911,1,2,0:0:0:0:
256,0,290146,1,2,1:2:0:0:
96,0,290380,1,2,0:0:0:0:
96,0,290497,1,2,0:1:0:0:
256,384,290849,6,0,L|256:256,1,107.999994277954,2|2,0:0|0:0,0:0:0:0:
256,192,291435,1,2,0:0:0:0:
256,192,291552,1,2,1:0:0:0:
160,96,291786,1,2,0:0:0:0:
256,0,292021,1,2,1:0:0:0:
352,96,292255,1,2,0:0:0:0:
352,96,292372,1,2,0:1:0:0:
512,384,292724,6,0,L|512:256,1,107.999994277954,2|2,0:0|0:0,0:0:0:0:
256,192,293310,1,2,0:0:0:0:
256,192,293427,1,2,1:0:0:0:
352,96,293661,1,2,0:0:0:0:
256,0,293896,1,2,1:0:0:0:
160,96,294130,1,2,0:0:0:0:
160,96,294247,1,2,0:1:0:0:
0,384,294599,6,0,L|0:256,1,107.999994277954,2|2,0:0|0:0,0:0:0:0:
160,192,295185,1,2,0:0:0:0:
160,171,295302,1,2,1:0:0:0:
352,0,295536,1,2,0:1:0:0:
160,0,295771,1,2,1:0:0:0:
352,192,296005,1,2,0:1:0:0:
352,192,296122,1,2,0:1:0:0:
256,384,296474,6,0,L|256:256,1,107.999994277954,2|2,0:0|0:0,0:0:0:0:
256,192,297060,1,2,0:0:0:0:
256,192,297177,1,2,1:2:0:0:
256,96,297411,1,2,0:1:0:0:
256,0,297646,1,2,1:0:0:0:
256,192,297880,1,2,0:1:0:0:
256,192,297997,1,2,0:0:0:0:
256,192,298115,5,4,1:0:0:0:
256,192,298232,12,0,299521,1:0:0:0:
2,141,299990,6,0,L|149:130,1,134.999992847443,6|2,1:0|0:0,0:0:0:0:
246,131,300458,6,2,B|234:90|196:69|196:69|131:119|149:317|149:317|212:210|331:205|331:205|361:125|320:45|320:45|350:25|382:19|382:19|386:63|376:99,1,863.999954223634,10|4,0:0|1:2,0:1:0:0:
446,196,302216,1,2,0:0:0:0:
431,176,302333,1,10,0:0:0:0:
432,157,302450,1,2,0:0:0:0:
442,148,302568,1,2,0:0:0:0:
452,152,302685,1,2,0:0:0:0:
506,272,302919,1,2,0:0:0:0:
512,289,303036,2,0,P|410:316|283:313,1,215.999988555908,2|2,0:0|0:0,0:0:0:0:
284,310,303505,1,2,0:0:0:0:
262,296,303622,1,2,0:0:0:0:
230,262,303740,5,6,1:2:0:0:
216,312,303857,2,0,P|198:346|166:380,1,71.9999961853028,2|2,0:0|0:0,0:0:0:0:
143,271,304091,1,2,0:0:0:0:
97,296,304208,2,0,P|60:307|13:308,1,71.9999961853028,10|2,0:0|0:0,0:0:0:0:
99,380,304560,1,2,0:0:0:0:
5,233,304794,1,2,0:0:0:0:
1,186,304911,1,2,0:0:0:0:
7,176,305029,1,2,0:0:0:0:
7,160,305146,1,10,0:0:0:0:
1,150,305264,1,2,0:0:0:0:
7,142,305380,2,2,L|12:97,1,44.9999976158143
25,9,305615,5,6,1:2:0:0:
57,3,305732,1,2,0:2:0:0:
92,11,305849,1,2,0:2:0:0:
125,23,305966,5,2,0:2:0:0:
145,25,306083,1,10,0:2:0:0:
165,20,306200,1,2,0:2:0:0:
172,13,306318,6,0,L|166:68,1,44.9999976158143,2|2,0:0|0:0,0:0:0:0:
118,133,306552,1,6,1:2:0:0:
87,166,306669,1,2,0:2:0:0:
88,212,306786,1,2,0:2:0:0:
122,245,306903,1,2,0:2:0:0:
141,233,307021,1,10,0:2:0:0:
158,217,307138,1,2,0:2:0:0:
158,193,307255,1,2,0:2:0:0:
143,176,307372,1,2,0:2:0:0:
151,162,307490,5,6,1:2:0:0:
243,63,307724,1,2,0:0:0:0:
223,112,307841,1,2,0:0:0:0:
237,166,307958,1,10,0:0:0:0:
410,141,308193,1,2,0:0:0:0:
410,91,308310,1,2,0:0:0:0:
324,155,308544,2,0,P|321:116|327:73,1,71.9999961853028,2|2,0:0|0:0,0:0:0:0:
495,25,308896,1,10,0:0:0:0:
498,33,309013,1,2,0:0:0:0:
509,40,309130,1,2,0:0:0:0:
506,48,309247,1,2,0:0:0:0:
502,57,309365,6,0,P|502:98|508:142,1,71.9999961853028,6|2,1:2|0:0,0:0:0:0:
435,216,309599,2,0,L|385:220,2,35.9999980926514,2|2|2,0:0|0:0|0:0,0:0:0:0:
512,204,309833,1,10,0:2:0:0:
499,307,310068,2,2,P|414:306|279:244,1,215.999988555908,2|2,0:0|0:1,0:1:0:0:
387,218,311240,5,6,1:2:0:0:
391,233,311357,1,2,0:0:0:0:
395,248,311474,2,0,P|390:283|374:316,1,71.9999961853028,2|2,0:0|0:0,0:0:0:0:
310,363,311708,1,10,0:0:0:0:
324,371,311825,2,0,P|329:336|345:303,1,71.9999961853028,2|2,0:0|0:0,0:0:0:0:
164,365,312060,2,2,P|163:268|190:125,1,215.999988555908,2|2,0:0|0:0,0:1:0:0:
221,42,312529,1,2,0:0:0:0:
45,23,312763,1,2,0:2:0:0:
65,65,312880,1,2,0:2:0:0:
76,112,312997,1,2,0:2:0:0:
76,160,313115,6,0,P|72:197|60:241,1,71.9999961853028,6|2,1:2|0:2,0:0:0:0:
22,309,313349,1,2,0:2:0:0:
66,331,313466,1,2,0:2:0:0:
82,317,313583,1,10,0:2:0:0:
127,304,313700,1,2,0:0:0:0:
136,314,313818,1,2,0:0:0:0:
180,336,313935,1,2,0:0:0:0:
196,336,314052,6,0,L|199:259,1,71.9999961853028,6|2,1:2|0:2,0:0:0:0:
199,178,314286,1,2,0:2:0:0:
205,164,314404,2,2,P|272:119|379:99,1,143.999992370606,2|2,0:0|0:0,0:1:0:0:
353,116,314755,1,2,0:0:0:0:
366,129,314872,1,2,0:0:0:0:
371,141,314990,5,4,1:0:0:0:
287,258,315224,1,2,0:0:0:0:
282,241,315341,1,2,0:0:0:0:
279,225,315458,1,10,0:0:0:0:
291,207,315575,2,0,P|326:218|362:245,2,71.9999961853028,2|2|2,0:0|0:0|0:0,0:0:0:0:
293,360,316044,2,0,P|328:349|364:322,2,71.9999961853028,2|2|2,0:0|0:0|0:0,0:0:0:0:
428,372,316513,5,2,0:0:0:0:
436,318,316630,1,2,0:0:0:0:
428,264,316747,1,2,0:0:0:0:
434,254,316865,5,6,1:2:0:0:
477,227,316982,1,2,0:0:0:0:
502,183,317099,2,0,P|510:139|506:94,1,71.9999961853028,2|2,0:0|0:0,0:0:0:0:
502,31,317333,6,0,P|442:30|357:44,1,143.999992370606,10|2,0:0|0:0,0:0:0:0:
316,68,317685,1,2,0:0:0:0:
277,97,317802,2,0,P|272:137|274:189,1,71.9999961853028,2|2,1:2|0:0,0:0:0:0:
187,179,318036,2,0,P|182:139|184:87,1,71.9999961853028,2|2,0:0|0:0,0:0:0:0:
102,147,318271,1,10,0:0:0:0:
89,148,318388,1,2,0:0:0:0:
48,168,318505,1,2,0:0:0:0:
29,213,318622,1,2,0:0:0:0:
29,213,318740,6,2,B|82:322|155:238|210:335,1,215.999988555908,6|2,1:2|0:0,0:1:0:0:
456,367,319325,5,2,0:2:0:0:
455,354,319443,1,2,0:2:0:0:
451,332,319560,1,2,0:2:0:0:
447,303,319677,1,2,1:2:0:0:
441,268,319794,1,2,0:2:0:0:
434,226,319911,1,2,0:2:0:0:
427,174,320029,1,2,0:2:0:0:
339,365,320263,5,2,0:0:0:0:
335,343,320381,1,2,0:0:0:0:
330,309,320498,1,2,0:0:0:0:
301,279,320615,5,6,1:2:0:0:
310,225,320732,1,2,0:0:0:0:
321,155,320849,1,2,0:0:0:0:
332,76,320966,6,2,B|292:20|145:131|86:87,1,242.999979709626,2|2,0:1|0:1,0:1:0:0:
99,93,321552,1,6,1:2:0:0:
59,127,321669,1,2,0:2:0:0:
35,172,321786,2,0,L|43:256,1,80.999993236542,2|2,0:2|0:2,0:0:0:0:
64,364,322021,1,10,0:2:0:0:
136,336,322138,1,2,0:2:0:0:
214,338,322255,1,2,0:0:0:0:
286,366,322372,1,2,0:0:0:0:
263,319,322490,6,0,P|257:273|257:229,2,80.999993236542,6|2|2,1:2|0:0|0:2,0:0:0:0:
342,232,322841,1,2,0:0:0:0:
365,279,322959,2,0,P|369:315|369:351,2,62.9999947395327,10|2|2,0:0|0:0|0:0,0:0:0:0:
458,371,323310,1,2,0:0:0:0:
458,371,323427,2,0,L|454:303,1,44.9999976158143,2|2,1:2|0:2,0:0:0:0:
481,251,323661,1,2,0:0:0:0:
478,243,323779,1,2,0:0:0:0:
487,233,323896,1,10,0:0:0:0:
484,225,324014,1,2,0:0:0:0:
481,214,324130,6,2,L|478:95,1,89.9999952316285,2|6,0:0|1:2,0:1:0:0:
488,108,324482,1,2,0:0:0:0:
438,9,324716,1,2,0:2:0:0:
446,18,324833,2,0,P|480:22|503:18,2,44.9999976158143,10|2|2,0:2|0:2|0:2,0:0:0:0:
359,6,325185,1,2,0:0:0:0:
190,16,325419,1,2,0:0:0:0:
278,30,325654,1,2,0:0:0:0:
278,30,325771,2,0,L|283:80,1,44.9999976158143,10|2,0:0|0:0,0:0:0:0:
210,121,326005,2,0,L|206:98,2,22.4999988079071,2|2|2,0:0|0:0|0:0,0:0:0:0:
122,80,326240,6,2,P|124:130|14:116,1,188.999984218598,6|2,1:2|0:0,0:1:0:0:
220,206,326825,1,2,0:0:0:0:
220,206,326943,6,2,P|196:253|26:264,1,215.999988555908,2|2,0:2|0:0,0:1:0:0:
310,155,327529,1,2,0:0:0:0:
310,155,327646,6,2,P|326:258|251:377,1,242.999979709626,10|2,0:0|0:0,0:1:0:0:
257,372,328115,1,4,1:0:0:0:
257,372,328232,1,0,0:0:0:0:
257,372,328349,6,2,P|366:268|411:145,1,269.999985694885,2|2,0:0|0:0,0:1:0:0:
434,13,328935,1,2,0:0:0:0:
434,13,329052,6,2,P|453:182|172:126,1,539.999971389771,6|2,1:0|0:0,0:1:0:0:
175,148,329833,2,0,L|134:154,2,29.9999984105428,2|2|4,0:0|0:0|1:0,0:0:0:0:
256,192,330107,12,0,333740,1:0:0:0:
449,365,344990,6,2,L|461:214,1,143.999992370606,2|2,0:0|0:0,0:2:0:0:
449,263,347216,2,2,L|459:321,1,58.4999969005585
500,135,349091,2,2,L|318:163,1,175.499985345841
93,201,350966,2,2,L|214:182,1,112.499994039536
258,127,351904,2,2,L|252:199,1,67.499994363785
284,273,352841,6,2,L|277:214,1,58.4999969005585
185,53,354716,2,2,L|164:233,1,175.499985345841
61,309,356591,2,2,L|31:10,1,292.499984502793
31,17,358466,2,2,L|157:33,1,112.499994039536
312,40,359404,2,2,L|423:25,1,112.499994039536,2|6,0:0|1:2,0:0:0:0:
228,51,360224,5,0,0:0:0:0:
228,51,360458,1,8,0:0:0:0:
146,196,360810,2,0,P|144:238|153:293,1,71.9999961853028,2|2,0:0|0:0,0:0:0:0:
176,118,361279,1,2,0:0:0:0:
176,118,361396,1,10,0:0:0:0:
233,189,361630,1,0,0:0:0:0:
233,189,361747,1,0,0:0:0:0:
233,189,361865,6,0,P|258:215|295:238,2,71.9999961853028,2|0|8,1:2|0:0|0:0,0:0:0:0:
147,267,362685,1,2,0:2:0:0:
226,285,362919,1,2,0:2:0:0:
287,234,363154,1,2,0:2:0:0:
287,234,363271,1,10,0:2:0:0:
247,370,363505,1,2,0:0:0:0:
247,370,363622,1,0,0:0:0:0:
247,370,363740,6,0,L|330:357,1,71.9999961853028,2|0,1:2|0:0,0:0:0:0:
396,342,364208,1,8,0:0:0:0:
488,207,364560,2,0,L|479:285,1,71.9999961853028,2|2,0:0|0:0,0:0:0:0:
483,358,365029,1,2,0:0:0:0:
483,358,365146,1,10,0:0:0:0:
398,259,365380,1,2,0:0:0:0:
398,259,365497,1,2,0:0:0:0:
398,259,365615,6,0,L|411:144,1,107.999994277954,2|2,1:2|0:0,0:0:0:0:
477,12,366318,2,0,L|489:119,1,107.999994277954,2|2,0:0|0:0,0:0:0:0:
406,78,367021,1,10,0:0:0:0:
406,78,367255,1,2,0:0:0:0:
326,27,367490,6,0,P|316:69|318:105,1,71.9999961853028,2|0,1:2|0:0,0:0:0:0:
357,169,367958,1,8,0:0:0:0:
224,87,368310,2,0,P|234:45|232:9,1,71.9999961853028,2|2,0:0|0:0,0:0:0:0:
152,44,368779,1,2,0:0:0:0:
152,44,368896,1,10,0:0:0:0:
66,12,369130,1,0,0:0:0:0:
66,12,369247,1,0,0:0:0:0:
66,12,369365,6,0,L|69:96,2,71.9999961853028,2|0|8,1:2|0:0|0:0,0:0:0:0:
18,147,370185,1,2,0:2:0:0:
52,222,370419,1,2,0:2:0:0:
21,300,370654,1,2,0:2:0:0:
21,300,370771,1,10,0:2:0:0:
79,364,371005,1,2,0:0:0:0:
79,364,371122,1,0,0:0:0:0:
79,364,371240,5,2,1:2:0:0:
256,192,371357,12,6,373115,1:2:0:0:
330,62,373818,5,0,1:0:0:0:
336,68,373935,1,0,1:0:0:0:
342,74,374052,1,8,0:0:0:0:
339,119,374169,2,0,L|422:165,1,89.9999952316285,0|8,1:0|0:0,0:0:0:0:
459,142,374521,1,0,1:0:0:0:
465,347,374755,2,0,L|458:290,1,44.9999976158143,8|0,0:0|1:0,0:0:0:0:
476,223,374990,5,4,1:0:0:0:
390,252,375224,2,0,P|341:282|296:325,1,107.999990982056,2|10,0:0|0:0,0:0:0:0:
269,381,375927,2,0,P|206:363|115:317,1,161.999986473084,2|2,1:2|0:0,0:0:0:0:
62,373,376513,1,2,0:0:0:0:
235,289,376747,1,2,0:0:0:0:
235,289,376865,6,2,P|249:228|249:175,1,107.999990982056,4|2,1:2|0:0,0:1:0:0:
211,54,377333,1,10,0:0:0:0:
211,54,377450,1,2,0:0:0:0:
181,135,377685,1,2,0:0:0:0:
181,135,377802,2,0,L|115:150,1,53.999995491028,0|0,1:0|0:0,0:0:0:0:
277,106,378154,2,0,L|387:80,1,107.999990982056,2|0,0:0|0:0,0:0:0:0:
211,54,378622,1,2,0:0:0:0:
211,54,378740,6,2,P|156:40|76:35,1,107.999990982056,4|2,1:2|0:0,0:1:0:0:
31,44,379208,1,10,0:0:0:0:
0,138,379443,1,0,0:0:0:0:
0,138,379561,2,0,P|55:124|170:127,1,161.999986473084,2|2,0:0|0:0,0:0:0:0:
241,147,380146,1,10,0:0:0:0:
287,21,380380,1,2,0:0:0:0:
287,21,380497,1,2,0:0:0:0:
287,21,380615,6,2,L|421:12,1,107.999990982056,4|2,1:2|0:0,0:1:0:0:
475,142,381083,1,10,0:0:0:0:
476,136,381200,1,2,0:0:0:0:
477,130,381318,1,2,0:0:0:0:
478,124,381434,1,2,0:0:0:0:
479,118,381552,2,2,P|484:68|475:-1,1,107.999990982056,4|2,1:2|0:0,0:1:0:0:
316,98,382021,1,8,0:0:0:0:
394,114,382255,1,2,0:0:0:0:
398,102,382372,1,2,0:0:0:0:
402,90,382490,5,4,1:2:0:0:
343,173,382724,2,0,L|347:226,1,53.999995491028,2|2,0:0|0:0,0:0:0:0:
359,362,382958,1,10,0:0:0:0:
509,292,383427,2,0,P|447:285|390:292,1,107.999990982056,2|0,1:2|0:0,0:0:0:0:
359,362,383779,2,0,P|328:365|299:362,1,53.999995491028,2|0,0:0|1:0,0:0:0:0:
269,294,384013,1,2,0:0:0:0:
159,350,384247,6,0,B|184:363|184:363|198:297|173:220,1,161.999986473084,2|2,0:0|0:0,0:0:0:0:
256,214,384833,1,10,0:0:0:0:
256,214,384950,1,2,0:0:0:0:
107,283,385185,1,2,0:0:0:0:
103,275,385302,1,0,1:0:0:0:
99,267,385419,1,0,0:0:0:0:
201,154,385654,2,0,P|198:98|186:39,1,107.999990982056,2|0,0:0|0:0,0:0:0:0:
100,59,386122,1,2,0:0:0:0:
100,59,386240,6,2,P|102:112|112:165,1,107.999990982056,4|2,1:2|0:0,0:1:0:0:
164,226,386708,1,10,0:0:0:0:
29,146,386943,1,0,0:0:0:0:
29,146,387060,2,0,P|119:138|194:150,1,161.999986473084,2|2,0:0|0:0,0:0:0:0:
197,154,387529,1,0,0:0:0:0:
204,160,387646,1,10,0:0:0:0:
275,26,387880,1,0,0:0:0:0:
275,26,387997,1,2,0:0:0:0:
275,26,388115,6,2,L|289:148,1,107.999990982056,4|2,1:2|0:0,0:1:0:0:
442,0,388583,1,10,0:0:0:0:
440,7,388700,1,2,0:0:0:0:
438,14,388818,1,0,0:0:0:0:
436,21,388934,1,2,0:0:0:0:
434,28,389052,2,2,L|420:150,1,107.999990982056,4|2,1:2|0:0,0:1:0:0:
355,173,389521,1,8,0:0:0:0:
356,179,389638,1,0,0:0:0:0:
357,185,389755,1,0,0:0:0:0:
358,191,389873,1,0,0:0:0:0:
359,197,389990,5,4,1:2:0:0:
483,232,390224,2,0,L|415:238,1,53.999995491028,2|2,0:0|0:0,0:0:0:0:
299,247,390458,1,10,0:0:0:0:
492,316,390927,2,0,L|379:325,1,107.999990982056,2|2,1:2|0:0,0:0:0:0:
384,325,391279,1,2,0:0:0:0:
256,330,391513,2,0,L|309:325,1,53.999995491028,2|0,0:0|0:0,0:0:0:0:
221,257,391747,1,2,0:0:0:0:
221,257,391865,6,2,P|161:256|95:242,1,107.999990982056,4|2,1:2|0:0,0:1:0:0:
40,220,392333,1,10,0:0:0:0:
40,220,392450,1,2,0:0:0:0:
50,349,392685,1,2,0:0:0:0:
50,349,392802,2,0,P|52:313|61:268,1,53.999995491028,0|0,1:0|0:0,0:0:0:0:
142,273,393154,2,0,P|140:323|130:386,1,107.999990982056,2|0,0:0|0:0,0:0:0:0:
102,172,393622,1,2,0:0:0:0:
102,172,393740,6,2,L|81:46,1,107.999990982056,4|2,1:2|0:0,0:1:0:0:
84,65,394208,1,10,0:0:0:0:
182,200,394443,1,0,0:0:0:0:
182,200,394561,6,0,L|211:23,1,161.999986473084,2|2,0:0|0:0,0:0:0:0:
208,40,395029,1,0,0:0:0:0:
208,40,395146,1,10,0:0:0:0:
11,29,395380,1,0,0:0:0:0:
11,29,395497,1,2,0:0:0:0:
11,29,395615,5,4,1:2:0:0:
139,7,395849,1,2,0:0:0:0:
302,26,396083,1,10,0:0:0:0:
302,26,396200,1,2,0:0:0:0:
302,26,396318,1,0,0:0:0:0:
302,26,396435,1,2,0:0:0:0:
302,26,396552,2,2,L|417:12,1,107.999990982056,4|2,1:2|0:0,0:1:0:0:
481,52,397021,1,10,0:0:0:0:
428,222,397255,1,2,0:0:0:0:
489,39,397490,5,4,1:2:0:0:
371,128,397724,2,0,P|389:110|418:89,1,53.999995491028,2|0,0:0|0:0,0:0:0:0:
346,204,397958,2,0,P|328:222|299:243,1,53.999995491028,10|0,0:0|0:0,0:0:0:0:
498,138,398310,1,0,0:0:0:0:
498,138,398427,2,0,L|511:259,1,107.999990982056,2|2,1:2|0:0,0:0:0:0:
452,300,398779,1,2,0:0:0:0:
438,382,399013,2,0,L|495:374,1,53.999995491028,2|0,0:0|0:0,0:0:0:0:
373,330,399247,6,0,B|340:304|340:304|301:358|230:375,1,161.999986473084,2|2,0:0|0:0,0:0:0:0:
167,376,399833,1,10,0:0:0:0:
167,376,399950,1,2,0:0:0:0:
248,280,400185,1,2,0:0:0:0:
248,280,400302,1,0,1:0:0:0:
248,280,400419,1,0,0:0:0:0:
56,302,400654,2,0,P|78:296|172:287,1,107.999990982056,2|0,0:0|0:0,0:0:0:0:
83,379,401122,1,2,0:0:0:0:
83,379,401240,6,2,L|61:247,1,107.999990982056,4|2,1:2|0:0,0:1:0:0:
19,209,401708,1,10,0:0:0:0:
0,32,401943,1,0,0:0:0:0:
0,32,402060,2,0,L|167:13,1,161.999986473084,2|2,0:0|0:0,0:0:0:0:
242,30,402646,1,10,0:0:0:0:
180,103,402880,1,0,0:0:0:0:
180,103,402997,1,2,0:0:0:0:
180,103,403115,6,2,L|296:116,1,107.999990982056,4|2,1:2|0:0,0:1:0:0:
99,113,403583,1,10,0:0:0:0:
99,113,403700,1,2,0:0:0:0:
99,113,403818,1,0,0:0:0:0:
99,113,403935,1,2,0:0:0:0:
99,113,404052,1,4,1:2:0:0:
175,215,404286,1,2,0:0:0:0:
318,109,404521,1,14,0:0:0:0:
424,251,404755,1,2,0:0:0:0:
94,192,404990,5,6,1:0:0:0:
267,255,405224,2,0,P|296:259|325:262,1,58.4999942226413,2|0,0:0|0:0,0:0:0:0:
383,169,405458,2,0,P|412:165|441:162,1,58.4999942226413,10|0,0:0|0:0,0:0:0:0:
238,145,405810,1,0,0:0:0:0:
238,145,405927,1,2,1:2:0:0:
238,145,406044,1,2,0:2:0:0:
366,44,406279,2,0,P|395:40|424:37,1,58.4999942226413,2|8,0:2|0:0,0:0:0:0:
441,161,406513,2,0,P|412:165|383:168,1,58.4999942226413,2|0,0:2|0:0,0:0:0:0:
508,222,406747,1,2,0:2:0:0:
508,222,406865,6,2,L|491:351,1,116.999988445283,4|2,1:2|0:2,0:1:0:0:
383,320,407333,1,8,0:2:0:0:
371,328,407450,1,2,0:2:0:0:
267,357,407685,1,2,0:2:0:0:
246,348,407802,1,0,1:2:0:0:
205,340,407919,1,2,0:2:0:0:
79,353,408154,1,2,0:2:0:0:
5,233,408388,1,2,0:2:0:0:
66,75,408622,1,2,0:2:0:0:
66,75,408740,6,2,P|95:128|106:194,1,116.999988445283,4|2,1:2|0:2,0:1:0:0:
8,15,409208,1,10,0:2:0:0:
12,4,409325,1,2,0:0:0:0:
145,12,409560,1,2,0:2:0:0:
256,52,409794,1,2,0:2:0:0:
379,83,410029,1,2,0:2:0:0:
508,70,410263,1,2,0:2:0:0:
473,251,410497,1,2,0:2:0:0:
468,241,410615,6,2,P|452:172|451:109,1,116.999988445283,4|2,1:2|0:2,0:1:0:0:
444,13,411083,1,10,0:2:0:0:
400,8,411200,1,2,0:2:0:0:
310,118,411435,1,2,0:2:0:0:
310,118,411552,2,2,L|294:184,1,58.4999942226413,4|2,1:2|0:2,0:1:0:0:
175,352,411904,1,2,0:0:0:0:
234,240,412138,1,2,0:0:0:0:
377,168,412372,1,2,0:2:0:0:
377,168,412490,5,4,1:2:0:0:
354,299,412724,2,0,P|346:267|342:238,1,58.4999942226413,2|0,0:2|0:0,0:0:0:0:
432,320,412958,2,0,P|440:352|444:381,1,58.4999942226413,10|0,0:2|0:0,0:0:0:0:
302,366,413427,2,0,L|231:357,1,58.4999942226413,2|0,1:2|0:0,0:0:0:0:
154,270,413661,1,2,0:2:0:0:
144,278,413779,2,0,L|73:287,1,58.4999942226413,2|8,0:2|0:0,0:0:0:0:
7,297,414013,1,2,0:2:0:0:
38,49,414247,6,0,B|48:33|70:20|70:20|45:83|41:150,1,175.499982667924,2|2,0:2|0:2,0:0:0:0:
39,227,414833,1,10,0:2:0:0:
39,227,414950,1,2,0:2:0:0:
142,165,415185,1,2,0:2:0:0:
156,147,415302,1,0,1:0:0:0:
161,114,415419,1,2,0:2:0:0:
202,17,415654,1,2,0:2:0:0:
334,0,415888,1,2,0:0:0:0:
334,0,416005,2,0,L|323:71,1,58.4999942226413,2|2,0:2|0:2,0:0:0:0:
498,0,416240,6,2,L|478:128,1,116.999988445283,4|2,1:2|0:2,0:1:0:0:
467,193,416708,1,10,0:2:0:0:
410,40,416943,1,2,0:2:0:0:
255,93,417177,1,2,1:2:0:0:
255,93,417294,2,0,L|266:164,1,58.4999942226413,2|0,0:2|0:0,0:0:0:0:
362,134,417529,2,0,L|373:205,1,58.4999942226413,2|8,0:2|0:0,0:0:0:0:
418,256,417763,1,2,0:2:0:0:
423,270,417880,1,2,0:2:0:0:
427,296,417997,1,2,0:2:0:0:
427,330,418115,6,2,P|380:344|296:351,1,116.999988445283,4|2,1:2|0:2,0:1:0:0:
193,286,418583,2,0,P|240:272|324:265,1,116.999988445283,10|2,0:2|0:0,0:0:0:0:
319,266,418935,1,2,0:2:0:0:
330,273,419052,1,4,1:2:0:0:
332,260,419169,1,0,0:2:0:0:
234,361,419404,2,0,P|200:370|167:373,1,58.4999942226413,2|10,0:2|0:2,0:0:0:0:
63,332,419638,1,0,0:0:0:0:
63,332,419755,2,0,P|97:323|130:320,1,58.4999942226413,2|2,0:2|0:2,0:0:0:0:
256,192,419990,5,6,1:2:0:0:
256,192,420458,1,10,0:0:0:0:
256,192,420927,1,2,1:2:0:0:
170,152,421279,2,0,P|163:188|163:224,1,58.4999942226413,2|8,0:0|0:0,0:0:0:0:
35,199,421513,2,0,P|42:163|42:127,1,58.4999942226413,2|0,0:0|0:0,0:0:0:0:
117,12,421747,6,0,P|181:15|301:36,1,175.499982667924,2|2,0:0|0:0,0:0:0:0:
113,94,422333,1,10,0:0:0:0:
113,94,422450,1,2,0:0:0:0:
305,115,422685,1,2,0:0:0:0:
331,101,422802,1,2,1:2:0:0:
358,76,422919,1,2,0:0:0:0:
481,15,423154,2,0,P|446:17|415:22,1,58.4999942226413,2|8,0:0|0:0,0:0:0:0:
443,102,423388,5,2,0:0:0:0:
453,136,423505,1,2,0:0:0:0:
456,186,423622,2,0,P|434:250|402:306,1,116.999988445283,2|0,0:0|0:0,0:0:0:0:
363,351,423974,1,2,0:2:0:0:
497,293,424208,2,0,P|429:274|380:247,1,116.999988445283,10|2,0:2|0:2,0:0:0:0:
377,243,424560,1,2,0:2:0:0:
358,221,424677,1,2,1:2:0:0:
322,212,424794,1,2,0:2:0:0:
248,300,425029,2,0,P|281:296|316:289,1,58.4999942226413,2|8,0:2|0:0,0:0:0:0:
184,370,425263,5,2,0:2:0:0:
182,362,425380,1,2,0:2:0:0:
179,354,425497,2,0,P|170:318|156:285,1,58.4999942226413,2|4,0:2|1:2,0:0:0:0:
1,195,425849,1,2,0:2:0:0:
209,234,426083,1,10,0:2:0:0:
67,308,426318,1,2,0:2:0:0:
64,287,426435,1,2,0:2:0:0:
64,256,426552,1,4,1:2:0:0:
84,210,426669,1,2,0:0:0:0:
52,80,426904,2,0,P|54:112|61:155,1,58.4999942226413,2|8,0:2|0:0,0:0:0:0:
161,167,427138,2,0,P|164:138|166:108,1,58.4999942226413,2|2,0:2|0:0,0:0:0:0:
125,43,427372,1,2,0:0:0:0:
125,43,427490,1,4,1:2:0:0:
256,192,427724,5,2,0:2:0:0:
256,192,427958,1,10,0:2:0:0:
256,192,428193,1,2,0:2:0:0:
256,192,428427,1,2,1:2:0:0:
209,34,428779,2,0,P|241:47|286:53,1,58.4999942226413,2|8,0:2|0:0,0:0:0:0:
338,19,429013,2,0,P|370:6|415:0,1,58.4999942226413,2|0,0:2|0:0,0:0:0:0:
487,176,429247,6,0,P|479:137|472:-6,1,175.499982667924,2|2,0:2|0:2,0:0:0:0:
394,84,429833,1,10,0:2:0:0:
394,84,429950,1,2,0:2:0:0:
421,233,430185,1,2,0:2:0:0:
410,215,430302,1,0,1:0:0:0:
403,195,430419,1,2,0:0:0:0:
506,257,430654,1,2,0:0:0:0:
336,145,430888,6,0,P|324:176|317:215,1,58.4999942226413,2|0,0:2|0:0,0:0:0:0:
267,337,431122,2,0,P|250:250|219:169,1,175.499982667924,2|2,0:2|0:2,0:0:0:0:
339,280,431708,1,10,0:2:0:0:
339,280,431825,1,2,0:2:0:0:
269,109,432060,1,2,0:2:0:0:
153,221,432294,1,2,0:2:0:0:
166,266,432411,1,2,0:2:0:0:
172,291,432529,1,2,0:2:0:0:
176,311,432646,1,10,0:2:0:0:
178,324,432763,1,2,0:2:0:0:
180,338,432880,1,2,0:2:0:0:
180,346,432997,1,2,0:2:0:0:
180,352,433115,6,2,L|36:343,1,116.999988445283,4|2,1:2|0:2,0:1:0:0:
59,221,433583,2,0,L|203:212,1,116.999988445283,10|2,0:2|0:2,0:0:0:0:
6,283,434052,1,6,1:2:0:0:
6,283,434169,1,2,0:2:0:0:
115,143,434404,1,2,0:2:0:0:
115,143,434521,1,10,0:0:0:0:
0,84,434755,2,0,L|67:78,1,58.4999942226413,2|2,0:2|0:2,0:0:0:0:
256,192,434990,5,6,1:2:0:0:
256,192,435458,1,10,0:0:0:0:
256,192,435927,1,2,1:2:0:0:
378,198,436279,2,0,P|369:159|366:126,1,58.4999942226413,2|8,0:0|0:0,0:0:0:0:
497,119,436513,2,0,P|506:158|509:191,1,58.4999942226413,2|0,0:0|0:0,0:0:0:0:
397,2,436747,6,0,P|330:36|245:119,1,175.499982667924,2|2,0:0|0:0,0:0:0:0:
426,82,437333,1,10,0:2:0:0:
426,82,437450,1,2,0:0:0:0:
455,232,437685,1,2,0:0:0:0:
461,264,437802,1,0,1:0:0:0:
467,297,437919,1,2,0:0:0:0:
357,360,438154,1,2,0:0:0:0:
227,350,438388,1,2,0:0:0:0:
87,372,438622,1,2,0:0:0:0:
87,372,438740,6,2,L|74:252,1,116.999988445283,4|0,1:2|0:2,0:1:0:0:
0,121,439208,1,10,0:2:0:0:
111,134,439443,1,2,0:2:0:0:
103,144,439560,1,2,0:2:0:0:
85,159,439677,1,2,1:2:0:0:
55,179,439794,1,2,0:2:0:0:
4,44,440029,1,2,0:2:0:0:
160,8,440263,1,2,0:2:0:0:
196,16,440380,1,0,0:2:0:0:
231,29,440497,1,2,0:2:0:0:
269,47,440615,6,2,P|265:107|242:183,1,116.999988445283,4|2,1:2|0:0,0:1:0:0:
92,51,441083,1,10,0:0:0:0:
231,29,441318,1,2,0:0:0:0:
269,47,441435,1,2,0:0:0:0:
308,19,441552,1,4,1:2:0:0:
357,39,441669,1,2,0:0:0:0:
494,12,441904,1,2,0:0:0:0:
455,123,442138,1,2,0:0:0:0:
445,106,442255,1,2,0:0:0:0:
447,87,442373,1,2,0:0:0:0:
440,73,442490,1,4,1:2:0:0:
256,192,442724,5,2,0:0:0:0:
256,192,442958,1,10,0:0:0:0:
256,192,443193,1,2,0:0:0:0:
256,192,443427,1,2,1:2:0:0:
151,371,443779,2,0,L|215:363,1,58.4999942226413,2|8,0:0|0:0,0:0:0:0:
198,251,444013,2,0,L|139:258,1,58.4999942226413,2|0,0:0|0:0,0:0:0:0:
344,291,444247,6,0,P|375:233|395:114,1,175.499982667924,2|2,0:0|0:0,0:0:0:0:
264,305,444833,1,10,0:0:0:0:
264,305,444950,1,2,0:0:0:0:
446,272,445185,1,2,0:0:0:0:
460,244,445302,1,0,1:0:0:0:
464,212,445419,1,2,0:0:0:0:
320,364,445654,1,2,0:0:0:0:
499,332,445888,1,2,0:0:0:0:
510,144,446122,1,2,0:0:0:0:
510,144,446240,6,2,P|472:92|423:50,1,116.999988445283,4|0,1:2|0:0,0:1:0:0:
286,1,446708,1,10,0:0:0:0:
117,39,446943,1,0,0:0:0:0:
124,47,447060,1,2,0:0:0:0:
108,73,447177,1,2,1:2:0:0:
136,107,447294,1,2,0:0:0:0:
195,2,447529,2,0,P|215:60|226:125,1,116.999988445283,2|2,0:0|0:0,0:0:0:0:
224,114,447880,2,0,P|233:153|246:187,1,58.4999942226413,2|2,0:0|0:0,0:0:0:0:
61,136,448115,5,4,1:2:0:0:
160,182,448349,1,2,0:0:0:0:
11,226,448583,1,10,0:0:0:0:
110,273,448818,1,2,0:0:0:0:
119,284,448935,1,2,0:0:0:0:
106,324,449052,1,4,1:2:0:0:
60,328,449169,1,2,0:2:0:0:
197,253,449404,1,2,0:0:0:0:
327,372,449638,1,2,0:0:0:0:
322,325,449755,2,0,P|324:288|328:259,1,58.4999942226413,2|2,0:0|0:0,0:0:0:0:
256,192,449990,5,6,1:2:0:0:
256,192,450458,1,10,0:0:0:0:
256,192,450927,1,2,1:2:0:0:
356,125,451279,2,0,P|365:158|381:184,1,58.4999942226413,2|8,0:0|0:0,0:0:0:0:
512,122,451513,2,0,P|503:89|487:63,1,58.4999942226413,2|0,0:0|0:0,0:0:0:0:
361,0,451747,6,0,P|299:38|232:118,1,175.499982667924,2|2,0:0|0:0,0:0:0:0:
413,64,452333,1,10,0:2:0:0:
413,64,452450,1,2,0:0:0:0:
209,17,452685,1,2,0:0:0:0:
190,24,452802,1,0,1:0:0:0:
168,17,452919,1,2,0:0:0:0:
40,95,453154,1,2,0:0:0:0:
23,262,453388,1,2,0:0:0:0:
110,384,453622,1,2,0:0:0:0:
110,384,453740,6,2,P|172:377|233:364,1,116.999988445283,4|0,1:2|0:2,0:1:0:0:
391,259,454208,1,10,0:2:0:0:
279,311,454443,1,2,0:2:0:0:
289,332,454560,1,2,0:2:0:0:
314,360,454677,1,2,1:2:0:0:
329,311,454794,1,2,0:2:0:0:
461,215,455029,1,2,0:2:0:0:
451,341,455263,1,2,0:2:0:0:
432,325,455380,1,0,0:2:0:0:
415,302,455497,1,2,0:2:0:0:
391,259,455615,6,2,P|373:197|366:132,1,116.999988445283,4|2,1:2|0:0,0:1:0:0:
376,2,456083,1,10,0:0:0:0:
512,33,456318,1,2,0:0:0:0:
486,27,456435,1,2,0:0:0:0:
446,57,456552,1,4,1:2:0:0:
406,76,456669,1,2,0:0:0:0:
210,72,456904,2,0,P|268:77|325:68,1,116.999988445283,2|2,0:0|0:0,0:0:0:0:
132,33,457255,2,0,P|130:64|123:101,1,58.4999942226413,2|2,0:0|0:0,0:0:0:0:
77,225,457490,1,4,1:2:0:0:
256,192,457724,5,2,0:0:0:0:
256,192,457958,1,10,0:0:0:0:
256,192,458193,1,2,0:0:0:0:
256,192,458427,1,2,1:2:0:0:
387,177,458779,2,0,P|382:207|379:249,1,58.4999942226413,2|8,0:0|0:0,0:0:0:0:
467,288,459013,2,0,P|472:258|475:216,1,58.4999942226413,2|0,0:0|0:0,0:0:0:0:
494,70,459247,6,0,P|425:41|314:22,1,175.499982667924,2|2,0:0|0:0,0:0:0:0:
465,149,459833,1,10,0:0:0:0:
465,149,459950,1,2,0:0:0:0:
343,102,460185,2,0,L|273:110,1,58.4999942226413,2|0,0:0|1:0,0:0:0:0:
245,37,460419,2,0,L|186:30,1,58.4999942226413,2|0,0:0|0:0,0:0:0:0:
105,22,460654,1,2,0:0:0:0:
15,133,460888,1,2,0:0:0:0:
33,280,461122,1,2,0:0:0:0:
33,280,461240,6,2,L|165:268,1,116.999988445283,4|0,1:2|0:0,0:1:0:0:
90,99,461708,1,10,0:0:0:0:
201,209,461943,1,0,0:0:0:0:
216,223,462060,1,2,0:0:0:0:
225,262,462177,1,2,1:2:0:0:
219,304,462294,1,2,0:0:0:0:
69,198,462529,1,2,0:0:0:0:
146,341,462763,1,2,0:0:0:0:
176,372,462880,1,2,0:0:0:0:
221,384,462997,1,2,0:0:0:0:
273,363,463115,6,2,P|299:310|304:235,1,116.999988445283,4|2,1:0|0:0,0:1:0:0:
259,151,463583,1,10,0:0:0:0:
376,81,463818,1,2,0:0:0:0:
389,90,463935,1,2,0:0:0:0:
423,61,464052,1,4,1:2:0:0:
402,12,464169,1,2,0:2:0:0:
282,15,464404,2,0,L|295:80,1,58.4999942226413,2|10,0:0|0:0,0:0:0:0:
340,159,464638,1,2,0:0:0:0:
340,159,464755,2,0,L|327:224,1,58.4999942226413,0|2,1:0|0:0,0:0:0:0:
256,192,464990,5,6,1:2:0:0:
256,192,465458,1,10,0:0:0:0:
256,192,465927,1,2,1:2:0:0:
134,198,466279,2,0,P|143:159|146:126,1,58.4999942226413,2|8,0:0|0:0,0:0:0:0:
15,119,466513,2,0,P|6:158|3:191,1,58.4999942226413,2|0,0:0|0:0,0:0:0:0:
115,2,466747,6,0,P|182:36|267:119,1,175.499982667924,2|2,0:0|0:0,0:0:0:0:
86,82,467333,1,10,0:2:0:0:
86,82,467450,1,2,0:0:0:0:
57,232,467685,1,2,0:0:0:0:
49,271,467802,1,0,1:0:0:0:
52,314,467919,1,2,0:0:0:0:
162,378,468154,1,2,0:0:0:0:
282,328,468388,1,2,0:0:0:0:
425,372,468622,1,2,0:0:0:0:
425,372,468740,6,2,L|438:252,1,116.999988445283,4|0,1:2|0:2,0:1:0:0:
512,121,469208,1,10,0:2:0:0:
422,148,469443,1,2,0:2:0:0:
430,158,469560,1,2,0:2:0:0:
448,173,469677,1,2,1:2:0:0:
478,193,469794,1,2,0:2:0:0:
508,44,470029,1,2,0:2:0:0:
352,8,470263,1,2,0:2:0:0:
316,16,470380,1,0,0:2:0:0:
281,29,470497,1,2,0:2:0:0:
243,47,470615,6,2,P|244:106|262:184,1,116.999988445283,4|2,1:2|0:0,0:1:0:0:
420,51,471083,1,10,0:0:0:0:
357,193,471318,1,2,0:0:0:0:
336,194,471435,1,2,0:0:0:0:
330,145,471552,1,4,1:2:0:0:
350,112,471669,1,2,0:0:0:0:
168,178,471904,1,2,0:0:0:0:
141,31,472138,1,2,0:0:0:0:
131,48,472255,1,2,0:0:0:0:
133,67,472373,1,2,0:0:0:0:
117,114,472490,1,4,1:2:0:0:
256,192,472724,5,2,0:0:0:0:
256,192,472958,1,10,0:0:0:0:
256,192,473193,1,2,0:0:0:0:
256,192,473427,1,2,1:2:0:0:
361,371,473779,2,0,L|297:363,1,58.4999942226413,2|8,0:0|0:0,0:0:0:0:
314,251,474013,2,0,L|373:258,1,58.4999942226413,2|0,0:0|0:0,0:0:0:0:
168,291,474247,6,0,P|137:233|117:114,1,175.499982667924,2|2,0:0|0:0,0:0:0:0:
248,305,474833,1,10,0:0:0:0:
248,305,474950,1,2,0:0:0:0:
76,271,475185,1,2,0:0:0:0:
56,228,475302,1,0,1:0:0:0:
73,186,475419,1,2,0:0:0:0:
196,363,475654,1,2,0:0:0:0:
0,294,475888,1,2,0:0:0:0:
2,144,476122,1,2,0:0:0:0:
2,144,476240,6,2,P|40:92|89:50,1,116.999988445283,4|0,1:2|0:0,0:1:0:0:
226,1,476708,1,10,0:0:0:0:
182,115,476943,1,0,0:0:0:0:
175,107,477060,1,2,0:0:0:0:
191,81,477177,1,2,1:2:0:0:
163,47,477294,1,2,0:0:0:0:
317,2,477529,2,0,P|297:60|286:125,1,116.999988445283,2|2,0:0|0:0,0:0:0:0:
329,133,477880,1,2,0:0:0:0:
367,143,477997,1,2,0:0:0:0:
420,134,478115,5,4,1:2:0:0:
504,21,478349,1,2,0:0:0:0:
376,66,478583,1,10,0:0:0:0:
388,219,478818,1,2,0:0:0:0:
396,232,478935,1,2,0:0:0:0:
422,219,479052,1,4,1:2:0:0:
468,223,479169,1,2,0:2:0:0:
317,254,479404,1,2,0:0:0:0:
185,372,479638,1,2,0:0:0:0:
190,325,479755,2,0,P|188:288|184:259,1,58.4999942226413,2|2,0:0|0:0,0:0:0:0:
256,192,479990,5,6,1:2:0:0:
256,192,480458,1,10,0:0:0:0:
256,192,480927,1,2,1:2:0:0:
156,125,481279,2,0,P|147:158|131:184,1,58.4999942226413,2|8,0:0|0:0,0:0:0:0:
0,122,481513,2,0,P|9:89|25:63,1,58.4999942226413,2|0,0:0|0:0,0:0:0:0:
151,0,481747,6,0,P|213:38|280:118,1,175.499982667924,2|2,0:0|0:0,0:0:0:0:
99,64,482333,1,10,0:2:0:0:
99,64,482450,1,2,0:0:0:0:
310,17,482685,1,2,0:0:0:0:
322,22,482802,1,0,1:0:0:0:
375,14,482919,1,2,0:0:0:0:
507,139,483154,1,2,0:0:0:0:
512,295,483388,1,2,0:0:0:0:
402,384,483622,1,2,0:0:0:0:
402,384,483740,6,2,P|340:377|279:364,1,116.999988445283,4|0,1:2|0:2,0:1:0:0:
120,266,484208,1,10,0:2:0:0:
199,269,484443,1,2,0:2:0:0:
205,290,484560,1,2,0:2:0:0:
183,323,484677,1,2,1:2:0:0:
142,345,484794,1,2,0:2:0:0:
36,212,485029,1,2,0:2:0:0:
35,321,485263,1,2,0:2:0:0:
60,313,485380,1,0,0:2:0:0:
86,289,485497,1,2,0:2:0:0:
120,266,485615,6,2,P|138:204|145:139,1,116.999988445283,4|2,1:2|0:0,0:1:0:0:
136,2,486083,1,10,0:0:0:0:
0,33,486318,1,2,0:0:0:0:
26,27,486435,1,2,0:0:0:0:
72,50,486552,1,4,1:2:0:0:
63,99,486669,1,2,0:0:0:0:
275,82,486904,2,0,P|217:87|160:78,1,116.999988445283,2|2,0:0|0:0,0:0:0:0:
359,15,487255,2,0,P|361:46|368:83,1,58.4999942226413,2|2,0:0|0:0,0:0:0:0:
407,234,487490,1,4,1:2:0:0:
256,192,487724,5,2,0:0:0:0:
256,192,487958,1,10,0:0:0:0:
256,192,488193,1,2,0:0:0:0:
256,192,488427,1,2,1:2:0:0:
125,177,488779,2,0,P|130:207|133:249,1,58.4999942226413,2|8,0:0|0:0,0:0:0:0:
45,288,489013,2,0,P|40:258|37:216,1,58.4999942226413,2|0,0:0|0:0,0:0:0:0:
18,70,489247,6,0,P|87:41|198:22,1,175.499982667924,2|2,0:0|0:0,0:0:0:0:
47,149,489833,1,10,0:0:0:0:
47,149,489950,1,2,0:0:0:0:
169,102,490185,2,0,L|239:110,1,58.4999942226413,2|0,0:0|1:0,0:0:0:0:
267,37,490419,2,0,L|325:30,1,58.4999942226413,2|0,0:0|0:0,0:0:0:0:
185,22,490654,1,2,0:0:0:0:
415,37,490888,1,2,0:0:0:0:
484,241,491122,1,2,0:0:0:0:
484,241,491240,6,2,L|352:229,1,116.999988445283,4|0,1:2|0:0,0:1:0:0:
485,84,491708,1,10,0:0:0:0:
307,172,491943,1,0,0:0:0:0:
297,187,492060,1,2,0:0:0:0:
286,239,492177,1,2,1:2:0:0:
308,287,492294,1,2,0:0:0:0:
453,158,492529,1,2,0:0:0:0:
381,329,492763,1,2,0:0:0:0:
351,360,492880,1,2,0:0:0:0:
306,372,492997,1,2,0:0:0:0:
254,351,493115,6,2,B|224:343|224:343|200:232,1,116.999988445283,4|2,1:0|0:0,0:1:0:0:
171,99,493583,1,10,0:0:0:0:
93,220,493818,1,2,0:0:0:0:
98,207,493935,1,2,0:0:0:0:
113,157,494052,1,4,1:2:0:0:
89,116,494169,1,2,0:2:0:0:
19,270,494404,2,0,L|6:205,1,58.4999942226413,2|14,0:0|0:0,0:0:0:0:
1,127,494638,1,2,0:0:0:0:
1,127,494755,2,0,L|14:62,1,58.4999942226413,2|2,0:0|0:0,0:0:0:0:
256,192,494990,5,6,1:2:0:0:
256,192,495458,1,10,0:0:0:0:
256,192,495927,1,2,1:2:0:0:
359,128,496278,1,2,0:2:0:0:
359,128,496512,1,2,0:2:0:0:
359,128,496747,2,0,L|374:269,1,107.999994277954,2|2,0:2|0:2,0:0:0:0:
303,268,497333,1,10,0:2:0:0:
303,268,497450,1,2,0:2:0:0:
220,263,497685,1,2,0:2:0:0:
220,263,497802,1,0,1:2:0:0:
220,263,497919,1,2,0:0:0:0:
141,275,498154,1,2,0:0:0:0:
64,259,498388,1,2,0:0:0:0:
15,199,498622,1,2,0:0:0:0:
15,199,498740,6,0,L|22:98,1,71.9999961853028,4|0,1:2|0:0,0:0:0:0:
7,54,499208,1,10,0:0:0:0:
82,24,499443,1,0,0:0:0:0:
82,24,499560,1,0,0:0:0:0:
82,24,499677,1,2,1:2:0:0:
82,24,499794,1,2,0:0:0:0:
159,34,500029,1,2,0:0:0:0:
234,7,500263,1,2,0:0:0:0:
234,7,500380,1,0,0:0:0:0:
234,7,500497,1,0,0:0:0:0:
234,7,500615,6,0,L|320:12,1,71.9999961853028,4|2,1:2|0:0,0:0:0:0:
377,36,501083,1,10,0:0:0:0:
354,116,501318,1,2,0:0:0:0:
354,116,501435,1,2,0:0:0:0:
354,116,501552,1,6,1:2:0:0:
354,116,501669,1,0,0:0:0:0:
382,185,501904,1,2,0:0:0:0:
351,258,502138,1,2,0:0:0:0:
351,258,502255,1,2,0:0:0:0:
351,258,502372,1,2,0:0:0:0:
351,258,502490,1,4,1:2:0:0:
256,192,502724,5,2,0:2:0:0:
256,192,502958,1,10,0:0:0:0:
256,192,503193,1,2,0:2:0:0:
256,192,503427,1,2,1:2:0:0:
229,306,503779,2,0,P|194:324|158:335,1,71.9999961853028,2|2,0:0|0:0,0:0:0:0:
46,362,504247,2,0,P|81:344|162:327,1,107.999994277954,2|2,0:0|0:0,0:0:0:0:
265,384,504833,1,10,0:0:0:0:
265,384,504950,1,2,0:0:0:0:
315,325,505185,1,2,0:0:0:0:
315,325,505302,1,2,1:2:0:0:
315,325,505419,1,2,0:0:0:0:
389,315,505654,1,2,0:0:0:0:
434,253,505888,1,2,0:0:0:0:
506,223,506122,1,2,0:0:0:0:
506,223,506240,6,0,L|501:133,1,71.9999961853028,4|0,1:2|0:0,0:0:0:0:
470,84,506708,1,10,0:0:0:0:
396,116,506943,1,2,0:0:0:0:
396,116,507060,1,0,0:0:0:0:
396,116,507177,1,0,1:2:0:0:
396,116,507294,1,2,0:0:0:0:
311,107,507529,1,2,0:0:0:0:
237,139,507764,1,2,0:0:0:0:
237,139,507881,1,2,0:0:0:0:
237,139,507998,1,2,0:0:0:0:
237,139,508115,6,0,L|138:133,1,71.9999961853028,4|2,1:2|0:0,0:0:0:0:
91,153,508583,1,10,0:0:0:0:
55,232,508818,1,0,0:0:0:0:
55,232,508935,1,0,0:0:0:0:
55,232,509052,1,4,1:2:0:0:
55,232,509169,2,0,L|63:317,1,71.9999961853028,0|2,0:0|0:0,0:0:0:0:
133,360,509638,1,2,0:0:0:0:
133,360,509755,2,0,L|184:353,1,35.9999980926514,2|2,0:0|0:0,0:0:0:0:
256,192,509990,5,4,1:0:0:0:
256,192,510458,1,10,0:0:0:0:
256,192,510927,1,2,1:2:0:0:
397,238,511279,1,2,0:2:0:0:
397,238,511513,1,2,0:2:0:0:
397,238,511747,2,0,L|388:354,1,107.999994277954,2|2,0:2|0:2,0:0:0:0:
467,379,512333,1,10,0:2:0:0:
467,379,512450,1,2,0:2:0:0:
508,315,512685,1,2,0:2:0:0:
508,315,512802,1,0,1:2:0:0:
508,315,512919,1,2,0:0:0:0:
479,238,513154,1,2,0:0:0:0:
511,170,513388,1,2,0:0:0:0:
493,95,513622,1,2,0:0:0:0:
493,95,513740,6,0,L|402:89,1,71.9999961853028,4|0,1:2|0:0,0:0:0:0:
354,57,514208,1,10,0:0:0:0:
282,86,514443,1,0,0:0:0:0:
282,86,514560,1,0,0:0:0:0:
282,86,514677,1,2,1:2:0:0:
282,86,514794,1,2,0:0:0:0:
197,71,515029,1,2,0:0:0:0:
123,96,515263,1,2,0:0:0:0:
123,96,515380,1,0,0:0:0:0:
123,96,515497,1,0,0:0:0:0:
123,96,515615,6,0,L|32:92,1,71.9999961853028,4|2,1:2|0:0,0:0:0:0:
0,150,516083,1,10,0:0:0:0:
27,236,516318,1,2,0:0:0:0:
27,236,516435,1,2,0:0:0:0:
27,236,516552,1,6,1:2:0:0:
27,236,516669,1,0,0:0:0:0:
11,313,516904,1,2,0:0:0:0:
73,380,517138,1,2,0:0:0:0:
73,380,517255,1,2,0:0:0:0:
73,380,517372,1,2,0:0:0:0:
73,380,517490,1,4,1:2:0:0:
256,192,517724,5,2,0:2:0:0:
256,192,517958,1,10,0:0:0:0:
256,192,518193,1,2,0:2:0:0:
256,192,518427,1,2,1:2:0:0:
380,255,518779,2,0,P|425:251|456:239,1,71.9999961853028,2|2,0:0|0:0,0:0:0:0:
436,124,519247,2,0,P|438:172|476:250,1,107.999994277954,2|2,0:0|0:0,0:0:0:0:
362,176,519833,1,10,0:0:0:0:
362,176,519950,1,2,0:0:0:0:
364,98,520185,1,2,0:0:0:0:
364,98,520302,1,2,1:2:0:0:
364,98,520419,1,2,0:0:0:0:
305,39,520654,1,2,0:0:0:0:
228,36,520888,1,2,0:0:0:0:
174,92,521122,1,2,0:0:0:0:
174,92,521240,6,0,L|84:100,1,71.9999961853028,4|0,1:2|0:0,0:0:0:0:
29,106,521708,1,10,0:0:0:0:
84,180,521943,1,2,0:0:0:0:
84,180,522060,1,0,0:0:0:0:
84,180,522177,1,0,1:0:0:0:
84,180,522294,1,2,0:0:0:0:
94,254,522529,1,2,0:0:0:0:
149,328,522764,1,2,0:0:0:0:
149,328,522881,1,2,0:0:0:0:
149,328,522998,1,2,0:0:0:0:
149,328,523115,6,0,P|213:312|281:273,1,143.999992370606,4|10,1:2|0:0,0:0:0:0:
330,217,523818,1,0,0:0:0:0:
330,217,523935,1,0,0:0:0:0:
330,217,524052,1,4,1:2:0:0:
330,217,524169,2,0,P|352:175|355:134,1,71.9999961853028,0|2,0:0|0:0,0:0:0:0:
355,151,524521,1,0,1:0:0:0:
348,79,524755,1,2,0:0:0:0:
256,192,524990,5,4,1:0:0:0:
256,192,525458,1,10,0:0:0:0:
256,192,525927,1,2,1:2:0:0:
160,192,526279,1,2,0:0:0:0:
160,192,526513,1,2,0:0:0:0:
160,192,526747,1,2,0:0:0:0:
352,192,527333,1,2,0:0:0:0:
352,192,527450,1,2,0:0:0:0:
352,192,527685,1,2,0:0:0:0:
256,288,528740,5,2,1:2:0:0:
256,96,530615,1,2,1:2:0:0:
256,288,531552,1,2,1:2:0:0:
256,96,532490,1,2,1:2:0:0:
256,192,532724,5,2,0:2:0:0:
256,192,532958,1,10,0:2:0:0:
256,192,533193,1,2,0:2:0:0:
256,192,533427,1,2,1:2:0:0:
160,192,533779,1,2,0:2:0:0:
160,192,534013,1,2,0:2:0:0:
160,192,534247,1,2,0:2:0:0:
352,192,534599,1,2,0:2:0:0:
352,192,534833,1,10,0:2:0:0:
352,192,534950,1,2,0:2:0:0:
352,192,535185,1,2,0:2:0:0:
256,288,536240,5,2,1:2:0:0:
256,96,538115,1,2,1:2:0:0:
256,288,539052,1,2,1:2:0:0:
256,192,539990,5,4,1:0:0:0:
256,192,540458,1,10,0:0:0:0:
256,192,540927,1,2,1:2:0:0:
160,192,541279,1,2,0:0:0:0:
160,192,541513,1,2,0:0:0:0:
160,192,541747,1,2,0:0:0:0:
352,192,542333,1,2,0:0:0:0:
352,192,542450,1,2,0:0:0:0:
352,192,542685,1,2,0:0:0:0:
256,288,543740,5,2,1:2:0:0:
256,96,545615,1,2,1:2:0:0:
256,288,546552,1,2,1:2:0:0:
256,96,547490,1,2,1:2:0:0:
256,192,547724,5,2,0:2:0:0:
256,192,547958,1,10,0:2:0:0:
256,192,548193,1,2,0:2:0:0:
256,192,548427,1,2,1:2:0:0:
160,192,548779,1,2,0:2:0:0:
160,192,549013,1,2,0:2:0:0:
160,192,549247,1,2,0:2:0:0:
352,192,549599,1,2,0:2:0:0:
352,192,549833,1,10,0:2:0:0:
352,192,549950,1,2,0:2:0:0:
352,192,550185,1,2,0:2:0:0:
256,288,551240,5,2,1:2:0:0:
256,96,553115,1,6,1:2:0:0:
256,288,554052,1,2,1:2:0:0:
256,192,554990,5,4,1:2:0:0:
