osu file format v14

[General]
AudioFilename: audio.mp3
AudioLeadIn: 0
PreviewTime: 29990
Countdown: 0
SampleSet: Soft
StackLeniency: 0
Mode: 0
LetterboxInBreaks: 0
WidescreenStoryboard: 1

[Editor]
Bookmarks: 59990,89990,119990,149990,179990,209990,239990,269990,299990,300107,300224,300341,300458,329521,329638,329755,329872,329990,344990,359990,374990,404990,419990,434990,464990,494990,524990,554990
DistanceSpacing: 0.9
BeatDivisor: 4
GridSize: 32
TimelineZoom: 1.9

[Metadata]
Title:Fall in the Dark
TitleUnicode:Fall in the Dark
Artist:Shibayan feat. yana
ArtistUnicode:Shibayan feat. yana
Creator:UberFazz
Version:Extra Stage
Source:東方紅魔郷 ~ the Embodiment of Scarlet Devil.
Tags:ShibayanRecords touhou 東方Project japanese electronic house video game しばやん rumia ルーミア yanaginagi ほおずきみたいに紅い魂 A Soul as Scarlet as a Ground Cherry th6 th06 eosd 2hu ZUN
BeatmapID:3428141
BeatmapSetID:1531566

[Difficulty]
HPDrainRate:3
CircleSize:4
OverallDifficulty:9
ApproachRate:9.5
SliderMultiplier:2.59999990463257
SliderTickRate:1

[Events]
//Background and Video events
0,0,"rumia.jpg",0,0
//Break Periods
2,333940,344465
//Storyboard Layer 0 (Background)
//Storyboard Layer 1 (Fail)
//Storyboard Layer 2 (Pass)
//Storyboard Layer 3 (Foreground)
//Storyboard Layer 4 (Overlay)
//Storyboard Sound Samples

[TimingPoints]
-10,468.75,4,2,1,60,1,0
29990,-33.3333333333333,4,2,1,60,0,0
149990,-28.5714285714286,4,2,1,70,0,0
179990,-33.3333333333333,4,2,1,60,0,0
299990,-50,4,2,1,70,0,1
302450,-83.3333333333333,4,2,1,70,0,1
303036,-50,4,2,1,70,0,1
304560,-45.4545454545455,4,2,1,70,0,1
305380,-50,4,2,1,70,0,1
306552,-38.4615384615385,4,2,1,70,0,1
309365,-50,4,2,1,70,0,1
320615,-33.3333333333333,4,2,1,70,0,1
320966,-50,4,2,1,70,0,1
325771,-100,4,2,1,70,0,1
326240,-66.6666666666667,4,2,1,70,0,1
326943,-57.1428571428571,4,2,1,70,0,1
327646,-50,4,2,1,70,0,1
328349,-44.4444444444445,4,2,1,70,0,1
329990,-33.3333333333333,4,2,1,70,0,0
330107,-33.3333333333333,4,2,1,60,0,0
333740,-33.3333333333333,4,2,1,20,0,0
344990,-33.3333333333333,4,2,1,40,0,0
373115,-33.3333333333333,4,2,1,50,0,0
374990,-33.3333333333333,4,2,1,60,0,0
404990,-28.5714285714286,4,2,1,70,0,0
495107,-33.3333333333333,4,2,1,60,0,0
524990,-33.3333333333333,4,2,1,50,0,0

[Colours]
Combo1 : 255,0,128
Combo2 : 239,231,69
Combo3 : 117,236,123
Combo4 : 255,0,0

[HitObjects]
0,0,29990,5,4,1:0:0:0:
256,192,30224,1,2,0:2:0:0:
256,192,30458,1,8,0:2:0:0:
256,192,30810,5,2,0:2:0:0:
256,192,31044,1,2,0:2:0:0:
256,192,31279,1,2,0:2:0:0:
256,192,31396,1,10,0:2:0:0:
256,192,31865,5,2,1:2:0:0:
256,192,32099,1,2,0:2:0:0:
256,192,32333,1,8,0:2:0:0:
256,192,32685,5,2,0:2:0:0:
256,192,32919,1,2,0:2:0:0:
256,192,33154,1,2,0:2:0:0:
256,192,33271,1,10,0:2:0:0:
256,192,33388,1,0,0:0:0:0:
256,192,33505,1,2,0:0:0:0:
256,192,33622,1,0,0:0:0:0:
256,192,33740,1,2,1:2:0:0:
256,192,33974,1,2,0:2:0:0:
256,192,34208,1,8,0:2:0:0:
256,192,34560,5,2,0:2:0:0:
256,192,34794,1,2,0:2:0:0:
256,192,35029,1,2,0:2:0:0:
256,192,35146,1,10,0:2:0:0:
256,192,35615,5,6,1:2:0:0:
256,192,35849,1,2,0:2:0:0:
256,192,36083,1,10,0:2:0:0:
256,192,36318,1,0,0:0:0:0:
256,192,36435,1,0,0:0:0:0:
256,192,36552,1,6,1:2:0:0:
256,192,37021,5,10,0:2:0:0:
256,192,37490,5,6,1:2:0:0:
256,192,37724,1,2,0:2:0:0:
256,192,37958,1,8,0:2:0:0:
256,192,38310,5,2,0:2:0:0:
256,192,38544,1,2,0:2:0:0:
256,192,38779,1,2,0:2:0:0:
256,192,38896,1,10,0:2:0:0:
256,192,39365,5,2,1:2:0:0:
256,192,39599,1,2,0:2:0:0:
256,192,39833,1,8,0:2:0:0:
256,192,40185,5,2,0:2:0:0:
256,192,40419,1,2,0:2:0:0:
256,192,40654,1,2,0:2:0:0:
256,192,40771,1,10,0:2:0:0:
256,192,40888,1,0,0:0:0:0:
256,192,41005,1,2,0:0:0:0:
256,192,41122,1,0,0:0:0:0:
256,192,41240,1,2,1:2:0:0:
256,192,41474,1,2,0:2:0:0:
256,192,41708,1,8,0:2:0:0:
256,192,42060,5,2,0:2:0:0:
256,192,42294,1,2,0:2:0:0:
256,192,42529,1,2,0:2:0:0:
256,192,42646,1,10,0:2:0:0:
256,192,43115,5,6,1:2:0:0:
256,192,43349,1,2,0:0:0:0:
256,192,43583,1,10,0:2:0:0:
256,192,43818,1,0,0:0:0:0:
256,192,43935,1,0,0:0:0:0:
256,192,44052,1,6,1:2:0:0:
256,192,44404,5,2,0:0:0:0:
256,192,44521,1,8,0:0:0:0:
256,192,44755,1,2,0:0:0:0:
441,82,44990,1,4,1:0:0:0:
256,192,45224,1,2,0:2:0:0:
256,192,45458,1,8,0:2:0:0:
256,192,45810,5,2,0:2:0:0:
256,192,46044,1,2,0:2:0:0:
256,192,46279,1,2,0:2:0:0:
256,192,46396,1,10,0:2:0:0:
256,192,46865,5,2,1:2:0:0:
256,192,47099,1,2,0:2:0:0:
256,192,47333,1,8,0:2:0:0:
256,192,47685,5,2,0:2:0:0:
256,192,47919,1,2,0:2:0:0:
256,192,48154,1,2,0:2:0:0:
256,192,48271,1,10,0:2:0:0:
256,192,48388,1,0,0:0:0:0:
256,192,48505,1,2,0:0:0:0:
256,192,48622,1,0,0:0:0:0:
256,192,48740,1,2,1:2:0:0:
256,192,48974,1,2,0:2:0:0:
256,192,49208,1,8,0:2:0:0:
256,192,49560,5,2,0:2:0:0:
256,192,49794,1,2,0:2:0:0:
256,192,50029,1,2,0:2:0:0:
256,192,50146,1,10,0:2:0:0:
256,192,50615,5,6,1:2:0:0:
256,192,50849,1,2,0:2:0:0:
256,192,51083,1,10,0:2:0:0:
256,192,51318,1,0,0:0:0:0:
256,192,51435,1,0,0:0:0:0:
256,192,51552,1,6,1:2:0:0:
256,192,52021,5,10,0:2:0:0:
256,192,52490,5,6,1:2:0:0:
256,192,52724,1,2,0:2:0:0:
256,192,52958,1,8,0:2:0:0:
256,192,53310,5,2,0:2:0:0:
256,192,53544,1,2,0:2:0:0:
256,192,53779,1,2,0:2:0:0:
256,192,53896,1,10,0:2:0:0:
256,192,54365,5,2,1:2:0:0:
256,192,54599,1,2,0:2:0:0:
256,192,54833,1,8,0:2:0:0:
256,192,55185,5,2,0:2:0:0:
256,192,55419,1,2,0:2:0:0:
256,192,55654,1,2,0:2:0:0:
256,192,55771,1,10,0:2:0:0:
256,192,55888,1,0,0:0:0:0:
256,192,56005,1,2,0:0:0:0:
256,192,56122,1,0,0:0:0:0:
256,192,56240,1,2,1:2:0:0:
256,192,56474,1,2,0:2:0:0:
256,192,56708,1,8,0:2:0:0:
256,192,57060,5,2,0:2:0:0:
256,192,57294,1,2,0:2:0:0:
256,192,57529,1,2,0:2:0:0:
256,192,57646,1,10,0:2:0:0:
256,192,58115,5,6,1:2:0:0:
256,192,58349,1,2,0:0:0:0:
256,192,58583,1,10,0:2:0:0:
256,192,58818,1,0,0:0:0:0:
256,192,58935,1,0,0:0:0:0:
256,192,59052,1,6,1:2:0:0:
256,192,59404,5,2,0:0:0:0:
256,192,59521,1,12,0:0:0:0:
256,192,59755,1,2,0:0:0:0:
386,341,59990,1,6,1:0:0:0:
256,192,60458,5,10,0:2:0:0:
256,192,60927,5,2,1:2:0:0:
256,192,61279,5,2,0:2:0:0:
256,192,61630,5,2,0:2:0:0:
174,272,61865,1,2,1:0:0:0:
256,192,62216,5,2,0:2:0:0:
256,192,62568,5,2,0:2:0:0:
256,192,62802,1,2,1:2:0:0:
256,192,62919,1,0,0:0:0:0:
256,192,63154,1,0,0:0:0:0:
256,192,63271,1,8,0:0:0:0:
256,192,63505,1,0,0:0:0:0:
256,192,63622,1,0,0:0:0:0:
178,110,63740,1,2,1:0:0:0:
256,192,64208,5,10,0:2:0:0:
256,192,64443,1,2,0:2:0:0:
256,192,64911,5,2,0:2:0:0:
256,192,65146,1,10,0:2:0:0:
256,192,65380,1,2,0:2:0:0:
362,97,65615,1,2,1:0:0:0:
256,192,65849,1,2,0:2:0:0:
256,192,66083,1,10,0:2:0:0:
256,192,66318,1,2,0:2:0:0:
256,192,66435,1,0,0:0:0:0:
373,303,66552,1,2,1:0:0:0:
256,192,67021,5,8,0:0:0:0:
173,275,67490,5,2,1:0:0:0:
256,192,67958,5,10,0:2:0:0:
256,192,68427,5,2,1:2:0:0:
256,192,68779,5,2,0:2:0:0:
256,192,69130,5,2,0:2:0:0:
146,92,69365,1,2,1:0:0:0:
256,192,69716,5,2,0:2:0:0:
256,192,70068,5,2,0:2:0:0:
256,192,70302,1,2,1:2:0:0:
256,192,70419,1,0,0:0:0:0:
256,192,70654,1,0,0:0:0:0:
256,192,70771,1,8,0:0:0:0:
256,192,71005,1,2,0:2:0:0:
256,192,71122,1,2,0:2:0:0:
352,86,71240,1,2,1:0:0:0:
256,192,71708,5,10,0:2:0:0:
256,192,71943,1,2,0:2:0:0:
256,192,72411,5,2,0:2:0:0:
256,192,72646,1,10,0:2:0:0:
256,192,72880,1,2,0:2:0:0:
362,306,73115,1,2,1:0:0:0:
256,192,73349,1,2,0:2:0:0:
256,192,73583,1,10,0:2:0:0:
256,192,73818,1,2,0:2:0:0:
256,192,73935,1,0,0:0:0:0:
160,280,74052,1,2,1:0:0:0:
256,192,74521,5,10,0:2:0:0:
101,57,74990,5,6,1:0:0:0:
256,192,75458,5,10,0:2:0:0:
256,192,75927,5,2,1:2:0:0:
256,192,76279,5,2,0:2:0:0:
256,192,76630,5,2,0:2:0:0:
350,107,76865,1,2,1:0:0:0:
256,192,77216,5,2,0:2:0:0:
256,192,77568,5,2,0:2:0:0:
256,192,77802,1,2,1:2:0:0:
256,192,77919,1,0,0:0:0:0:
256,192,78154,1,0,0:0:0:0:
256,192,78271,1,8,0:0:0:0:
256,192,78505,1,2,0:0:0:0:
256,192,78622,1,2,0:0:0:0:
362,317,78740,1,2,1:0:0:0:
256,192,79208,5,10,0:2:0:0:
256,192,79443,1,2,0:2:0:0:
256,192,79911,5,2,0:2:0:0:
256,192,80146,1,10,0:2:0:0:
256,192,80380,1,2,0:2:0:0:
177,334,80615,1,2,1:0:0:0:
256,192,80849,1,2,0:2:0:0:
256,192,81083,1,10,0:2:0:0:
256,192,81318,1,2,0:2:0:0:
256,192,81435,1,0,0:0:0:0:
115,126,81552,1,2,1:0:0:0:
256,192,82021,5,8,0:0:0:0:
312,32,82490,5,2,1:0:0:0:
256,192,82958,5,10,0:2:0:0:
256,192,83427,5,2,1:2:0:0:
256,192,83779,5,2,0:2:0:0:
256,192,84130,5,2,0:2:0:0:
404,243,84365,1,2,1:0:0:0:
256,192,84716,5,2,0:2:0:0:
256,192,85068,5,2,0:2:0:0:
256,192,85302,1,2,1:2:0:0:
256,192,85419,1,0,0:0:0:0:
256,192,85654,1,0,0:0:0:0:
256,192,85771,1,8,0:0:0:0:
256,192,86005,1,2,0:2:0:0:
256,192,86122,1,2,0:2:0:0:
170,321,86240,1,2,1:0:0:0:
256,192,86708,5,10,0:2:0:0:
256,192,86943,1,2,0:2:0:0:
256,192,87411,5,2,0:2:0:0:
256,192,87646,1,10,0:2:0:0:
256,192,87880,1,2,0:2:0:0:
145,38,88115,1,6,1:2:0:0:
256,192,88349,1,2,0:2:0:0:
256,192,88583,1,10,0:2:0:0:
256,192,88818,1,2,0:2:0:0:
256,192,88935,1,0,0:0:0:0:
326,73,89052,1,2,1:0:0:0:
256,192,89404,5,0,0:0:0:0:
256,192,89521,1,10,0:2:0:0:
256,192,89755,1,0,0:0:0:0:
256,192,89990,1,0,1:2:0:0:
256,192,90224,1,2,0:0:0:0:
256,192,90575,5,2,0:0:0:0:
256,192,90810,1,2,0:0:0:0:
256,192,90927,1,2,1:2:0:0:
256,192,91161,1,2,0:0:0:0:
256,192,91396,1,2,1:2:0:0:
256,192,91630,1,2,0:0:0:0:
256,64,91747,1,2,0:1:0:0:
256,192,92099,5,2,0:0:0:0:
256,192,92450,5,2,0:0:0:0:
256,192,92685,1,2,0:0:0:0:
256,192,92802,1,2,1:2:0:0:
256,192,93036,1,2,0:0:0:0:
256,192,93271,1,2,1:2:0:0:
256,192,93388,1,2,0:0:0:0:
256,192,93505,1,2,0:0:0:0:
256,64,93622,1,2,0:1:0:0:
256,192,93974,5,2,0:0:0:0:
256,192,94325,5,2,0:0:0:0:
256,192,94560,1,2,0:0:0:0:
256,192,94677,1,2,1:2:0:0:
256,192,94911,1,2,0:0:0:0:
256,192,95146,1,2,1:2:0:0:
256,192,95380,1,2,0:0:0:0:
256,64,95497,1,2,0:1:0:0:
256,192,95849,5,2,0:0:0:0:
256,192,96200,5,2,0:0:0:0:
256,192,96435,1,2,0:0:0:0:
160,64,96552,1,2,1:0:0:0:
256,192,96786,1,2,0:0:0:0:
352,64,97021,1,2,1:0:0:0:
256,192,97255,1,2,0:0:0:0:
256,64,97372,1,2,0:1:0:0:
256,192,97724,5,2,0:0:0:0:
256,192,98075,5,2,0:0:0:0:
256,192,98310,1,2,0:0:0:0:
256,192,98427,1,2,1:2:0:0:
256,192,98661,1,2,0:0:0:0:
256,192,98896,1,2,1:2:0:0:
256,192,99130,1,2,0:0:0:0:
256,64,99247,1,2,0:1:0:0:
256,192,99599,5,2,0:0:0:0:
256,192,99950,5,2,0:0:0:0:
256,192,100185,1,2,0:0:0:0:
256,192,100302,1,2,1:2:0:0:
256,192,100536,1,2,0:0:0:0:
256,192,100771,1,2,1:2:0:0:
256,192,100888,1,2,0:0:0:0:
256,192,101005,1,2,0:0:0:0:
256,64,101122,1,2,0:1:0:0:
256,192,101474,5,2,0:0:0:0:
256,192,101825,5,2,0:0:0:0:
256,192,102060,1,2,0:0:0:0:
256,192,102177,1,2,1:2:0:0:
256,192,102411,1,2,0:0:0:0:
256,192,102646,1,2,1:2:0:0:
256,192,102880,1,2,0:0:0:0:
256,64,102997,1,2,0:1:0:0:
256,192,103349,5,2,0:0:0:0:
256,192,103700,5,2,0:0:0:0:
256,192,103935,1,2,0:0:0:0:
160,64,104052,1,2,1:0:0:0:
256,192,104286,1,2,0:0:0:0:
352,64,104521,1,2,1:0:0:0:
256,192,104755,1,2,0:0:0:0:
256,64,104872,1,2,0:1:0:0:
256,192,105224,5,2,0:0:0:0:
256,192,105575,5,2,0:0:0:0:
256,192,105810,1,2,0:0:0:0:
256,192,105927,1,2,1:2:0:0:
256,192,106161,1,2,0:0:0:0:
256,192,106396,1,2,1:2:0:0:
256,192,106630,1,2,0:0:0:0:
256,64,106747,1,2,0:1:0:0:
256,192,107099,5,2,0:0:0:0:
256,192,107450,5,2,0:0:0:0:
256,192,107685,1,2,0:0:0:0:
256,192,107802,1,2,1:2:0:0:
256,192,108036,1,2,0:0:0:0:
256,192,108271,1,2,1:2:0:0:
256,192,108388,1,2,0:0:0:0:
256,192,108505,1,2,0:0:0:0:
256,64,108622,1,2,0:1:0:0:
256,192,108974,5,2,0:0:0:0:
256,192,109325,5,2,0:0:0:0:
256,192,109560,1,2,0:0:0:0:
256,192,109677,1,2,1:2:0:0:
256,192,109911,1,2,0:0:0:0:
256,192,110146,1,2,1:2:0:0:
256,192,110380,1,2,0:0:0:0:
256,64,110497,1,2,0:1:0:0:
256,192,110849,5,2,0:0:0:0:
256,192,111200,5,2,0:0:0:0:
256,192,111435,1,2,0:0:0:0:
160,64,111552,1,2,1:0:0:0:
256,192,111786,1,2,0:0:0:0:
352,64,112021,1,2,1:0:0:0:
256,192,112255,1,2,0:0:0:0:
256,64,112372,1,2,0:1:0:0:
256,192,112724,5,2,0:0:0:0:
256,192,113075,5,2,0:0:0:0:
256,192,113310,1,2,0:0:0:0:
160,64,113427,1,2,1:0:0:0:
256,192,113661,1,2,0:0:0:0:
352,64,113896,1,2,1:0:0:0:
256,192,114130,1,2,0:0:0:0:
256,64,114247,1,2,0:1:0:0:
256,192,114599,5,2,0:0:0:0:
256,192,114950,5,2,0:0:0:0:
256,192,115185,1,2,0:0:0:0:
160,64,115302,1,2,1:0:0:0:
256,320,115536,1,2,0:1:0:0:
352,64,115771,1,2,1:0:0:0:
256,192,116005,1,2,0:1:0:0:
256,64,116122,1,2,0:1:0:0:
256,192,116474,5,2,0:0:0:0:
256,192,116825,5,2,0:0:0:0:
256,192,117060,1,2,0:0:0:0:
256,192,117177,1,2,1:2:0:0:
256,320,117411,1,2,0:1:0:0:
256,192,117646,1,2,1:0:0:0:
256,192,117880,1,2,0:1:0:0:
256,64,117997,1,2,0:0:0:0:
256,192,118115,1,4,1:0:0:0:
256,192,118232,12,0,119052,0:0:0:0:
256,192,119286,5,0,1:0:0:0:
256,192,119404,1,8,0:0:0:0:
256,192,119521,1,0,1:0:0:0:
256,192,119755,1,8,0:0:0:0:
121,300,119990,6,2,L|101:92,1,195.000000286102,4|0,1:0|0:0,0:1:0:0:
256,192,120224,1,2,0:0:0:0:
256,192,120458,1,10,0:0:0:0:
256,192,120927,5,2,1:2:0:0:
256,192,121044,1,0,0:0:0:0:
256,192,121279,1,2,0:0:0:0:
256,192,121513,1,2,0:0:0:0:
256,192,121747,1,2,0:0:0:0:
134,37,121865,6,2,L|115:231,1,195.000000286102,4|0,1:2|0:0,0:1:0:0:
256,192,122099,1,2,0:0:0:0:
256,192,122333,1,10,0:0:0:0:
256,192,122450,1,2,0:0:0:0:
256,192,122685,1,2,0:0:0:0:
256,192,122802,1,0,1:0:0:0:
256,192,122919,1,0,0:0:0:0:
256,192,123154,1,2,0:0:0:0:
256,192,123388,1,0,0:0:0:0:
256,192,123622,1,2,0:0:0:0:
416,77,123740,6,2,L|434:271,1,195.000000286102,4|0,1:2|0:0,0:1:0:0:
256,192,123974,1,2,0:0:0:0:
256,192,124208,1,10,0:0:0:0:
256,192,124443,1,0,0:0:0:0:
256,192,124560,1,2,0:0:0:0:
256,192,124911,5,2,0:0:0:0:
256,192,125146,1,10,0:0:0:0:
256,192,125380,1,2,0:0:0:0:
256,192,125497,1,2,0:0:0:0:
389,350,125615,6,2,L|407:155,1,195.000000286102,4|0,1:2|0:0,0:1:0:0:
256,192,125849,1,2,0:0:0:0:
256,192,126083,1,10,0:0:0:0:
256,192,126200,1,2,0:0:0:0:
256,192,126435,1,2,0:0:0:0:
134,303,126552,6,2,L|115:108,1,195.000000286102,4|0,1:2|0:0,0:1:0:0:
256,192,126786,1,2,0:0:0:0:
256,192,127021,1,8,0:0:0:0:
256,192,127255,1,2,0:0:0:0:
256,192,127372,1,0,0:0:0:0:
180,32,127490,6,2,L|161:226,1,195.000000286102,4|0,1:2|0:0,0:1:0:0:
256,192,127724,1,2,0:0:0:0:
256,192,127841,1,2,0:0:0:0:
256,192,127958,1,10,0:0:0:0:
256,192,128427,5,2,1:2:0:0:
256,192,128661,1,0,0:0:0:0:
256,192,128779,1,2,0:0:0:0:
256,192,129013,1,2,0:0:0:0:
256,192,129247,1,2,0:0:0:0:
413,27,129365,6,2,L|431:221,1,195.000000286102,4|0,1:2|0:0,0:1:0:0:
256,192,129599,1,2,0:0:0:0:
256,192,129833,1,10,0:0:0:0:
256,192,129950,1,2,0:0:0:0:
256,192,130185,1,2,0:0:0:0:
256,192,130302,1,0,1:0:0:0:
256,192,130419,1,0,0:0:0:0:
256,192,130654,1,2,0:0:0:0:
256,192,130888,1,0,0:0:0:0:
256,192,131122,1,2,0:0:0:0:
321,375,131240,6,2,L|339:180,1,195.000000286102,4|0,1:2|0:0,0:1:0:0:
256,192,131474,1,2,0:0:0:0:
256,192,131708,1,10,0:0:0:0:
256,192,131943,1,0,0:0:0:0:
256,192,132060,1,2,0:0:0:0:
256,192,132411,5,2,0:0:0:0:
256,192,132646,1,10,0:0:0:0:
256,192,132880,1,0,0:0:0:0:
256,192,132997,1,2,0:0:0:0:
180,366,133115,6,2,L|161:171,1,195.000000286102,4|0,1:2|0:0,0:1:0:0:
256,192,133349,1,2,0:0:0:0:
256,192,133583,1,10,0:0:0:0:
256,192,133700,1,2,0:0:0:0:
256,192,133935,1,2,0:0:0:0:
171,92,134052,6,2,L|152:286,1,195.000000286102,4|0,1:2|0:0,0:1:0:0:
256,192,134286,1,2,0:0:0:0:
256,192,134521,1,10,0:0:0:0:
256,192,134755,1,0,0:0:0:0:
256,192,134872,1,0,0:0:0:0:
452,37,134990,6,2,L|470:231,1,195.000000286102,4|0,1:2|0:0,0:1:0:0:
256,192,135224,1,2,0:0:0:0:
256,192,135341,1,2,0:0:0:0:
256,192,135458,1,10,0:0:0:0:
256,192,135927,5,2,1:2:0:0:
256,192,136161,1,2,0:0:0:0:
256,192,136279,1,2,0:0:0:0:
256,192,136513,1,2,0:0:0:0:
256,192,136747,1,2,0:0:0:0:
387,301,136865,6,2,L|372:104,1,195.000000286102,4|0,1:2|0:0,0:1:0:0:
256,192,137099,1,2,0:0:0:0:
256,192,137333,1,10,0:0:0:0:
256,192,137450,1,2,0:0:0:0:
256,192,137685,1,0,0:0:0:0:
256,192,137802,1,0,1:0:0:0:
256,192,137919,1,0,0:0:0:0:
256,192,138154,1,2,0:0:0:0:
256,192,138388,1,0,0:0:0:0:
256,192,138622,1,2,0:0:0:0:
169,281,138740,6,2,L|183:84,1,195.000000286102,4|0,1:2|0:0,0:1:0:0:
256,192,138974,1,2,0:0:0:0:
256,192,139208,1,10,0:0:0:0:
256,192,139443,1,0,0:0:0:0:
256,192,139560,1,2,0:0:0:0:
256,192,139911,5,2,0:0:0:0:
256,192,140146,1,10,0:0:0:0:
256,192,140380,1,0,0:0:0:0:
256,192,140497,1,2,0:0:0:0:
117,52,140615,6,2,L|131:246,1,195.000000286102,4|0,1:2|0:0,0:1:0:0:
256,192,140849,1,2,0:0:0:0:
256,192,141083,1,10,0:0:0:0:
256,192,141200,1,2,0:0:0:0:
256,192,141435,1,2,0:0:0:0:
341,112,141552,6,2,L|326:306,1,195.000000286102,4|0,1:2|0:0,0:1:0:0:
256,192,141786,1,2,0:0:0:0:
256,192,142021,1,10,0:0:0:0:
256,192,142255,1,2,0:0:0:0:
450,364,142490,6,2,L|435:169,1,195.000000286102,4|0,1:2|0:0,0:1:0:0:
256,192,142724,1,2,0:0:0:0:
256,192,142958,1,10,0:0:0:0:
256,192,143427,5,2,1:2:0:0:
256,192,143661,1,2,0:0:0:0:
256,192,143779,1,2,0:0:0:0:
256,192,144013,1,2,0:0:0:0:
256,192,144247,1,2,0:0:0:0:
85,323,144365,6,2,L|99:128,1,195.000000286102,4|0,1:2|0:0,0:1:0:0:
256,192,144599,1,2,0:0:0:0:
256,192,144833,1,10,0:0:0:0:
256,192,144950,1,2,0:0:0:0:
256,192,145185,1,2,0:0:0:0:
256,192,145302,1,0,1:0:0:0:
256,192,145419,1,0,0:0:0:0:
256,192,145654,1,2,0:0:0:0:
256,192,145888,1,0,0:0:0:0:
256,192,146122,1,2,0:0:0:0:
143,89,146240,6,2,L|157:283,1,195.000000286102,4|0,1:2|0:0,0:1:0:0:
256,192,146474,1,2,0:0:0:0:
256,192,146708,1,10,0:0:0:0:
256,192,146943,1,0,0:0:0:0:
256,192,147060,1,2,0:0:0:0:
256,192,147411,5,2,0:0:0:0:
256,192,147646,1,10,0:0:0:0:
256,192,147880,1,0,0:0:0:0:
256,192,147997,1,2,0:0:0:0:
354,11,148115,6,2,L|339:205,1,195.000000286102,4|0,1:2|0:0,0:1:0:0:
256,192,148349,1,2,0:0:0:0:
256,192,148583,1,10,0:0:0:0:
256,192,148700,1,2,0:0:0:0:
256,192,148818,1,2,0:0:0:0:
256,192,148935,1,2,0:0:0:0:
355,281,149052,6,2,L|340:86,1,195.000000286102,4|0,1:2|0:0,0:1:0:0:
256,192,149286,1,2,0:0:0:0:
256,192,149521,1,14,0:0:0:0:
256,192,149755,1,2,0:0:0:0:
454,369,149990,6,2,P|454:257|492:150,1,227.499993824959,6|0,1:0|0:0,0:1:0:0:
256,192,150224,1,2,0:0:0:0:
256,192,150458,1,10,0:0:0:0:
256,192,150927,5,2,1:2:0:0:
256,192,151044,1,0,0:2:0:0:
256,192,151279,1,2,0:2:0:0:
256,192,151513,1,2,0:2:0:0:
256,192,151747,1,2,0:2:0:0:
71,327,151865,6,2,P|111:221|45:113,1,227.499993824959,4|0,1:2|0:2,0:1:0:0:
256,192,152099,1,2,0:2:0:0:
256,192,152333,1,8,0:2:0:0:
256,192,152450,1,2,0:2:0:0:
256,192,152685,1,2,0:2:0:0:
256,192,152802,1,0,1:2:0:0:
256,192,152919,1,2,0:2:0:0:
256,192,153154,1,2,0:2:0:0:
256,192,153388,1,2,0:2:0:0:
256,192,153622,1,2,0:2:0:0:
134,102,153740,6,2,P|153:220|114:329,1,227.499993824959,4|0,1:2|0:2,0:1:0:0:
256,192,153974,1,2,0:2:0:0:
256,192,154208,1,10,0:2:0:0:
256,192,154443,1,2,0:2:0:0:
256,192,154560,1,2,0:2:0:0:
256,192,154677,1,2,1:2:0:0:
256,192,154794,1,2,0:2:0:0:
256,192,155029,1,2,0:2:0:0:
256,192,155263,1,2,0:2:0:0:
256,192,155380,1,2,0:2:0:0:
256,192,155497,1,2,0:2:0:0:
383,42,155615,6,2,P|387:163|419:277,1,227.499993824959,4|0,1:2|0:2,0:1:0:0:
256,192,155849,1,2,0:2:0:0:
256,192,156083,1,10,0:2:0:0:
256,192,156200,1,2,0:0:0:0:
256,192,156318,1,2,0:0:0:0:
256,192,156435,1,2,0:2:0:0:
214,47,156552,6,2,P|164:111|45:57,1,227.499993824959,4|0,1:2|0:2,0:1:0:0:
256,192,156786,1,2,0:2:0:0:
256,192,156904,1,2,0:2:0:0:
256,192,157138,1,2,0:0:0:0:
256,192,157255,1,2,0:2:0:0:
256,192,157372,1,2,0:2:0:0:
363,335,157490,6,2,P|259:306|127:328,1,227.499993824959,4|0,1:2|0:2,0:1:0:0:
256,192,157724,1,2,0:2:0:0:
256,192,157841,1,2,0:2:0:0:
256,192,157958,1,10,0:2:0:0:
256,192,158427,5,2,1:2:0:0:
256,192,158661,1,2,0:2:0:0:
256,192,158779,1,2,0:2:0:0:
256,192,159013,1,2,0:2:0:0:
256,192,159247,1,2,0:2:0:0:
143,287,159365,6,2,P|150:179|87:70,1,227.499993824959,4|0,1:2|0:2,0:1:0:0:
256,192,159599,1,2,0:2:0:0:
256,192,159833,1,10,0:2:0:0:
256,192,159950,1,2,0:2:0:0:
256,192,160185,1,2,0:2:0:0:
256,192,160302,1,0,1:0:0:0:
256,192,160419,1,2,0:2:0:0:
256,192,160654,1,2,0:2:0:0:
256,192,160888,1,2,0:2:0:0:
256,192,161122,1,2,0:2:0:0:
252,36,161240,6,2,P|322:104|447:119,1,227.499993824959,4|0,1:2|0:2,0:1:0:0:
256,192,161474,1,2,0:2:0:0:
256,192,161708,1,10,0:2:0:0:
256,192,161942,1,2,0:2:0:0:
256,192,162060,1,2,0:2:0:0:
256,192,162177,1,2,1:2:0:0:
256,192,162294,1,2,0:2:0:0:
256,192,162529,1,2,0:2:0:0:
256,192,162763,1,2,0:2:0:0:
256,192,162880,1,2,0:2:0:0:
256,192,162997,1,2,0:2:0:0:
68,80,163115,6,2,P|190:71|299:25,1,227.499993824959,4|0,1:2|0:2,0:1:0:0:
256,192,163349,1,2,0:2:0:0:
256,192,163583,1,10,0:2:0:0:
256,192,163700,1,2,0:0:0:0:
256,192,163818,1,2,0:0:0:0:
256,192,163935,1,2,0:2:0:0:
183,354,164052,6,2,P|155:263|67:326,1,227.499993824959,4|0,1:2|0:2,0:1:0:0:
256,192,164286,1,2,0:2:0:0:
256,192,164404,1,2,0:2:0:0:
256,192,164638,1,2,0:0:0:0:
256,192,164755,1,2,0:2:0:0:
256,192,164872,1,2,0:2:0:0:
391,361,164990,6,2,P|431:259|502:147,1,227.499993824959,4|0,1:2|0:2,0:1:0:0:
256,192,165224,1,2,0:2:0:0:
256,192,165458,1,10,0:2:0:0:
256,192,165927,5,2,1:2:0:0:
256,192,166044,1,2,0:2:0:0:
256,192,166161,1,0,0:2:0:0:
256,192,166279,1,2,0:2:0:0:
256,192,166513,1,2,0:2:0:0:
256,192,166747,1,2,0:2:0:0:
311,5,166865,6,2,P|359:88|462:169,1,227.499993824959,4|0,1:2|0:2,0:1:0:0:
256,192,167099,1,2,0:2:0:0:
256,192,167333,1,10,0:2:0:0:
256,192,167450,1,2,0:2:0:0:
256,192,167685,1,2,0:2:0:0:
256,192,167802,1,0,1:2:0:0:
256,192,167919,1,2,0:2:0:0:
256,192,168154,1,2,0:2:0:0:
256,192,168388,1,2,0:2:0:0:
256,192,168622,1,2,0:2:0:0:
160,25,168740,6,2,P|141:124|78:256,1,227.499993824959,4|0,1:2|0:2,0:1:0:0:
256,192,168974,1,2,0:2:0:0:
256,192,169208,1,10,0:2:0:0:
256,192,169325,1,2,0:2:0:0:
256,192,169560,1,2,0:2:0:0:
256,192,169794,1,2,0:2:0:0:
256,192,170029,1,2,0:2:0:0:
256,192,170263,1,2,0:2:0:0:
256,192,170497,1,2,0:2:0:0:
305,362,170615,6,2,P|357:279|463:173,1,227.499993824959,4|0,1:2|0:2,0:1:0:0:
256,192,170849,1,2,0:2:0:0:
256,192,171083,1,10,0:2:0:0:
256,192,171318,1,2,0:2:0:0:
256,192,171435,1,2,0:2:0:0:
190,349,171552,6,2,P|173:263|42:223,1,227.499993824959,6|2,1:2|0:2,0:1:0:0:
256,192,171786,1,0,0:2:0:0:
256,192,171904,1,2,0:2:0:0:
256,192,172138,1,2,0:2:0:0:
256,192,172255,1,0,0:2:0:0:
256,192,172372,1,2,0:2:0:0:
303,28,172490,6,2,P|374:122|472:202,1,227.499993824959,4|0,1:2|0:2,0:1:0:0:
256,192,172724,1,2,0:2:0:0:
256,192,172958,1,10,0:2:0:0:
256,192,173427,5,2,1:2:0:0:
256,192,173661,1,2,0:2:0:0:
256,192,173779,1,2,0:2:0:0:
256,192,174013,1,2,0:2:0:0:
256,192,174247,1,2,0:2:0:0:
192,17,174365,6,2,P|159:104|30:110,1,227.499993824959,4|0,1:2|0:2,0:1:0:0:
256,192,174599,1,2,0:2:0:0:
256,192,174833,1,10,0:2:0:0:
256,192,174950,1,2,0:2:0:0:
256,192,175185,1,2,0:2:0:0:
256,192,175302,1,2,1:2:0:0:
256,192,175419,1,2,0:2:0:0:
256,192,175654,1,2,0:2:0:0:
256,192,175888,1,2,0:2:0:0:
256,192,176122,1,2,0:2:0:0:
365,20,176240,6,2,P|387:100|454:242,1,227.499993824959,4|0,1:2|0:2,0:1:0:0:
256,192,176474,1,2,0:2:0:0:
256,192,176708,1,10,0:2:0:0:
256,192,176943,1,2,0:2:0:0:
256,192,177060,1,0,0:2:0:0:
256,192,177177,1,2,1:2:0:0:
256,192,177294,1,2,0:2:0:0:
256,192,177529,1,2,0:2:0:0:
256,192,177763,1,2,0:2:0:0:
256,192,177880,1,2,0:2:0:0:
256,192,177997,1,2,0:2:0:0:
351,355,178115,6,2,P|347:270|462:187,1,227.499993824959,4|0,1:2|0:2,0:1:0:0:
256,192,178349,1,2,0:2:0:0:
256,192,178583,1,10,0:2:0:0:
256,192,178818,1,2,0:2:0:0:
256,192,178935,1,2,0:2:0:0:
196,359,179052,6,2,P|142:255|40:255,1,227.499993824959,6|2,1:2|0:2,0:1:0:0:
256,192,179286,1,0,0:0:0:0:
256,192,179404,1,2,0:2:0:0:
256,192,179521,1,8,0:2:0:0:
256,192,179638,1,2,0:2:0:0:
256,192,179755,1,0,1:0:0:0:
256,192,179872,1,0,0:2:0:0:
256,192,179990,1,0,1:2:0:0:
256,192,180224,1,2,0:0:0:0:
256,192,180575,5,2,0:0:0:0:
256,192,180810,1,2,0:0:0:0:
256,192,180927,1,2,1:2:0:0:
256,192,181161,1,2,0:0:0:0:
256,192,181396,1,2,1:2:0:0:
256,192,181630,1,2,0:0:0:0:
256,96,181747,1,2,0:1:0:0:
256,192,182099,5,2,0:0:0:0:
256,192,182450,5,2,0:0:0:0:
256,192,182685,1,2,0:0:0:0:
256,192,182802,1,2,1:2:0:0:
256,192,183036,1,2,0:0:0:0:
256,192,183271,1,2,1:2:0:0:
256,192,183388,1,2,0:0:0:0:
256,192,183505,1,2,0:0:0:0:
256,96,183622,1,2,0:1:0:0:
256,192,183974,5,2,0:0:0:0:
256,192,184325,5,2,0:0:0:0:
256,192,184560,1,2,0:0:0:0:
256,192,184677,1,2,1:2:0:0:
256,192,184911,1,2,0:0:0:0:
256,192,185146,1,2,1:2:0:0:
256,192,185380,1,2,0:0:0:0:
256,96,185497,1,2,0:1:0:0:
256,192,185849,5,2,0:0:0:0:
256,192,186200,5,2,0:0:0:0:
256,192,186435,1,2,0:0:0:0:
160,96,186552,1,2,1:0:0:0:
256,192,186786,1,2,0:0:0:0:
352,96,187021,1,2,1:0:0:0:
256,192,187255,1,2,0:0:0:0:
256,96,187372,1,2,0:1:0:0:
256,192,187724,5,2,0:0:0:0:
256,192,188075,5,2,0:0:0:0:
256,192,188310,1,2,0:0:0:0:
256,192,188427,1,2,1:2:0:0:
256,192,188661,1,2,0:0:0:0:
256,192,188896,1,2,1:2:0:0:
256,192,189130,1,2,0:0:0:0:
256,96,189247,1,2,0:1:0:0:
256,192,189599,5,2,0:0:0:0:
256,192,189950,5,2,0:0:0:0:
256,192,190185,1,2,0:0:0:0:
256,192,190302,1,2,1:2:0:0:
256,192,190536,1,2,0:0:0:0:
256,192,190771,1,2,1:2:0:0:
256,192,190888,1,2,0:0:0:0:
256,192,191005,1,2,0:0:0:0:
256,96,191122,1,2,0:1:0:0:
256,192,191474,5,2,0:0:0:0:
256,192,191825,5,2,0:0:0:0:
256,192,192060,1,2,0:0:0:0:
256,192,192177,1,2,1:2:0:0:
256,192,192411,1,2,0:0:0:0:
256,192,192646,1,2,1:2:0:0:
256,192,192880,1,2,0:0:0:0:
256,96,192997,1,2,0:1:0:0:
256,192,193349,5,2,0:0:0:0:
256,192,193700,5,2,0:0:0:0:
256,192,193935,1,2,0:0:0:0:
160,96,194052,1,2,1:0:0:0:
256,192,194286,1,2,0:0:0:0:
352,96,194521,1,2,1:0:0:0:
256,192,194755,1,2,0:0:0:0:
256,96,194872,1,2,0:1:0:0:
256,192,195224,5,2,0:0:0:0:
256,192,195575,5,2,0:0:0:0:
256,192,195810,1,2,0:0:0:0:
256,192,195927,1,2,1:2:0:0:
256,192,196161,1,2,0:0:0:0:
256,192,196396,1,2,1:2:0:0:
256,192,196630,1,2,0:0:0:0:
256,96,196747,1,2,0:1:0:0:
256,192,197099,5,2,0:0:0:0:
256,192,197450,5,2,0:0:0:0:
256,192,197685,1,2,0:0:0:0:
256,192,197802,1,2,1:2:0:0:
256,192,198036,1,2,0:0:0:0:
256,192,198271,1,2,1:2:0:0:
256,192,198388,1,2,0:0:0:0:
256,192,198505,1,2,0:0:0:0:
256,96,198622,1,2,0:1:0:0:
256,192,198974,5,2,0:0:0:0:
256,192,199325,5,2,0:0:0:0:
256,192,199560,1,2,0:0:0:0:
256,192,199677,1,2,1:2:0:0:
256,192,199911,1,2,0:0:0:0:
256,192,200146,1,2,1:2:0:0:
256,192,200380,1,2,0:0:0:0:
256,96,200497,1,2,0:1:0:0:
256,192,200849,5,2,0:0:0:0:
256,192,201200,5,2,0:0:0:0:
256,192,201435,1,2,0:0:0:0:
160,96,201552,1,2,1:0:0:0:
256,192,201786,1,2,0:0:0:0:
352,96,202021,1,2,1:0:0:0:
256,192,202255,1,2,0:0:0:0:
256,96,202372,1,2,0:1:0:0:
256,192,202724,5,2,0:0:0:0:
256,192,203075,5,2,0:0:0:0:
256,192,203310,1,2,0:0:0:0:
160,96,203427,1,2,1:0:0:0:
256,192,203661,1,2,0:0:0:0:
352,96,203896,1,2,1:0:0:0:
256,192,204130,1,2,0:0:0:0:
256,96,204247,1,2,0:1:0:0:
256,192,204599,5,2,0:0:0:0:
256,192,204950,5,2,0:0:0:0:
256,192,205185,1,2,0:0:0:0:
160,96,205302,1,2,1:0:0:0:
256,0,205536,1,2,0:1:0:0:
352,96,205771,1,2,1:0:0:0:
256,192,206005,1,2,0:1:0:0:
256,96,206122,1,2,0:1:0:0:
256,192,206474,5,2,0:0:0:0:
256,192,206825,5,2,0:0:0:0:
256,192,207060,1,2,0:0:0:0:
256,192,207177,1,2,1:2:0:0:
256,192,207411,1,2,0:1:0:0:
256,192,207646,1,2,1:0:0:0:
256,192,207880,1,2,0:1:0:0:
256,96,207997,1,2,0:0:0:0:
256,192,208115,1,4,1:0:0:0:
256,192,208232,12,0,209052,0:0:0:0:
256,192,209286,5,0,1:0:0:0:
256,192,209404,1,8,0:0:0:0:
256,192,209521,1,0,1:0:0:0:
256,192,209755,1,8,0:0:0:0:
417,118,209990,1,6,1:0:0:0:
256,192,210458,5,10,0:2:0:0:
256,192,210927,5,2,1:2:0:0:
256,192,211279,5,2,0:2:0:0:
256,192,211630,5,2,0:2:0:0:
318,318,211865,1,2,1:0:0:0:
256,192,212216,5,2,0:2:0:0:
256,192,212568,5,2,0:2:0:0:
256,192,212802,1,2,1:2:0:0:
256,192,212919,1,0,0:0:0:0:
256,192,213154,1,0,0:0:0:0:
256,192,213271,1,8,0:0:0:0:
256,192,213505,1,0,0:0:0:0:
256,192,213622,1,0,0:0:0:0:
201,54,213740,1,2,1:0:0:0:
256,192,214208,5,10,0:2:0:0:
256,192,214443,1,2,0:2:0:0:
256,192,214911,5,2,0:2:0:0:
256,192,215146,1,10,0:2:0:0:
256,192,215380,1,2,0:2:0:0:
161,341,215615,1,2,1:0:0:0:
256,192,215849,1,2,0:2:0:0:
256,192,216083,1,10,0:2:0:0:
256,192,216318,1,2,0:2:0:0:
256,192,216435,1,0,0:0:0:0:
368,145,216552,1,2,1:0:0:0:
256,192,217021,5,8,0:0:0:0:
88,237,217490,5,2,1:0:0:0:
256,192,217958,5,10,0:2:0:0:
256,192,218427,5,2,1:2:0:0:
256,192,218779,5,2,0:2:0:0:
256,192,219130,5,2,0:2:0:0:
433,252,219365,1,2,1:0:0:0:
256,192,219716,5,2,0:2:0:0:
256,192,220068,5,2,0:2:0:0:
256,192,220302,1,2,1:2:0:0:
256,192,220419,1,0,0:0:0:0:
256,192,220654,1,0,0:0:0:0:
256,192,220771,1,8,0:0:0:0:
256,192,221005,1,2,0:2:0:0:
256,192,221122,1,2,0:2:0:0:
392,126,221240,1,2,1:0:0:0:
256,192,221708,5,10,0:2:0:0:
256,192,221943,1,2,0:2:0:0:
256,192,222411,5,2,0:2:0:0:
256,192,222646,1,10,0:2:0:0:
256,192,222880,1,2,0:2:0:0:
157,81,223115,1,2,1:0:0:0:
256,192,223349,1,2,0:2:0:0:
256,192,223583,1,10,0:2:0:0:
256,192,223818,1,2,0:2:0:0:
256,192,223935,1,0,0:0:0:0:
135,309,224052,1,2,1:0:0:0:
256,192,224521,5,10,0:2:0:0:
436,336,224990,5,6,1:0:0:0:
256,192,225458,5,10,0:2:0:0:
256,192,225927,5,2,1:2:0:0:
256,192,226279,5,2,0:2:0:0:
256,192,226630,5,2,0:2:0:0:
362,119,226865,1,2,1:0:0:0:
256,192,227216,5,2,0:2:0:0:
256,192,227568,5,2,0:2:0:0:
256,192,227802,1,2,1:2:0:0:
256,192,227919,1,0,0:0:0:0:
256,192,228154,1,0,0:0:0:0:
256,192,228271,1,8,0:0:0:0:
256,192,228505,1,2,0:0:0:0:
256,192,228622,1,2,0:0:0:0:
412,247,228740,1,2,1:0:0:0:
256,192,229208,5,10,0:2:0:0:
256,192,229443,1,2,0:2:0:0:
256,192,229911,5,2,0:2:0:0:
256,192,230146,1,10,0:2:0:0:
256,192,230380,1,2,0:2:0:0:
117,322,230615,1,2,1:0:0:0:
256,192,230849,1,2,0:2:0:0:
256,192,231083,1,10,0:2:0:0:
256,192,231318,1,2,0:2:0:0:
256,192,231435,1,0,0:0:0:0:
152,91,231552,1,2,1:0:0:0:
256,192,232021,5,8,0:0:0:0:
423,29,232490,5,2,1:0:0:0:
256,192,232958,5,10,0:2:0:0:
256,192,233427,5,2,1:2:0:0:
256,192,233779,5,2,0:2:0:0:
256,192,234130,5,2,0:2:0:0:
101,145,234365,1,2,1:0:0:0:
256,192,234716,5,2,0:2:0:0:
256,192,235068,5,2,0:2:0:0:
256,192,235302,1,2,1:2:0:0:
256,192,235419,1,0,0:0:0:0:
256,192,235654,1,0,0:0:0:0:
256,192,235771,1,8,0:0:0:0:
256,192,236005,1,2,0:2:0:0:
256,192,236122,1,2,0:2:0:0:
199,353,236240,1,2,1:0:0:0:
256,192,236708,5,10,0:2:0:0:
256,192,236943,1,2,0:2:0:0:
256,192,237411,5,2,0:2:0:0:
256,192,237646,1,10,0:2:0:0:
256,192,237880,1,2,0:2:0:0:
411,325,238115,1,6,1:0:0:0:
256,192,238349,1,2,0:2:0:0:
256,192,238583,1,10,0:2:0:0:
256,192,238818,1,2,0:2:0:0:
256,192,238935,1,0,0:0:0:0:
326,73,239052,1,2,1:0:0:0:
256,192,239404,5,0,0:0:0:0:
256,192,239521,1,14,0:2:0:0:
256,192,239755,1,0,0:0:0:0:
319,363,239990,1,6,1:0:0:0:
256,192,240224,1,0,0:0:0:0:
256,192,240458,1,10,0:2:0:0:
256,192,240927,5,2,1:2:0:0:
256,192,241279,5,2,0:2:0:0:
256,192,241630,5,2,0:2:0:0:
118,375,241865,1,2,1:0:0:0:
256,192,242216,5,2,0:2:0:0:
256,192,242568,5,2,0:2:0:0:
256,192,242802,1,2,1:2:0:0:
256,192,242919,1,2,0:0:0:0:
256,192,243154,1,2,0:0:0:0:
256,192,243271,1,8,0:0:0:0:
256,192,243505,1,0,0:0:0:0:
256,192,243622,1,0,0:0:0:0:
164,4,243740,1,2,1:0:0:0:
256,192,243974,1,0,0:0:0:0:
256,192,244208,1,10,0:2:0:0:
256,192,244443,1,2,0:2:0:0:
256,192,244911,5,2,0:2:0:0:
256,192,245146,1,10,0:2:0:0:
256,192,245380,1,2,0:2:0:0:
28,278,245615,1,2,1:0:0:0:
256,192,245849,1,2,0:2:0:0:
256,192,246083,1,10,0:2:0:0:
256,192,246318,1,2,0:2:0:0:
256,192,246435,1,0,0:0:0:0:
482,289,246552,1,2,1:0:0:0:
256,192,246786,1,0,0:0:0:0:
256,192,247021,1,8,0:0:0:0:
412,24,247490,5,2,1:0:0:0:
256,192,247724,1,0,0:0:0:0:
256,192,247958,1,10,0:2:0:0:
256,192,248427,5,2,1:2:0:0:
256,192,248779,5,2,0:2:0:0:
256,192,249130,5,2,0:2:0:0:
22,134,249365,1,2,1:0:0:0:
256,192,249716,5,2,0:2:0:0:
256,192,250068,5,2,0:2:0:0:
256,192,250302,1,2,1:2:0:0:
256,192,250419,1,2,0:0:0:0:
256,192,250654,1,2,0:0:0:0:
256,192,250771,1,8,0:0:0:0:
256,192,251005,1,2,0:2:0:0:
256,192,251122,1,2,0:2:0:0:
205,372,251240,1,2,1:0:0:0:
256,192,251474,1,0,0:0:0:0:
256,192,251708,1,10,0:2:0:0:
256,192,251943,1,2,0:2:0:0:
256,192,252411,5,2,0:2:0:0:
256,192,252646,1,10,0:2:0:0:
256,192,252880,1,2,0:2:0:0:
421,23,253115,1,2,1:0:0:0:
256,192,253349,1,2,0:2:0:0:
256,192,253583,1,10,0:2:0:0:
256,192,253818,1,2,0:2:0:0:
256,192,253935,1,0,0:0:0:0:
68,253,254052,1,2,1:0:0:0:
256,192,254286,1,0,0:0:0:0:
256,192,254521,1,10,0:2:0:0:
100,5,254990,5,6,1:0:0:0:
256,192,255224,1,0,0:0:0:0:
256,192,255458,1,10,0:2:0:0:
256,192,255927,5,2,1:2:0:0:
256,192,256279,5,2,0:2:0:0:
256,192,256630,5,2,0:2:0:0:
483,262,256865,1,2,1:0:0:0:
256,192,257216,5,2,0:2:0:0:
256,192,257568,5,2,0:2:0:0:
256,192,257802,1,2,1:2:0:0:
256,192,257919,1,2,0:0:0:0:
256,192,258154,1,2,0:0:0:0:
256,192,258271,1,8,0:0:0:0:
256,192,258505,1,2,0:0:0:0:
256,192,258622,1,2,0:0:0:0:
347,362,258740,1,2,1:0:0:0:
256,192,258974,1,0,0:0:0:0:
256,192,259208,1,10,0:2:0:0:
256,192,259443,1,2,0:2:0:0:
256,192,259911,5,2,0:2:0:0:
256,192,260146,1,10,0:2:0:0:
256,192,260380,1,2,0:2:0:0:
108,373,260615,1,2,1:0:0:0:
256,192,260849,1,2,0:2:0:0:
256,192,261083,1,10,0:2:0:0:
256,192,261318,1,2,0:2:0:0:
256,192,261435,1,0,0:0:0:0:
322,25,261552,1,2,1:0:0:0:
256,192,261786,1,0,0:0:0:0:
256,192,262021,1,8,0:0:0:0:
110,9,262490,5,2,1:0:0:0:
256,192,262724,1,0,0:0:0:0:
256,192,262958,1,10,0:2:0:0:
256,192,263427,5,2,1:2:0:0:
256,192,263779,5,2,0:2:0:0:
256,192,264130,5,2,0:2:0:0:
48,247,264365,1,2,1:0:0:0:
256,192,264716,5,2,0:2:0:0:
256,192,265068,5,2,0:2:0:0:
256,192,265302,1,2,1:2:0:0:
256,192,265419,1,2,0:0:0:0:
256,192,265654,1,2,0:0:0:0:
256,192,265771,1,8,0:0:0:0:
256,192,266005,1,2,0:2:0:0:
256,192,266122,1,2,0:2:0:0:
393,312,266240,1,2,1:0:0:0:
256,192,266474,1,0,0:0:0:0:
256,192,266708,1,10,0:2:0:0:
256,192,266943,1,2,0:2:0:0:
256,192,267411,5,2,0:2:0:0:
256,192,267646,1,10,0:2:0:0:
256,192,267880,1,2,0:2:0:0:
110,365,268115,1,6,1:0:0:0:
256,192,268349,1,2,0:2:0:0:
256,192,268583,1,10,0:2:0:0:
256,192,268818,1,2,0:2:0:0:
256,192,268935,1,0,0:0:0:0:
404,9,269052,1,2,1:0:0:0:
256,192,269404,5,0,0:0:0:0:
256,192,269521,1,14,0:2:0:0:
256,192,269755,1,0,0:0:0:0:
256,192,269990,1,0,1:2:0:0:
256,192,270224,1,2,0:0:0:0:
256,192,270575,5,2,0:0:0:0:
256,192,270810,1,2,0:0:0:0:
256,192,270927,1,2,1:2:0:0:
256,192,271161,1,2,0:0:0:0:
256,192,271396,1,2,1:2:0:0:
256,192,271630,1,2,0:0:0:0:
256,64,271747,1,2,0:1:0:0:
256,192,272099,5,2,0:0:0:0:
256,192,272450,5,2,0:0:0:0:
256,192,272685,1,2,0:0:0:0:
256,192,272802,1,2,1:2:0:0:
256,192,273036,1,2,0:0:0:0:
256,192,273271,1,2,1:2:0:0:
256,192,273388,1,2,0:0:0:0:
256,192,273505,1,2,0:0:0:0:
256,64,273622,1,2,0:1:0:0:
256,192,273974,5,2,0:0:0:0:
256,192,274325,5,2,0:0:0:0:
256,192,274560,1,2,0:0:0:0:
256,192,274677,1,2,1:2:0:0:
256,192,274911,1,2,0:0:0:0:
256,192,275146,1,2,1:2:0:0:
256,192,275380,1,2,0:0:0:0:
256,64,275497,1,2,0:1:0:0:
256,192,275849,5,2,0:0:0:0:
256,192,276200,5,2,0:0:0:0:
256,192,276435,1,2,0:0:0:0:
160,64,276552,1,2,1:0:0:0:
256,192,276786,1,2,0:0:0:0:
352,64,277021,1,2,1:0:0:0:
256,192,277255,1,2,0:0:0:0:
256,64,277372,1,2,0:1:0:0:
256,192,277724,5,2,0:0:0:0:
256,192,278075,5,2,0:0:0:0:
256,192,278310,1,2,0:0:0:0:
256,192,278427,1,2,1:2:0:0:
256,192,278661,1,2,0:0:0:0:
256,192,278896,1,2,1:2:0:0:
256,192,279130,1,2,0:0:0:0:
256,64,279247,1,2,0:1:0:0:
256,192,279599,5,2,0:0:0:0:
256,192,279950,5,2,0:0:0:0:
256,192,280185,1,2,0:0:0:0:
256,192,280302,1,2,1:2:0:0:
256,192,280536,1,2,0:0:0:0:
256,192,280771,1,2,1:2:0:0:
256,192,280888,1,2,0:0:0:0:
256,192,281005,1,2,0:0:0:0:
256,64,281122,1,2,0:1:0:0:
256,192,281474,5,2,0:0:0:0:
256,192,281825,5,2,0:0:0:0:
256,192,282060,1,2,0:0:0:0:
256,192,282177,1,2,1:2:0:0:
256,192,282411,1,2,0:0:0:0:
256,192,282646,1,2,1:2:0:0:
256,192,282880,1,2,0:0:0:0:
256,64,282997,1,2,0:1:0:0:
256,192,283349,5,2,0:0:0:0:
256,192,283700,5,2,0:0:0:0:
256,192,283935,1,2,0:0:0:0:
160,64,284052,1,2,1:0:0:0:
256,192,284286,1,2,0:0:0:0:
352,64,284521,1,2,1:0:0:0:
256,192,284755,1,2,0:0:0:0:
256,64,284872,1,2,0:1:0:0:
256,192,285224,5,2,0:0:0:0:
256,192,285575,5,2,0:0:0:0:
256,192,285810,1,2,0:0:0:0:
256,192,285927,1,2,1:2:0:0:
256,192,286161,1,2,0:0:0:0:
256,192,286396,1,2,1:2:0:0:
256,192,286630,1,2,0:0:0:0:
256,64,286747,1,2,0:1:0:0:
256,192,287099,5,2,0:0:0:0:
256,192,287450,5,2,0:0:0:0:
256,192,287685,1,2,0:0:0:0:
256,192,287802,1,2,1:2:0:0:
256,192,288036,1,2,0:0:0:0:
256,192,288271,1,2,1:2:0:0:
256,192,288388,1,2,0:0:0:0:
256,192,288505,1,2,0:0:0:0:
256,64,288622,1,2,0:1:0:0:
256,192,288974,5,2,0:0:0:0:
256,192,289325,5,2,0:0:0:0:
256,192,289560,1,2,0:0:0:0:
256,192,289677,1,2,1:2:0:0:
256,192,289911,1,2,0:0:0:0:
256,192,290146,1,2,1:2:0:0:
256,192,290380,1,2,0:0:0:0:
256,64,290497,1,2,0:1:0:0:
256,192,290849,5,2,0:0:0:0:
256,192,291200,5,2,0:0:0:0:
256,192,291435,1,2,0:0:0:0:
160,64,291552,1,2,1:0:0:0:
256,192,291786,1,2,0:0:0:0:
352,64,292021,1,2,1:0:0:0:
256,192,292255,1,2,0:0:0:0:
256,64,292372,1,2,0:1:0:0:
256,192,292724,5,2,0:0:0:0:
256,192,293075,5,2,0:0:0:0:
256,192,293310,1,2,0:0:0:0:
160,64,293427,1,2,1:0:0:0:
256,192,293661,1,2,0:0:0:0:
352,64,293896,1,2,1:0:0:0:
256,192,294130,1,2,0:0:0:0:
256,64,294247,1,2,0:1:0:0:
256,192,294599,5,2,0:0:0:0:
256,192,294950,5,2,0:0:0:0:
256,192,295185,1,2,0:0:0:0:
160,64,295302,1,2,1:0:0:0:
256,320,295536,1,2,0:1:0:0:
352,64,295771,1,2,1:0:0:0:
256,192,296005,1,2,0:1:0:0:
256,64,296122,1,2,0:1:0:0:
256,192,296474,5,2,0:0:0:0:
256,192,296825,5,2,0:0:0:0:
256,192,297060,1,2,0:0:0:0:
256,192,297177,1,2,1:2:0:0:
256,320,297411,1,2,0:1:0:0:
256,192,297646,1,2,1:0:0:0:
256,192,297880,1,2,0:1:0:0:
256,64,297997,1,2,0:0:0:0:
256,192,298115,1,4,1:0:0:0:
256,192,298232,12,0,299052,0:0:0:0:
256,192,299286,5,0,1:0:0:0:
256,192,299404,1,8,0:0:0:0:
256,192,299521,1,0,1:0:0:0:
256,192,299755,1,8,0:0:0:0:
50,63,299990,6,0,L|24:343,1,259.999990463257,6|0,1:0|0:0,0:0:0:0:
154,365,300341,1,2,0:0:0:0:
160,361,300400,1,2,0:0:0:0:
166,356,300458,2,2,B|148:331|127:318|127:318|158:291|170:257|170:257|136:157|217:86|217:86|189:41|148:4|148:4|199:11|239:36|239:36|301:12|398:5|398:5|324:32|258:79|258:79|348:116|354:211|354:211|459:242|415:360|415:360|373:283|373:283|316:361|316:361|312:326|243:294|243:294|290:300|321:274,1,1559.99994277954,10|4,0:0|1:2,0:1:0:0:
495,22,302216,5,2,0:0:0:0:
438,78,302333,1,10,0:0:0:0:
445,155,302450,2,0,P|466:191|502:225,1,77.9999947586062,2|2,0:0|0:0,0:0:0:0:
512,107,302685,1,2,0:0:0:0:
512,107,302919,1,2,0:0:0:0:
364,60,303036,2,0,P|278:41|99:14,1,259.999990463257,2|8,0:0|0:0,0:0:0:0:
42,49,303388,1,2,0:0:0:0:
62,76,303505,1,2,0:0:0:0:
90,86,303622,1,2,0:0:0:0:
123,156,303740,5,6,1:2:0:0:
81,188,303857,1,2,0:0:0:0:
55,237,303974,1,2,0:0:0:0:
0,182,304091,5,2,0:0:0:0:
43,251,304208,1,10,0:0:0:0:
118,286,304325,1,2,0:0:0:0:
0,365,304560,6,0,P|77:323|199:284,1,214.499998678207,2|2,0:0|0:0,0:0:0:0:
198,295,304794,1,2,0:0:0:0:
265,346,304911,5,2,0:0:0:0:
268,325,305029,1,2,0:0:0:0:
347,328,305146,5,10,0:0:0:0:
350,349,305264,1,2,0:0:0:0:
426,370,305380,6,2,P|464:333|411:294,1,129.999995231629
412,142,305615,5,6,1:2:0:0:
461,87,305732,1,2,0:2:0:0:
492,153,305849,1,2,0:2:0:0:
439,137,305966,5,2,0:2:0:0:
459,112,306083,1,10,0:2:0:0:
470,141,306200,1,2,0:2:0:0:
386,61,306318,1,2,0:0:0:0:
378,72,306435,1,2,0:0:0:0:
101,118,306552,6,0,P|124:204|165:286,1,168.999986064912,6|2,1:2|0:0,0:0:0:0:
297,103,306786,1,2,0:0:0:0:
296,115,306903,1,2,0:0:0:0:
179,92,307021,5,10,0:2:0:0:
194,125,307138,1,2,0:2:0:0:
219,100,307255,1,2,0:2:0:0:
203,64,307373,1,2,0:2:0:0:
47,219,307490,5,6,1:2:0:0:
47,219,307724,1,2,0:0:0:0:
36,303,307841,1,2,0:0:0:0:
25,143,307958,1,10,0:0:0:0:
117,44,308193,5,2,0:0:0:0:
143,184,308310,1,2,0:0:0:0:
337,213,308544,5,2,0:0:0:0:
357,101,308661,1,2,0:0:0:0:
357,101,308896,5,10,0:0:0:0:
430,63,309013,1,2,0:0:0:0:
367,110,309130,1,2,0:0:0:0:
439,71,309247,1,2,0:0:0:0:
480,266,309365,6,0,P|439:306|398:367,1,129.999995231629,6|0,1:2|0:0,0:0:0:0:
319,372,309599,1,2,0:0:0:0:
316,365,309657,1,2,0:0:0:0:
313,358,309716,1,2,0:0:0:0:
355,291,309833,1,10,0:0:0:0:
32,356,310068,6,2,P|94:197|234:12,1,389.999985694885,2|2,0:0|0:1,0:1:0:0:
229,2,311240,5,6,1:2:0:0:
301,117,311357,1,2,0:0:0:0:
301,39,311474,1,2,0:0:0:0:
369,76,311591,1,2,0:0:0:0:
370,154,311708,2,0,P|411:172|435:99,1,129.999995231629,10|2,0:0|0:0,0:0:0:0:
442,108,311943,1,2,0:0:0:0:
183,129,312060,6,2,P|93:268|262:259,1,389.999985694885,2|2,0:0|0:0,0:1:0:0:
137,50,312529,1,2,0:0:0:0:
137,50,312763,1,2,0:2:0:0:
205,1,312880,1,2,0:2:0:0:
59,19,312997,1,2,0:2:0:0:
246,74,313115,6,0,P|302:111|343:158,1,129.999995231629,6|2,1:2|0:2,0:2:0:0:
461,189,313349,1,2,0:2:0:0:
499,116,313466,1,2,0:2:0:0:
455,48,313583,1,10,0:2:0:0:
416,114,313700,1,2,0:0:0:0:
416,124,313818,1,2,0:0:0:0:
406,120,313935,1,2,0:0:0:0:
387,253,314052,6,0,P|325:266|261:306,1,129.999995231629,6|2,1:2|0:0,0:0:0:0:
211,348,314286,1,2,0:2:0:0:
0,288,314404,2,2,P|116:246|181:112,1,259.999990463257,2|2,0:0|0:0,0:1:0:0:
123,61,314755,1,2,0:0:0:0:
115,68,314872,1,2,0:0:0:0:
256,192,314990,5,4,1:0:0:0:
466,62,315224,1,2,0:0:0:0:
489,111,315341,1,2,0:0:0:0:
474,162,315458,1,10,0:0:0:0:
392,218,315575,1,2,0:0:0:0:
377,166,315692,1,2,0:0:0:0:
399,117,315809,1,2,0:0:0:0:
475,57,316044,5,2,0:0:0:0:
498,106,316161,1,2,0:0:0:0:
483,157,316278,1,2,0:0:0:0:
402,215,316513,5,2,0:0:0:0:
406,108,316630,2,0,P|396:180|372:239,1,129.999995231629,2|2,0:0|0:0,0:0:0:0:
112,2,316865,5,6,1:2:0:0:
123,0,316982,1,2,0:0:0:0:
203,14,317099,1,2,0:0:0:0:
222,97,317216,1,2,0:0:0:0:
303,121,317333,1,10,0:0:0:0:
308,122,317392,1,2,0:0:0:0:
313,123,317450,2,0,P|303:51|279:-8,1,129.999995231629,2|2,0:0|0:0,0:0:0:0:
172,206,317685,5,2,0:0:0:0:
181,338,317802,1,2,1:2:0:0:
85,235,317919,5,2,0:0:0:0:
91,338,318036,1,2,0:0:0:0:
13,293,318154,5,2,0:0:0:0:
6,282,318271,1,10,0:0:0:0:
7,305,318388,1,2,0:0:0:0:
0,142,318505,2,0,P|56:133|127:104,1,129.999995231629,2|2,0:0|0:0,0:0:0:0:
281,13,318740,6,2,P|161:31|16:-3,1,259.999990463257,6|2,1:2|0:0,0:1:0:0:
199,102,319091,1,2,0:0:0:0:
485,79,319325,5,2,0:2:0:0:
494,111,319443,1,2,0:2:0:0:
497,153,319560,1,2,0:2:0:0:
487,200,319677,1,2,1:2:0:0:
460,249,319794,1,2,0:2:0:0:
403,295,319911,1,2,0:2:0:0:
321,316,320029,1,2,0:2:0:0:
460,249,320263,5,2,0:0:0:0:
403,295,320380,1,2,0:0:0:0:
321,316,320497,1,2,0:0:0:0:
390,152,320615,6,0,B|374:174|225:83|203:104,1,195.000000286102,6|2,1:2|0:0,0:0:0:0:
0,192,320849,1,2,0:0:0:0:
159,28,320966,6,2,B|152:115|515:105|514:199,1,389.999985694885,2|2,0:1|0:1,0:1:0:0:
452,14,321552,5,6,1:2:0:0:
465,20,321669,1,2,0:2:0:0:
366,42,321786,1,2,0:2:0:0:
512,101,321904,1,2,0:2:0:0:
348,129,322021,1,10,0:2:0:0:
496,187,322138,1,2,0:2:0:0:
385,204,322255,2,0,P|414:259|476:322,1,129.999995231629,2|2,0:0|0:0,0:0:0:0:
90,250,322490,5,6,1:2:0:0:
171,184,322607,1,2,0:0:0:0:
188,287,322724,1,2,0:0:0:0:
130,227,322841,5,2,0:0:0:0:
143,256,322958,1,10,0:0:0:0:
167,245,323075,1,2,0:0:0:0:
156,222,323193,1,2,0:0:0:0:
136,110,323310,5,2,0:0:0:0:
178,81,323427,1,2,1:2:0:0:
215,114,323544,1,2,0:2:0:0:
293,77,323661,5,2,0:0:0:0:
306,28,323778,1,2,0:0:0:0:
303,78,323896,1,10,0:0:0:0:
314,30,324013,1,2,0:0:0:0:
403,108,324130,2,2,P|451:74|419:25,1,129.999995231629,2|0,0:0|0:0,0:1:0:0:
422,299,324365,5,6,1:2:0:0:
344,167,324482,1,2,0:0:0:0:
468,185,324716,5,2,0:2:0:0:
422,185,324833,1,10,0:2:0:0:
400,224,324950,1,2,0:2:0:0:
446,224,325067,1,2,0:2:0:0:
437,202,325185,1,2,0:0:0:0:
477,362,325419,1,2,0:0:0:0:
226,374,325654,5,2,0:0:0:0:
142,376,325771,2,0,L|141:288,1,64.9999976158143,10|2,0:0|0:0,0:0:0:0:
225,295,326005,1,2,0:0:0:0:
222,290,326064,1,2,0:0:0:0:
219,285,326122,1,2,0:0:0:0:
42,326,326240,6,2,P|131:195|45:156,1,292.500000429154,6|2,1:2|0:0,0:1:0:0:
52,155,326825,1,2,0:0:0:0:
32,326,326943,6,2,P|133:204|78:33,1,341.249990737438,2|2,0:2|0:0,0:1:0:0:
86,40,327529,1,2,0:0:0:0:
22,326,327646,6,2,P|155:225|221:6,1,389.999985694885,10|2,0:0|0:0,0:1:0:0:
232,11,328115,1,4,1:0:0:0:
221,18,328232,1,2,0:0:0:0:
12,326,328349,6,2,P|187:296|445:218,1,438.75000064373,2|2,0:0|0:0,0:1:0:0:
436,221,328935,1,2,0:0:0:0:
55,113,329052,6,2,P|263:364|320:-1,1,877.500001287461,6|2,1:0|0:0,0:1:0:0:
312,19,329833,5,2,0:0:0:0:
301,39,329911,5,2,0:0:0:0:
306,60,329990,5,4,1:0:0:0:
256,192,330107,12,0,333740,1:0:0:0:
256,192,344990,5,2,1:2:0:0:
256,192,345458,5,8,0:0:0:0:
256,192,345810,5,2,0:0:0:0:
256,192,346044,1,2,0:0:0:0:
256,192,346396,5,10,0:0:0:0:
256,192,346865,5,2,1:2:0:0:
256,192,347333,5,8,0:0:0:0:
256,192,347685,5,2,0:0:0:0:
256,192,347919,1,2,0:0:0:0:
256,192,348271,5,10,0:0:0:0:
256,192,348740,5,2,1:2:0:0:
256,192,349208,5,8,0:0:0:0:
256,192,349560,5,2,0:0:0:0:
256,192,349794,1,2,0:0:0:0:
256,192,350146,5,10,0:0:0:0:
256,192,350615,5,2,1:2:0:0:
256,192,351083,5,8,0:0:0:0:
256,192,351552,5,2,1:2:0:0:
256,192,352021,5,8,0:0:0:0:
256,192,352490,5,2,1:2:0:0:
256,192,352958,5,8,0:0:0:0:
256,192,353310,5,2,0:0:0:0:
256,192,353544,1,2,0:0:0:0:
256,192,353896,5,10,0:0:0:0:
256,192,354365,5,2,1:2:0:0:
256,192,354833,5,8,0:0:0:0:
256,192,355185,5,2,0:0:0:0:
256,192,355419,1,2,0:0:0:0:
256,192,355771,5,10,0:0:0:0:
256,192,356240,5,2,1:2:0:0:
256,192,356708,5,8,0:0:0:0:
256,192,357060,5,2,0:0:0:0:
256,192,357294,1,2,0:0:0:0:
256,192,357646,5,10,0:0:0:0:
256,192,358115,5,2,1:2:0:0:
256,192,358583,5,8,0:0:0:0:
256,192,359052,5,2,1:2:0:0:
256,192,359521,5,8,0:0:0:0:
256,192,359990,5,6,1:2:0:0:
256,192,360224,1,0,0:0:0:0:
256,192,360458,1,8,0:0:0:0:
256,192,360810,5,2,0:0:0:0:
256,192,361044,1,2,0:0:0:0:
256,192,361279,1,2,0:0:0:0:
256,192,361396,1,10,0:0:0:0:
256,192,361630,1,0,0:0:0:0:
256,192,361747,1,0,0:0:0:0:
256,192,361865,1,2,1:2:0:0:
256,192,362099,1,0,0:0:0:0:
256,192,362333,1,8,0:0:0:0:
256,192,362685,5,2,0:2:0:0:
256,192,362919,1,2,0:2:0:0:
256,192,363154,1,2,0:2:0:0:
256,192,363271,1,10,0:2:0:0:
256,192,363505,1,2,0:0:0:0:
256,192,363622,1,0,0:0:0:0:
256,192,363740,1,2,1:2:0:0:
256,192,363974,1,0,0:0:0:0:
256,192,364208,1,8,0:0:0:0:
256,192,364560,5,2,0:0:0:0:
256,192,364794,1,2,0:0:0:0:
256,192,365029,1,2,0:0:0:0:
256,192,365146,1,10,0:0:0:0:
256,192,365380,1,2,0:0:0:0:
256,192,365497,1,2,0:0:0:0:
256,192,365615,1,2,1:2:0:0:
256,192,365966,5,2,0:0:0:0:
256,192,366318,5,2,0:0:0:0:
256,192,366669,5,2,0:0:0:0:
256,192,367021,5,10,0:0:0:0:
256,192,367255,1,2,0:0:0:0:
256,192,367490,1,2,1:2:0:0:
256,192,367724,1,0,0:0:0:0:
256,192,367958,1,8,0:0:0:0:
256,192,368310,5,2,0:0:0:0:
256,192,368544,1,2,0:0:0:0:
256,192,368779,1,2,0:0:0:0:
256,192,368896,1,10,0:0:0:0:
256,192,369130,1,0,0:0:0:0:
256,192,369247,1,0,0:0:0:0:
256,192,369365,1,2,1:2:0:0:
256,192,369599,1,0,0:0:0:0:
256,192,369833,1,8,0:0:0:0:
256,192,370185,5,2,0:2:0:0:
256,192,370419,1,2,0:2:0:0:
256,192,370654,1,2,0:2:0:0:
256,192,370771,1,10,0:2:0:0:
256,192,371005,1,2,0:0:0:0:
256,192,371122,1,0,0:0:0:0:
256,192,371240,1,2,1:2:0:0:
256,192,371474,1,0,0:0:0:0:
256,192,371708,1,8,0:0:0:0:
256,192,372060,5,2,0:0:0:0:
256,192,372294,1,2,0:0:0:0:
256,192,372529,1,2,0:0:0:0:
256,192,372646,1,10,0:0:0:0:
256,192,372880,1,2,0:0:0:0:
256,192,372997,1,2,0:0:0:0:
168,56,373115,1,6,1:2:0:0:
256,192,373818,5,0,1:0:0:0:
256,192,373935,1,0,1:0:0:0:
256,192,374052,1,8,0:0:0:0:
256,192,374169,1,0,1:0:0:0:
256,192,374286,1,0,1:0:0:0:
256,192,374404,1,8,0:0:0:0:
256,192,374521,1,0,1:0:0:0:
256,192,374638,1,0,1:0:0:0:
256,192,374755,1,8,0:0:0:0:
256,192,374872,1,0,1:0:0:0:
417,280,374990,6,2,L|397:72,1,195.000000286102,4|0,1:0|0:0,0:1:0:0:
256,192,375224,1,2,0:0:0:0:
256,192,375458,1,10,0:0:0:0:
256,192,375927,5,2,1:2:0:0:
256,192,376044,1,0,0:0:0:0:
256,192,376279,1,2,0:0:0:0:
256,192,376513,1,2,0:0:0:0:
256,192,376747,1,2,0:0:0:0:
137,67,376865,6,2,L|118:261,1,195.000000286102,4|0,1:2|0:0,0:1:0:0:
256,192,377099,1,2,0:0:0:0:
256,192,377333,1,10,0:0:0:0:
256,192,377450,1,2,0:0:0:0:
256,192,377685,1,2,0:0:0:0:
256,192,377802,1,0,1:0:0:0:
256,192,377919,1,0,0:0:0:0:
256,192,378154,1,2,0:0:0:0:
256,192,378388,1,0,0:0:0:0:
256,192,378622,1,2,0:0:0:0:
169,299,378740,6,2,L|151:105,1,195.000000286102,4|0,1:2|0:0,0:1:0:0:
256,192,378974,1,2,0:0:0:0:
256,192,379208,1,10,0:0:0:0:
256,192,379443,1,0,0:0:0:0:
256,192,379560,1,2,0:0:0:0:
256,192,379911,5,2,0:0:0:0:
256,192,380146,1,10,0:0:0:0:
256,192,380380,1,2,0:0:0:0:
256,192,380497,1,2,0:0:0:0:
443,313,380615,6,2,L|425:118,1,195.000000286102,4|0,1:2|0:0,0:1:0:0:
256,192,380849,1,2,0:0:0:0:
256,192,381083,1,10,0:0:0:0:
256,192,381200,1,2,0:0:0:0:
256,192,381435,1,2,0:0:0:0:
123,115,381552,6,2,L|142:310,1,195.000000286102,4|0,1:2|0:0,0:1:0:0:
256,192,381786,1,2,0:0:0:0:
256,192,382021,1,8,0:0:0:0:
256,192,382255,1,2,0:0:0:0:
256,192,382372,1,2,0:0:0:0:
388,106,382490,6,2,L|369:300,1,195.000000286102,4|0,1:2|0:0,0:1:0:0:
256,192,382724,1,2,0:0:0:0:
256,192,382841,1,2,0:0:0:0:
256,192,382958,1,10,0:0:0:0:
256,192,383427,5,2,1:2:0:0:
256,192,383661,1,0,0:0:0:0:
256,192,383779,1,2,0:0:0:0:
256,192,384013,1,2,0:0:0:0:
256,192,384247,1,2,0:0:0:0:
85,16,384365,6,2,L|67:210,1,195.000000286102,4|0,1:2|0:0,0:1:0:0:
256,192,384599,1,2,0:0:0:0:
256,192,384833,1,10,0:0:0:0:
256,192,384950,1,2,0:0:0:0:
256,192,385185,1,2,0:0:0:0:
256,192,385302,1,0,1:0:0:0:
256,192,385419,1,0,0:0:0:0:
256,192,385654,1,2,0:0:0:0:
256,192,385888,1,0,0:0:0:0:
256,192,386122,1,2,0:0:0:0:
181,365,386240,6,2,L|163:170,1,195.000000286102,4|0,1:2|0:0,0:1:0:0:
256,192,386474,1,2,0:0:0:0:
256,192,386708,1,10,0:0:0:0:
256,192,386943,1,0,0:0:0:0:
256,192,387060,1,2,0:0:0:0:
256,192,387411,5,2,0:0:0:0:
256,192,387646,1,10,0:0:0:0:
256,192,387880,1,0,0:0:0:0:
256,192,387997,1,2,0:0:0:0:
428,299,388115,6,2,L|447:104,1,195.000000286102,4|0,1:2|0:0,0:1:0:0:
256,192,388349,1,2,0:0:0:0:
256,192,388583,1,10,0:0:0:0:
256,192,388700,1,2,0:0:0:0:
256,192,388935,1,2,0:0:0:0:
175,290,389052,6,2,L|156:96,1,195.000000286102,4|0,1:2|0:0,0:1:0:0:
256,192,389286,1,2,0:0:0:0:
256,192,389521,1,8,0:0:0:0:
256,192,389755,1,0,0:0:0:0:
256,192,389872,1,0,0:0:0:0:
445,372,389990,6,2,L|463:178,1,195.000000286102,4|0,1:2|0:0,0:1:0:0:
256,192,390224,1,2,0:0:0:0:
256,192,390341,1,2,0:0:0:0:
256,192,390458,1,10,0:0:0:0:
256,192,390927,5,2,1:2:0:0:
256,192,391161,1,2,0:0:0:0:
256,192,391279,1,2,0:0:0:0:
256,192,391513,1,2,0:0:0:0:
256,192,391747,1,2,0:0:0:0:
356,88,391865,6,2,L|370:282,1,195.000000286102,4|0,1:2|0:0,0:1:0:0:
256,192,392099,1,2,0:0:0:0:
256,192,392333,1,10,0:0:0:0:
256,192,392450,1,2,0:0:0:0:
256,192,392685,1,2,0:0:0:0:
256,192,392802,1,0,1:0:0:0:
256,192,392919,1,0,0:0:0:0:
256,192,393154,1,2,0:0:0:0:
256,192,393388,1,0,0:0:0:0:
256,192,393622,1,2,0:0:0:0:
121,264,393740,6,2,L|135:67,1,195.000000286102,4|0,1:2|0:0,0:1:0:0:
256,192,393974,1,2,0:0:0:0:
256,192,394208,1,10,0:0:0:0:
256,192,394443,1,0,0:0:0:0:
256,192,394560,1,2,0:0:0:0:
256,192,394911,5,2,0:0:0:0:
256,192,395146,1,10,0:0:0:0:
256,192,395380,1,0,0:0:0:0:
256,192,395497,1,2,0:0:0:0:
358,18,395615,6,2,L|372:212,1,195.000000286102,4|0,1:2|0:0,0:1:0:0:
256,192,395849,1,2,0:0:0:0:
256,192,396083,1,10,0:0:0:0:
256,192,396200,1,2,0:0:0:0:
256,192,396435,1,2,0:0:0:0:
152,121,396552,6,2,L|137:315,1,195.000000286102,4|0,1:2|0:0,0:1:0:0:
256,192,396786,1,2,0:0:0:0:
256,192,397021,1,10,0:0:0:0:
256,192,397255,1,2,0:0:0:0:
384,369,397490,6,2,L|369:174,1,195.000000286102,4|0,1:2|0:0,0:1:0:0:
256,192,397724,1,2,0:0:0:0:
256,192,397958,1,10,0:0:0:0:
256,192,398427,5,2,1:2:0:0:
256,192,398661,1,2,0:0:0:0:
256,192,398779,1,2,0:0:0:0:
256,192,399013,1,2,0:0:0:0:
256,192,399247,1,2,0:0:0:0:
74,80,399365,6,2,L|60:275,1,195.000000286102,4|0,1:2|0:0,0:1:0:0:
256,192,399599,1,2,0:0:0:0:
256,192,399833,1,10,0:0:0:0:
256,192,399950,1,2,0:0:0:0:
256,192,400185,1,2,0:0:0:0:
256,192,400302,1,0,1:0:0:0:
256,192,400419,1,0,0:0:0:0:
256,192,400654,1,2,0:0:0:0:
256,192,400888,1,0,0:0:0:0:
256,192,401122,1,2,0:0:0:0:
362,282,401240,6,2,L|348:88,1,195.000000286102,4|0,1:2|0:0,0:1:0:0:
256,192,401474,1,2,0:0:0:0:
256,192,401708,1,10,0:0:0:0:
256,192,401943,1,0,0:0:0:0:
256,192,402060,1,2,0:0:0:0:
256,192,402411,5,2,0:0:0:0:
256,192,402646,1,10,0:0:0:0:
256,192,402880,1,0,0:0:0:0:
256,192,402997,1,2,0:0:0:0:
92,361,403115,6,2,L|107:167,1,195.000000286102,4|0,1:2|0:0,0:1:0:0:
256,192,403349,1,2,0:0:0:0:
256,192,403583,1,10,0:0:0:0:
256,192,403700,1,2,0:0:0:0:
256,192,403818,1,2,0:0:0:0:
256,192,403935,1,2,0:0:0:0:
359,90,404052,6,2,L|374:285,1,195.000000286102,4|0,1:2|0:0,0:1:0:0:
256,192,404286,1,2,0:0:0:0:
256,192,404521,1,14,0:0:0:0:
256,192,404755,1,2,0:0:0:0:
66,273,404990,6,2,P|97:173|78:42,1,227.499993824959,6|0,1:0|0:0,0:1:0:0:
256,192,405224,1,2,0:0:0:0:
256,192,405458,1,10,0:0:0:0:
256,192,405927,5,2,1:2:0:0:
256,192,406044,1,2,0:2:0:0:
256,192,406279,1,2,0:2:0:0:
256,192,406513,1,2,0:2:0:0:
256,192,406747,1,2,0:2:0:0:
387,284,406865,6,2,P|371:172|461:137,1,227.499993824959,4|0,1:2|0:2,0:1:0:0:
256,192,407099,1,2,0:2:0:0:
256,192,407333,1,8,0:2:0:0:
256,192,407450,1,2,0:2:0:0:
256,192,407685,1,2,0:2:0:0:
256,192,407802,1,0,1:2:0:0:
256,192,407919,1,2,0:2:0:0:
256,192,408154,1,2,0:2:0:0:
256,192,408388,1,2,0:2:0:0:
256,192,408622,1,2,0:2:0:0:
153,0,408740,6,2,P|172:118|81:203,1,227.499993824959,4|0,1:2|0:2,0:1:0:0:
256,192,408974,1,2,0:2:0:0:
256,192,409208,1,10,0:2:0:0:
256,192,409325,1,2,0:0:0:0:
256,192,409560,1,2,0:2:0:0:
256,192,409794,1,2,0:2:0:0:
256,192,410029,1,2,0:2:0:0:
256,192,410263,1,2,0:2:0:0:
256,192,410497,1,2,0:2:0:0:
465,241,410615,6,2,P|415:118|400:8,1,227.499993824959,4|0,1:2|0:2,0:1:0:0:
256,192,410849,1,2,0:2:0:0:
256,192,411083,1,10,0:2:0:0:
256,192,411200,1,2,0:2:0:0:
256,192,411435,1,2,0:2:0:0:
100,55,411552,6,2,P|120:150|17:239,1,227.499993824959,4|2,1:2|0:2,0:1:0:0:
256,192,411786,1,2,0:2:0:0:
256,192,411904,1,2,0:0:0:0:
256,192,412138,1,2,0:0:0:0:
256,192,412255,1,2,0:2:0:0:
256,192,412372,1,2,0:2:0:0:
371,332,412490,6,2,P|282:284|252:394,1,227.499993824959,4|0,1:2|0:2,0:1:0:0:
256,192,412724,1,2,0:2:0:0:
256,192,412958,1,10,0:2:0:0:
256,192,413427,5,2,1:2:0:0:
256,192,413661,1,2,0:2:0:0:
256,192,413779,1,2,0:2:0:0:
256,192,414013,1,2,0:2:0:0:
256,192,414247,1,2,0:2:0:0:
397,32,414365,6,2,P|391:147|429:268,1,227.499993824959,4|0,1:2|0:2,0:1:0:0:
256,192,414599,1,2,0:2:0:0:
256,192,414833,1,10,0:2:0:0:
256,192,414950,1,2,0:2:0:0:
256,192,415185,1,2,0:2:0:0:
256,192,415302,1,0,1:0:0:0:
256,192,415419,1,2,0:2:0:0:
256,192,415654,1,2,0:2:0:0:
256,192,415888,1,2,0:0:0:0:
256,192,416005,1,2,0:2:0:0:
256,192,416122,1,2,0:2:0:0:
208,1,416240,6,2,P|182:98|116:223,1,227.499993824959,4|0,1:2|0:2,0:1:0:0:
256,192,416474,1,2,0:2:0:0:
256,192,416708,1,10,0:2:0:0:
256,192,416942,1,2,0:2:0:0:
256,192,417060,1,2,0:2:0:0:
256,192,417177,1,2,1:2:0:0:
256,192,417294,1,2,0:2:0:0:
256,192,417529,1,2,0:2:0:0:
256,192,417763,1,2,0:2:0:0:
256,192,417880,1,2,0:2:0:0:
256,192,417997,1,2,0:2:0:0:
394,295,418115,6,2,P|282:318|163:350,1,227.499993824959,4|0,1:2|0:2,0:1:0:0:
256,192,418349,1,2,0:2:0:0:
256,192,418583,1,10,0:2:0:0:
256,192,418818,1,2,0:0:0:0:
256,192,418935,1,2,0:2:0:0:
419,26,419052,6,2,P|333:80|211:71,1,227.499993824959,4|0,1:2|0:2,0:1:0:0:
256,192,419286,1,2,0:2:0:0:
256,192,419404,1,2,0:2:0:0:
256,192,419521,1,10,0:2:0:0:
256,192,419638,1,0,0:0:0:0:
256,192,419755,1,2,0:2:0:0:
256,192,419872,1,2,0:2:0:0:
0,0,419990,5,6,1:2:0:0:
256,192,420458,1,10,0:0:0:0:
512,384,420927,1,2,1:2:0:0:
256,192,421279,5,2,0:0:0:0:
256,192,421513,1,2,0:0:0:0:
256,192,421747,1,2,0:0:0:0:
420,262,421865,6,2,B|370:164|370:164|386:21,1,227.499993824959,4|0,1:2|0:0,0:1:0:0:
256,192,422099,1,2,0:0:0:0:
256,192,422333,1,10,0:0:0:0:
256,192,422450,1,2,0:0:0:0:
256,192,422685,1,2,0:0:0:0:
256,192,422802,1,2,1:2:0:0:
256,192,422919,1,2,0:0:0:0:
256,192,423154,1,2,0:0:0:0:
256,192,423388,1,2,0:0:0:0:
256,192,423505,1,2,0:0:0:0:
256,192,423622,1,2,0:0:0:0:
94,94,423740,6,2,B|152:194|152:194|55:303,1,227.499993824959,4|0,1:2|0:0,0:1:0:0:
256,192,423974,1,2,0:2:0:0:
256,192,424208,1,10,0:2:0:0:
256,192,424443,1,2,0:2:0:0:
256,192,424560,1,2,0:2:0:0:
256,192,424677,1,2,1:2:0:0:
256,192,424794,1,2,0:2:0:0:
256,192,425029,1,2,0:2:0:0:
256,192,425263,1,2,0:2:0:0:
256,192,425380,1,2,0:2:0:0:
256,192,425497,1,2,0:2:0:0:
417,17,425615,6,2,B|363:110|363:110|377:255,1,227.499993824959,4|0,1:2|0:0,0:1:0:0:
256,192,425849,1,2,0:2:0:0:
256,192,426083,1,10,0:2:0:0:
256,192,426318,1,2,0:2:0:0:
256,192,426435,1,2,0:2:0:0:
154,354,426552,6,2,B|254:299|254:299|352:357,1,227.499993824959,4|0,1:2|0:0,0:1:0:0:
256,192,426786,1,2,0:0:0:0:
256,192,426904,1,2,0:2:0:0:
256,192,427138,1,2,0:2:0:0:
256,192,427255,1,2,0:0:0:0:
256,192,427372,1,2,0:0:0:0:
360,17,427490,6,2,B|383:130|383:130|492:186,1,227.499993824959,4|0,1:2|0:0,0:1:0:0:
0,0,427724,5,2,0:2:0:0:
256,192,427958,1,10,0:2:0:0:
512,384,428193,1,2,0:2:0:0:
256,192,428427,1,2,1:2:0:0:
256,192,428779,5,2,0:2:0:0:
256,192,429013,1,2,0:2:0:0:
256,192,429247,1,2,0:2:0:0:
83,130,429365,6,2,B|144:224|144:224|155:370,1,227.499993824959,4|0,1:2|0:0,0:1:0:0:
256,192,429599,1,2,0:2:0:0:
256,192,429833,1,10,0:2:0:0:
256,192,429950,1,2,0:2:0:0:
256,192,430185,1,2,0:2:0:0:
256,192,430302,1,0,1:0:0:0:
256,192,430419,1,2,0:0:0:0:
256,192,430654,1,2,0:0:0:0:
256,192,430888,1,2,0:2:0:0:
256,192,431122,1,2,0:2:0:0:
402,269,431240,6,2,B|409:176|409:176|510:86,1,227.499993824959,4|0,1:2|0:0,0:1:0:0:
256,192,431474,1,2,0:2:0:0:
256,192,431708,1,10,0:2:0:0:
256,192,431825,1,2,0:2:0:0:
256,192,432060,1,2,0:2:0:0:
256,192,432294,1,2,0:2:0:0:
256,192,432411,1,2,0:2:0:0:
256,192,432529,1,2,0:2:0:0:
256,192,432646,1,10,0:2:0:0:
256,192,432763,1,2,0:2:0:0:
256,192,432880,1,2,0:2:0:0:
256,192,432997,1,2,0:2:0:0:
162,0,433115,6,2,B|269:57|269:57|400:40,1,227.499993824959,4|0,1:2|0:0,0:1:0:0:
256,192,433349,1,2,0:2:0:0:
256,192,433583,1,10,0:2:0:0:
256,192,433818,1,2,0:2:0:0:
256,192,433935,1,2,0:2:0:0:
89,240,434052,6,2,B|205:261|205:261|256:357,1,227.499993824959,6|2,1:2|0:2,1:1:0:0:
256,192,434286,1,2,0:0:0:0:
256,192,434404,1,2,0:2:0:0:
256,192,434521,1,10,0:0:0:0:
256,192,434638,1,2,0:0:0:0:
256,192,434755,1,2,0:2:0:0:
256,192,434872,1,2,0:2:0:0:
512,0,434990,5,6,1:2:0:0:
256,192,435458,1,10,0:0:0:0:
0,384,435927,1,2,1:2:0:0:
256,192,436279,5,2,0:0:0:0:
256,192,436513,1,2,0:0:0:0:
256,192,436747,1,2,0:0:0:0:
374,55,436865,6,2,B|407:281,1,227.499993824959,4|0,1:2|0:0,0:1:0:0:
256,192,437099,1,2,0:0:0:0:
256,192,437333,1,10,0:2:0:0:
256,192,437450,1,2,0:0:0:0:
256,192,437685,1,2,0:0:0:0:
256,192,437802,1,0,1:0:0:0:
256,192,437919,1,2,0:0:0:0:
256,192,438154,1,2,0:0:0:0:
256,192,438388,1,2,0:0:0:0:
256,192,438622,1,2,0:0:0:0:
213,17,438740,6,2,P|129:81|-3:47,1,227.499993824959,4|0,1:2|0:0,0:1:0:0:
256,192,438974,1,0,0:2:0:0:
256,192,439208,1,10,0:2:0:0:
256,192,439443,1,2,0:2:0:0:
256,192,439560,1,2,0:2:0:0:
256,192,439677,1,2,1:2:0:0:
256,192,439794,1,2,0:2:0:0:
256,192,440029,1,2,0:2:0:0:
256,192,440263,1,2,0:2:0:0:
256,192,440380,1,0,0:2:0:0:
256,192,440497,1,2,0:2:0:0:
175,341,440615,6,2,B|292:292|292:292|391:334,1,227.499993824959,4|0,1:2|0:0,0:1:0:0:
256,192,440849,1,2,0:0:0:0:
256,192,441083,1,10,0:0:0:0:
256,192,441318,1,2,0:0:0:0:
256,192,441435,1,2,0:0:0:0:
339,30,441552,6,2,B|369:260,1,227.499993824959,4|0,1:2|0:0,0:1:0:0:
256,192,441786,1,0,0:0:0:0:
256,192,441904,1,2,0:0:0:0:
256,192,442138,1,2,0:0:0:0:
256,192,442255,1,2,0:0:0:0:
256,192,442372,1,2,0:0:0:0:
75,158,442490,6,2,P|179:113|238:8,1,227.499993824959,4|0,1:2|0:0,0:1:0:0:
512,0,442724,5,2,0:0:0:0:
256,192,442958,1,10,0:0:0:0:
0,384,443193,1,2,0:0:0:0:
256,192,443427,1,2,1:2:0:0:
256,192,443779,5,2,0:0:0:0:
256,192,444013,1,2,0:0:0:0:
256,192,444247,1,2,0:0:0:0:
438,310,444365,6,2,B|392:253|392:253|378:90,1,227.499993824959,4|0,1:2|0:0,0:1:0:0:
256,192,444599,1,2,0:0:0:0:
256,192,444833,1,10,0:0:0:0:
256,192,444950,1,2,0:0:0:0:
256,192,445185,1,2,0:0:0:0:
256,192,445302,1,0,1:0:0:0:
256,192,445419,1,2,0:0:0:0:
256,192,445654,1,2,0:0:0:0:
256,192,445888,1,2,0:0:0:0:
256,192,446122,1,2,0:0:0:0:
345,10,446240,6,2,B|119:35,1,227.499993824959,4|0,1:2|0:0,0:1:0:0:
256,192,446474,1,0,0:0:0:0:
256,192,446708,1,10,0:0:0:0:
256,192,446943,1,0,0:0:0:0:
256,192,447060,1,2,0:0:0:0:
256,192,447177,1,2,1:2:0:0:
256,192,447294,1,2,0:0:0:0:
256,192,447529,1,2,0:0:0:0:
256,192,447763,1,2,0:0:0:0:
256,192,447880,1,2,0:0:0:0:
256,192,447997,1,2,0:0:0:0:
88,294,448115,6,2,P|123:178|107:63,1,227.499993824959,4|0,1:2|0:0,0:1:0:0:
256,192,448349,1,2,0:0:0:0:
256,192,448583,1,10,0:0:0:0:
256,192,448818,1,2,0:0:0:0:
256,192,448935,1,2,0:0:0:0:
198,46,449052,6,2,B|271:82|271:82|426:57,1,227.499993824959,4|0,1:2|0:2,1:1:0:0:
256,192,449286,1,0,0:0:0:0:
256,192,449404,1,2,0:0:0:0:
256,192,449638,1,2,0:0:0:0:
256,192,449755,1,2,0:0:0:0:
256,192,449872,1,2,0:0:0:0:
0,0,449990,5,6,1:2:0:0:
256,192,450458,1,10,0:0:0:0:
512,384,450927,1,2,1:2:0:0:
256,192,451279,5,2,0:0:0:0:
256,192,451513,1,2,0:0:0:0:
256,192,451747,1,2,0:0:0:0:
399,94,451865,6,2,B|366:320,1,227.499993824959,4|0,1:2|0:0,0:1:0:0:
256,192,452099,1,2,0:0:0:0:
256,192,452333,1,10,0:2:0:0:
256,192,452450,1,2,0:0:0:0:
256,192,452685,1,2,0:0:0:0:
256,192,452802,1,0,1:0:0:0:
256,192,452919,1,2,0:0:0:0:
256,192,453154,1,2,0:0:0:0:
256,192,453388,1,2,0:0:0:0:
256,192,453622,1,2,0:0:0:0:
240,5,453740,6,2,P|195:99|92:166,1,227.499993824959,4|0,1:2|0:0,0:1:0:0:
256,192,453974,1,0,0:2:0:0:
256,192,454208,1,10,0:2:0:0:
256,192,454443,1,2,0:2:0:0:
256,192,454560,1,2,0:2:0:0:
256,192,454677,1,2,1:2:0:0:
256,192,454794,1,2,0:2:0:0:
256,192,455029,1,2,0:2:0:0:
256,192,455263,1,2,0:2:0:0:
256,192,455380,1,0,0:2:0:0:
256,192,455497,1,2,0:2:0:0:
329,54,455615,6,2,B|347:156|347:156|439:245,1,227.499993824959,4|0,1:2|0:0,0:1:0:0:
256,192,455849,1,2,0:0:0:0:
256,192,456083,1,10,0:0:0:0:
256,192,456318,1,2,0:0:0:0:
256,192,456435,1,2,0:0:0:0:
118,333,456552,6,2,B|92:107,1,227.499993824959,4|0,1:2|0:0,0:1:0:0:
256,192,456786,1,0,0:0:0:0:
256,192,456904,1,2,0:0:0:0:
256,192,457138,1,2,0:0:0:0:
256,192,457255,1,2,0:0:0:0:
256,192,457372,1,2,0:0:0:0:
305,369,457490,6,2,B|308:234|394:144,1,227.499993824959,4|0,1:2|0:0,0:1:0:0:
0,0,457724,5,2,0:0:0:0:
256,192,457958,1,10,0:0:0:0:
512,384,458193,1,2,0:0:0:0:
256,192,458427,1,2,1:2:0:0:
256,192,458779,5,2,0:0:0:0:
256,192,459013,1,2,0:0:0:0:
256,192,459247,1,2,0:0:0:0:
159,16,459365,6,2,B|181:89|181:89|116:239,1,227.499993824959,4|0,1:2|0:0,0:1:0:0:
256,192,459599,1,2,0:0:0:0:
256,192,459833,1,10,0:0:0:0:
256,192,459950,1,2,0:0:0:0:
256,192,460185,1,2,0:0:0:0:
256,192,460302,1,0,1:0:0:0:
256,192,460419,1,2,0:0:0:0:
256,192,460654,1,2,0:0:0:0:
256,192,460888,1,2,0:0:0:0:
256,192,461122,1,2,0:0:0:0:
379,49,461240,6,2,B|429:291,1,227.499993824959,4|0,1:2|0:0,0:1:0:0:
256,192,461474,1,0,0:0:0:0:
256,192,461708,1,10,0:0:0:0:
256,192,461943,1,0,0:0:0:0:
256,192,462060,1,2,0:0:0:0:
256,192,462177,1,2,1:2:0:0:
256,192,462294,1,2,0:0:0:0:
256,192,462529,1,2,0:0:0:0:
256,192,462763,1,2,0:0:0:0:
256,192,462880,1,2,0:0:0:0:
256,192,462997,1,2,0:0:0:0:
45,108,463115,6,2,P|96:225|64:339,1,227.499993824959,4|0,1:0|0:0,0:1:0:0:
256,192,463349,1,2,0:0:0:0:
256,192,463583,1,10,0:0:0:0:
256,192,463818,1,2,0:0:0:0:
256,192,463935,1,2,0:0:0:0:
396,343,464052,6,2,B|311:324|311:324|170:381,1,227.499993824959,4|0,1:2|0:2,1:1:0:0:
256,192,464286,1,0,0:0:0:0:
256,192,464404,1,2,0:0:0:0:
256,192,464521,1,10,0:0:0:0:
256,192,464638,1,2,0:0:0:0:
256,192,464755,1,0,1:0:0:0:
256,192,464872,1,2,0:0:0:0:
512,0,464990,5,6,1:2:0:0:
256,192,465458,1,10,0:0:0:0:
0,384,465927,1,2,1:2:0:0:
256,192,466279,5,2,0:0:0:0:
256,192,466513,1,2,0:0:0:0:
256,192,466747,1,2,0:0:0:0:
361,14,466865,6,2,B|394:240,1,227.499993824959,4|0,1:2|0:0,0:1:0:0:
256,192,467099,1,2,0:0:0:0:
256,192,467333,1,10,0:2:0:0:
256,192,467450,1,2,0:0:0:0:
256,192,467685,1,2,0:0:0:0:
256,192,467802,1,0,1:0:0:0:
256,192,467919,1,2,0:0:0:0:
256,192,468154,1,2,0:0:0:0:
256,192,468388,1,2,0:0:0:0:
256,192,468622,1,2,0:0:0:0:
240,384,468740,6,2,P|191:293|80:235,1,227.499993824959,4|0,1:2|0:0,0:1:0:0:
256,192,468974,1,0,0:2:0:0:
256,192,469208,1,10,0:2:0:0:
256,192,469443,1,2,0:2:0:0:
256,192,469560,1,2,0:2:0:0:
256,192,469677,1,2,1:2:0:0:
256,192,469794,1,2,0:2:0:0:
256,192,470029,1,2,0:2:0:0:
256,192,470263,1,2,0:2:0:0:
256,192,470380,1,0,0:2:0:0:
256,192,470497,1,2,0:2:0:0:
184,36,470615,6,2,B|102:136|102:136|-6:130,1,227.499993824959,4|0,1:2|0:0,0:1:0:0:
256,192,470849,1,2,0:0:0:0:
256,192,471083,1,10,0:0:0:0:
256,192,471318,1,2,0:0:0:0:
256,192,471435,1,2,0:0:0:0:
376,335,471552,6,2,B|402:109,1,227.499993824959,4|0,1:2|0:0,0:1:0:0:
256,192,471786,1,0,0:0:0:0:
256,192,471904,1,2,0:0:0:0:
256,192,472138,1,2,0:0:0:0:
256,192,472255,1,2,0:0:0:0:
256,192,472372,1,2,0:0:0:0:
189,8,472490,6,2,B|186:143|99:232,1,227.499993824959,4|0,1:2|0:0,0:1:0:0:
512,0,472724,5,2,0:0:0:0:
256,192,472958,1,10,0:0:0:0:
0,384,473193,1,2,0:0:0:0:
256,192,473427,1,2,1:2:0:0:
256,192,473779,5,2,0:0:0:0:
256,192,474013,1,2,0:0:0:0:
256,192,474247,1,2,0:0:0:0:
349,384,474365,6,2,B|301:298|301:298|391:180,1,227.499993824959,4|0,1:2|0:0,0:1:0:0:
256,192,474599,1,2,0:0:0:0:
256,192,474833,1,10,0:0:0:0:
256,192,474950,1,2,0:0:0:0:
256,192,475185,1,2,0:0:0:0:
256,192,475302,1,0,1:0:0:0:
256,192,475419,1,2,0:0:0:0:
256,192,475654,1,2,0:0:0:0:
256,192,475888,1,2,0:0:0:0:
256,192,476122,1,2,0:0:0:0:
179,368,476240,6,2,B|129:126,1,227.499993824959,4|0,1:2|0:0,0:1:0:0:
256,192,476474,1,0,0:0:0:0:
256,192,476708,1,10,0:0:0:0:
256,192,476943,1,0,0:0:0:0:
256,192,477060,1,2,0:0:0:0:
256,192,477177,1,2,1:2:0:0:
256,192,477294,1,2,0:0:0:0:
256,192,477529,1,2,0:0:0:0:
256,192,477763,1,2,0:0:0:0:
256,192,477880,1,2,0:0:0:0:
256,192,477997,1,2,0:0:0:0:
166,3,478115,6,2,P|140:128|49:203,1,227.499993824959,4|0,1:2|0:0,0:1:0:0:
256,192,478349,1,2,0:0:0:0:
256,192,478583,1,10,0:0:0:0:
256,192,478818,1,2,0:0:0:0:
256,192,478935,1,2,0:0:0:0:
266,381,479052,6,2,B|309:320|309:320|464:282,1,227.499993824959,4|0,1:2|0:2,1:1:0:0:
256,192,479286,1,0,0:0:0:0:
256,192,479404,1,2,0:0:0:0:
256,192,479638,1,2,0:0:0:0:
256,192,479755,1,2,0:0:0:0:
256,192,479872,1,2,0:0:0:0:
0,0,479990,5,6,1:2:0:0:
256,192,480458,1,10,0:0:0:0:
512,384,480927,1,2,1:2:0:0:
256,192,481279,5,2,0:0:0:0:
256,192,481513,1,2,0:0:0:0:
256,192,481747,1,2,0:0:0:0:
105,356,481865,6,2,B|72:130,1,227.499993824959,4|0,1:2|0:0,0:1:0:0:
256,192,482099,1,2,0:0:0:0:
256,192,482333,1,10,0:2:0:0:
256,192,482450,1,2,0:0:0:0:
256,192,482685,1,2,0:0:0:0:
256,192,482802,1,0,1:0:0:0:
256,192,482919,1,2,0:0:0:0:
256,192,483154,1,2,0:0:0:0:
256,192,483388,1,2,0:0:0:0:
256,192,483622,1,2,0:0:0:0:
422,263,483740,6,2,P|392:164|429:45,1,227.499993824959,4|0,1:2|0:0,0:1:0:0:
256,192,483974,1,0,0:2:0:0:
256,192,484208,1,10,0:2:0:0:
256,192,484443,1,2,0:2:0:0:
256,192,484560,1,2,0:2:0:0:
256,192,484677,1,2,1:2:0:0:
256,192,484794,1,2,0:2:0:0:
256,192,485029,1,2,0:2:0:0:
256,192,485263,1,2,0:2:0:0:
256,192,485380,1,0,0:2:0:0:
256,192,485497,1,2,0:2:0:0:
125,367,485615,6,2,B|175:299|175:299|352:274,1,227.499993824959,4|0,1:2|0:0,0:1:0:0:
256,192,485849,1,2,0:0:0:0:
256,192,486083,1,10,0:0:0:0:
256,192,486318,1,2,0:0:0:0:
256,192,486435,1,2,0:0:0:0:
109,39,486552,6,2,B|83:265,1,227.499993824959,4|0,1:2|0:0,0:1:0:0:
256,192,486786,1,0,0:0:0:0:
256,192,486904,1,2,0:0:0:0:
256,192,487138,1,2,0:0:0:0:
256,192,487255,1,2,0:0:0:0:
256,192,487372,1,2,0:0:0:0:
430,138,487490,6,2,B|355:250|374:373,1,227.499993824959,4|0,1:2|0:0,0:1:0:0:
0,0,487724,5,2,0:0:0:0:
256,192,487958,1,10,0:0:0:0:
512,384,488193,1,2,0:0:0:0:
256,192,488427,1,2,1:2:0:0:
256,192,488779,5,2,0:0:0:0:
256,192,489013,1,2,0:0:0:0:
256,192,489247,1,2,0:0:0:0:
360,30,489365,6,2,B|343:101|343:101|405:267,1,227.499993824959,4|0,1:2|0:0,0:1:0:0:
256,192,489599,1,2,0:0:0:0:
256,192,489833,1,10,0:0:0:0:
256,192,489950,1,2,0:0:0:0:
256,192,490185,1,2,0:0:0:0:
256,192,490302,1,0,1:0:0:0:
256,192,490419,1,2,0:0:0:0:
256,192,490654,1,2,0:0:0:0:
256,192,490888,1,2,0:0:0:0:
256,192,491122,1,2,0:0:0:0:
159,366,491240,6,2,B|128:127,1,227.499993824959,4|0,1:2|0:0,0:1:0:0:
256,192,491474,1,0,0:0:0:0:
256,192,491708,1,10,0:0:0:0:
256,192,491943,1,0,0:0:0:0:
256,192,492060,1,2,0:0:0:0:
256,192,492177,1,2,1:2:0:0:
256,192,492294,1,2,0:0:0:0:
256,192,492529,1,2,0:0:0:0:
256,192,492763,1,2,0:0:0:0:
256,192,492880,1,2,0:0:0:0:
256,192,492997,1,2,0:0:0:0:
389,382,493115,6,2,P|414:256|505:181,1,227.499993824959,4|0,1:0|0:0,0:1:0:0:
256,192,493349,1,2,0:0:0:0:
256,192,493583,1,10,0:0:0:0:
256,192,493818,1,2,0:0:0:0:
256,192,493935,1,2,0:0:0:0:
237,33,494052,6,2,B|112:123|112:123|35:121,1,227.499993824959,4|0,1:2|0:2,1:1:0:0:
256,192,494286,1,0,0:0:0:0:
256,192,494404,1,2,0:0:0:0:
256,192,494521,1,14,0:0:0:0:
256,192,494638,1,2,0:0:0:0:
256,192,494755,1,2,0:0:0:0:
256,192,494872,1,2,0:0:0:0:
64,64,494990,5,6,1:2:0:0:
256,192,495458,1,10,0:0:0:0:
448,320,495927,1,2,1:2:0:0:
256,192,496279,5,2,0:2:0:0:
256,192,496513,1,2,0:2:0:0:
256,192,496747,1,2,0:2:0:0:
167,41,496865,5,4,1:2:0:0:
256,192,497099,1,2,0:2:0:0:
256,192,497333,1,10,0:2:0:0:
256,192,497450,1,2,0:2:0:0:
256,192,497685,1,2,0:2:0:0:
256,192,497802,1,0,1:2:0:0:
256,192,497919,1,2,0:0:0:0:
256,192,498154,1,2,0:0:0:0:
256,192,498388,1,2,0:0:0:0:
256,192,498622,1,2,0:0:0:0:
317,40,498740,5,4,1:2:0:0:
256,192,498974,1,0,0:0:0:0:
256,192,499208,1,10,0:0:0:0:
256,192,499677,5,2,1:2:0:0:
256,192,499794,1,2,0:0:0:0:
256,192,500029,1,2,0:0:0:0:
256,192,500263,1,2,0:0:0:0:
256,192,500380,1,0,0:0:0:0:
256,192,500497,1,0,0:0:0:0:
322,355,500615,5,4,1:2:0:0:
256,192,500849,1,2,0:0:0:0:
256,192,501083,1,10,0:0:0:0:
256,192,501318,1,2,0:0:0:0:
256,192,501435,1,2,0:0:0:0:
161,344,501552,5,6,1:2:0:0:
256,192,501904,5,2,0:0:0:0:
256,192,502138,1,2,0:0:0:0:
256,192,502255,1,2,0:0:0:0:
256,192,502372,1,2,0:0:0:0:
213,50,502490,5,4,1:2:0:0:
64,64,502724,5,2,0:2:0:0:
256,192,502958,1,10,0:0:0:0:
448,320,503193,1,2,0:2:0:0:
256,192,503427,1,2,1:2:0:0:
256,192,503779,5,2,0:0:0:0:
256,192,504013,1,2,0:0:0:0:
256,192,504247,1,2,0:0:0:0:
398,85,504365,5,4,1:2:0:0:
256,192,504599,1,2,0:0:0:0:
256,192,504833,1,10,0:0:0:0:
256,192,504950,1,2,0:0:0:0:
256,192,505185,1,2,0:0:0:0:
256,192,505302,1,2,1:2:0:0:
256,192,505419,1,2,0:0:0:0:
256,192,505654,1,2,0:0:0:0:
256,192,505888,1,2,0:0:0:0:
256,192,506122,1,2,0:0:0:0:
343,359,506240,5,4,1:2:0:0:
256,192,506474,1,0,0:0:0:0:
256,192,506708,1,10,0:0:0:0:
256,192,507177,5,2,1:2:0:0:
256,192,507294,1,2,0:0:0:0:
256,192,507529,1,2,0:0:0:0:
256,192,507763,1,2,0:0:0:0:
256,192,507880,1,2,0:0:0:0:
256,192,507997,1,2,0:0:0:0:
146,366,508115,5,4,1:2:0:0:
256,192,508349,1,2,0:0:0:0:
256,192,508583,1,10,0:0:0:0:
256,192,508818,1,0,0:0:0:0:
256,192,508935,1,0,0:0:0:0:
132,35,509052,5,4,1:2:0:0:
256,192,509404,5,2,0:0:0:0:
256,192,509638,1,2,0:0:0:0:
256,192,509755,1,2,0:0:0:0:
256,192,509872,1,2,0:0:0:0:
448,64,509990,5,4,1:0:0:0:
256,192,510458,1,10,0:0:0:0:
64,320,510927,1,2,1:2:0:0:
256,192,511279,5,2,0:2:0:0:
256,192,511513,1,2,0:2:0:0:
256,192,511747,1,2,0:2:0:0:
429,245,511865,5,4,1:2:0:0:
256,192,512099,1,2,0:2:0:0:
256,192,512333,1,10,0:2:0:0:
256,192,512450,1,2,0:2:0:0:
256,192,512685,1,2,0:2:0:0:
256,192,512802,1,0,1:2:0:0:
256,192,512919,1,2,0:0:0:0:
256,192,513154,1,2,0:0:0:0:
256,192,513388,1,2,0:0:0:0:
256,192,513622,1,2,0:0:0:0:
188,364,513740,5,4,1:2:0:0:
256,192,513974,1,0,0:0:0:0:
256,192,514208,1,10,0:0:0:0:
256,192,514677,5,2,1:2:0:0:
256,192,514794,1,2,0:0:0:0:
256,192,515029,1,2,0:0:0:0:
256,192,515263,1,2,0:0:0:0:
256,192,515380,1,0,0:0:0:0:
256,192,515497,1,0,0:0:0:0:
70,136,515615,5,4,1:2:0:0:
256,192,515849,1,2,0:0:0:0:
256,192,516083,1,10,0:0:0:0:
256,192,516318,1,2,0:0:0:0:
256,192,516435,1,2,0:0:0:0:
346,66,516552,5,2,1:2:0:0:
256,192,516904,5,2,0:0:0:0:
256,192,517138,1,2,0:0:0:0:
256,192,517255,1,2,0:0:0:0:
256,192,517372,1,2,0:0:0:0:
381,316,517490,5,4,1:2:0:0:
448,64,517724,5,2,0:2:0:0:
256,192,517958,1,10,0:0:0:0:
64,320,518193,1,2,0:2:0:0:
256,192,518427,1,2,1:2:0:0:
256,192,518779,5,2,0:0:0:0:
256,192,519013,1,2,0:0:0:0:
256,192,519247,1,2,0:0:0:0:
163,291,519365,5,4,1:2:0:0:
256,192,519599,1,2,0:0:0:0:
256,192,519833,1,10,0:0:0:0:
256,192,519950,1,2,0:0:0:0:
256,192,520185,1,2,0:0:0:0:
256,192,520302,1,2,1:2:0:0:
256,192,520419,1,2,0:0:0:0:
256,192,520654,1,2,0:0:0:0:
256,192,520888,1,2,0:0:0:0:
256,192,521122,1,2,0:0:0:0:
191,81,521240,5,4,1:2:0:0:
256,192,521474,1,0,0:0:0:0:
256,192,521708,1,10,0:0:0:0:
256,192,522177,5,2,1:2:0:0:
256,192,522294,1,2,0:0:0:0:
256,192,522529,1,2,0:0:0:0:
256,192,522763,1,2,0:0:0:0:
256,192,522880,1,2,0:0:0:0:
256,192,522997,1,2,0:0:0:0:
360,125,523115,5,4,1:2:0:0:
256,192,523349,1,2,0:0:0:0:
256,192,523583,1,10,0:0:0:0:
256,192,523818,1,0,0:0:0:0:
256,192,523935,1,0,0:0:0:0:
327,261,524052,5,4,1:2:0:0:
256,192,524404,5,2,0:0:0:0:
256,192,524638,1,2,0:0:0:0:
256,192,524755,1,2,0:0:0:0:
256,192,524872,1,2,0:0:0:0:
256,192,524990,5,4,1:0:0:0:
256,192,525458,1,10,0:0:0:0:
256,192,525927,1,2,1:2:0:0:
256,192,526279,5,2,0:0:0:0:
256,192,526513,1,2,0:0:0:0:
256,192,526747,1,2,0:0:0:0:
256,192,527333,5,2,0:0:0:0:
256,192,527450,1,2,0:0:0:0:
256,192,527685,1,2,0:0:0:0:
256,192,528740,5,2,1:2:0:0:
256,192,530615,5,2,1:2:0:0:
256,192,531552,5,2,1:2:0:0:
256,192,532490,5,2,1:2:0:0:
256,192,532724,1,2,0:2:0:0:
256,192,532958,1,10,0:2:0:0:
256,192,533193,1,2,0:2:0:0:
256,192,533427,1,2,1:2:0:0:
256,192,533779,5,2,0:2:0:0:
256,192,534013,1,2,0:2:0:0:
256,192,534247,1,2,0:2:0:0:
256,192,534599,5,2,0:2:0:0:
256,192,534833,1,10,0:2:0:0:
256,192,534950,1,2,0:2:0:0:
256,192,535185,1,2,0:2:0:0:
256,192,536240,5,2,1:2:0:0:
256,192,538115,5,2,1:2:0:0:
256,192,539052,5,2,1:2:0:0:
256,192,539990,5,4,1:0:0:0:
256,192,540458,1,10,0:0:0:0:
256,192,540927,1,2,1:2:0:0:
256,192,541279,5,2,0:0:0:0:
256,192,541513,1,2,0:0:0:0:
256,192,541747,1,2,0:0:0:0:
256,192,542333,5,2,0:0:0:0:
256,192,542450,1,2,0:0:0:0:
256,192,542685,1,2,0:0:0:0:
256,192,543740,5,2,1:2:0:0:
256,192,545615,5,2,1:2:0:0:
256,192,546552,5,2,1:2:0:0:
256,192,547490,5,2,1:2:0:0:
256,192,547724,1,2,0:2:0:0:
256,192,547958,1,10,0:2:0:0:
256,192,548193,1,2,0:2:0:0:
256,192,548427,1,2,1:2:0:0:
256,192,548779,5,2,0:2:0:0:
256,192,549013,1,2,0:2:0:0:
256,192,549247,1,2,0:2:0:0:
256,192,549599,5,2,0:2:0:0:
256,192,549833,1,10,0:2:0:0:
256,192,549950,1,2,0:2:0:0:
256,192,550185,1,2,0:2:0:0:
256,192,551240,5,2,1:2:0:0:
256,192,553115,5,6,1:2:0:0:
256,192,554052,5,2,1:2:0:0:
0,0,554990,5,4,1:2:0:0:
