osu file format v14

[General]
AudioFilename: audio.ogg
AudioLeadIn: 0
PreviewTime: 48065
Countdown: 0
SampleSet: Soft
StackLeniency: 0.4
Mode: 0
LetterboxInBreaks: 0
WidescreenStoryboard: 1

[Editor]
Bookmarks: 627,815,12815,24815,36815,48065,48815,59315,60815,68315,71060,82310,85310,88310,91310,95060,107060,118310,119060,131060,141560,143060,150560,154685
DistanceSpacing: 0.2
BeatDivisor: 8
GridSize: 8
TimelineZoom: 1.5

[Metadata]
Title:Fuwafuwa Doremy
TitleUnicode:ふわふわどれみー
Artist:Shibayan feat. nachi
ArtistUnicode:Shibayan feat. nachi
Creator:bnmc
Version:Fluffy Dreams
Source:東方紺珠伝 ~ Legacy of Lunatic Kingdom.
Tags:japanese video game shibayanrecords jpop j-pop pop jazz touhou kanjuden LoLK toho bossa nova 8 東方Project ZUN 永遠の春夢 eien no shunmu eternal spring dream Doremy Sweet ドレミー・スイート boss theme th15 坂上なち sakaue M3-43
BeatmapID:3274936
BeatmapSetID:1603754

[Difficulty]
HPDrainRate:5
CircleSize:4.4
OverallDifficulty:7
ApproachRate:7.5
SliderMultiplier:1.8
SliderTickRate:1

[Events]
//Background and Video events
0,0,"fuwafuwa.jpg",0,0
//Break Periods
//Storyboard Layer 0 (Background)
//Storyboard Layer 1 (Fail)
//Storyboard Layer 2 (Pass)
//Storyboard Layer 3 (Foreground)
//Storyboard Layer 4 (Overlay)
//Storyboard Sound Samples

[TimingPoints]
815,750,4,2,1,45,1,0
3440,-62.5,4,2,1,45,0,0
3815,-90.9090909090909,4,2,1,45,0,0
6440,-55.5555555555556,4,2,1,45,0,0
6815,-83.3333333333333,4,2,1,45,0,0
8502,-100,4,2,1,45,0,0
9440,-76.9230769230769,4,2,1,45,0,0
9815,-100,4,2,1,45,0,0
12065,-117.647058823529,4,2,1,45,0,0
12815,-100,4,2,1,45,0,0
15440,-62.5,4,2,1,45,0,0
15815,-100,4,2,1,45,0,0
18440,-55.5555555555556,4,2,1,45,0,0
18815,-83.3333333333333,4,2,1,45,0,0
20502,-100,4,2,1,45,0,0
21440,-76.9230769230769,4,2,1,45,0,0
21815,-100,4,2,1,45,0,0
24440,-83.3333333333333,4,2,1,45,0,0
24815,-90.9090909090909,4,2,1,40,0,0
30440,-80,4,2,1,40,0,0
31190,-90.9090909090909,4,2,1,40,0,0
34377,-111.111111111111,4,2,1,40,0,0
36440,-100,4,2,1,40,0,0
36815,-90.9090909090909,4,2,1,40,0,0
42440,-80,4,2,1,40,0,0
44502,-90.9090909090909,4,2,1,40,0,0
48065,-90.9090909090909,4,2,1,45,0,0
48815,-83.3333333333333,4,2,1,55,0,1
50502,-83.3333333333333,4,2,2,55,0,1
50877,-83.3333333333333,4,2,3,55,0,1
51065,-83.3333333333333,4,2,1,55,0,1
53502,-83.3333333333333,4,2,2,55,0,1
53690,-83.3333333333333,4,2,3,55,0,1
53877,-83.3333333333333,4,2,1,55,0,1
56502,-90.9090909090909,4,2,4,55,0,1
56877,-83.3333333333333,4,2,5,55,0,1
57065,-83.3333333333333,4,2,1,55,0,1
59315,-80,4,2,3,55,0,1
59690,-86.9565217391304,4,2,6,55,0,1
60065,-95.2380952380952,4,2,7,55,0,1
60440,-105.263157894737,4,2,8,55,0,1
60815,-111.111111111111,4,2,5,50,0,1
61002,-111.111111111111,4,2,1,50,0,1
62315,-142.857142857143,4,2,1,50,0,1
62877,-125,4,2,1,50,0,1
63252,-111.111111111111,4,2,1,50,0,1
66065,-111.111111111111,4,2,6,50,0,1
66440,-111.111111111111,4,2,7,50,0,1
67002,-111.111111111111,4,2,1,50,0,1
68315,-181.818181818182,4,2,10,45,0,0
69815,-181.818181818182,4,2,1,35,0,0
70565,-181.818181818182,4,2,10,30,0,0
70875,750,4,2,1,35,1,0
71062,750,4,2,1,40,1,0
72749,-90.9090909090909,4,2,1,40,0,0
74062,-100,4,2,1,40,0,0
75749,-90.9090909090909,4,2,1,40,0,0
77062,-100,4,2,1,40,0,0
79687,-83.3333333333333,4,2,1,40,0,0
80062,-100,4,2,1,40,0,0
84749,-90.9090909090909,4,2,1,40,0,0
86624,-100,4,2,1,40,0,0
88312,-90.9090909090909,4,2,1,40,0,0
89062,-100,4,2,1,40,0,0
91312,-90.9090909090909,4,2,1,40,0,0
92062,-95.2380952380952,4,2,1,40,0,0
94312,-95.2380952380952,4,2,1,50,0,0
94687,-66.6666666666667,4,2,1,50,0,0
95062,-86.9565217391304,4,2,1,50,0,0
104062,-95.2380952380952,4,2,1,50,0,0
106687,-71.4285714285714,4,2,1,50,0,0
107062,-86.9565217391304,4,2,1,50,0,0
116062,-90.9090909090909,4,2,1,50,0,0
119062,-76.9230769230769,4,2,1,55,0,1
120749,-76.9230769230769,4,2,2,55,0,1
121124,-76.9230769230769,4,2,3,55,0,1
121312,-76.9230769230769,4,2,1,55,0,1
123749,-76.9230769230769,4,2,2,55,0,1
123937,-76.9230769230769,4,2,3,55,0,1
124124,-76.9230769230769,4,2,1,55,0,1
126749,-76.9230769230769,4,2,4,55,0,1
127124,-76.9230769230769,4,2,5,55,0,1
127312,-76.9230769230769,4,2,1,55,0,1
129562,-76.9230769230769,4,2,3,55,0,1
129749,-76.9230769230769,4,2,1,55,0,1
132749,-76.9230769230769,4,2,2,55,0,1
133124,-76.9230769230769,4,2,3,55,0,1
133312,-76.9230769230769,4,2,1,55,0,1
135749,-76.9230769230769,4,2,2,55,0,1
135937,-76.9230769230769,4,2,3,55,0,1
136124,-76.9230769230769,4,2,1,55,0,1
138749,-76.9230769230769,4,2,4,55,0,1
139124,-76.9230769230769,4,2,5,55,0,1
139312,-76.9230769230769,4,2,1,55,0,1
141562,-74.0740740740741,4,2,3,55,0,1
141937,-80,4,2,6,55,0,1
142312,-86.9565217391304,4,2,7,55,0,1
142687,-100,4,2,8,55,0,1
143062,-111.111111111111,4,2,5,50,0,1
143249,-111.111111111111,4,2,1,50,0,1
148312,-111.111111111111,4,2,6,50,0,1
148687,-111.111111111111,4,2,7,50,0,1
149249,-111.111111111111,4,2,1,50,0,1
150562,-166.666666666667,4,2,10,45,0,0
153562,-166.666666666667,4,2,1,35,0,0
154312,-166.666666666667,4,2,10,30,0,0
154687,-100,4,2,1,30,0,0

[Colours]
Combo1 : 251,100,83
Combo2 : 7,163,190
Combo3 : 252,209,224
Combo4 : 120,210,66
Combo5 : 254,251,194

[HitObjects]
69,249,627,5,2,0:0:0:0:
69,249,721,1,2,0:0:0:0:
69,249,815,2,0,P|110:232|158:229,1,90,10|10,0:0|0:0,0:0:0:0:
247,264,1565,1,8,0:0:0:0:
281,152,1752,2,0,P|287:176|285:207,1,45,10|0,0:1|0:0,0:0:0:0:
247,264,2127,1,10,0:0:0:0:
244,281,2502,1,10,0:0:0:0:
241,298,2877,2,0,B|244:321|267:327|274:280|316:273|349:293,1,112.5,10|0,0:1|0:0,0:0:0:0:
354,357,3440,6,0,P|393:337|403:264,1,108,10|0,0:0|0:0,0:0:0:0:
364,218,3815,6,0,B|341:196|341:196|265:211,1,99.0000030212403,10|10,0:0|0:0,0:0:0:0:
176,230,4565,1,8,0:0:0:0:
227,138,4752,2,0,L|177:147,1,49.5000015106201,10|0,0:1|0:0,0:0:0:0:
57,168,5127,1,10,0:0:0:0:
54,187,5502,1,10,0:0:0:0:
62,204,5877,2,0,B|87:217|87:217|97:260|66:320,1,123.75000377655,10|0,0:1|0:0,0:0:0:0:
9,256,6440,6,0,P|-19:195|23:130,1,121.499996292114,10|0,0:0|0:0,0:0:0:0:
83,78,6815,6,0,L|79:131,1,53.9999983520508,10|0,0:0|0:0,0:0:0:0:
156,11,7190,2,0,L|159:64,1,53.9999983520508,10|0,0:0|0:0,0:0:0:0:
218,120,7565,1,8,0:0:0:0:
299,60,7752,2,0,P|331:56|365:73,1,53.9999983520508,10|0,0:1|0:0,0:0:0:0:
405,111,8127,2,0,B|391:123|391:123|399:183,1,53.9999983520508,10|8,0:0|0:0,0:0:0:0:
443,237,8502,5,10,0:1:0:0:
438,254,8877,2,0,P|372:227|322:253,1,112.5,10|0,0:0|0:0,0:0:0:0:
287,290,9440,6,0,B|259:272|237:300|203:275,1,87.749995983124,10|0,0:0|0:0,0:0:0:0:
136,239,9815,6,0,P|132:282|157:334,1,90,10|10,0:0|0:0,0:0:0:0:
245,367,10565,1,8,0:0:0:0:
150,325,10752,2,0,L|87:321,1,45,10|0,0:1|0:0,0:0:0:0:
0,376,11127,2,0,L|63:372,1,45,10|8,0:0|0:0,0:0:0:0:
150,325,11502,2,0,L|87:321,1,45,10|0,0:0|0:0,0:0:0:0:
44,373,11877,1,8,0:1:0:0:
52,279,12065,6,0,L|43:219,1,57.3750010943413,10|0,0:0|0:0,0:0:0:0:
82,165,12440,2,0,L|76:124,1,38.2500007295609,14|0,0:0|0:0,0:0:0:0:
117,241,12815,5,10,0:0:0:0:
134,243,13190,1,10,0:0:0:0:
151,246,13565,1,8,0:0:0:0:
189,182,13752,2,0,P|210:196|220:232,1,45,10|0,0:1|0:0,0:0:0:0:
176,272,14127,2,0,B|209:289|209:289|278:278,1,90,10|10,0:0|0:0,0:0:0:0:
318,212,14690,1,0,0:0:0:0:
318,212,14877,2,0,P|344:237|353:294,1,90,10|0,0:1|0:0,0:0:0:0:
405,345,15440,6,0,B|446:307|446:307|437:239,1,108,10|0,0:0|0:0,0:0:0:0:
399,197,15815,6,0,P|442:185|487:207,1,90,10|10,0:0|0:0,0:0:0:0:
510,267,16565,1,8,0:0:0:0:
355,248,16752,2,0,L|359:299,1,45,10|0,0:1|0:0,0:0:0:0:
308,189,17127,1,10,0:0:0:0:
290,193,17502,1,10,0:0:0:0:
272,197,17877,2,0,B|264:184|250:186|250:186|262:245|230:282,1,112.5,10|0,0:1|0:0,0:0:0:0:
180,216,18440,6,0,P|134:214|76:162,1,121.499996292114,10|0,0:0|0:0,0:0:0:0:
157,128,18815,6,0,L|153:54,1,53.9999983520508,10|0,0:0|0:0,0:0:0:0:
230,153,19190,2,0,L|234:79,1,53.9999983520508,10|0,0:0|0:0,0:0:0:0:
157,128,19565,1,8,0:0:0:0:
230,153,19752,2,0,P|250:137|283:130,1,53.9999983520508,10|0,0:1|0:0,0:0:0:0:
389,187,20127,2,0,P|363:188|332:175,1,53.9999983520508,10|8,0:0|0:0,0:0:0:0:
265,226,20502,5,10,0:1:0:0:
278,242,20877,2,0,L|272:365,1,112.5,10|0,0:0|0:0,0:0:0:0:
206,384,21440,6,0,P|172:348|122:352,1,87.749995983124,10|0,0:0|0:0,0:0:0:0:
76,384,21815,5,10,0:0:0:0:
58,381,22190,1,10,0:0:0:0:
40,379,22565,1,8,0:0:0:0:
65,303,22752,2,0,L|63:251,1,45,10|0,0:1|0:0,0:0:0:0:
129,171,23127,2,0,L|127:223,1,45,10|8,0:0|0:0,0:0:0:0:
173,286,23502,2,0,P|193:273|245:272,1,67.5,8|0,0:0|0:0,0:0:0:0:
269,293,23877,5,10,0:1:0:0:
295,211,24065,1,8,0:3:0:0:
377,188,24252,1,4,0:3:0:0:
232,161,24440,2,0,B|249:139|249:139|312:132,1,80.9999975280763,14|0,0:0|0:0,0:0:0:0:
376,108,24815,6,0,P|351:66|304:54,1,99.0000030212403,10|10,0:0|0:1,0:0:0:0:
456,180,25565,2,0,P|460:131|498:101,1,99.0000030212403,10|2,0:0|0:0,0:0:0:0:
414,53,26127,2,0,P|363:49|330:13,1,99.0000030212403,10|2,0:1|0:1,0:0:0:0:
331,171,26877,2,0,B|310:150|310:150|236:162,1,99.0000030212403,10|0,0:1|0:0,0:0:0:0:
159,218,27440,6,0,B|160:246|138:265|138:265|118:241|140:216|157:174|107:128,1,198.000006042481,10|10,0:1|0:1,0:0:0:0:
51,195,28565,2,0,B|24:193|0:208|0:208|8:186,1,74.2500022659302,10|2,0:0|0:0,0:0:0:0:
41,271,29127,1,10,0:1:0:0:
138,265,29502,1,10,0:1:0:0:
207,336,29877,2,0,B|265:317|267:360|327:339,1,123.75000377655,10|0,0:0|0:0,0:0:0:0:
296,272,30440,6,0,P|263:197|347:212,1,196.875,10|0,0:1|0:0,0:0:0:0:
368,268,31190,6,0,P|398:266|428:253,1,49.5000015106202,10|8,0:1|0:0,0:0:0:0:
482,229,31565,1,10,0:0:0:0:
487,278,31752,2,0,L|479:209,1,49.5000015106202,10|0,0:1|0:0,0:0:0:0:
467,159,32127,1,10,0:1:0:0:
448,165,32502,2,0,B|392:181,1,49.5000015106202,2|0,0:1|0:0,0:0:0:0:
335,198,32877,1,10,0:1:0:0:
335,198,33065,2,0,P|330:167|346:135,1,49.5000015106202,8|0,0:0|0:0,0:0:0:0:
393,110,33440,5,10,0:1:0:0:
335,150,33627,1,2,0:0:0:0:
265,122,33815,2,0,P|231:107|151:126,1,99.0000030212403,10|10,0:0|0:1,0:0:0:0:
108,175,34377,2,0,P|87:144|89:84,1,80.9999975280763,10|8,0:0|0:1,0:0:0:0:
144,47,35127,5,8,0:1:0:0:
159,50,35502,1,10,0:1:0:0:
174,54,35877,1,8,0:1:0:0:
83,101,36065,2,0,L|27:94,1,40.4999987640381,8|0,0:0|0:0,0:0:0:0:
155,151,36440,6,0,L|215:143,1,45,14|0,0:1|0:0,0:0:0:0:
241,201,36815,2,0,P|271:164|265:116,1,99.0000030212403,10|10,0:0|0:1,0:0:0:0:
391,120,37565,2,0,P|349:96|338:49,1,99.0000030212403,10|2,0:0|0:0,0:0:0:0:
462,87,38127,2,0,P|476:125|447:178,1,99.0000030212403,10|2,0:1|0:1,0:0:0:0:
358,261,38877,2,0,L|456:268,1,99.0000030212403,10|0,0:1|0:0,0:0:0:0:
316,331,39440,6,0,B|257:284|291:214|291:214|254:206|224:261,1,198.000006042481,10|10,0:1|0:1,0:0:0:0:
245,363,40565,5,10,0:0:0:0:
145,335,40846,1,2,0:0:0:0:
51,382,41127,2,0,P|18:344|18:296,1,99.0000030212403,10|10,0:1|0:1,0:0:0:0:
93,225,41877,2,0,L|89:274,1,49.5000015106202,10|8,0:0|0:0,0:0:0:0:
88,304,42252,1,0,0:0:0:0:
145,174,42440,6,0,B|211:210|245:140|288:132|322:165|299:203,1,196.875,10|0,0:1|0:0,0:0:0:0:
265,251,43190,6,0,P|292:262|330:259,1,56.25,10|10,0:1|0:0,0:0:0:0:
387,225,43565,1,10,0:0:0:0:
440,236,43752,2,0,P|412:235|386:224,1,56.25,10|0,0:1|0:0,0:0:0:0:
427,161,44127,2,0,L|436:97,1,56.25,10|8,0:1|0:0,0:0:0:0:
429,30,44502,1,2,0:1:0:0:
409,25,44877,1,10,0:1:0:0:
345,67,45065,2,0,L|275:62,1,49.5000015106202,8|2,0:0|0:0,0:0:0:0:
212,58,45440,5,10,0:1:0:0:
243,127,45627,1,2,0:0:0:0:
203,192,45815,2,0,B|149:156|145:211|83:175,1,123.75000377655,10|0,0:0|0:0,0:0:0:0:
51,150,46377,2,0,P|30:194|41:255,1,99.0000030212403,10|8,0:0|0:1,0:0:0:0:
113,291,47127,1,8,0:1:0:0:
132,289,47502,1,10,0:1:0:0:
151,286,47877,1,8,0:1:0:0:
222,231,48065,5,10,0:3:0:0:
222,305,48252,1,6,0:3:0:0:
272,359,48440,1,14,0:0:0:0:
345,363,48627,1,2,0:0:0:0:
313,263,48815,6,0,P|328:213|313:150,1,107.999996704102,10|2,0:0|0:0,0:0:0:0:
251,86,49377,1,10,0:0:0:0:
357,70,49752,1,10,0:1:0:0:
400,168,50127,1,10,0:0:0:0:
357,70,50502,6,0,P|339:43|255:24,1,107.999996704102,10|2,0:0|0:0,0:0:0:0:
199,70,51065,5,10,0:0:0:0:
167,67,51252,1,2,0:0:0:0:
89,9,51440,1,10,0:1:0:0:
57,12,51627,1,2,0:0:0:0:
28,159,51815,6,0,P|73:137|91:83,1,107.999996704102,10|2,0:0|0:0,0:0:0:0:
201,224,52377,2,0,P|159:191|153:138,1,107.999996704102,10|10,0:0|0:1,0:0:0:0:
85,233,53127,1,10,0:0:0:0:
176,110,53502,5,10,0:0:0:0:
239,169,53690,1,2,0:0:0:0:
315,124,53877,6,0,L|426:114,1,107.999996704102,10|2,0:0|0:0,0:0:0:0:
484,166,54440,1,14,0:1:0:0:
478,197,54627,1,2,0:0:0:0:
498,286,54815,6,0,P|445:280|404:245,1,107.999996704102,10|2,0:0|0:0,0:0:0:0:
258,249,55377,2,0,P|293:208|344:195,1,107.999996704102,10|10,0:0|0:1,0:0:0:0:
336,282,56127,1,10,0:0:0:0:
276,369,56502,6,0,P|239:372|221:381,1,49.5000015106202,10|0,0:0|0:0,0:0:0:0:
162,340,56877,1,2,0:0:0:0:
129,336,57065,1,10,0:0:0:0:
50,366,57252,5,2,0:0:0:0:
68,292,57440,1,10,0:1:0:0:
33,224,57627,1,2,0:0:0:0:
133,252,57815,6,0,B|124:241|127:226|127:226|146:216|165:249|217:226,1,107.999996704102,10|2,0:0|0:0,0:0:0:0:
271,171,58377,1,10,0:0:0:0:
180,111,58752,1,10,0:1:0:0:
211,7,59127,1,10,0:0:0:0:
337,66,59315,6,0,P|309:63|282:73,1,56.25,10|0,0:0|0:0,0:0:0:0:
442,129,59690,6,0,P|416:125|390:109,1,51.7500009870529,2|0,0:0|0:0,0:0:0:0:
318,157,60065,6,0,P|294:162|275:174,1,47.2499985580445,10|0,0:0|0:0,0:0:0:0:
399,234,60440,6,0,P|393:211|379:192,1,42.7499988584519,14|0,0:1|0:0,0:0:0:0:
303,260,60815,6,0,P|266:273|217:259,1,80.9999975280763,10|0,0:0|0:0,0:0:0:0:
177,208,61377,1,8,0:0:0:0:
177,208,61565,2,0,B|149:232|149:232|164:331,1,121.499996292114,8|8,0:0|0:1,0:0:0:0:
109,368,62315,6,0,P|79:357|42:362,1,62.9999980773926,8|0,0:0|0:0,0:0:0:0:
161,315,62877,2,0,L|200:311,1,36,8|8,0:0|0:0,0:0:0:0:
268,338,63252,5,2,0:0:0:0:
299,272,63440,1,10,0:1:0:0:
370,256,63627,1,2,0:0:0:0:
375,349,63815,6,0,P|413:363|469:354,1,80.9999975280763,10|10,0:0|0:1,0:0:0:0:
508,294,64377,1,10,0:0:0:0:
508,294,64565,2,0,P|474:278|489:200,1,121.499996292114,8|8,0:0|0:1,0:0:0:0:
423,156,65315,6,0,L|296:167,1,121.499996292114,8|8,0:0|0:0,0:0:0:0:
229,149,66065,5,10,0:0:0:0:
223,181,66440,1,14,0:1:0:0:
220,213,66815,2,0,B|242:224|259:204|259:204|221:167|132:249|51:248|24:195,1,283.499991348267,10|8,0:0|0:0,0:0:0:0:
90,140,68315,6,0,B|160:169|174:309|65:282|108:368|149:393|203:387|214:345|193:315,1,337.95,6|2,0:0|0:0,0:0:0:0:
238,252,71062,6,0,P|280:241|323:254,1,90,10|0,0:0|0:0,0:0:0:0:
350,333,71624,1,10,0:0:0:0:
366,328,71999,1,10,0:1:0:0:
383,323,72374,1,10,0:0:0:0:
472,248,72749,2,0,L|415:245,1,49.5000015106202,10|0,0:1|0:0,0:0:0:0:
365,202,73124,1,10,0:1:0:0:
365,202,73312,2,0,P|394:157|390:112,1,99.0000030212403,8|8,0:0|0:1,0:0:0:0:
349,51,74062,6,0,B|373:35|373:35|442:49,1,90,10|0,0:0|0:0,0:0:0:0:
390,113,74624,1,10,0:0:0:0:
372,116,74999,1,10,0:1:0:0:
354,117,75374,2,0,L|288:122,1,45,10|8,0:0|0:0,0:0:0:0:
220,136,75749,2,0,P|236:114|240:91,1,49.5000015106202,10|0,0:1|0:0,0:0:0:0:
196,32,76124,5,10,0:1:0:0:
169,42,76312,1,8,0:0:0:0:
123,100,76499,5,4,0:3:0:0:
92,32,76687,1,8,0:1:0:0:
18,22,76874,1,8,0:0:0:0:
53,185,77062,6,0,P|36:142|42:97,1,90,10|0,0:0|0:0,0:0:0:0:
144,175,77624,2,0,P|144:218|123:257,1,90,10|10,0:0|0:1,0:0:0:0:
196,310,78374,1,10,0:0:0:0:
213,306,78749,1,10,0:1:0:0:
230,303,79124,1,10,0:1:0:0:
292,345,79312,2,0,L|371:351,1,67.5,8|0,0:0|0:0,0:0:0:0:
386,326,79687,6,0,P|378:292|353:315,1,80.9999975280763,8|0,0:1|0:0,0:0:0:0:
386,326,80062,6,0,P|430:332|479:313,1,90,10|0,0:0|0:0,0:0:0:0:
486,230,80624,1,10,0:0:0:0:
471,218,80999,2,0,L|407:212,1,45,10|0,0:1|0:0,0:0:0:0:
352,206,81374,1,10,0:0:0:0:
277,98,81749,5,10,0:1:0:0:
236,94,81937,1,2,0:0:0:0:
206,66,82124,1,10,0:1:0:0:
144,112,82312,5,10,0:0:0:0:
99,173,82499,1,14,0:3:0:0:
96,249,82687,1,10,0:1:0:0:
137,312,82874,1,10,0:0:0:0:
183,198,83062,6,0,P|229:183|287:185,1,90,10|0,0:0|0:0,0:0:0:0:
311,254,83624,1,10,0:0:0:0:
328,250,83999,1,10,0:1:0:0:
345,244,84374,1,10,0:0:0:0:
424,288,84749,2,0,P|438:257|436:228,1,49.5000015106202,10|0,0:1|0:0,0:0:0:0:
407,178,85124,1,10,0:1:0:0:
449,115,85312,6,0,L|499:123,1,49.5000015106202,10|2,0:0|0:0,0:0:0:0:
387,73,85687,2,0,L|337:81,1,49.5000015106202,10|2,0:1|0:0,0:0:0:0:
239,112,86062,2,0,P|259:80|261:32,1,74.2500022659302,10|0,0:0|0:0,0:0:0:0:
245,9,86437,1,2,0:0:0:0:
181,60,86624,2,0,P|151:54|118:62,1,45,10|8,0:0|0:0,0:0:0:0:
84,116,86999,6,0,B|107:129|107:129|93:208,1,90,10|10,0:1|0:0,0:0:0:0:
88,262,87749,1,10,0:1:0:0:
105,267,88124,1,10,0:1:0:0:
147,338,88312,6,0,P|116:346|87:344,1,49.5000015106202,10|6,0:0|0:3,0:0:0:0:
208,292,88687,2,0,P|239:291|267:301,1,49.5000015106202,10|10,0:1|0:0,0:0:0:0:
315,361,89062,2,0,L|416:356,1,90,10|2,0:0|0:0,0:0:0:0:
482,351,89624,5,10,0:0:0:0:
491,336,89999,1,10,0:1:0:0:
491,318,90374,2,0,P|488:288|470:267,1,45,10|8,0:0|0:0,0:0:0:0:
411,286,90749,2,0,B|392:317|392:317|328:324,1,90,10|10,0:1|0:1,0:0:0:0:
271,277,91312,5,10,0:0:0:0:
276,247,91499,1,2,0:0:0:0:
221,192,91687,1,10,0:1:0:0:
216,162,91874,1,2,0:0:0:0:
274,115,92062,6,0,P|249:95|172:99,1,94.499997116089,10|2,0:0|0:0,0:0:0:0:
133,145,92624,1,10,0:0:0:0:
50,97,92999,1,10,0:1:0:0:
98,17,93374,2,0,L|160:21,1,47.2499985580445,10|8,0:0|0:0,0:0:0:0:
235,8,93749,6,0,P|229:53|196:84,1,94.499997116089,10|8,0:1|0:1,0:0:0:0:
145,20,94312,1,8,0:0:0:0:
195,85,94499,1,4,0:3:0:0:
302,55,94687,6,0,B|335:51|335:51|360:77|360:77|395:74,1,101.250003862381,12|0,0:0|0:0,0:0:0:0:
423,54,95062,6,0,P|432:100|394:163,1,103.500001974106,10|2,0:0|0:0,0:0:0:0:
407,248,95624,2,0,P|367:214|316:211,1,103.500001974106,10|10,0:0|0:1,0:0:0:0:
237,288,96374,1,10,0:0:0:0:
194,193,96749,2,0,L|193:129,1,51.7500009870529,10|0,0:1|0:0,0:0:0:0:
127,251,97124,1,10,0:1:0:0:
127,251,97312,2,0,B|57:260|57:260|27:234,1,103.500001974106,8|10,0:0|0:1,0:0:0:0:
101,161,98062,6,0,P|126:117|108:71,1,103.500001974106,10|2,0:0|0:0,0:0:0:0:
50,22,98624,2,0,B|71:-6|71:-6|141:0,1,103.500001974106,10|10,0:0|0:1,0:0:0:0:
210,76,99374,1,10,0:0:0:0:
224,90,99749,2,0,L|285:84,1,51.7500009870529,10|0,0:1|0:0,0:0:0:0:
359,72,100124,1,10,0:1:0:0:
359,72,100312,2,0,P|359:98|338:136,1,51.7500009870529,10|6,0:0|0:3,0:0:0:0:
286,155,100687,5,8,0:1:0:0:
346,193,100874,1,10,0:0:0:0:
281,226,101062,2,0,P|267:259|297:320,1,103.500001974106,10|2,0:0|0:0,0:0:0:0:
246,384,101624,2,0,L|177:378,1,51.7500009870529,10|8,0:0|0:0,0:0:0:0:
117,371,101999,1,10,0:1:0:0:
130,342,102187,1,2,0:0:0:0:
87,282,102374,5,10,0:0:0:0:
120,184,102749,1,10,0:1:0:0:
59,99,103124,1,10,0:1:0:0:
59,99,103312,2,0,B|63:127|63:127|94:95|151:102,1,103.500001974106,8|8,0:0|0:1,0:0:0:0:
193,188,104062,6,0,B|237:191|237:191|243:200|243:200|287:202,1,94.499997116089,10|2,0:0|0:0,0:0:0:0:
345,249,104624,2,0,B|368:209|368:209|350:163,1,94.499997116089,10|10,0:0|0:1,0:0:0:0:
337,89,105374,2,0,L|391:97,1,47.2499985580445,10|10,0:0|0:0,0:0:0:0:
446,55,105749,6,0,P|456:75|461:99,1,47.2499985580445,10|0,0:1|0:0,0:0:0:0:
417,161,106124,1,8,0:1:0:0:
488,185,106312,1,8,0:0:0:0:
498,259,106499,1,4,0:3:0:0:
405,252,106687,6,0,P|366:228|304:239,1,94.499997116089,14|0,0:0|0:0,0:0:0:0:
301,268,107062,6,0,B|272:333|272:333|226:330,1,103.500001974106,10|2,0:0|0:0,0:0:0:0:
220,263,107624,1,10,0:0:0:0:
199,262,107999,1,10,0:1:0:0:
178,260,108374,2,0,L|107:252,1,51.7500009870529,10|8,0:0|0:0,0:0:0:0:
53,254,108749,2,0,P|54:282|73:314,1,51.7500009870529,10|0,0:1|0:0,0:0:0:0:
96,192,109124,1,10,0:1:0:0:
96,192,109312,2,0,P|139:176|137:113,1,103.500001974106,8|8,0:0|0:1,0:0:0:0:
14,187,110062,5,10,0:0:0:0:
49,124,110249,1,2,0:0:0:0:
28,54,110437,1,2,0:0:0:0:
83,8,110624,2,0,B|101:40|101:40|188:48,1,103.500001974106,10|10,0:0|0:1,0:0:0:0:
274,34,111374,5,10,0:0:0:0:
277,54,111749,1,10,0:1:0:0:
279,74,112124,1,10,0:1:0:0:
233,137,112312,6,0,P|253:150|287:154,1,51.7500009870529,8|4,0:0|0:3,0:0:0:0:
343,120,112687,1,10,0:1:0:0:
343,120,112874,1,10,0:0:0:0:
343,195,113062,2,0,B|375:182|375:182|368:261,1,103.500001974106,10|2,0:0|0:0,0:0:0:0:
333,315,113624,2,0,P|300:308|261:318,1,51.7500009870529,10|8,0:0|0:0,0:0:0:0:
223,351,113999,1,10,0:1:0:0:
158,316,114187,1,2,0:0:0:0:
186,249,114374,5,10,0:0:0:0:
197,232,114749,1,10,0:1:0:0:
195,211,115124,2,0,B|210:203|199:192|199:192|171:171|146:238|115:250|61:233,1,155.250002961159,10|8,0:1|0:1,0:0:0:0:
84,128,116062,6,0,P|54:89|63:32,1,99.0000030212403,10|2,0:0|0:0,0:0:0:0:
141,57,116624,2,0,P|178:26|234:35,1,99.0000030212403,10|10,0:0|0:1,0:0:0:0:
300,101,117374,2,0,L|366:89,1,49.5000015106202,10|10,0:0|0:0,0:0:0:0:
426,94,117749,1,10,0:1:0:0:
423,113,118124,1,10,0:1:0:0:
368,163,118312,5,10,0:0:0:0:
435,192,118499,1,14,0:0:0:0:
463,260,118687,1,10,0:1:0:0:
448,332,118874,1,10,0:3:0:0:
344,257,119062,6,0,B|348:280|348:280|290:291|240:252,1,116.999994644165,10|2,0:0|0:0,0:0:0:0:
197,208,119624,1,10,0:0:0:0:
147,313,119999,1,10,0:1:0:0:
32,337,120374,1,10,0:0:0:0:
82,219,120749,6,0,B|50:196|50:196|72:115,1,116.999994644165,10|2,0:0|0:0,0:0:0:0:
124,67,121312,5,10,0:0:0:0:
157,75,121499,1,2,0:0:0:0:
240,42,121687,1,10,0:1:0:0:
273,38,121874,1,2,0:0:0:0:
316,111,122062,6,0,P|346:86|349:8,1,116.999994644165,10|2,0:0|0:0,0:0:0:0:
473,148,122624,2,0,P|442:123|439:45,1,116.999994644165,10|10,0:0|0:1,0:0:0:0:
360,210,123374,1,10,0:0:0:0:
234,157,123749,5,10,0:0:0:0:
212,248,123937,1,2,0:0:0:0:
118,248,124124,6,0,P|77:212|9:216,1,116.999994644165,10|2,0:0|0:0,0:0:0:0:
0,301,124687,1,14,0:1:0:0:
33,290,124874,1,2,0:0:0:0:
95,336,125062,6,0,B|119:362|119:362|208:353,1,116.999994644165,10|2,0:0|0:0,0:0:0:0:
272,384,125624,2,0,P|282:354|264:315,1,58.4999973220826,10|8,0:0|0:0,0:0:0:0:
217,279,125999,1,10,0:1:0:0:
331,253,126374,1,10,0:0:0:0:
376,359,126749,6,0,B|425:326|440:378|497:343,1,116.999994644165,10|2,0:0|0:0,0:0:0:0:
448,278,127312,6,0,P|425:258|419:227,1,58.4999973220826,10|2,0:0|0:0,0:0:0:0:
480,182,127687,2,0,P|503:162|509:131,1,58.4999973220826,10|2,0:1|0:0,0:0:0:0:
458,71,128062,6,0,P|427:103|357:97,1,116.999994644165,10|2,0:0|0:0,0:0:0:0:
307,36,128624,1,10,0:0:0:0:
286,151,128999,1,10,0:1:0:0:
171,174,129374,1,10,0:0:0:0:
122,115,129562,6,0,B|91:109|91:109|48:124,2,58.4999973220826,10|8|0,0:0|0:1|0:0,0:0:0:0:
171,174,130124,5,2,0:0:0:0:
111,212,130312,1,10,0:0:0:0:
100,281,130499,5,2,0:0:0:0:
191,260,130687,1,14,0:1:0:0:
253,328,130874,1,2,0:0:0:0:
276,212,131062,6,0,B|326:238|337:182|412:217,1,116.999994644165,10|2,0:0|0:0,0:0:0:0:
449,257,131624,1,10,0:0:0:0:
453,280,131999,1,10,0:1:0:0:
457,303,132374,1,10,0:0:0:0:
335,364,132749,6,0,P|361:338|363:260,1,116.999994644165,10|2,0:0|0:0,0:0:0:0:
299,228,133312,5,10,0:0:0:0:
264,236,133499,1,2,0:0:0:0:
189,195,133687,1,10,0:1:0:0:
152,191,133874,1,2,0:0:0:0:
106,264,134062,6,0,P|71:236|72:161,1,116.999994644165,10|2,0:0|0:0,0:0:0:0:
125,105,134624,2,0,B|42:86|42:86|72:58,1,116.999994644165,10|10,0:0|0:1,0:0:0:0:
172,31,135374,1,10,0:0:0:0:
189,46,135749,5,10,0:0:0:0:
212,136,135937,1,2,0:0:0:0:
296,96,136124,6,0,P|341:82|402:111,1,116.999994644165,10|2,0:0|0:0,0:0:0:0:
403,186,136687,1,14,0:1:0:0:
437,181,136874,1,2,0:0:0:0:
507,214,137062,6,0,B|487:247|487:247|401:262,1,116.999994644165,10|2,0:0|0:0,0:0:0:0:
334,274,137624,1,10,0:0:0:0:
311,279,137999,1,10,0:1:0:0:
288,285,138374,1,10,0:0:0:0:
213,366,138749,6,0,P|182:347|146:350,1,58.4999973220826,10|0,0:0|0:0,0:0:0:0:
92,381,139124,1,2,0:0:0:0:
36,328,139312,6,0,L|45:263,1,58.4999973220826,10|2,0:0|0:0,0:0:0:0:
100,216,139687,2,0,L|91:151,1,58.4999973220826,10|2,0:1|0:0,0:0:0:0:
12,131,140062,2,0,P|39:88|109:76,1,116.999994644165,10|2,0:0|0:0,0:0:0:0:
156,116,140624,1,10,0:0:0:0:
210,13,140999,1,10,0:1:0:0:
326,20,141374,1,10,0:0:0:0:
273,111,141562,6,0,P|305:125|344:126,1,60.7500002317429,10|0,0:0|0:0,0:0:0:0:
453,72,141937,6,0,P|426:83|393:84,1,56.25,2|0,0:0|0:0,0:0:0:0:
406,175,142312,6,0,P|421:194|429:222,1,51.7500009870529,10|0,0:0|0:0,0:0:0:0:
336,282,142687,6,0,P|334:259|342:235,1,45,14|0,0:1|0:0,0:0:0:0:
383,343,143062,6,0,P|348:360|295:349,1,80.9999975280763,10|0,0:0|0:0,0:0:0:0:
253,299,143624,1,8,0:0:0:0:
253,299,143812,2,0,B|225:322|225:322|233:378,1,80.9999975280763,8|0,0:0|0:0,0:0:0:0:
159,384,144374,1,8,0:1:0:0:
159,384,144562,2,0,L|73:379,1,80.9999975280763,8|0,0:0|0:0,0:0:0:0:
1,315,145124,2,0,L|41:312,1,40.4999987640381,8|8,0:0|0:0,0:0:0:0:
113,300,145499,5,2,0:0:0:0:
88,230,145687,1,10,0:1:0:0:
144,184,145874,1,2,0:0:0:0:
192,255,146062,6,0,P|231:271|281:255,1,80.9999975280763,10|10,0:0|0:1,0:0:0:0:
332,203,146624,1,10,0:0:0:0:
332,203,146812,2,0,P|352:244|333:327,1,121.499996292114,8|8,0:0|0:1,0:0:0:0:
380,384,147562,6,0,B|434:359|434:359|440:286,1,121.499996292114,8|8,0:0|0:0,0:0:0:0:
422,225,148312,5,10,0:0:0:0:
436,217,148687,1,14,0:1:0:0:
451,224,149062,2,0,B|484:246|513:245|513:245|509:180|463:130|378:138|340:163,1,283.499991348267,10|8,0:0|0:0,0:0:0:0:
325,248,150562,6,0,B|257:230|262:141|262:141|216:198|134:217|34:245|15:164|31:111|91:97|153:137|157:252|118:302,1,593.999981872559,6|0,0:0|0:0,0:0:0:0:
