osu file format v14

[General]
AudioFilename: audio.ogg
AudioLeadIn: 0
PreviewTime: 48065
Countdown: 0
SampleSet: Soft
StackLeniency: 0.4
Mode: 0
LetterboxInBreaks: 0
WidescreenStoryboard: 1

[Editor]
Bookmarks: 627,815,12815,24815,36815,48065,48815,59315,60815,68315,71060,82310,85310,88310,91310,95060,107060,118310,119060,131060,141560,143060,150560,154685
DistanceSpacing: 1.2
BeatDivisor: 4
GridSize: 8
TimelineZoom: 1.5

[Metadata]
Title:Fuwafuwa Doremy
TitleUnicode:ふわふわどれみー
Artist:Shibayan feat. nachi
ArtistUnicode:Shibayan feat. nachi
Creator:bnmc
Version:Easy
Source:東方紺珠伝 ~ Legacy of Lunatic Kingdom.
Tags:japanese video game shibayanrecords jpop j-pop pop jazz touhou kanjuden LoLK toho bossa nova 8 東方Project ZUN 永遠の春夢 eien no shunmu eternal spring dream Doremy Sweet ドレミー・スイート boss theme th15 坂上なち sakaue M3-43
BeatmapID:3317222
BeatmapSetID:1603754

[Difficulty]
HPDrainRate:3
CircleSize:2.5
OverallDifficulty:2.5
ApproachRate:3.5
SliderMultiplier:1.4
SliderTickRate:0.5

[Events]
//Background and Video events
0,0,"fuwafuwa.jpg",0,0
//Break Periods
//Storyboard Layer 0 (Background)
//Storyboard Layer 1 (Fail)
//Storyboard Layer 2 (Pass)
//Storyboard Layer 3 (Foreground)
//Storyboard Layer 4 (Overlay)
//Storyboard Sound Samples

[TimingPoints]
815,750,4,2,1,45,1,0
24815,-100,4,2,1,40,0,0
48065,-100,4,2,1,45,0,0
48815,-100,4,2,1,55,0,1
60815,-100,4,2,1,50,0,1
68315,-100,4,2,10,45,0,0
69815,-100,4,2,1,35,0,0
70565,-100,4,2,10,30,0,0
70875,750,4,2,1,35,1,0
71062,750,4,2,1,40,1,0
94312,-100,4,2,1,50,0,0
119062,-100,4,2,1,55,0,1
143062,-100,4,2,1,50,0,1
150562,-100,4,2,10,45,0,0
153562,-100,4,2,1,35,0,0
154312,-100,4,2,10,30,0,0
154687,-100,4,2,1,30,0,0

[Colours]
Combo1 : 251,100,83
Combo2 : 7,163,190
Combo3 : 252,209,224
Combo4 : 120,210,66
Combo5 : 254,251,194

[HitObjects]
22,202,815,5,10,0:0:0:0:
101,229,1190,2,0,P|141:201|195:198,1,105,10|10,0:0|0:1,0:0:0:0:
254,258,2127,2,0,B|301:288|301:288|391:271,1,140,10|10,0:0|0:1,0:0:0:0:
507,249,3440,1,10,0:0:0:0:
512,165,3815,6,0,P|477:125|350:132,1,175,10|10,0:0|0:1,0:0:0:0:
306,185,5127,1,10,0:0:0:0:
223,200,5502,2,0,P|146:162|124:80,1,175,10|10,0:0|0:0,0:0:0:0:
175,14,6815,5,10,0:0:0:0:
256,33,7190,2,0,L|374:22,1,105,10|10,0:0|0:1,0:0:0:0:
444,13,8127,1,10,0:0:0:0:
488,84,8502,2,0,B|502:159|436:163|472:261,1,175,10|10,0:1|0:0,0:0:0:0:
512,326,9815,5,10,0:0:0:0:
446,378,10190,2,0,L|327:383,1,105,10|10,0:0|0:1,0:0:0:0:
257,382,11127,1,10,0:0:0:0:
187,334,11502,2,0,B|130:332|85:374|85:374|70:338|85:301,1,175,10|14,0:0|0:0,0:0:0:0:
136,248,12815,5,10,0:0:0:0:
201,194,13190,2,0,P|220:154|194:90,1,105,10|10,0:0|0:1,0:0:0:0:
132,51,14127,2,0,B|166:10|166:10|260:21,1,140,10|10,0:0|0:1,0:0:0:0:
377,31,15440,1,10,0:0:0:0:
435,91,15815,6,0,B|495:75|495:75|482:196,1,175,10|10,0:0|0:1,0:0:0:0:
420,243,17127,2,0,P|346:202|288:209,1,140,10|10,0:0|0:1,0:0:0:0:
196,288,18440,5,10,0:0:0:0:
124,243,18815,2,0,P|87:154|98:71,1,175,10|10,0:0|0:1,0:0:0:0:
159,22,20127,1,10,0:0:0:0:
234,58,20502,2,0,B|242:28|270:8|270:8|384:22,1,175,10|10,0:1|0:0,0:0:0:0:
464,34,21815,5,10,0:0:0:0:
502,108,22190,2,0,L|496:216,1,105,10|10,0:0|0:1,0:0:0:0:
432,267,23127,2,0,P|365:239|257:248,1,175,10|8,0:0|0:3,0:0:0:0:
196,295,24440,1,14,0:0:0:0:
119,260,24815,6,0,B|91:222|91:222|114:125,1,140,10|10,0:0|0:0,0:0:0:0:
174,22,26127,2,0,L|89:5,2,70,10|2|10,0:1|0:1|0:1,0:0:0:0:
214,141,27440,6,0,P|281:156|346:122,1,140,10|10,0:1|0:1,0:0:0:0:
370,46,28565,1,10,0:0:0:0:
444,146,29127,2,0,P|477:132|511:130,2,70,10|10|10,0:1|0:1|0:0,0:0:0:0:
363,242,30440,6,0,B|298:251|301:199|231:212,1,140,10|10,0:1|0:1,0:0:0:0:
156,252,31565,1,10,0:0:0:0:
36,211,32127,2,0,B|1:147|1:147|25:80,1,140,10|10,0:1|0:1,0:0:0:0:
137,138,33440,5,10,0:1:0:0:
204,187,33815,2,0,L|322:175,1,105,10|10,0:0|0:0,0:0:0:0:
371,120,34752,2,0,B|417:144|413:256|347:227|344:313|386:359,1,245,8|8,0:1|0:0,0:0:0:0:
445,296,36440,5,14,0:1:0:0:
508,240,36815,2,0,P|517:155|497:103,1,140,10|10,0:0|0:0,0:0:0:0:
374,80,38127,2,0,P|378:45|398:10,2,70,10|2|10,0:1|0:1|0:1,0:0:0:0:
306,186,39440,6,0,B|276:224|276:224|175:217,1,140,10|10,0:1|0:1,0:0:0:0:
100,209,40565,1,10,0:0:0:0:
43,96,41127,2,0,L|54:16,2,70,10|10|10,0:1|0:1|0:0,0:0:0:0:
164,130,42440,6,0,P|225:93|299:102,1,140,10|10,0:1|0:1,0:0:0:0:
366,61,43565,2,0,P|374:116|342:165,1,105,10|10,0:0|0:1,0:0:0:0:
270,181,44502,1,2,0:1:0:0:
215,244,44877,2,0,B|183:218|183:218|104:229,1,105,10|10,0:1|0:1,0:0:0:0:
64,292,45815,6,0,P|36:248|39:197,1,105,10|10,0:0|0:0,0:0:0:0:
97,137,46752,2,0,P|104:99|94:56,2,70,8|8|10,0:1|0:1|0:1,0:0:0:0:
209,195,48065,6,0,P|242:181|290:189,1,70,10|14,0:3|0:0,0:0:0:0:
344,231,48815,2,0,P|425:217|465:129,1,175,10|10,0:0|0:1,0:0:0:0:
422,69,50127,1,10,0:0:0:0:
353,20,50502,2,0,B|330:55|330:55|264:64,1,105,10|10,0:0|0:0,0:0:0:0:
183,73,51440,1,10,0:1:0:0:
121,129,51815,6,0,P|76:94|19:95,1,105,10|10,0:0|0:0,0:0:0:0:
47,174,52752,2,0,B|25:190|25:190|20:241,1,70,10|10,0:1|0:0,0:0:0:0:
12,316,53502,1,10,0:0:0:0:
91,343,53877,6,0,B|95:307|124:289|124:289|238:306,1,175,10|10,0:0|0:0,0:0:0:0:
352,342,55377,1,10,0:0:0:0:
421,295,55752,2,0,P|432:254|420:215,1,70,10|10,0:1|0:0,0:0:0:0:
379,158,56502,1,10,0:0:0:0:
300,187,56877,2,0,L|184:173,1,105,2|10,0:0|0:1,0:0:0:0:
112,163,57815,5,10,0:0:0:0:
51,52,58377,2,0,P|83:40|123:39,1,70,10|10,0:0|0:1,0:0:0:0:
235,85,59315,6,0,B|266:78|294:44|294:44|328:59|373:54,2,140,10|10|10,0:0|0:0|0:0,0:0:0:0:
128,214,61565,5,8,0:0:0:0:
213,358,62315,2,0,P|253:308|335:301,1,140,8|8,0:0|0:0,0:0:0:0:
477,369,63815,6,0,B|521:274|521:274|468:179,1,210,10|0,0:0|0:0,0:0:0:0:
387,162,65315,2,0,P|348:197|257:204,1,140,8|10,0:0|0:0,0:0:0:0:
201,149,66440,5,14,0:1:0:0:
127,189,66815,2,0,B|93:275|123:346|123:346|152:334|164:313,1,210,10|0,0:0|0:0,0:0:0:0:
237,282,68315,6,0,B|264:324|322:333|322:333|448:286|499:146|432:57|364:81|360:135,1,478,6|2,0:0|0:0,0:0:0:0:
328,166,71062,6,0,P|277:184|220:167,1,105,10|10,0:0|0:0,0:0:0:0:
179,106,71999,1,10,0:1:0:0:
100,136,72374,2,0,B|56:171|56:171|71:299,1,175,10|8,0:0|0:0,0:0:0:0:
85,371,73687,1,8,0:1:0:0:
168,369,74062,6,0,P|197:337|262:325,1,105,10|10,0:0|0:0,0:0:0:0:
335,351,74999,1,10,0:1:0:0:
407,308,75374,2,0,L|398:224,1,70,10|10,0:0|0:1,0:0:0:0:
446,121,76312,2,0,P|408:107|368:111,1,70,8|8,0:0|0:1,0:0:0:0:
316,164,77062,6,0,B|226:190|226:108|144:137,1,175,10|10,0:0|0:1,0:0:0:0:
80,181,78374,1,10,0:0:0:0:
43,256,78749,2,0,B|43:311|68:358|68:358|88:322|130:309,1,175,10|8,0:1|0:1,0:0:0:0:
202,319,80062,5,10,0:0:0:0:
316,371,80624,2,0,P|393:365|448:313,1,140,10|10,0:0|0:0,0:0:0:0:
457,201,81937,1,2,0:0:0:0:
397,141,82312,6,0,B|422:75|422:75|388:4,1,140,10|10,0:0|0:0,0:0:0:0:
291,88,83624,2,0,P|221:125|151:108,1,140,10|10,0:0|0:0,0:0:0:0:
101,58,84749,1,10,0:1:0:0:
2,136,85312,6,0,B|10:278,1,140,10|10,0:0|0:0,0:0:0:0:
79,322,86437,2,0,P|115:284|170:277,1,105,2|10,0:0|0:1,0:0:0:0:
228,331,87374,2,0,L|313:322,1,70,10|10,0:0|0:1,0:0:0:0:
411,378,88312,6,0,P|426:347|426:312,1,70,10|10,0:0|0:1,0:0:0:0:
375,244,89062,1,10,0:0:0:0:
306,195,89437,2,0,B|282:238|282:238|158:255,1,175,2|10,0:0|0:0,0:0:0:0:
75,266,90749,1,10,0:1:0:0:
147,163,91312,6,0,P|160:125|154:82,1,70,10|10,0:0|0:1,0:0:0:0:
85,52,92062,2,0,P|128:15|187:17,1,105,10|10,0:0|0:0,0:0:0:0:
239,65,92999,1,10,0:1:0:0:
316,98,93374,2,0,L|401:87,1,70,10|10,0:0|0:1,0:0:0:0:
467,69,94124,2,0,P|466:118|418:166,1,105,8|12,0:1|0:0,0:0:0:0:
372,220,95062,6,0,B|347:185|347:185|270:194,1,105,10|10,0:0|0:0,0:0:0:0:
206,220,95999,1,10,0:1:0:0:
140,166,96374,2,0,P|144:129|130:88,2,70,10|10|10,0:0|0:1|0:1,0:0:0:0:
79,275,97687,1,10,0:1:0:0:
142,329,98062,6,0,L|258:320,1,105,10|10,0:0|0:0,0:0:0:0:
330,314,98999,1,10,0:1:0:0:
405,276,99374,2,0,P|415:311|409:348,2,70,10|10|10,0:0|0:1|0:1,0:0:0:0:
327,176,100687,5,8,0:1:0:0:
260,227,101062,2,0,P|207:227|150:195,1,105,10|10,0:0|0:0,0:0:0:0:
129,126,101999,1,10,0:1:0:0:
69,66,102374,2,0,P|38:77|-3:76,2,70,10|10|10,0:0|0:1|0:1,0:0:0:0:
182,10,103687,1,8,0:1:0:0:
246,64,104062,6,0,B|269:38|269:38|341:31,1,105,10|10,0:0|0:0,0:0:0:0:
421,45,104999,1,10,0:1:0:0:
472,111,105374,2,0,P|457:142|459:195,1,70,10|10,0:0|0:1,0:0:0:0:
509,243,106124,2,0,P|458:260|390:232,1,105,8|14,0:1|0:0,0:0:0:0:
367,174,107062,6,0,B|341:146|341:146|271:155,1,105,10|10,0:0|0:0,0:0:0:0:
215,213,107999,1,10,0:1:0:0:
157,274,108374,2,0,L|75:267,1,70,10|10,0:0|0:1,0:0:0:0:
21,215,109124,2,0,B|38:163|38:163|26:101,1,105,10|8,0:1|0:1,0:0:0:0:
30,29,110062,6,0,B|69:31|69:31|84:49|84:49|139:54,1,105,10|10,0:0|0:0,0:0:0:0:
210,58,110999,1,10,0:1:0:0:
292,80,111374,2,0,P|294:45|278:8,2,70,10|10|10,0:0|0:1|0:1,0:0:0:0:
223,186,112687,1,10,0:1:0:0:
287,239,113062,6,0,P|336:212|392:216,1,105,10|10,0:0|0:0,0:0:0:0:
454,258,113999,1,10,0:1:0:0:
510,195,114374,2,0,L|505:121,1,70,10|10,0:0|0:1,0:0:0:0:
493,41,115124,1,10,0:1:0:0:
387,110,115687,1,8,0:1:0:0:
322,56,116062,6,0,P|276:36|208:55,1,105,10|10,0:0|0:0,0:0:0:0:
170,110,116999,1,10,0:1:0:0:
114,172,117374,2,0,B|129:207|129:207|115:249,1,70,10|10,0:0|0:1,0:0:0:0:
69,353,118312,6,0,L|148:342,1,70,10|10,0:0|0:1,0:0:0:0:
218,368,119062,2,0,B|240:316|240:316|299:298,1,105,10|10,0:0|0:0,0:0:0:0:
363,335,119999,2,0,P|371:295|356:255,1,70,10|10,0:1|0:0,0:0:0:0:
295,218,120749,1,10,0:0:0:0:
357,108,121312,6,0,L|439:115,1,70,10|10,0:0|0:1,0:0:0:0:
503,150,122062,2,0,P|511:95|479:49,1,105,10|10,0:0|0:0,0:0:0:0:
406,27,122999,1,10,0:1:0:0:
328,59,123374,2,0,L|252:53,1,70,10|10,0:0|0:0,0:0:0:0:
176,74,124124,6,0,B|179:108|218:129|218:129|235:185|206:241,1,175,10|10,0:0|0:0,0:0:0:0:
144,335,125624,2,0,L|74:330,2,70,10|10|10,0:0|0:1|0:0,0:0:0:0:
222,364,126749,1,10,0:0:0:0:
345,337,127312,6,0,P|372:315|381:209,1,140,10|10,0:0|0:0,0:0:0:0:
296,127,128624,1,10,0:0:0:0:
238,188,128999,2,0,B|207:166|207:166|138:180,1,105,10|10,0:1|0:0,0:0:0:0:
32,242,130124,6,0,P|16:185|37:127,1,105,2|14,0:0|0:1,0:0:0:0:
78,74,131062,2,0,B|104:99|104:99|182:87,1,105,10|10,0:0|0:0,0:0:0:0:
249,54,131999,1,10,0:1:0:0:
316,104,132374,2,0,L|313:184,1,70,10|10,0:0|0:0,0:0:0:0:
270,292,133312,6,0,P|310:305|350:303,1,70,10|10,0:0|0:1,0:0:0:0:
407,258,134062,2,0,B|394:202|394:202|416:147,1,105,10|10,0:0|0:0,0:0:0:0:
475,102,134999,1,10,0:1:0:0:
420,37,135374,2,0,P|382:28|333:46,1,70,10|10,0:0|0:0,0:0:0:0:
299,100,136124,6,0,P|251:124|188:120,1,105,10|14,0:0|0:1,0:0:0:0:
137,68,137062,2,0,B|111:101|111:101|123:171,1,105,10|10,0:0|0:0,0:0:0:0:
90,241,137999,2,0,P|130:245|176:227,1,70,10|10,0:1|0:0,0:0:0:0:
215,176,138749,1,10,0:0:0:0:
295,273,139312,6,0,B|318:251|318:251|374:245,1,70,10|10,0:0|0:1,0:0:0:0:
423,298,140062,2,0,P|440:255|420:194,1,105,10|10,0:0|0:0,0:0:0:0:
350,163,140999,1,10,0:1:0:0:
233,113,141562,6,0,B|184:118|184:118|173:61|128:41,2,140,10|10|10,0:0|0:0|0:0,0:0:0:0:
400,92,143812,6,0,P|368:161|381:230,1,140,8|8,0:0|0:0,0:0:0:0:
495,342,145312,1,8,0:0:0:0:
418,377,145687,1,10,0:1:0:0:
340,345,146062,2,0,B|305:320|305:320|199:335,1,140,10|8,0:0|0:0,0:0:0:0:
48,382,147562,6,0,P|45:312|81:253,1,140,8|10,0:0|0:0,0:0:0:0:
164,245,148687,1,14,0:1:0:0:
210,174,149062,2,0,B|269:214|241:284|241:284|270:257|322:258,1,210,10|0,0:0|0:0,0:0:0:0:
391,299,150562,6,0,B|444:265|503:293|503:293|523:244|509:147|392:193|384:92|426:-11|426:-11|333:115|201:114|193:31|266:-9,1,770,6|0,0:0|0:0,0:0:0:0:
