osu file format v14

[General]
AudioFilename: Shibayan - Cinderella was a Magician.mp3
AudioLeadIn: 0
PreviewTime: 82795
Countdown: 0
SampleSet: Soft
StackLeniency: 0.9
Mode: 0
LetterboxInBreaks: 0
WidescreenStoryboard: 1

[Editor]
Bookmarks: 22561,30061,37561,45061,52561,60061,67561,75061,90295,97795,101076,105295,112795,120295,127795,135295,142561
DistanceSpacing: 0.1
BeatDivisor: 8
GridSize: 4
TimelineZoom: 1.850003

[Metadata]
Title:Cinderella wa Mahoutsukai (Cut Ver.)
TitleUnicode:シンデレラは魔法使い (Cut Ver.)
Artist:Shibayan feat. Sakaue Nachi
ArtistUnicode:Shibayan feat. 坂上なち
Creator:truonant
Version:Lunatic
Source:東方紅魔郷 ~ the Embodiment of Scarlet Devil.
Tags:TicClick Okorin Okoratu Mako Sakata Shiranai touhou shibayan Patchouli Knowledge パチュリー・ノーレッジ Locked Girl ~ The Girl's Secret Room Dream Materialise ムソウマテリアライズ Musou Materiaraizu ShibayanRecords Comiket 80 C80 やまざきさやか ラクトガール ~ 少女密室 東方Project Japanese Video Game
BeatmapID:447927
BeatmapSetID:184415

[Difficulty]
HPDrainRate:6.5
CircleSize:4
OverallDifficulty:8
ApproachRate:9
SliderMultiplier:2.5
SliderTickRate:2

[Events]
//Background and Video events
0,0,"BG.jpg",0,0
//Break Periods
//Storyboard Layer 0 (Background)
Sprite,Background,TopLeft,"BG.jpg",0,0
//Storyboard Layer 1 (Fail)
//Storyboard Layer 2 (Pass)
//Storyboard Layer 3 (Foreground)
Sprite,Foreground,Centre,"SB\highlight.png",320,240 M,0,79631,79748,399,396,400,385 F,0,79631,79748,0.5,1 S,2,79631,83498,1,1.5 C,0,79631,83498,182,108,255 P,0,79631,83498,A M,0,79748,79865,400,385,434,329 F,0,79748,82443,1 M,0,79865,79982,434,329,405,217 M,0,79982,80100,405,217,361,267 M,0,80100,80217,361,267,491,257 M,0,80217,80334,491,257,483,201 M,0,80334,80451,483,201,339,144 M,0,80451,80568,339,144,377,207 M,0,80568,80686,377,207,454,92 M,0,80686,80803,454,92,422,122 M,0,80803,80920,422,122,389,143 M,0,80920,81037,389,143,345,155 M,0,81037,81154,345,155,303.1455,159.6727 M,0,81154,81271,303.1455,159.6727,247.1818,168.6 M,0,81271,81389,247.1818,168.6,78.54546,148.0909 M,0,81389,81506,78.54546,148.0909,84.03636,305.5818 M,0,81506,81623,84.03636,305.5818,189.9273,400.6364 M,0,81623,81682,189.9273,400.6364,200.0096,373.7185 M,0,81682,81740,200.0096,373.7185,254.2182,281.3636 M,0,81740,81857,254.2182,281.3636,338.7091,165.3273 M,0,81857,81975,338.7091,165.3273,162,183 M,0,81975,82092,162,183,67.29091,139.2 M,0,82092,82209,67.29091,139.2,178,193 M,0,82209,82326,178,193,258,227 M,0,82326,82443,258,227,332,252 M,0,82443,82561,332,252,403,276 F,2,82443,83498,1,0
//Storyboard Layer 4 (Overlay)
//Storyboard Sound Samples

[TimingPoints]
7561,468.75,4,2,2,60,1,0
7561,-100,4,2,2,60,0,0
8029,-100,4,2,3,60,0,0
8615,-100,4,2,3,60,0,0
9436,-100,4,2,90,60,0,0
9904,-100,4,2,3,60,0,0
11311,-100,4,2,90,60,0,0
11779,-100,4,2,3,60,0,0
13186,-100,4,2,1,60,0,0
15061,-100,4,2,90,60,0,0
15529,-100,4,2,3,60,0,0
16936,-100,4,2,90,60,0,0
17404,-100,4,2,3,60,0,0
18811,-100,4,2,90,60,0,0
19279,-100,4,2,3,60,0,0
20920,-100,4,2,1,60,0,0
23029,-100,4,2,2,60,0,0
23498,-100,4,2,1,60,0,0
23967,-100,4,2,2,60,0,0
24436,-100,4,2,1,60,0,0
24904,-100,4,2,2,60,0,0
25139,-133.333333333333,4,2,2,60,0,0
25373,-100,4,2,1,60,0,0
25842,-100,4,2,2,60,0,0
26311,-100,4,2,1,60,0,0
26779,-100,4,2,2,60,0,0
27248,-100,4,2,1,60,0,0
27717,-100,4,2,2,60,0,0
28186,-100,4,2,1,60,0,0
28654,-100,4,2,2,60,0,0
29123,-100,4,2,1,60,0,0
29592,-100,4,2,2,60,0,0
30061,-100,4,2,1,60,0,0
30529,-100,4,2,2,60,0,0
30998,-100,4,2,1,60,0,0
31467,-100,4,2,2,60,0,0
31936,-100,4,2,1,60,0,0
32404,-100,4,2,2,60,0,0
32873,-100,4,2,1,60,0,0
33342,-100,4,2,2,60,0,0
33811,-100,4,2,1,60,0,0
34279,-100,4,2,2,60,0,0
34748,-100,4,2,1,60,0,0
35217,-100,4,2,2,60,0,0
35686,-100,4,2,1,60,0,0
36154,-100,4,2,2,60,0,0
36623,-100,4,2,1,60,0,0
37092,-100,4,2,2,60,0,0
37561,-100,4,2,1,60,0,0
38029,-100,4,2,2,60,0,0
38498,-100,4,2,1,60,0,0
38967,-100,4,2,2,60,0,0
39436,-100,4,2,1,60,0,0
39904,-100,4,2,2,60,0,0
40373,-100,4,2,1,60,0,0
40842,-100,4,2,2,60,0,0
41311,-100,4,2,1,60,0,0
41779,-100,4,2,2,60,0,0
42248,-100,4,2,1,60,0,0
42717,-100,4,2,2,60,0,0
43186,-100,4,2,1,60,0,0
43654,-100,4,2,2,60,0,0
44123,-100,4,2,1,60,0,0
44592,-100,4,2,2,60,0,0
45061,-100,4,2,1,60,0,0
45529,-100,4,2,2,60,0,0
45998,-100,4,2,1,60,0,0
46467,-100,4,2,2,60,0,0
46936,-100,4,2,1,60,0,0
47404,-100,4,2,2,60,0,0
47639,-133.333333333333,4,2,2,60,0,0
47873,-100,4,2,1,60,0,0
48342,-100,4,2,2,60,0,0
48811,-100,4,2,1,60,0,0
49279,-100,4,2,2,60,0,0
49748,-100,4,2,1,60,0,0
50217,-100,4,2,2,60,0,0
50686,-100,4,2,1,60,0,0
51154,-100,4,2,2,60,0,0
51623,-100,4,2,1,60,0,0
52092,-100,4,2,2,60,0,0
52561,-80,4,2,1,60,0,0
53029,-100,4,2,2,60,0,0
53498,-100,4,2,1,60,0,0
53967,-100,4,2,2,60,0,0
54436,-100,4,2,1,60,0,0
54904,-100,4,2,2,60,0,0
55373,-100,4,2,1,60,0,0
55842,-100,4,2,2,60,0,0
56311,-100,4,2,1,60,0,0
56779,-100,4,2,2,60,0,0
57248,-100,4,2,1,60,0,0
57717,-100,4,2,2,60,0,0
58186,-100,4,2,1,60,0,0
58654,-100,4,2,2,60,0,0
59123,-100,4,2,1,60,0,0
59592,-100,4,2,2,60,0,0
60061,-100,4,2,1,60,0,0
60529,-100,4,2,2,60,0,0
60998,-100,4,2,1,60,0,0
61467,-100,4,2,2,60,0,0
61936,-100,4,2,1,60,0,0
62404,-100,4,2,2,60,0,0
62873,-100,4,2,1,60,0,0
63342,-100,4,2,2,60,0,0
63811,-100,4,2,1,60,0,0
64279,-100,4,2,2,60,0,0
64748,-100,4,2,1,60,0,0
65217,-100,4,2,2,60,0,0
65686,-100,4,2,1,60,0,0
66154,-100,4,2,2,60,0,0
66623,-100,4,2,1,60,0,0
67092,-100,4,2,2,60,0,0
67561,-100,4,2,1,60,0,0
68029,-100,4,2,2,60,0,0
68498,-100,4,2,1,60,0,0
68967,-100,4,2,2,60,0,0
69436,-100,4,2,1,60,0,0
69904,-100,4,2,2,60,0,0
70373,-100,4,2,1,60,0,0
70842,-100,4,2,2,60,0,0
71311,-100,4,2,1,60,0,0
71779,-100,4,2,2,60,0,0
72248,-100,4,2,1,60,0,0
72717,-100,4,2,2,60,0,0
73186,-100,4,2,1,60,0,0
73654,-100,4,2,2,60,0,0
74123,-100,4,2,1,60,0,0
74592,-100,4,2,2,60,0,0
75061,-100,4,2,1,60,0,0
75529,-100,4,2,2,60,0,0
75998,-100,4,2,1,60,0,0
76467,-100,4,2,2,60,0,0
76936,-100,4,2,1,60,0,0
77404,-100,4,2,2,60,0,0
77873,-100,4,2,1,60,0,0
78342,-100,4,2,2,60,0,0
78811,-100,4,2,1,60,0,0
79279,-100,4,2,2,60,0,0
79748,-100,4,2,1,60,0,0
80217,-100,4,2,2,60,0,0
80686,-100,4,2,1,60,0,0
81154,-100,4,2,2,60,0,0
81389,-66.6666666666667,4,2,3,70,0,0
81623,-100,4,2,1,70,0,0
82092,-80,4,2,2,70,0,0
82561,-80,4,2,2,85,0,1
83498,-80,4,2,3,85,0,1
83967,-80,4,2,2,85,0,1
84436,-80,4,2,3,85,0,1
84904,-80,4,2,2,85,0,1
85139,-80,4,2,1,85,0,1
85373,-80,4,2,3,85,0,1
86779,-80,4,2,2,85,0,1
87248,-80,4,2,3,85,0,1
87717,-80,4,2,2,85,0,1
88186,-80,4,2,3,85,0,1
88654,-80,4,2,2,85,0,1
89123,-80,4,2,3,85,0,1
90529,-80,4,2,2,85,0,1
90998,-80,4,2,3,85,0,1
91467,-80,4,2,2,85,0,1
91936,-80,4,2,3,85,0,1
92404,-80,4,2,2,85,0,1
92873,-80,4,2,3,85,0,1
94279,-80,4,2,2,85,0,1
94748,-80,4,2,3,85,0,1
95217,-80,4,2,2,85,0,1
95686,-80,4,2,3,85,0,1
96154,-80,4,2,2,85,0,1
96623,-80,4,2,3,85,0,1
98029,-80,4,2,2,85,0,1
98498,-80,4,2,3,85,0,1
98967,-80,4,2,2,85,0,1
99436,-80,4,2,3,85,0,1
99904,-80,4,2,2,85,0,1
100373,-80,4,2,3,85,0,1
101779,-80,4,2,2,85,0,1
102248,-80,4,2,3,85,0,1
102717,-80,4,2,2,85,0,1
103186,-80,4,2,3,85,0,1
103654,-80,4,2,2,85,0,1
104123,-80,4,2,3,85,0,1
105529,-80,4,2,2,85,0,1
105998,-80,4,2,3,85,0,1
106467,-80,4,2,2,85,0,1
106936,-80,4,2,3,85,0,1
107404,-80,4,2,2,85,0,1
107873,-80,4,2,3,85,0,1
109279,-80,4,2,2,85,0,1
109748,-80,4,2,3,85,0,1
110217,-80,4,2,2,85,0,1
110686,-80,4,2,3,85,0,1
111154,-80,4,2,2,85,0,1
111623,-80,4,2,3,85,0,1
112561,-80,4,2,3,85,0,1
112678,-83.3333333333333,4,2,2,60,0,0
113498,-83.3333333333333,4,2,3,60,0,0
113967,-83.3333333333333,4,2,2,60,0,0
114436,-83.3333333333333,4,2,3,60,0,0
114904,-83.3333333333333,4,2,2,60,0,0
115373,-83.3333333333333,4,2,3,60,0,0
115842,-83.3333333333333,4,2,2,60,0,0
116311,-83.3333333333333,4,2,3,60,0,0
116779,-83.3333333333333,4,2,2,60,0,0
117248,-83.3333333333333,4,2,3,60,0,0
117717,-83.3333333333333,4,2,2,60,0,0
118186,-83.3333333333333,4,2,3,60,0,0
118654,-83.3333333333333,4,2,2,60,0,0
119123,-83.3333333333333,4,2,3,60,0,0
119357,-166.666666666667,4,2,2,60,0,0
120061,-83.3333333333333,4,2,3,60,0,0
120529,-83.3333333333333,4,2,2,60,0,0
120998,-83.3333333333333,4,2,3,60,0,0
121467,-83.3333333333333,4,2,2,60,0,0
121936,-83.3333333333333,4,2,3,60,0,0
122404,-83.3333333333333,4,2,2,60,0,0
122873,-83.3333333333333,4,2,3,60,0,0
123342,-83.3333333333333,4,2,2,60,0,0
123811,-83.3333333333333,4,2,3,60,0,0
124279,-83.3333333333333,4,2,2,60,0,0
124748,-83.3333333333333,4,2,3,60,0,0
125217,-100,4,2,2,60,0,0
125686,-100,4,2,3,60,0,0
126154,-125,4,2,2,60,0,0
126623,-125,4,2,3,60,0,0
127092,-166.666666666667,4,2,2,60,0,0
127561,-83.3333333333333,4,2,3,60,0,0
128029,-83.3333333333333,4,2,2,60,0,0
128498,-83.3333333333333,4,2,3,60,0,0
128967,-83.3333333333333,4,2,2,60,0,0
129436,-83.3333333333333,4,2,3,60,0,0
129904,-83.3333333333333,4,2,2,60,0,0
130373,-83.3333333333333,4,2,3,60,0,0
130842,-83.3333333333333,4,2,2,60,0,0
131311,-83.3333333333333,4,2,3,60,0,0
131779,-83.3333333333333,4,2,2,60,0,0
132248,-83.3333333333333,4,2,3,60,0,0
132717,-83.3333333333333,4,2,2,60,0,0
133186,-83.3333333333333,4,2,3,60,0,0
133654,-83.3333333333333,4,2,2,60,0,0
134123,-200,4,2,3,60,0,0
134592,-200,4,2,2,60,0,0
135061,-83.3333333333333,4,2,3,60,0,0
135529,-83.3333333333333,4,2,2,60,0,0
135998,-83.3333333333333,4,2,3,60,0,0
136467,-83.3333333333333,4,2,2,60,0,0
136936,-83.3333333333333,4,2,3,60,0,0
137404,-83.3333333333333,4,2,2,60,0,0
137873,-83.3333333333333,4,2,3,60,0,0
138342,-83.3333333333333,4,2,2,60,0,0
138811,-83.3333333333333,4,2,3,60,0,0
139279,-83.3333333333333,4,2,2,60,0,0
139748,-83.3333333333333,4,2,3,60,0,0
140217,-83.3333333333333,4,2,2,60,0,0
140686,-83.3333333333333,4,2,3,60,0,0
142561,-71.4285714285714,4,2,2,60,0,0

[Colours]
Combo1 : 182,108,255
Combo2 : 67,159,228
Combo3 : 241,84,128
Combo4 : 250,216,78

[HitObjects]
48,196,7561,5,2,0:0:0:0:
112,48,7795,1,2,0:0:0:0:
164,196,8029,1,8,0:0:0:0:
184,220,8146,1,2,0:0:0:0:
212,236,8264,1,2,0:0:0:0:
244,240,8381,1,2,0:0:0:0:
276,236,8498,1,2,0:0:0:0:
308,232,8615,6,0,P|336:236|372:256,1,62.5,8|0,0:0|0:0,0:0:0:0:
452,364,8850,2,0,P|420:348|380:316,1,62.5,8|2,0:0|0:0,0:0:0:0:
212,236,9201,2,0,P|212:268|228:308,1,62.5,8|0,0:0|0:0,0:0:0:0:
132,372,9436,6,2,P|132:316|80:260,1,125,8|2,0:0|0:0,0:0:0:0:
32,120,9904,1,10,0:0:0:0:
64,132,10021,1,2,0:0:0:0:
96,132,10138,1,2,0:0:0:0:
128,120,10256,1,2,0:0:0:0:
156,100,10373,6,0,P|172:116|212:132,1,62.5,8|0,0:0|0:0,0:0:0:0:
104,40,10607,2,0,P|72:32|20:36,1,62.5,8|0,0:0|0:0,0:0:0:0:
256,48,10842,1,2,0:0:0:0:
256,48,10959,2,0,P|308:44|376:76,1,125,10|2,0:0|0:0,0:0:0:0:
480,316,11311,6,2,P|422:291|380:246,1,125,8|2,0:0|0:0,0:0:0:0:
444,128,11779,1,8,0:0:0:0:
424,152,11896,1,2,0:0:0:0:
392,160,12014,1,2,0:0:0:0:
360,164,12131,1,2,0:0:0:0:
328,176,12248,1,2,0:0:0:0:
304,196,12365,6,0,P|288:224|288:256,1,62.5,8|2,0:0|0:0,0:0:0:0:
116,212,12600,2,0,P|153:205|189:221,1,62.5,2|8,0:0|0:0,0:0:0:0:
440,245,12951,2,0,P|401:253|372:241,1,62.5,8|2,0:0|0:0,0:0:0:0:
248,84,13186,5,2,0:0:0:0:
380,246,13420,1,2,0:0:0:0:
412,108,13654,2,0,P|416:64|412:32,1,62.5,8|0,0:0|0:0,0:0:0:0:
504,108,13889,1,0,0:0:0:0:
492,156,14006,1,2,0:0:0:0:
456,192,14123,1,2,0:0:0:0:
308,48,14357,1,2,0:0:0:0:
337,251,14592,1,8,0:0:0:0:
176,133,14826,2,0,L|213:184,1,62.5,2|2,0:0|0:0,0:0:0:0:
96,80,15061,6,2,P|144:40|224:52,1,125,8|2,0:0|0:0,0:0:0:0:
308,48,15529,1,8,0:0:0:0:
296,80,15646,1,2,0:0:0:0:
296,112,15764,1,2,0:0:0:0:
308,144,15881,1,2,0:0:0:0:
324,172,15998,1,2,0:0:0:0:
348,194,16115,6,0,P|316:214|280:222,1,62.5,8|0,0:0|0:0,0:0:0:0:
136,148,16350,2,0,P|148:184|164:216,1,62.5,8|2,0:0|0:0,0:0:0:0:
308,376,16701,2,0,P|316:340|320:308,1,62.5,8|0,0:0|0:0,0:0:0:0:
232,168,16936,5,8,0:0:0:0:
420,300,17170,1,2,0:0:0:0:
348,194,17404,1,8,0:0:0:0:
328,218,17521,1,2,0:0:0:0:
300,234,17639,1,2,0:0:0:0:
272,250,17756,1,2,0:0:0:0:
240,258,17873,6,0,P|208:266|168:270,1,62.5,8|0,0:0|0:0,0:0:0:0:
32,240,18107,2,0,P|48:204|72:176,1,62.5,8|0,0:0|0:0,0:0:0:0:
204,128,18342,1,2,0:0:0:0:
204,128,18459,2,0,P|188:156|164:184,1,62.5,8|0,0:0|0:0,0:0:0:0:
72,320,18693,6,0,P|88:336|128:352,1,62.5,8|8,0:0|0:0,0:0:0:0:
168,180,19045,1,2,0:0:0:0:
252,60,19279,1,8,0:0:0:0:
276,80,19396,1,2,0:0:0:0:
284,112,19514,1,2,0:0:0:0:
288,144,19631,1,2,0:0:0:0:
300,176,19748,1,2,0:0:0:0:
324,196,19865,6,0,P|352:212|384:212,1,62.5,8|2,0:0|0:0,0:0:0:0:
329,70,20100,2,0,P|304:88|283:112,1,62.5,8|0,0:0|0:0,0:0:0:0:
276,332,20451,2,0,P|287:303|291:272,1,62.5,8|2,0:0|0:0,0:0:0:0:
136,240,20686,1,8,0:0:0:0:
136,240,20920,6,0,P|168:224|216:216,1,62.5,2|0,0:0|0:0,0:0:0:0:
292,272,21154,2,0,P|336:252|372:224,1,62.5,8|0,0:0|0:0,0:0:0:0:
376,136,21389,1,2,0:0:0:0:
436,296,21623,1,2,0:0:0:0:
216,304,21857,1,10,0:0:0:0:
256,112,22092,1,8,0:0:0:0:
68,131,22326,1,8,0:0:0:0:
62,127,22443,1,8,0:0:0:0:
56,123,22561,6,0,L|60:198,1,62.5,2|0,0:0|0:0,0:0:0:0:
180,256,22795,2,0,P|224:268|264:256,1,62.5,2|0,0:0|0:0,0:0:0:0:
100,340,23029,2,0,P|88:296|96:256,1,62.5,8|0,0:0|0:0,0:0:0:0:
168,180,23264,1,2,0:0:0:0:
144,36,23498,2,0,L|144:98,1,62.5,2|0,0:0|0:0,0:0:0:0:
176,252,23732,2,0,L|176:184,1,62.5,2|0,0:0|0:0,0:0:0:0:
378,187,23967,1,8,0:0:0:0:
288,136,24201,1,2,0:0:0:0:
284,140,24318,1,2,0:0:0:0:
280,144,24436,6,0,B|288:112|288:112|284:96|288:72,1,62.5,2|0,0:0|0:0,0:0:0:0:
260,296,24670,2,0,B|252:276|260:248|260:248|250:228,1,62.5,2|0,0:0|0:0,0:0:0:0:
193,142,24904,1,8,0:0:0:0:
356,312,25139,5,2,0:0:0:0:
139,272,25373,1,2,0:0:0:0:
352,300,25607,2,0,L|348:232,1,62.5,2|0,0:0|0:0,0:0:0:0:
184,204,25842,2,0,L|196:124,1,62.5,8|0,0:0|0:0,0:0:0:0:
396,156,26076,2,0,P|420:180|432:232,1,62.5,2|0,0:0|0:0,0:0:0:0:
320,359,26311,6,0,L|352:219,1,125,2|2,0:0|0:0,0:0:0:0:
448,84,26779,1,8,0:0:0:0:
180,52,27014,1,2,0:0:0:0:
184,48,27131,1,0,0:0:0:0:
188,44,27248,2,0,P|242:66|256:88,1,62.5,2|0,0:0|0:0,0:0:0:0:
312,164,27482,2,0,L|312:84,1,62.5,2|0,0:0|0:0,0:0:0:0:
380,40,27717,1,8,0:0:0:0:
430,206,27951,1,2,0:0:0:0:
232,188,28186,6,0,P|184:212|164:244,1,62.5,2|0,0:0|0:0,0:0:0:0:
103,315,28420,2,0,L|104:236,1,62.5,2|0,0:0|0:0,0:0:0:0:
23,191,28654,1,8,0:0:0:0:
221,351,28889,2,0,L|184:288,1,62.5,2|0,0:0|0:0,0:0:0:0:
112,172,29123,1,2,0:0:0:0:
22,349,29357,1,2,0:0:0:0:
24,343,29475,1,0,0:0:0:0:
26,337,29592,2,0,L|33:263,1,62.5,8|0,0:0|0:0,0:0:0:0:
112,172,29826,2,0,L|118:234,1,62.5,2|0,0:0|0:0,0:0:0:0:
136,324,30061,5,2,0:0:0:0:
176,102,30295,2,0,P|203:100|238:102,1,62.5,2|0,0:0|0:0,0:0:0:0:
388,128,30529,2,0,L|388:66,1,62.5,8|0,0:0|0:0,0:0:0:0:
468,148,30764,1,2,0:0:0:0:
466,153,30881,1,0,0:0:0:0:
463,158,30998,2,0,P|387:211|311:142,1,187.5,2|2,0:0|0:0,0:0:0:0:
304,280,31467,2,0,L|304:368,1,62.5,8|0,0:0|0:0,0:0:0:0:
156,332,31701,2,0,P|188:304|216:260,1,62.5,2|0,0:0|0:0,0:0:0:0:
192,104,31936,6,0,P|185:134|184:166,1,62.5,2|0,0:0|0:0,0:0:0:0:
72,268,32170,2,0,L|27:224,1,62.5,2|0,0:0|0:0,0:0:0:0:
20,356,32404,1,8,0:0:0:0:
248,264,32639,1,2,0:0:0:0:
29,91,32873,1,2,0:0:0:0:
128,205,33107,2,0,L|220:205,1,62.5,2|0,0:0|0:0,0:0:0:0:
288,60,33342,2,0,L|288:132,1,62.5,8|0,0:0|0:0,0:0:0:0:
341,276,33576,2,0,P|362:254|392:244,1,62.5,2|0,0:0|0:0,0:0:0:0:
464,292,33811,5,2,0:0:0:0:
452,184,33928,2,0,B|440:132|440:132|456:96|452:44,1,125,2|0,0:0|0:0,0:0:0:0:
304,24,34279,2,0,L|240:20,1,62.5,8|0,0:0|0:0,0:0:0:0:
175,174,34514,2,0,P|211:170|247:138,1,62.5,2|0,0:0|0:0,0:0:0:0:
80,112,34748,2,0,P|64:163|72:207,1,62.5,2|0,0:0|0:0,0:0:0:0:
116,324,34982,2,0,L|128:244,1,62.5,2|0,0:0|0:0,0:0:0:0:
220,96,35217,2,0,L|236:172,1,62.5,8|0,0:0|0:0,0:0:0:0:
238,263,35451,1,2,0:0:0:0:
408,180,35686,6,0,L|430:57,1,125,2|2,0:0|0:0,0:0:0:0:
328,224,36154,1,8,0:0:0:0:
328,224,36389,2,0,L|324:308,1,62.5,2|0,0:0|0:0,0:0:0:0:
220,96,36623,2,0,L|244:176,1,62.5,2|0,0:0|0:0,0:0:0:0:
404,284,36857,2,0,L|384:356,1,62.5,2|0,0:0|0:0,0:0:0:0:
229,232,37092,2,0,B|249:294,1,62.5,8|0,0:0|0:3,0:3:0:0:
388,176,37326,2,0,B|384:140|384:140|364:112|364:112|356:68,1,93.75,2|0,0:0|0:0,0:0:0:0:
359,86,37561,5,2,0:0:0:0:
49,71,37795,2,0,L|113:71,1,62.5,2|0,0:0|0:0,0:0:0:0:
287,136,38029,2,0,P|271:174|222:210,1,62.5,8|0,0:0|0:0,0:0:0:0:
69,188,38264,2,0,L|132:188,1,62.5,2|0,0:0|0:0,0:0:0:0:
287,29,38498,2,0,P|243:57|235:89,1,62.5,2|0,0:0|0:0,0:0:0:0:
257,189,38732,2,0,L|320:189,1,62.5,2|0,0:0|0:0,0:0:0:0:
412,152,38967,1,8,0:0:0:0:
373,352,39201,1,2,0:0:0:0:
369,348,39318,1,0,0:0:0:0:
365,344,39436,6,0,B|357:304|357:304|365:288|361:264,1,62.5,2|0,0:0|0:0,0:0:0:0:
240,76,39670,2,0,B|240:96|232:112|232:112|232:136|237:149,1,62.5,2|0,0:0|0:0,0:0:0:0:
284,244,39904,1,8,0:0:0:0:
313,71,40139,1,2,0:0:0:0:
150,165,40373,1,2,0:0:0:0:
375,71,40607,2,0,L|291:71,1,62.5,2|0,0:0|0:0,0:0:0:0:
87,165,40842,2,0,L|150:165,1,62.5,8|0,0:0|0:0,0:0:0:0:
349,171,41076,2,0,P|318:166|287:169,1,62.5,2|0,0:0|0:0,0:0:0:0:
241,294,41311,6,0,L|301:230,1,62.5,2|0,0:0|0:0,0:0:0:0:
456,248,41545,2,0,P|425:243|394:249,1,62.5,2|0,0:0|0:0,0:0:0:0:
340,341,41779,1,8,0:0:0:0:
194,72,42014,1,2,0:0:0:0:
190,76,42131,1,0,0:0:0:0:
186,80,42248,2,0,L|186:152,1,62.5,2|0,0:0|0:0,0:0:0:0:
176,268,42482,2,0,P|144:240|116:180,1,62.5,2|0,0:0|0:0,0:0:0:0:
84,119,42717,1,8,0:0:0:0:
51,327,43186,6,0,L|65:248,1,62.5,2|2,0:0|0:0,0:0:0:0:
176,268,43420,2,0,L|167:329,1,62.5
282,350,43654,1,8,0:0:0:0:
324,220,43889,2,0,L|332:140,1,62.5,2|0,0:0|0:0,0:0:0:0:
404,256,44123,1,2,0:0:0:0:
184,256,44357,2,0,L|256:264,1,62.5,2|0,0:0|0:0,0:0:0:0:
466,262,44592,2,0,L|404:256,1,62.5,10|0,0:0|0:0,0:0:0:0:
264,108,44826,2,0,L|256:180,1,62.5,2|0,0:0|0:0,0:0:0:0:
322,247,45061,5,2,0:0:0:0:
269,45,45295,2,0,L|256:180,1,125,2|8,0:0|0:0,0:0:0:0:
416,133,45764,1,2,0:0:0:0:
168,100,45998,2,0,L|96:88,1,62.5,2|0,0:0|0:0,0:0:0:0:
19,228,46232,2,0,P|51:220|87:184,1,62.5,2|0,0:0|0:0,0:0:0:0:
24,72,46467,2,0,L|24:144,1,62.5,8|0,0:0|0:0,0:0:0:0:
154,168,46701,1,2,0:0:0:0:
158,164,46818,1,0,0:0:0:0:
162,160,46936,6,0,B|168:134|168:134|160:118|168:98,1,62.5,2|0,0:0|0:0,0:0:0:0:
227,278,47170,2,0,B|229:256|229:256|221:244|229:216,1,62.5,2|0,0:0|0:0,0:0:0:0:
308,108,47404,1,8,0:0:0:0:
344,360,47639,1,2,0:0:0:0:
324,308,47756,1,0,0:0:0:0:
304,256,47873,1,2,0:0:0:0:
424,52,48107,1,2,0:0:0:0:
440,106,48225,1,0,0:0:0:0:
456,159,48342,2,0,L|479:230,1,62.5,8|0,0:0|0:0,0:0:0:0:
285,205,48576,2,0,L|257:124,1,62.5,2|0,0:0|0:0,0:0:0:0:
425,51,48811,5,2,0:0:0:0:
475,218,49045,1,2,0:0:0:0:
239,341,49279,2,0,L|256:217,1,125,8|2,0:0|0:0,0:0:0:0:
26,36,49748,2,0,L|42:166,1,125,2|2,0:0|0:0,0:0:0:0:
208,114,50217,1,8,0:0:0:0:
59,318,50451,1,2,0:0:0:0:
288,356,50686,6,0,L|288:280,1,62.5,2|0,0:0|0:0,0:0:0:0:
123,196,50920,2,0,P|115:236|123:272,1,62.5,2|0,0:0|0:0,0:0:0:0:
216,237,51154,1,8,0:0:0:0:
136,348,51389,2,0,P|164:344|193:322,1,62.5,2|0,0:0|0:0,0:0:0:0:
286,180,51623,2,0,P|302:220|306:268,1,62.5,2|0,0:0|0:0,0:0:0:0:
423,315,51857,2,0,P|459:313|484:295,1,62.5,2|0,0:0|0:0,0:0:0:0:
452,140,52092,2,0,P|392:176|376:244,1,125,8|0,0:0|0:0,0:0:0:0:
457,104,52561,6,0,P|384:136|344:208,1,156.25,2|2,0:0|0:0,0:0:0:0:
472,344,53029,1,8,0:0:0:0:
248,108,53264,1,2,0:0:0:0:
244,112,53381,1,0,0:0:0:0:
240,117,53498,2,0,L|240:197,1,62.5,2|0,0:0|0:0,0:0:0:0:
372,280,53732,2,0,P|368:244|356:212,1,62.5,2|0,0:0|0:0,0:0:0:0:
263,288,53967,1,8,0:0:0:0:
352,136,54201,6,0,P|392:188|464:196,1,125,2|2,0:0|0:0,0:0:0:0:
174,59,54670,2,0,P|112:58|64:95,1,125,2|8,0:0|0:0,0:0:0:0:
126,311,55139,1,2,0:0:0:0:
339,260,55373,2,0,L|346:185,1,62.5,2|0,0:0|0:0,0:0:0:0:
202,197,55607,1,2,0:0:0:0:
202,197,55725,1,0,0:0:0:0:
204,202,55842,2,0,L|272:214,1,62.5,10|0,0:0|0:0,0:0:0:0:
392,368,56076,2,0,P|404:332|400:304,1,62.5,2|0,0:0|0:0,0:0:0:0:
203,280,56311,6,0,P|247:308|283:308,1,62.5,2|0,0:0|0:0,0:0:0:0:
400,300,56545,2,0,L|424:212,1,62.5,2|2,0:0|0:0,0:0:0:0:
473,138,56779,1,8,0:0:0:0:
252,56,57014,1,2,0:0:0:0:
256,60,57131,1,0,0:0:0:0:
260,64,57248,2,0,L|245:132,1,62.5,2|0,0:0|0:0,0:0:0:0:
236,296,57482,2,0,L|252:228,1,62.5,2|0,0:0|0:0,0:0:0:0:
40,144,57717,2,0,P|92:172|168:168,1,125,8|2,0:0|0:0,0:0:0:0:
256,32,58186,5,2,0:0:0:0:
115,97,58420,1,2,0:0:0:0:
313,178,58654,1,8,0:0:0:0:
137,260,58889,1,2,0:0:0:0:
132,255,59006,1,0,0:0:0:0:
129,249,59123,2,0,P|129:211|153:171,1,62.5,2|0,0:0|0:0,0:0:0:0:
360,292,59357,2,0,L|288:292,1,62.5,2|0,0:0|0:0,0:0:0:0:
236,64,59592,2,0,L|216:128,1,62.5,8|0,0:0|0:0,0:0:0:0:
360,292,59826,2,0,L|344:156,1,125,2|2,0:0|0:0,0:0:0:0:
225,296,60295,6,0,L|241:236,1,62.5,2|0,0:0|0:0,0:0:0:0:
236,64,60529,2,0,L|212:148,1,62.5,8|0,0:0|0:0,0:0:0:0:
168,210,60764,1,2,0:0:0:0:
135,29,60998,2,0,B|121:70|137:106|137:106|113:146,1,125,2|0,0:0|0:0,0:0:0:0:
47,297,61467,2,0,P|38:327|35:358,1,62.5,8|0,0:0|0:0,0:0:0:0:
177,334,61701,1,2,0:0:0:0:
178,339,61818,1,0,0:0:0:0:
180,344,61936,6,0,L|268:304,1,62.5,2|0,0:0|0:0,0:0:0:0:
376,240,62170,2,0,P|328:280|328:384,1,125,2|8,0:0|0:0,0:0:0:0:
491,252,62639,1,2,0:0:0:0:
281,167,62873,1,2,0:0:0:0:
318,350,63107,1,0,0:0:0:0:
461,229,63342,2,0,L|467:166,1,62.5,8|0,0:0|0:0,0:0:0:0:
394,52,63576,2,0,L|387:114,1,62.5,2|0,0:0|0:0,0:0:0:0:
344,192,63811,6,0,P|291:210|219:205,1,125,2|0,0:0|0:0,0:0:0:0:
20,97,64279,2,0,L|108:57,1,62.5,8|0,0:0|0:0,0:0:0:0:
231,70,64514,2,0,L|143:30,1,62.5,2|0,0:0|0:0,0:0:0:0:
342,75,64748,2,0,P|362:135|330:207,1,125,2|2,0:0|0:0,0:0:0:0:
50,325,65217,2,0,L|138:325,1,62.5,8|0,0:0|0:0,0:0:0:0:
158,225,65451,2,0,L|230:225,1,62.5,2|0,0:0|0:0,0:0:0:0:
343,191,65686,6,0,P|359:247|345:326,1,125,2|2,0:0|0:0,0:0:0:0:
431,125,66154,1,8,0:0:0:0:
247,46,66389,1,2,0:0:0:0:
241,48,66506,1,0,0:0:0:0:
234,49,66623,2,0,P|202:69|188:92,1,62.5,2|0,0:0|0:0,0:0:0:0:
144,305,66857,2,0,P|172:292|196:272,1,62.5,2|0,0:0|0:0,0:0:0:0:
256,140,67092,2,0,P|232:164|216:212,1,62.5,8|0,0:0|0:0,0:0:0:0:
176,360,67326,2,0,P|152:324|140:280,1,62.5,2|0,0:0|0:0,0:0:0:0:
137,160,67561,5,0,0:0:0:0:
82,306,67795,2,0,L|158:306,1,62.5,2|0,0:0|0:0,0:0:0:0:
252,236,68029,2,0,L|189:236,1,62.5,8|0,0:0|0:0,0:0:0:0:
325,197,68264,1,2,0:0:0:0:
329,201,68381,1,0,0:0:0:0:
333,205,68498,2,0,P|353:265|337:329,1,125,2|2,0:0|0:0,0:0:0:0:
294,97,68967,2,0,L|304:20,1,62.5,8|0,0:0|0:0,0:0:0:0:
208,136,69201,2,0,P|184:152|152:188,1,62.5,2|0,0:0|0:0,0:0:0:0:
242,330,69436,6,0,P|254:298|258:266,1,62.5,2|0,0:0|0:0,0:0:0:0:
208,73,69670,2,0,L|208:137,1,62.5,2|0,0:0|0:0,0:0:0:0:
338,214,69904,2,0,P|318:194|282:178,1,62.5,8|0,0:0|0:0,0:0:0:0:
82,248,70139,2,0,P|65:188|80:128,1,125,2|2,0:0|0:0,0:0:0:0:
242,330,70607,1,2,0:0:0:0:
442,303,70842,1,8,0:0:0:0:
248,294,71076,1,2,0:0:0:0:
448,270,71311,6,0,L|445:207,1,62.5,2|0,0:0|0:0,0:0:0:0:
384,84,71545,2,0,P|372:116|372:148,1,62.5,2|0,0:0|0:0,0:0:0:0:
500,124,71779,2,0,P|487:95|466:72,1,62.5,8|0,0:0|0:0,0:0:0:0:
272,56,72014,1,2,0:0:0:0:
268,60,72131,1,0,0:0:0:0:
264,64,72248,2,0,L|276:144,1,62.5,2|0,0:0|0:0,0:0:0:0:
228,282,72482,2,0,L|220:221,1,62.5,2|0,0:0|0:0,0:0:0:0:
161,120,72717,1,8,0:0:0:0:
172,338,72951,1,2,0:0:0:0:
168,342,73068,1,0,0:0:0:0:
164,346,73186,6,8,P|236:366|296:342,1,125,2|2,0:0|0:0,0:0:0:0:
279,149,73654,1,8,0:0:0:0:
428,248,73889,2,0,P|396:200|392:120,1,125,2|2,0:0|0:0,0:0:0:0:
424,344,74357,2,0,P|460:344|488:324,1,62.5,2|0,0:0|0:0,0:0:0:0:
308,256,74592,2,0,L|336:324,1,62.5,8|0,0:0|0:0,0:0:0:0:
188,148,74826,2,0,L|220:220,1,62.5,2|0,0:0|0:0,0:0:0:0:
78,98,75061,5,2,0:0:0:0:
246,126,75295,2,0,L|162:156,1,62.5,2|0,0:0|0:0,0:0:0:0:
100,296,75529,2,0,L|180:264,1,62.5,8|0,0:0|0:0,0:0:0:0:
325,343,75764,1,2,0:0:0:0:
318,344,75881,1,0,0:0:0:0:
311,343,75998,2,0,P|265:345|233:325,1,62.5,2|0,0:0|0:0,0:0:0:0:
288,252,76232,2,0,L|288:164,1,62.5,2|0,0:0|0:0,0:0:0:0:
268,68,76467,2,0,P|248:100|244:128,1,62.5,8|0,0:0|0:0,0:0:0:0:
368,276,76701,2,0,P|400:256|408:228,1,62.5,2|0,0:0|0:0,0:0:0:0:
404,48,76936,6,0,L|396:127,1,62.5,2|0,0:0|0:0,0:0:0:0:
452,277,77170,2,0,L|407:233,1,62.5,2|0,0:0|0:0,0:0:0:0:
224,168,77405,2,0,P|268:176|300:164,1,62.5,8|0,0:0|0:0,0:0:0:0:
397,110,77639,1,2,0:0:0:0:
272,308,77873,1,2,0:0:0:0:
400,112,78107,2,0,P|364:108|308:112,1,62.5,2|0,0:0|0:0,0:0:0:0:
272,308,78342,2,0,P|268:276|269:246,1,62.5,8|0,0:0|0:0,0:0:0:0:
236,60,78576,2,0,B|212:48|212:48|192:56|168:52,1,62.5,2|2,0:0|0:0,0:0:0:0:
72,104,78811,6,0,L|79:41,1,62.5,2|0,0:0|0:0,0:0:0:0:
140,240,79045,2,0,L|136:177,1,62.5,2|0,0:0|0:0,0:0:0:0:
238,350,79279,2,0,P|208:355|180:344,1,62.5,8|0,0:0|0:0,0:0:0:0:
346,348,79514,1,0,0:0:0:0:
352,348,79631,1,0,0:0:0:0:
358,347,79748,2,0,P|392:324|402:300,1,62.5,8|0,0:0|0:0,0:3:0:0:
333,152,79983,2,0,P|312:182|314:230,1,62.5,2|0,0:0|0:0,0:3:0:0:
464,204,80217,2,0,P|468:162|456:140,1,62.5,8|0,0:0|0:0,0:3:0:0:
296,102,80452,2,0,P|316:135|353:165,1,62.5,2|0,0:0|0:0,0:3:0:0:
407,34,80686,5,8,0:0:0:0:
377,65,80803,1,0,0:0:0:0:
337,84,80920,1,2,0:0:0:0:
296,96,81037,1,0,0:0:0:0:
252,102,81154,2,0,P|212:98|162:88,1,62.5
30,65,81389,2,0,P|5:107|6:163,1,93.7500035762788,8|8,0:0|0:0,0:0:0:0:
131,348,81623,2,0,L|146:287,1,62.5
296,102,81857,1,8,0:0:0:0:
30,65,82092,1,8,0:0:0:0:
212,172,82326,1,8,0:0:0:0:
284,196,82443,1,8,0:0:0:0:
357,217,82561,5,12,0:0:0:0:
233,96,82795,2,0,L|209:180,1,78.125,2|0,0:0|0:0,0:0:0:0:
277,261,83029,2,0,P|243:269|192:251,1,78.125,8|0,0:0|0:0,0:0:0:0:
64,212,83264,1,2,0:0:0:0:
80,256,83381,1,0,0:0:0:0:
104,296,83498,2,0,P|144:308|196:296,1,78.125,8|0,0:0|0:0,0:0:0:0:
352,268,83732,2,0,P|312:256|260:268,1,78.125,8|0,0:0|0:0,0:0:0:0:
253,335,83967,1,8,0:0:0:0:
222,201,84084,2,0,L|194:37,1,156.25,2|0,0:0|0:0,0:0:0:0:
31,208,84436,6,0,P|70:209|112:200,1,78.125,2|0,0:0|0:0,0:0:0:0:
46,30,84670,2,0,L|60:106,1,78.125,2|0,0:0|0:0,0:0:0:0:
125,277,84904,2,0,L|106:191,1,78.125,8|0,0:0|0:0,0:0:0:0:
288,292,85139,2,0,P|248:308|192:292,1,78.125,2|0,0:0|0:0,0:0:0:0:
244,188,85373,2,0,B|286:181|332:158,2,78.125,2|2|0,0:0|0:0|0:0,0:0:0:0:
379,34,85725,2,0,L|371:119,1,78.125,2|8,0:0|0:0,0:0:0:0:
407,313,86076,2,0,L|399:190,1,117.1875,2|0,0:0|0:0,0:0:0:0:
399,192,86311,5,6,0:0:0:0:
111,135,86545,2,0,P|151:131|208:137,1,78.125,2|0,0:0|0:0,0:0:0:0:
214,303,86779,2,0,P|208:256|214:222,1,78.125,8|0,0:0|0:0,0:0:0:0:
327,53,87014,2,0,P|285:56|247:53,1,78.125,2|0,0:0|0:0,0:0:0:0:
29,57,87248,2,0,P|106:37|182:64,1,156.25,2|2,0:0|0:0,0:0:0:0:
462,247,87717,2,0,P|385:272|313:249,1,156.25,8|2,0:0|0:0,0:0:0:0:
100,227,88186,6,0,P|140:219|184:227,1,78.125,2|0,0:0|0:0,0:0:0:0:
424,266,88421,2,0,P|384:272|344:264,1,78.125,2|0,0:0|0:0,0:0:0:0:
265,69,88654,2,0,L|265:229,1,156.25,8|2,0:0|0:0,0:0:0:0:
384,344,89006,1,0,0:0:0:0:
350,258,89123,2,0,L|364:179,1,78.125,2|0,0:0|0:0,0:0:0:0:
171,32,89475,2,0,L|184:109,1,78.125,2|8,0:0|0:0,0:0:0:0:
267,25,89709,1,0,0:0:0:0:
291,65,89826,1,2,0:0:0:0:
315,105,89943,1,0,0:0:0:0:
339,145,90061,5,6,0:0:0:0:
123,297,90295,2,0,L|207:269,1,78.125,2|0,0:0|0:0,0:0:0:0:
360,184,90529,2,0,L|268:216,1,78.125,8|0,0:0|0:0,0:0:0:0:
126,60,90764,1,2,0:0:0:0:
103,101,90881,1,0,0:0:0:0:
85,144,90998,2,0,L|86:224,1,78.125,8|0,0:0|0:0,0:0:0:0:
198,350,91232,2,0,L|197:272,1,78.125,8|0,0:0|0:0,0:0:0:0:
224,98,91467,2,0,P|298:65|342:92,1,78.125,8|0,0:0|0:0,0:0:0:0:
443,62,91701,1,2,0:0:0:0:
462,104,91818,1,0,0:0:0:0:
483,146,91936,6,0,B|482:232,1,78.125,2|0,0:0|0:0,0:0:0:0:
354,266,92170,2,0,L|358:188,1,78.125,2|0,0:0|0:0,0:0:0:0:
186,123,92404,2,0,L|263:129,1,78.125,8|0,0:0|0:0,0:0:0:0:
445,63,92639,2,0,P|377:42|268:71,1,156.25,2|0,0:0|0:0,0:0:0:0:
277,206,92990,2,0,L|261:114,1,78.125,2|0,0:0|0:0,0:0:0:0:
174,201,93225,2,0,L|166:286,1,78.125,8|0,0:0|0:0,0:0:0:0:
115,344,93459,1,0,0:0:0:0:
14,237,93576,2,0,P|77:233|128:283,1,117.1875,2|0,0:0|0:0,0:0:0:0:
118,268,93811,5,6,0:0:0:0:
286,353,94045,2,0,L|380:360,1,78.125,2|0,0:0|0:0,0:0:0:0:
464,270,94279,2,0,L|446:112,1,156.25,8|2,0:0|0:0,0:0:0:0:
103,303,94748,2,0,P|51:299|18:283,2,78.125,2|0|2,0:0|0:0|0:0,0:0:0:0:
194,235,95100,2,0,L|214:139,1,78.125,2|8,0:0|0:0,0:0:0:0:
70,51,95334,2,0,L|166:75,1,78.125,2|2,0:0|0:0,0:0:0:0:
313,48,95568,2,0,B|357:50|391:40|391:40|359:81|351:116,1,156.25,2|0,0:0|0:0,0:0:0:0:
312,316,95920,6,0,P|336:236|401:205,1,156.25,2|8,0:0|0:0,0:0:0:0:
132,136,96389,1,2,0:0:0:0:
400,304,96623,1,2,0:0:0:0:
194,228,96857,1,2,0:0:0:0:
416,40,97092,1,8,0:0:0:0:
279,316,97326,1,2,0:0:0:0:
313,48,97561,5,6,0:0:0:0:
56,244,97795,2,0,P|102:252|148:236,1,78.125,2|0,0:0|0:0,0:0:0:0:
95,80,98029,2,0,L|95:168,1,78.125,8|0,0:0|0:0,0:0:0:0:
206,327,98264,1,2,0:0:0:0:
231,287,98381,1,0,0:0:0:0:
248,249,98498,2,0,L|248:157,1,78.125,8|0,0:0|0:0,0:0:0:0:
440,171,98732,2,0,P|403:143|363:138,1,78.125,8|0,0:0|0:0,0:0:0:0:
370,225,98967,1,8,0:0:0:0:
480,184,99084,2,0,B|496:108|496:108|468:24,1,156.25,2|0,0:0|0:0,0:0:0:0:
325,58,99436,6,0,L|246:60,1,78.125,2|0,0:0|0:0,0:0:0:0:
224,135,99670,2,0,L|130:137,1,78.125,2|0,0:0|0:0,0:0:0:0:
21,93,99904,2,0,P|47:46|78:32,1,78.125,8|0,0:0|0:0,0:0:0:0:
98,266,100139,2,0,P|103:230|85:183,1,78.125,2|0,0:0|0:0,0:0:0:0:
20,168,100373,1,2,0:0:0:0:
181,208,100490,2,0,L|261:208,1,78.125,2|2,0:0|0:0,0:0:0:0:
407,301,100725,2,0,P|441:320|478:332,2,78.125,2|8|0,0:0|0:0|0:0,0:0:0:0:
332,172,101076,2,0,L|332:321,1,117.1875,2|0,0:0|0:0,0:0:0:0:
332,293,101311,5,6,0:0:0:0:
246,144,101545,2,0,L|133:145,1,78.125,2|0,0:0|0:0,0:0:0:0:
324,96,101779,2,0,P|336:132|328:184,1,78.125,8|0,0:0|0:0,0:0:0:0:
412,336,102014,2,0,B|412:238,1,78.125,2|0,0:0|0:0,0:0:0:0:
457,35,102248,2,0,L|457:115,1,78.125,2|0,0:0|0:0,0:0:0:0:
332,171,102482,2,0,P|324:212|332:249,1,78.125,2|0,0:0|0:0,0:0:0:0:
412,257,102717,1,8,0:0:0:0:
296,329,102834,2,0,P|200:349|128:317,1,156.25,2|0,0:0|0:0,0:0:0:0:
141,327,103186,5,2,0:0:0:0:
172,48,103420,1,2,0:0:0:0:
96,319,103654,1,8,0:0:0:0:
219,50,103889,1,2,0:0:0:0:
50,311,104123,2,0,L|43:221,2,78.125,2|0|2,0:0|0:0|0:0,0:0:0:0:
165,127,104475,2,0,L|172:214,1,78.125,2|8,0:0|0:0,0:0:0:0:
266,51,104826,1,2,0:0:0:0:
164,316,105061,5,6,0:0:0:0:
440,190,105295,2,0,P|396:185|307:189,1,78.125,2|2,0:0|0:0,0:0:0:0:
164,316,105529,2,0,P|213:319|274:312,1,78.125,8|0,0:0|0:0,0:0:0:0:
121,151,105764,1,2,0:0:0:0:
149,188,105881,1,0,0:0:0:0:
184,218,105998,2,0,L|284:218,1,78.125,8|0,0:0|0:0,0:0:0:0:
442,313,106232,2,0,L|363:312,1,78.125,8|0,0:0|0:0,0:0:0:0:
224,359,106467,2,0,P|235:322|264:295,2,78.125,8|0|2,0:0|0:0|0:0,0:0:0:0:
402,281,106936,6,0,B|428:261|447:227|447:227|441:318,1,156.25,2|2,0:0|0:0,0:0:0:0:
41,331,107404,2,0,B|33:271|33:271|57:217|57:217|53:151,1,156.25,8|2,0:0|0:0,0:0:0:0:
193,239,107756,1,2,0:0:0:0:
162,203,107873,1,2,0:0:0:0:
131,167,107990,2,0,L|39:183,1,78.125,2|2,0:0|0:0,0:0:0:0:
192,32,108225,2,0,L|200:109,2,78.125,2|8|0,0:0|0:0|0:0,0:0:0:0:
357,164,108576,2,0,P|308:194|251:187,1,117.1875,2|0,0:0|0:0,0:0:0:0:
247,184,108811,5,6,0:0:0:0:
432,32,109045,2,0,L|440:116,1,78.125,2|0,0:0|0:0,0:0:0:0:
363,242,109279,2,0,L|357:164,1,78.125,8|0,0:0|0:0,0:0:0:0:
204,108,109514,2,0,L|312:100,1,78.125,2|0,0:0|0:0,0:0:0:0:
96,200,109748,2,0,L|255:187,1,156.25,2|2,0:0|0:0,0:0:0:0:
309,290,110100,1,0,0:0:0:0:
331,249,110217,1,8,0:0:0:0:
352,208,110334,2,0,L|372:40,1,156.25,2|0,0:0|0:0,0:0:0:0:
281,102,110686,6,0,L|201:110,1,78.125,2|0,0:0|0:0,0:0:0:0:
432,160,110920,2,0,L|524:196,1,78.125,2|0,0:0|0:0,0:0:0:0:
256,264,111154,2,0,L|152:264,1,78.125,8|0,0:0|0:0,0:0:0:0:
392,288,111389,2,0,L|488:288,1,78.125,2|0,0:0|0:0,0:0:0:0:
196,187,111623,2,0,L|204:91,1,78.125,8|0,0:0|0:0,0:0:0:0:
428,156,111857,2,0,L|420:52,1,78.125,8|0,0:0|0:0,0:0:0:0:
234,339,112092,2,0,L|262:243,1,78.125,8|0,0:0|0:0,0:0:0:0:
392,288,112326,2,0,P|360:240|356:160,1,117.1875,8|0,0:0|0:0,0:0:0:0:
320,96,112561,6,0,P|328:144|316:244,1,117.1875,12|0,0:0|0:0,0:0:0:0:
326,237,112795,2,0,P|284:222|221:228,1,74.9999977111817,2|0,0:0|0:0,0:0:0:0:
189,295,113029,2,0,P|226:307|271:310,1,74.9999977111817,8|0,0:0|0:0,0:0:0:0:
392,288,113264,2,0,P|410:245|401:202,1,74.9999977111817,2|0,0:0|0:0,0:0:0:0:
186,137,113498,2,0,P|168:180|177:223,1,74.9999977111817,8|0,0:0|0:0,0:0:0:0:
288,306,113732,2,0,P|329:316|369:301,1,74.9999977111817,2|0,0:0|0:0,0:0:0:0:
295,141,113967,2,0,P|262:133|213:141,1,74.9999977111817,8|0,0:0|0:0,0:0:0:0:
114,265,114201,1,8,0:0:0:0:
220,164,114436,5,10,0:0:0:0:
224,208,114553,1,0,0:0:0:0:
236,252,114670,1,2,0:0:0:0:
264,288,114787,1,0,0:0:0:0:
304,311,114904,2,0,P|344:309|402:298,1,74.9999977111817,8|0,0:0|0:0,0:0:0:0:
492,241,115139,1,2,0:0:0:0:
497,235,115256,1,0,0:0:0:0:
501,228,115373,2,0,L|473:90,1,112.499996566773,2|0,0:0|0:0,0:0:0:0:
475,115,115607,1,2,0:0:0:0:
304,311,115842,1,8,0:0:0:0:
304,90,116076,1,2,0:0:0:0:
149,223,116311,6,0,B|101:255|58:262|58:262|110:271,1,149.999995422363,6|0,0:0|0:0,0:0:0:0:
304,90,116779,2,0,L|304:164,1,74.9999977111817,8|0,0:0|0:0,0:0:0:0:
151,146,117014,2,0,P|176:124|216:114,1,74.9999977111817,2|0,0:0|0:0,0:0:0:0:
276,250,117248,2,0,P|237:226|219:186,1,74.9999977111817,2|0,0:0|0:0,0:0:0:0:
361,241,117482,2,0,P|340:309|266:334,1,149.999995422363,2|8,0:0|0:0,0:0:0:0:
63,155,117951,2,0,P|84:87|158:62,1,149.999995422363,2|2,0:0|0:0,0:0:0:0:
149,223,118420,6,0,B|149:263|149:263|153:287|153:287|145:307|145:307|149:327|149:327|149:379,1,149.999995422363,8|8,0:0|0:0,0:0:0:0:
360,324,118889,1,2,0:0:0:0:
315,329,119006,1,0,0:0:0:0:
270,334,119123,1,8,0:0:0:0:
148,192,119357,6,0,L|148:138,1,37.4999988555909,2|0,0:0|0:0,0:0:0:0:
268,192,119592,2,0,L|268:144,1,37.4999988555909,8|0,0:0|0:0,0:0:0:0:
387,191,119826,2,0,L|387:145,1,37.4999988555909,2|0,0:0|0:0,0:0:0:0:
488,292,120061,5,12,0:0:0:0:
256,276,120295,2,0,P|299:278|349:265,1,74.9999977111817,2|0,0:0|0:0,0:0:0:0:
200,199,120529,2,0,P|180:167|174:124,1,74.9999977111817,8|0,0:0|0:0,0:0:0:0:
175,272,120764,2,0,P|142:295|99:296,1,74.9999977111817,2|0,0:0|0:0,0:0:0:0:
259,136,120998,2,0,P|229:63|138:57,1,149.999995422363,8|0,0:0|0:0,0:0:0:0:
221,349,121467,2,0,P|269:357|325:324,1,74.9999977111817,8|0,0:0|0:0,0:0:0:0:
256,276,121701,1,8,0:0:0:0:
260,100,121936,5,10,0:0:0:0:
272,144,122053,1,0,0:0:0:0:
256,188,122170,1,2,0:0:0:0:
248,232,122287,1,0,0:0:0:0:
256,276,122404,1,8,0:0:0:0:
78,214,122639,1,2,0:0:0:0:
92,256,122756,1,0,0:0:0:0:
108,297,122873,2,0,L|200:294,1,74.9999977111817,2|0,0:0|0:0,0:0:0:0:
271,319,123107,1,2,0:0:0:0:
377,138,123342,1,8,0:0:0:0:
157,163,123576,1,2,0:0:0:0:
309,342,123811,6,0,L|309:266,1,74.9999977111817,12|0,0:0|0:0,0:0:0:0:
183,196,124045,2,0,L|183:271,1,74.9999977111817,2|0,0:0|0:0,0:0:0:0:
342,235,124279,2,0,L|342:160,1,74.9999977111817,8|0,0:0|0:0,0:0:0:0:
217,89,124514,2,0,L|217:164,1,74.9999977111817,2|0,0:0|0:0,0:0:0:0:
154,308,124748,1,8,0:0:0:0:
141,88,124982,2,0,P|173:24|273:40,1,149.999995422363,2|8,0:0|0:0,0:0:0:0:
260,171,125451,6,0,L|340:267,1,125,2|8,0:0|0:0,0:0:0:0:
112,328,125920,1,2,0:0:0:0:
64,36,126154,1,8,0:0:0:0:
260,171,126389,6,0,L|324:247,1,100,2|8,0:0|0:0,0:0:0:0:
112,292,126857,1,2,0:0:0:0:
88,60,127092,1,8,0:0:0:0:
260,170,127326,6,0,L|312:230,1,74.9999977111817,2|12,0:0|0:0,0:0:0:0:
420,170,127795,6,0,L|483:235,1,74.9999977111817,2|0,0:0|0:0,0:0:0:0:
309,226,128029,2,0,P|309:263|335:296,1,74.9999977111817,8|0,0:0|0:0,0:0:0:0:
239,93,128264,2,0,P|283:94|326:128,1,74.9999977111817,2|0,0:0|0:0,0:0:0:0:
112,201,128498,2,0,L|210:204,1,74.9999977111817,8|0,0:0|0:0,0:0:0:0:
150,98,128732,1,2,0:0:0:0:
330,292,128967,1,8,0:0:0:0:
126,283,129201,1,8,0:0:0:0:
108,80,129436,5,8,0:0:0:0:
128,120,129553,1,0,0:0:0:0:
156,156,129670,1,2,0:0:0:0:
196,176,129787,1,0,0:0:0:0:
249,179,129904,2,0,L|342:147,1,74.9999977111817,8|0,0:0|0:0,0:0:0:0:
399,53,130139,1,2,0:0:0:0:
418,93,130256,1,0,0:0:0:0:
415,137,130373,2,0,L|484:110,1,74.9999977111817,8|0,0:0|0:0,0:0:0:0:
500,232,130607,2,0,L|407:264,1,74.9999977111817,2|0,0:0|0:0,0:0:0:0:
249,179,130842,2,0,L|319:153,1,74.9999977111817,8|0,0:0|0:0,0:0:0:0:
168,77,131076,2,0,L|99:104,1,74.9999977111817,2|0,0:0|0:0,0:0:0:0:
40,224,131311,5,12,0:0:0:0:
308,304,131545,1,2,0:0:0:0:
8,212,131779,1,8,0:0:0:0:
340,316,132014,1,2,0:0:0:0:
80,336,132248,1,8,0:0:0:0:
40,132,132482,2,0,P|110:109|178:137,1,149.999995422363,2|8,0:0|0:0,0:0:0:0:
472,272,132951,2,0,P|402:295|335:268,1,149.999995422363,2|8,0:0|0:0,0:0:0:0:
108,204,133420,6,0,B|108:244|108:244|112:268|112:268|104:288|104:288|108:308|108:308|108:360,1,149.999995422363,8|8,0:0|0:0,0:0:0:0:
334,267,133889,1,2,0:0:0:0:
334,222,134006,1,0,0:0:0:0:
334,177,134123,1,8,0:0:0:0:
132,68,134357,6,0,L|96:68,1,31.25,2|0,0:0|0:0,0:0:0:0:
44,192,134592,2,0,L|76:192,1,31.25,8|0,0:0|0:0,0:0:0:0:
90,316,134826,2,0,L|58:316,1,31.25,2|0,0:0|0:0,0:0:0:0:
208,296,135061,5,12,0:0:0:0:
334,250,135295,2,0,P|328:214|334:177,1,74.9999977111817,2|0,0:0|0:0,0:0:0:0:
284,313,135529,2,0,P|355:330|410:270,1,149.999995422363,8|0,0:0|0:0,0:0:0:0:
59,316,135998,2,0,L|213:295,1,149.999995422363,2|0,0:0|0:0,0:0:0:0:
406,281,136467,1,8,0:0:0:0:
448,64,136701,2,0,L|294:85,1,149.999995422363,2|0,0:0|0:0,0:0:0:0:
71,40,137170,6,0,L|154:49,1,74.9999977111817,2|0,0:0|0:0,0:0:0:0:
299,84,137404,2,0,L|224:88,1,74.9999977111817,8|0,0:0|0:0,0:0:0:0:
94,130,137639,1,2,0:0:0:0:
126,160,137756,1,0,0:0:0:0:
169,172,137873,2,0,L|249:169,1,74.9999977111817,8|0,0:0|0:0,0:0:0:0:
325,166,138107,1,2,0:0:0:0:
128,336,138342,1,12,0:0:0:0:
134,121,138576,1,4,0:0:0:0:
128,336,138811,6,0,P|130:299|138:262,1,74.9999977111817,12|0,0:0|0:0,0:3:0:0:
241,175,139045,2,0,P|238:212|226:247,1,74.9999977111817,2|0,0:0|0:0,0:3:0:0:
323,165,139279,2,0,L|410:186,1,74.9999977111817,8|0,0:0|0:0,0:3:0:0:
276,103,139514,2,0,B|247:65|242:22,1,74.9999977111817,2|0,0:0|0:0,0:0:0:0:
122,102,139748,2,0,L|198:114,1,74.9999977111817,2|0,0:0|0:0,0:0:0:0:
48,53,139982,2,0,P|29:103|111:185,1,149.999995422363,2|8,0:0|0:0,0:0:0:0:
276,103,140451,1,2,0:0:0:0:
245,173,140568,1,0,0:0:0:0:
215,243,140686,1,12,0:0:0:0:
256,192,140803,12,0,142561,0:0:0:0:
