osu file format v14

[General]
AudioFilename: Romantic Fall.mp3
AudioLeadIn: 1500
PreviewTime: 97681
Countdown: 0
SampleSet: Soft
StackLeniency: 0.7
Mode: 0
LetterboxInBreaks: 1
EpilepsyWarning: 1
WidescreenStoryboard: 1

[Editor]
Bookmarks: 631,17311,32980,49155,65330,81506,97681,113856,130029,146207,162379,178557,194729,210908,227079,243258,259433,275609,291778,307959,324128,340310,356478
DistanceSpacing: 0.5
BeatDivisor: 6
GridSize: 4
TimelineZoom: 2.250003

[Metadata]
Title:Ame wa Rira Rira
TitleUnicode:雨はりらりら
Artist:Shibayan feat. Sakaue Nachi
ArtistUnicode:Shibayan feat. Sakaue Nachi
Creator:truonant
Version:Rainstorm
Source:東方Project
Tags:Lust alacat Natsu Nozhomi Satellite eironeia captin1 Garven KokoroStudiox3 Mako Sakata aki shizuha minoriko Mágico Catástrofe マジコカタストロフィ ShibayanRecords Nachi Sakaue 坂上なち まざきさやか tak 人恋し神様 Romantic Fall Comiket 83 c83 東方風神録 Mountain of Faith marathon collab
BeatmapID:517737
BeatmapSetID:197422

[Difficulty]
HPDrainRate:6
CircleSize:4
OverallDifficulty:7
ApproachRate:9
SliderMultiplier:3
SliderTickRate:1

[Events]
//Background and Video events
0,0,"bg.jpg",0,0
//Break Periods
//Storyboard Layer 0 (Background)
//Storyboard Layer 1 (Fail)
//Storyboard Layer 2 (Pass)
//Storyboard Layer 3 (Foreground)
Sprite,Foreground,Centre,"SB\amber.png",320,240 L,99197,15 F,0,0,505,0.8,0.5 F,0,505,2020,0.5 F,0,97681,99197,0,0.6 M,0,99197,162382,-35,240 S,0,99197,162382,1.1 R,0,99197,162382,-4.711977 P,0,99197,162382,A F,0,130032,130537,0.3,0
Sprite,Foreground,Centre,"SB\amber.png",320,240 L,99197,15 F,0,0,505,0.8,0.5 F,0,505,2020,0.5 F,0,97681,99197,0,0.6 M,0,99197,130032,668,226 S,0,99197,131517,1.1 R,0,99197,131517,4.711977 P,0,99197,131517,A F,0,130032,130537,0.3,0
Sprite,Foreground,Centre,"SB\amber.png",320,240 L,293300,31 F,0,0,505,0.8,0.5 F,0,505,2020,0.5 F,0,291784,293300,0,0.6 M,0,293300,356485,-35,240 S,0,293300,356485,1.1 R,0,293300,356485,-4.711977 P,0,293300,356485,A
Sprite,Foreground,Centre,"SB\amber.png",320,240 L,293300,31 F,0,0,505,0.8,0.5 F,0,505,2020,0.5 F,0,291784,293300,0,0.6 M,0,293300,356485,668,226 S,0,293300,356485,1.1 R,0,293300,356485,4.711977 P,0,293300,356485,A
//Storyboard Sound Samples

[TimingPoints]
631,505.47598989048,4,2,1,90,1,0
631,-133.333333333333,4,2,1,90,0,0
26915,-133.333333333333,4,2,1,90,0,0
32981,-100,4,2,2,90,0,0
33486,-100,4,2,1,90,0,0
33654,-133.333333333333,4,2,1,90,0,0
33907,-100,4,2,2,90,0,0
35002,-200,4,2,2,90,0,0
35255,-100,4,2,1,90,0,0
35676,-133.333333333333,4,2,1,90,0,0
35929,-100,4,2,3,90,0,0
37277,-125,4,2,1,90,0,0
37698,-100,4,2,1,90,0,0
38035,-100,4,2,2,90,0,0
39046,-100,4,2,2,75,0,0
40562,-100,4,2,2,90,0,0
41321,-100,4,2,1,90,0,0
41742,-133.333333333333,4,2,1,90,0,0
41994,-100,4,2,2,90,0,0
43343,-100,4,2,1,90,0,0
43764,-133.333333333333,4,2,1,90,0,0
44016,-100,4,2,3,90,0,0
45364,-133.333333333333,4,2,1,90,0,0
45786,-100,4,2,1,90,0,0
46123,-200,4,2,2,90,0,0
47133,-100,4,2,4,75,0,0
48650,-100,4,2,2,90,0,0
49408,-100,4,2,1,90,0,0
49829,-133.333333333333,4,2,1,90,0,0
50082,-100,4,2,2,90,0,0
51430,-100,4,2,1,90,0,0
51851,-133.333333333333,4,2,1,90,0,0
52104,-100,4,2,3,90,0,0
53452,-100,4,2,1,90,0,0
53873,-133.333333333333,4,2,1,90,0,0
54210,-100,4,2,2,90,0,0
55221,-100,4,2,2,75,0,0
56737,-100,4,2,2,90,0,0
57496,-100,4,2,1,90,0,0
57917,-133.333333333333,4,2,1,90,0,0
58169,-100,4,2,2,90,0,0
59517,-100,4,2,1,90,0,0
59939,-133.333333333333,4,2,1,90,0,0
60192,-100,4,2,3,90,0,0
61539,-133.333333333333,4,2,1,90,0,0
61961,-100,4,2,1,90,0,0
62297,-100,4,2,2,90,0,0
63308,-100,4,2,4,75,0,0
64825,-100,4,2,2,90,0,0
65331,-133.333333333333,4,2,1,90,0,0
65837,-100,4,2,1,90,0,0
66005,-100,4,2,2,90,0,0
66595,-100,4,2,3,90,0,0
66848,-100,4,2,2,90,0,0
67353,-100,4,2,3,90,0,0
67606,-100,4,2,2,90,0,0
68111,-100,4,2,1,90,0,0
68364,-100,4,2,2,90,0,0
68870,-100,4,2,1,90,0,0
69122,-100,4,2,1,90,0,0
69375,-100,4,2,1,90,0,0
69628,-100,4,2,2,90,0,0
70049,-100,4,2,3,90,0,0
70639,-100,4,2,2,90,0,0
71144,-100,4,2,3,90,0,0
71397,-100,4,2,1,90,0,0
71650,-100,4,2,2,90,0,0
72071,-100,4,2,1,90,0,0
72408,-100,4,2,3,90,0,0
72913,-100,4,2,1,90,0,0
73166,-100,4,2,1,90,0,0
73419,-100,4,2,2,90,0,0
74093,-100,4,2,3,90,0,0
74346,-100,4,2,2,90,0,0
74683,-100,4,2,1,90,0,0
74935,-100,4,2,2,90,0,0
75441,-100,4,2,3,90,0,0
75694,-100,4,2,2,90,0,0
76199,-100,4,2,1,90,0,0
76452,-100,4,2,2,90,0,0
76957,-100,4,2,1,90,0,0
77210,-100,4,2,1,90,0,0
77463,-100,4,2,1,90,0,0
77716,-100,4,2,2,90,0,0
78137,-100,4,2,3,90,0,0
78726,-100,4,2,2,90,0,0
79232,-100,4,2,3,90,0,0
79485,-100,4,2,4,90,0,0
79737,-100,4,2,3,90,0,0
80159,-100,4,2,3,90,0,0
80496,-100,4,2,2,90,0,0
80748,-100,4,2,1,90,0,0
81001,-100,4,2,2,90,0,0
81254,-100,4,2,1,90,0,0
81507,-100,4,2,1,90,0,0
82181,-100,4,2,3,90,0,0
82518,-100,4,2,2,90,0,0
83192,-100,4,2,1,90,0,0
83528,-100,4,2,3,90,0,0
83781,-100,4,2,2,90,0,0
84539,-100,4,2,3,90,0,0
85045,-100,4,2,1,90,0,0
85298,-100,4,2,1,90,0,0
85803,-100,4,2,2,90,0,0
86224,-100,4,2,3,90,0,0
86561,-100,4,2,1,90,0,0
86814,-100,4,2,3,90,0,0
87067,-100,4,2,2,90,0,0
87572,-100,4,2,3,90,0,0
88078,-100,4,2,2,90,0,0
88836,-100,4,2,2,90,0,0
89089,-100,4,2,1,90,0,0
89594,-100,4,2,2,90,0,0
90268,-100,4,2,3,90,0,0
90605,-100,4,2,2,90,0,0
91111,-100,4,2,1,90,0,0
91616,-100,4,2,3,90,0,0
91869,-100,4,2,2,90,0,0
92627,-100,4,2,3,90,0,0
93048,-100,4,2,2,90,0,0
93385,-100,4,2,1,90,0,0
93891,-100,4,2,2,90,0,0
94312,-100,4,2,3,90,0,0
94649,-100,4,2,1,90,0,0
94902,-100,4,2,3,90,0,0
95154,-100,4,2,2,90,0,0
95407,-100,4,2,4,90,0,0
95660,-100,4,2,4,60,0,0
95913,-100,4,2,3,60,0,0
96165,-100,4,2,3,60,0,0
96671,-100,4,2,3,90,0,0
97176,-100,4,2,3,90,0,0
97682,-100,4,2,1,90,0,1
98692,-100,4,2,1,90,0,1
99703,-100,4,2,3,90,0,1
99956,-100,4,2,2,90,0,1
100377,-100,4,2,3,90,0,1
100630,-100,4,2,1,90,0,1
101725,-100,4,2,3,90,0,1
101978,-100,4,2,2,90,0,1
102230,-100,4,2,3,90,0,1
102399,-100,4,2,1,90,0,1
104758,-100,4,2,3,90,0,1
105263,-100,4,2,2,90,0,1
105516,-100,4,2,3,90,0,1
105769,-100,4,2,1,90,0,1
107791,-100,4,2,3,90,0,1
108043,-100,4,2,2,90,0,1
108465,-100,4,2,3,90,0,1
108717,-100,4,2,1,90,0,1
109813,-100,4,2,3,90,0,1
110065,-100,4,2,2,90,0,1
110487,-100,4,2,3,90,0,1
110824,-100,4,2,1,90,0,1
112845,-100,4,2,3,90,0,1
113351,-100,4,2,2,90,0,1
113604,-100,4,2,3,90,0,1
114109,-100,4,2,4,90,0,1
114362,-100,4,2,2,90,0,1
114867,-100,4,2,1,90,0,1
115878,-100,4,2,3,90,0,1
116131,-100,4,2,2,90,0,1
116552,-100,4,2,3,90,0,1
116805,-100,4,2,1,90,0,1
117900,-100,4,2,3,90,0,1
118153,-100,4,2,2,90,0,1
118406,-100,4,2,3,90,0,1
118574,-100,4,2,3,90,0,1
118911,-100,4,2,1,90,0,1
120933,-100,4,2,3,90,0,1
121439,-100,4,2,1,90,0,1
121691,-100,4,2,3,90,0,1
121944,-100,4,2,1,90,0,1
123966,-100,4,2,3,90,0,1
124219,-100,4,2,2,90,0,1
124471,-100,4,2,3,90,0,1
124640,-100,4,2,1,90,0,1
125988,-100,4,2,3,90,0,1
126241,-100,4,2,2,90,0,1
126662,-100,4,2,3,90,0,1
126999,-100,4,2,1,90,0,1
128010,-100,4,2,3,90,0,1
128262,-100,4,2,2,90,0,1
128768,-100,4,2,1,90,0,1
129021,-100,4,2,3,90,0,1
129526,-100,4,2,1,90,0,1
129779,-100,4,2,3,90,0,1
130032,-100,4,2,1,90,0,0
130706,-100,4,2,2,90,0,0
131295,-100,4,2,3,90,0,0
131548,-100,4,2,2,90,0,0
132054,-100,4,2,3,90,0,0
132306,-100,4,2,2,90,0,0
132812,-100,4,2,1,90,0,0
133064,-100,4,2,2,90,0,0
133570,-100,4,2,1,90,0,0
133823,-133.333333333333,4,2,1,90,0,0
134075,-100,4,2,1,90,0,0
134328,-100,4,2,2,90,0,0
134749,-100,4,2,3,90,0,0
135339,-100,4,2,2,90,0,0
135845,-100,4,2,3,90,0,0
136097,-100,4,2,1,90,0,0
136350,-100,4,2,2,90,0,0
136771,-100,4,2,1,90,0,0
137108,-133.333333333333,4,2,3,90,0,0
137614,-133.333333333333,4,2,1,90,0,0
137866,-100,4,2,1,90,0,0
138119,-100,4,2,2,90,0,0
138793,-100,4,2,3,90,0,0
139046,-100,4,2,2,90,0,0
139383,-100,4,2,1,90,0,0
139636,-100,4,2,2,90,0,0
140141,-100,4,2,3,90,0,0
140394,-100,4,2,2,90,0,0
140899,-100,4,2,1,90,0,0
141152,-100,4,2,2,90,0,0
141658,-100,4,2,1,90,0,0
141910,-133.333333333333,4,2,1,90,0,0
142163,-100,4,2,1,90,0,0
142416,-100,4,2,2,90,0,0
142837,-100,4,2,3,90,0,0
143427,-100,4,2,2,90,0,0
143932,-100,4,2,3,90,0,0
144185,-100,4,2,4,90,0,0
144438,-100,4,2,3,90,0,0
144859,-133.333333333333,4,2,3,90,0,0
145196,-100,4,2,2,90,0,0
145449,-100,4,2,1,90,0,0
145701,-100,4,2,2,90,0,0
145954,-100,4,2,1,90,0,0
146207,-100,4,2,1,90,0,0
146881,-100,4,2,3,90,0,0
147218,-100,4,2,2,90,0,0
147892,-100,4,2,1,90,0,0
148229,-100,4,2,3,90,0,0
148481,-100,4,2,2,90,0,0
149240,-100,4,2,3,90,0,0
149745,-100,4,2,1,90,0,0
149998,-100,4,2,1,90,0,0
150503,-100,4,2,2,90,0,0
150925,-100,4,2,3,90,0,0
151262,-100,4,2,1,90,0,0
151514,-100,4,2,3,90,0,0
151767,-100,4,2,2,90,0,0
152273,-100,4,2,3,90,0,0
152778,-100,4,2,2,90,0,0
153536,-100,4,2,2,90,0,0
153789,-100,4,2,1,90,0,0
154294,-100,4,2,2,90,0,0
154968,-100,4,2,3,90,0,0
155305,-100,4,2,2,90,0,0
155811,-100,4,2,1,90,0,0
156316,-100,4,2,3,90,0,0
156569,-100,4,2,2,90,0,0
157327,-100,4,2,3,90,0,0
157749,-100,4,2,2,90,0,0
158086,-100,4,2,1,90,0,0
158591,-100,4,2,2,90,0,0
159012,-100,4,2,3,90,0,0
159349,-100,4,2,1,90,0,0
159602,-100,4,2,3,90,0,0
159855,-100,4,2,2,90,0,0
160107,-100,4,2,4,90,0,0
160360,-133.333333333333,4,2,4,60,0,0
160613,-133.333333333333,4,2,3,60,0,0
160866,-133.333333333333,4,2,3,60,0,0
161371,-100,4,2,3,90,0,0
161877,-100,4,2,3,90,0,0
162382,-100,4,2,1,90,0,0
163896,-100,4,2,3,90,0,0
164148,-100,4,2,2,90,0,0
164654,-100,4,2,1,90,0,0
165917,-100,4,2,3,90,0,0
166423,-100,4,2,2,90,0,0
166676,-100,4,2,1,90,0,0
167939,-100,4,2,3,90,0,0
168276,-100,4,2,1,90,0,0
168445,-100,4,2,4,90,0,0
168950,-100,4,2,3,75,0,0
169203,-100,4,2,3,90,0,0
169456,-100,4,2,4,90,0,0
169961,-100,4,2,3,75,0,0
170214,-100,4,2,3,90,0,0
170719,-100,4,2,1,90,0,0
171983,-100,4,2,3,90,0,0
172236,-100,4,2,2,90,0,0
172741,-100,4,2,1,90,0,0
174008,-100,4,2,3,90,0,0
174763,-100,4,2,1,90,0,0
176030,-100,4,2,3,90,0,0
176532,-100,4,2,2,90,0,0
177038,-100,4,2,3,90,0,0
178049,-100,4,2,1,90,0,0
178301,-100,4,2,2,90,0,0
178428,-100,4,2,3,90,0,0
178554,-100,4,2,2,90,0,0
178807,-100,4,2,1,90,0,0
180070,-100,4,2,3,90,0,0
180323,-100,4,2,2,90,0,0
180829,-100,4,2,1,90,0,0
182092,-100,4,2,3,90,0,0
182598,-100,4,2,2,90,0,0
182850,-100,4,2,1,90,0,0
184114,-100,4,2,3,90,0,0
184623,-100,4,2,2,90,0,0
185125,-100,4,2,3,75,0,0
185378,-100,4,2,3,90,0,0
185631,-100,4,2,2,90,0,0
186136,-100,4,2,3,75,0,0
186389,-100,4,2,3,90,0,0
186894,-100,4,2,1,90,0,0
188158,-100,4,2,3,90,0,0
188411,-100,4,2,2,90,0,0
188916,-100,4,2,1,90,0,0
190183,-100,4,2,3,90,0,0
190938,-100,4,2,1,90,0,0
192205,-100,4,2,3,90,0,0
192707,-100,4,2,2,80,0,0
193213,-111.111111111111,4,2,3,75,0,0
193718,-100,4,2,2,70,0,0
194223,-100,4,2,1,65,0,0
194729,-142.857142857143,4,2,3,40,0,0
194982,-142.857142857143,4,2,1,60,0,0
195234,-142.857142857143,4,2,2,60,0,0
195740,-142.857142857143,4,2,1,60,0,0
196245,-142.857142857143,4,2,2,60,0,0
196751,-142.857142857143,4,2,3,50,0,0
197003,-142.857142857143,4,2,1,60,0,0
197256,-142.857142857143,4,2,2,60,0,0
197762,-142.857142857143,4,2,4,60,0,0
198693,-142.857142857143,4,2,3,60,0,0
199025,-142.857142857143,4,2,3,60,0,0
199278,-142.857142857143,4,2,2,60,0,0
199788,-142.857142857143,4,2,4,60,0,0
200794,-142.857142857143,4,2,4,60,0,0
201300,-142.857142857143,4,2,3,60,0,0
201805,-142.857142857143,4,2,2,60,0,0
202311,-142.857142857143,4,2,3,60,0,0
202816,-125,4,2,1,70,0,0
203322,-125,4,2,2,70,0,0
203827,-125,4,2,1,70,0,0
204333,-125,4,2,2,70,0,0
204838,-125,4,2,1,70,0,0
205344,-125,4,2,2,70,0,0
205849,-125,4,2,4,70,0,0
206860,-125,4,2,1,70,0,0
207366,-125,4,2,2,70,0,0
207707,-125,4,2,4,70,0,0
208882,-125,4,2,2,70,0,0
209387,-125,4,2,3,70,0,0
209893,-125,4,2,4,70,0,0
210398,-125,4,2,1,70,0,0
210909,-111.111111111111,4,2,3,70,0,0
211161,-111.111111111111,4,2,3,80,0,0
211414,-111.111111111111,4,2,2,80,0,0
211919,-111.111111111111,4,2,1,80,0,0
212420,-111.111111111111,4,2,2,80,0,0
212926,-111.111111111111,4,2,3,80,0,0
213431,-111.111111111111,4,2,2,80,0,0
213941,-111.111111111111,4,2,4,80,0,0
214947,-111.111111111111,4,2,3,80,0,0
215453,-111.111111111111,4,2,2,80,0,0
215958,-111.111111111111,4,2,4,80,0,0
216969,-111.111111111111,4,2,2,80,0,0
217475,-111.111111111111,4,2,3,80,0,0
218238,-111.111111111111,4,2,3,80,0,0
218991,-100,4,2,1,90,0,0
219497,-100,4,2,2,90,0,0
220002,-100,4,2,1,90,0,0
220508,-100,4,2,2,90,0,0
221013,-100,4,2,1,90,0,0
221519,-100,4,2,2,90,0,0
222024,-100,4,2,4,90,0,0
223035,-100,4,2,1,90,0,0
223540,-100,4,2,2,90,0,0
224046,-100,4,2,4,90,0,0
225057,-100,4,2,4,90,0,0
225315,-100,4,2,3,90,0,0
226068,-100,4,2,2,90,0,0
226241,-100,4,2,2,90,0,0
226573,-100,4,2,3,90,0,0
227084,-100,4,2,1,90,0,0
227758,-100,4,2,2,90,0,0
228348,-100,4,2,3,90,0,0
228601,-100,4,2,2,90,0,0
229106,-100,4,2,3,90,0,0
229359,-100,4,2,2,90,0,0
229864,-100,4,2,1,90,0,0
230117,-100,4,2,2,90,0,0
230623,-100,4,2,1,90,0,0
230875,-133.333333333333,4,2,1,90,0,0
231128,-100,4,2,1,90,0,0
231381,-100,4,2,2,90,0,0
231802,-100,4,2,3,90,0,0
232392,-100,4,2,2,90,0,0
232897,-100,4,2,3,90,0,0
233150,-100,4,2,1,90,0,0
233403,-100,4,2,2,90,0,0
233824,-100,4,2,1,90,0,0
234161,-133.333333333333,4,2,3,90,0,0
234666,-133.333333333333,4,2,1,90,0,0
234919,-100,4,2,1,90,0,0
235172,-100,4,2,2,90,0,0
235761,-100,4,2,3,90,0,0
236099,-100,4,2,2,90,0,0
236436,-100,4,2,1,90,0,0
236688,-100,4,2,2,90,0,0
237194,-100,4,2,3,90,0,0
237447,-100,4,2,2,90,0,0
237952,-100,4,2,1,90,0,0
238205,-100,4,2,2,90,0,0
238710,-100,4,2,1,90,0,0
238963,-133.333333333333,4,2,1,90,0,0
239216,-100,4,2,1,90,0,0
239469,-100,4,2,2,90,0,0
239890,-100,4,2,3,90,0,0
240479,-100,4,2,2,90,0,0
240985,-100,4,2,3,90,0,0
241238,-100,4,2,4,90,0,0
241490,-100,4,2,3,90,0,0
241912,-133.333333333333,4,2,3,90,0,0
242249,-100,4,2,2,90,0,0
242501,-100,4,2,1,90,0,0
242754,-100,4,2,2,90,0,0
243007,-100,4,2,1,90,0,0
243260,-100,4,2,1,90,0,0
243934,-100,4,2,3,90,0,0
244271,-100,4,2,2,90,0,0
244945,-100,4,2,1,90,0,0
245281,-100,4,2,3,90,0,0
245534,-100,4,2,2,90,0,0
246292,-100,4,2,3,90,0,0
246798,-100,4,2,1,90,0,0
247051,-100,4,2,1,90,0,0
247556,-100,4,2,2,90,0,0
247977,-100,4,2,3,90,0,0
248314,-100,4,2,1,90,0,0
248567,-100,4,2,3,90,0,0
248820,-100,4,2,2,90,0,0
249325,-100,4,2,3,90,0,0
249831,-100,4,2,2,90,0,0
250589,-100,4,2,2,90,0,0
250842,-100,4,2,1,90,0,0
251347,-100,4,2,2,90,0,0
252021,-100,4,2,3,90,0,0
252358,-100,4,2,2,90,0,0
252864,-100,4,2,1,90,0,0
253369,-100,4,2,3,90,0,0
253622,-100,4,2,2,90,0,0
254380,-100,4,2,3,90,0,0
254801,-100,4,2,2,90,0,0
255138,-100,4,2,1,90,0,0
255644,-100,4,2,2,90,0,0
256065,-100,4,2,3,90,0,0
256402,-100,4,2,1,90,0,0
256655,-100,4,2,3,90,0,0
256907,-100,4,2,2,90,0,0
257160,-100,4,2,4,90,0,0
257413,-100,4,2,4,60,0,0
257666,-100,4,2,3,60,0,0
257918,-100,4,2,3,60,0,0
258424,-100,4,2,3,90,0,0
258929,-100,4,2,3,90,0,0
259434,-100,4,2,1,90,0,0
260108,-100,4,2,2,90,0,0
260698,-100,4,2,3,90,0,0
260951,-100,4,2,2,90,0,0
261456,-100,4,2,3,90,0,0
261709,-100,4,2,2,90,0,0
262214,-100,4,2,1,90,0,0
262467,-100,4,2,2,90,0,0
262973,-100,4,2,1,90,0,0
263225,-100,4,2,1,90,0,0
263478,-100,4,2,1,90,0,0
263731,-100,4,2,2,90,0,0
264152,-100,4,2,3,90,0,0
264742,-100,4,2,2,90,0,0
265247,-100,4,2,3,90,0,0
265500,-100,4,2,1,90,0,0
265753,-100,4,2,2,90,0,0
266174,-100,4,2,1,90,0,0
266511,-100,4,2,3,90,0,0
267016,-100,4,2,1,90,0,0
267269,-100,4,2,1,90,0,0
267522,-100,4,2,2,90,0,0
268196,-100,4,2,3,90,0,0
268449,-100,4,2,2,90,0,0
268786,-100,4,2,1,90,0,0
269038,-100,4,2,2,90,0,0
269544,-100,4,2,3,90,0,0
269797,-100,4,2,2,90,0,0
270302,-100,4,2,1,90,0,0
270555,-100,4,2,2,90,0,0
271060,-100,4,2,1,90,0,0
271313,-100,4,2,1,90,0,0
271566,-100,4,2,1,90,0,0
271819,-100,4,2,2,90,0,0
272240,-100,4,2,3,90,0,0
272829,-100,4,2,2,90,0,0
273335,-100,4,2,3,90,0,0
273588,-100,4,2,4,90,0,0
273840,-100,4,2,3,90,0,0
274262,-100,4,2,3,90,0,0
274599,-100,4,2,2,90,0,0
274851,-100,4,2,1,90,0,0
275104,-100,4,2,2,90,0,0
275357,-100,4,2,1,90,0,0
275610,-100,4,2,1,90,0,0
276284,-100,4,2,3,90,0,0
276621,-100,4,2,2,90,0,0
277295,-100,4,2,1,90,0,0
277631,-100,4,2,3,90,0,0
277884,-100,4,2,2,90,0,0
278642,-100,4,2,3,90,0,0
279148,-100,4,2,1,90,0,0
279401,-100,4,2,1,90,0,0
279906,-100,4,2,2,90,0,0
280327,-100,4,2,3,90,0,0
280664,-100,4,2,1,90,0,0
280917,-100,4,2,3,90,0,0
281170,-100,4,2,2,90,0,0
281675,-100,4,2,3,90,0,0
282181,-100,4,2,2,90,0,0
282939,-100,4,2,2,90,0,0
283192,-100,4,2,1,90,0,0
283697,-100,4,2,2,90,0,0
284371,-100,4,2,3,90,0,0
284708,-100,4,2,2,90,0,0
285214,-100,4,2,1,90,0,0
285719,-100,4,2,3,90,0,0
285972,-100,4,2,2,90,0,0
286730,-100,4,2,3,90,0,0
287151,-100,4,2,2,90,0,0
287488,-100,4,2,1,90,0,0
287994,-100,4,2,2,90,0,0
288415,-100,4,2,3,90,0,0
288752,-100,4,2,1,90,0,0
289005,-100,4,2,3,90,0,0
289257,-100,4,2,2,90,0,0
289510,-100,4,2,4,90,0,0
289763,-100,4,2,4,60,0,0
290016,-100,4,2,3,60,0,0
290268,-100,4,2,3,60,0,0
290774,-100,4,2,3,90,0,0
291279,-100,4,2,3,90,0,0
291785,-100,4,2,1,90,0,1
292795,-100,4,2,1,90,0,1
293806,-100,4,2,3,90,0,1
294059,-100,4,2,2,90,0,1
294480,-100,4,2,3,90,0,1
294733,-100,4,2,1,90,0,1
295828,-100,4,2,3,90,0,1
296080,-100,4,2,2,90,0,1
296333,-100,4,2,3,90,0,1
296502,-100,4,2,1,90,0,1
298861,-100,4,2,3,90,0,1
299366,-100,4,2,2,90,0,1
299619,-100,4,2,3,90,0,1
299872,-100,4,2,1,90,0,1
301893,-100,4,2,3,90,0,1
302146,-100,4,2,2,90,0,1
302567,-100,4,2,3,90,0,1
302820,-100,4,2,1,90,0,1
303915,-100,4,2,3,90,0,1
304168,-100,4,2,2,90,0,1
304589,-100,4,2,3,90,0,1
304926,-100,4,2,1,90,0,1
306948,-100,4,2,3,90,0,1
307454,-100,4,2,2,90,0,1
307706,-100,4,2,3,90,0,1
308212,-100,4,2,4,90,0,1
308465,-100,4,2,2,90,0,1
308970,-100,4,2,1,90,0,1
309981,-100,4,2,3,90,0,1
310234,-100,4,2,2,90,0,1
310655,-100,4,2,3,90,0,1
310908,-100,4,2,1,90,0,1
312003,-100,4,2,3,90,0,1
312256,-100,4,2,2,90,0,1
312508,-100,4,2,3,90,0,1
312677,-100,4,2,3,90,0,1
313014,-100,4,2,1,90,0,1
315036,-100,4,2,3,90,0,1
315541,-100,4,2,1,90,0,1
315794,-100,4,2,3,90,0,1
316047,-100,4,2,1,90,0,1
318069,-100,4,2,3,90,0,1
318321,-100,4,2,2,90,0,1
318574,-100,4,2,3,90,0,1
318743,-100,4,2,1,90,0,1
320091,-100,4,2,3,90,0,1
320343,-100,4,2,2,90,0,1
320765,-100,4,2,3,90,0,1
321102,-100,4,2,1,90,0,1
322112,-100,4,2,3,90,0,1
322365,-100,4,2,2,90,0,1
322786,-100,4,2,1,90,0,1
323123,-100,4,2,3,90,0,1
323629,-100,4,2,1,90,0,1
323882,-100,4,2,3,90,0,0
324135,-100,4,2,1,90,0,1
326156,-100,4,2,3,90,0,1
326409,-100,4,2,2,90,0,1
326830,-100,4,2,3,90,0,1
327083,-100,4,2,1,90,0,1
328178,-100,4,2,3,90,0,1
328431,-100,4,2,2,90,0,1
328684,-100,4,2,3,90,0,1
328852,-100,4,2,1,90,0,1
331211,-100,4,2,3,90,0,1
331717,-100,4,2,2,90,0,1
331969,-100,4,2,3,90,0,1
332222,-100,4,2,1,90,0,1
334244,-100,4,2,3,90,0,1
334497,-100,4,2,2,90,0,1
334918,-100,4,2,3,90,0,1
335171,-100,4,2,1,90,0,1
336266,-100,4,2,3,90,0,1
336519,-100,4,2,2,90,0,1
336940,-100,4,2,3,90,0,1
337277,-100,4,2,1,90,0,1
339299,-100,4,2,3,90,0,1
339804,-100,4,2,2,90,0,1
340057,-100,4,2,3,90,0,1
340562,-100,4,2,4,90,0,1
340815,-100,4,2,2,90,0,1
341321,-100,4,2,1,90,0,1
342332,-100,4,2,3,90,0,1
342584,-100,4,2,2,90,0,1
343005,-100,4,2,3,90,0,1
343258,-100,4,2,1,90,0,1
344353,-100,4,2,3,90,0,1
344606,-100,4,2,2,90,0,1
344859,-100,4,2,3,90,0,1
345027,-100,4,2,3,90,0,1
345364,-100,4,2,1,90,0,1
347386,-100,4,2,3,90,0,1
347892,-100,4,2,1,90,0,1
348144,-100,4,2,3,90,0,1
348397,-100,4,2,1,90,0,1
350419,-100,4,2,3,90,0,1
350672,-100,4,2,2,90,0,1
350925,-100,4,2,3,90,0,1
351093,-100,4,2,1,90,0,1
352441,-100,4,2,3,90,0,1
352694,-100,4,2,2,90,0,1
353115,-100,4,2,3,90,0,1
353452,-100,4,2,1,90,0,1
354463,-100,4,2,3,90,0,1
354716,-100,4,2,2,90,0,1
355221,-100,4,2,1,90,0,1
355474,-100,4,2,3,90,0,1
355979,-100,4,2,1,90,0,1
356232,-100,4,2,3,90,0,1
356486,-100,4,2,1,90,0,0

[Colours]
Combo1 : 250,216,78
Combo2 : 176,13,4
Combo3 : 255,190,0
Combo4 : 230,73,2

[HitObjects]
52,108,631,6,0,P|112:112|164:104,1,112.500004291535,2|0,0:0|0:0,0:0:0:0:
332,116,1136,2,0,P|320:156|288:188,1,75.000002861023,8|0,0:0|0:0,0:0:0:0:
298,180,1894,2,0,P|258:192|226:224,1,75.000002861023,2|0,0:0|0:0,0:0:0:0:
320,272,2147,2,0,P|360:260|392:228,1,75.000002861023,10|0,0:0|0:0,0:0:0:0:
488,224,2400,1,2,0:0:0:0:
488,224,2652,6,0,P|464:172|404:136,1,112.500004291535,2|0,0:0|0:0,0:0:0:0:
268,68,3158,2,0,P|232:84|168:80,1,75.000002861023,8|0,0:0|0:0,0:0:0:0:
36,36,3579,1,0,0:0:0:0:
36,36,3663,2,0,P|44:112|36:224,1,187.500007152558,6|0,0:0|0:0,0:0:0:0:
36,222,4169,2,0,P|96:216|180:232,1,112.500004291535,14|0,0:0|0:0,0:0:0:0:
428,212,4674,5,6,0:0:0:0:
428,212,4927,2,0,P|416:172|384:140,1,75.000002861023
336,234,5180,2,0,P|348:274|380:306,1,75.000002861023,8|0,0:0|0:0,0:0:0:0:
369,298,5938,2,0,L|288:308,1,75.000002861023,2|0,0:0|0:0,0:0:0:0:
220,236,6191,2,0,L|138:226,1,75.000002861023,10|0,0:0|0:0,0:0:0:0:
52,272,6443,1,2,0:0:0:0:
52,272,6696,6,0,P|48:204|72:152,1,112.500004291535,6|0,0:0|0:0,0:0:0:0:
236,56,7202,2,0,P|248:128|215:244,1,187.500007152558,14|0,0:0|0:0,0:0:0:0:
219,237,7707,2,0,P|331:234|440:252,1,187.500007152558,6|0,0:0|0:0,0:0:0:0:
492,368,8213,2,0,P|384:376|268:360,1,225.000008583069,14|2,0:0|0:0,0:0:0:0:
52,304,8971,6,0,L|45:386,1,75.000002861023,2|0,0:0|0:0,0:0:0:0:
124,160,9224,2,0,L|131:242,1,75.000002861023,8|0,0:0|0:0,0:0:0:0:
130,234,9982,2,0,L|224:244,1,75.000002861023,2|0,0:0|0:0,0:0:0:0:
252,336,10235,2,0,P|285:311|304:270,1,75.000002861023,10|0,0:0|0:0,0:0:0:0:
393,233,10487,1,2,0:0:0:0:
393,233,10740,6,0,P|352:192|283:179,1,112.500004291535,2|0,0:0|0:0,0:0:0:0:
144,116,11245,2,0,P|140:80|152:32,1,75.000002861023,8|0,0:0|0:0,0:0:0:0:
308,96,11667,1,0,0:0:0:0:
308,96,11751,2,0,P|404:68|472:16,1,187.500007152558,6|0,0:0|0:0,0:0:0:0:
472,15,12256,2,0,P|468:76|480:160,1,112.500004291535,14|0,0:0|0:0,0:0:0:0:
348,360,12762,5,6,0:0:0:0:
348,360,13015,6,0,P|388:348|420:316,1,75.000002861023,2|0,0:0|0:0,0:0:0:0:
326,268,13267,2,0,P|286:280|254:312,1,75.000002861023,8|0,0:0|0:0,0:0:0:0:
261,301,14026,2,0,L|174:262,1,75.000002861023,2|0,0:0|0:0,0:0:0:0:
104,328,14278,2,0,P|87:289|91:244,1,75.000002861023,10|0,0:0|0:0,0:0:0:0:
48,160,14531,1,2,0:0:0:0:
48,160,14784,6,0,P|104:152|167:184,1,112.500004291535,6|0,0:0|0:0,0:0:0:0:
300,260,15289,2,0,P|392:284|508:248,1,187.500007152558,14|0,0:0|0:0,0:0:0:0:
480,264,15795,2,0,P|477:152|495:43,1,187.500007152558,6|0,0:0|0:0,0:0:0:0:
340,40,16300,2,0,P|227:43|118:25,1,187.500007152558,14|0,0:0|0:0,0:0:0:0:
24,112,16806,6,0,P|28:172|20:224,1,112.500004291535,2|0,0:0|0:0,0:0:0:0:
188,216,17311,2,0,P|228:228|260:260,1,75.000002861023,8|0,0:0|0:0,0:0:0:0:
252,249,18069,2,0,P|264:289|296:321,1,75.000002861023,2|0,0:0|0:0,0:0:0:0:
344,227,18322,2,0,P|332:187|300:155,1,75.000002861023,8|0,0:0|0:0,0:0:0:0:
252,248,18575,2,0,L|264:376,1,112.500004291535,2|2,0:0|0:0,0:0:0:0:
100,312,19080,6,0,L|93:230,1,75.000002861023,2|0,0:0|0:0,0:0:0:0:
180,180,19333,2,0,L|187:98,1,75.000002861023,8|0,0:0|0:0,0:0:0:0:
398,28,19839,2,0,P|426:51|462:61,1,75.000002861023,6|0,0:0|0:0,0:0:0:0:
456,164,20091,2,0,L|440:308,1,112.500004291535,2|14,0:0|0:0,0:0:0:0:
256,372,20597,2,0,L|240:228,1,112.500004291535,2|6,0:0|0:0,0:0:0:0:
120,92,21102,6,0,L|114:167,1,75.000002861023,2|0,0:0|0:0,0:0:0:0:
92,276,21355,2,0,P|133:274|172:252,1,75.000002861023,8|0,0:0|0:0,0:0:0:0:
250,320,21776,1,0,0:0:0:0:
250,320,21860,2,0,P|221:343|185:353,1,75.000002861023,2|0,0:0|0:0,0:0:0:0:
163,261,22113,2,0,P|192:237|228:228,1,75.000002861023,2|0,0:0|0:0,0:0:0:0:
250,320,22366,2,0,P|290:308|322:276,1,75.000002861023,10|0,0:0|0:0,0:0:0:0:
336,176,22619,2,0,P|300:164|260:116,1,75.000002861023,2|0,0:0|0:0,0:0:0:0:
336,176,22871,6,0,P|388:200|424:260,1,112.500004291535,6|0,0:0|0:0,0:0:0:0:
400,356,23377,2,0,P|360:344|328:312,1,75.000002861023,14|0,0:0|0:0,0:0:0:0:
236,292,23630,2,0,L|256:148,1,112.500004291535,2|6,0:0|0:0,0:0:0:0:
8,28,24135,2,0,L|24:140,1,112.500004291535,2|14,0:0|0:0,0:0:0:0:
236,292,24641,2,0,L|256:148,1,112.500004291535,2|2,0:0|0:0,0:0:0:0:
372,32,25146,6,0,P|417:41|457:33,1,75.000002861023,2|0,0:0|0:0,0:0:0:0:
496,128,25399,1,8,0:0:0:0:
481,239,25567,2,0,L|488:288,1,37.5000014305115,2|0,0:0|0:0,0:0:0:0:
384,336,25820,1,0,0:0:0:0:
384,336,25904,1,2,0:0:0:0:
384,336,26073,1,0,0:0:0:0:
384,336,26157,2,0,L|372:236,1,75.000002861023,2|0,0:0|0:0,0:0:0:0:
288,204,26410,2,0,P|252:213|215:208,1,75.000002861023,8|0,0:0|0:0,0:0:0:0:
116,232,26663,1,2,0:0:0:0:
188,80,26915,6,0,P|244:88|312:64,1,112.500004291535,2|0,0:0|0:0,0:0:0:0:
464,100,27421,2,0,L|460:208,1,75.000002861023,10|0,0:0|0:0,0:0:0:0:
444,343,27842,1,0,0:0:0:0:
444,343,27926,2,0,P|411:297|360:274,1,112.500004291535,6|0,0:0|0:0,0:0:0:0:
192,280,28432,2,0,P|163:304|127:313,1,75.000002861023,14|0,0:0|0:0,0:0:0:0:
116,208,28684,2,0,P|77:169|63:115,1,112.500004291535,2|6,0:0|0:0,0:0:0:0:
232,112,29190,6,0,L|314:105,1,75.000002861023,2|0,0:0|0:0,0:0:0:0:
384,176,29443,2,0,L|466:183,1,75.000002861023,8|0,0:0|0:0,0:0:0:0:
476,12,29864,1,0,0:0:0:0:
476,12,29948,2,0,L|469:94,1,75.000002861023,2|0,0:0|0:0,0:0:0:0:
459,183,30201,2,0,L|452:265,1,75.000002861023,2|0,0:0|0:0,0:0:0:0:
404,336,30454,1,10,0:0:0:0:
322,259,30622,1,2,0:0:0:0:
236,340,30791,1,0,0:0:0:0:
236,340,30959,6,0,P|152:296|103:190,1,187.500007152558,6|0,0:0|0:0,0:0:0:0:
256,188,31465,2,0,P|336:141|378:59,1,187.500007152558,14|0,0:0|0:0,0:0:0:0:
212,68,31970,2,0,P|164:84|92:80,2,112.500004291535,6|8|12,0:0|0:0|0:0,0:0:0:0:
428,148,32728,1,8,0:0:0:0:
428,148,32812,1,0,0:0:0:0:
428,148,32897,1,8,0:0:0:0:
428,148,32981,6,0,P|400:192|388:252,1,100,10|0,0:0|0:0,0:0:0:0:
304,280,33234,2,0,P|252:280|200:240,1,100,2|0,0:0|0:0,0:0:0:0:
128,200,33486,1,8,0:0:0:0:
232,144,33655,2,0,L|211:258,1,112.500004291535,2|0,0:0|0:0,0:0:0:0:
230,353,33992,6,0,L|210:245,1,100,2|0,0:0|0:0,0:0:0:0:
232,144,34245,2,0,P|280:144|336:168,1,100,2|0,0:0|0:0,0:0:0:0:
212,255,34497,2,0,P|141:235|95:177,1,150,8|2,0:0|0:0,0:3:0:0:
230,353,35003,1,2,0:0:0:0:
232,144,35256,1,2,0:0:0:0:
344,256,35508,1,8,0:0:0:0:
120,320,35677,2,0,L|104:204,1,112.500004291535,2|0,0:0|0:0,0:0:0:0:
140,63,36014,6,0,P|98:88|48:90,1,100,2|0,0:0|0:0,0:0:0:0:
160,184,36267,2,0,L|56:176,1,100,2|0,0:0|0:0,0:0:0:0:
238,44,36519,2,0,L|134:64,1,100,8|2,0:0|0:0,0:0:0:0:
251,157,36772,2,0,P|203:185|151:181,1,100,2|0,0:0|0:0,0:0:0:0:
48,92,37025,6,0,P|39:141|55:188,1,100
104,284,37278,2,0,P|190:252|211:195,1,120,2|8,0:0|0:0,0:0:0:0:
343,117,37699,2,0,P|297:188|308:273,1,150,2|0,0:0|0:0,0:0:0:0:
458,273,38036,6,0,P|425:228|384:204,1,100,2|0,0:0|0:0,0:0:0:0:
299,250,38288,2,0,L|392:204,1,100,2|0,0:0|0:0,0:0:0:0:
375,65,38541,2,0,P|403:133|387:205,1,150,8|2,0:0|0:0,0:0:0:0:
90,351,39047,6,0,P|54:303|54:263,1,100,6|0,0:0|0:0,0:0:0:0:
140,184,39299,2,0,L|244:212,1,100,2|0,0:0|0:0,0:0:0:0:
352,216,39552,6,0,P|348:167|316:130,1,100,6|0,0:0|0:0,0:0:0:0:
204,108,39805,2,0,L|132:192,1,100,2|0,0:0|0:0,0:0:0:0:
54,264,40058,6,0,P|22:224|30:164,1,100,4|0,0:0|0:0,0:0:0:0:
104,92,40310,2,0,L|208:108,1,100,2|0,0:0|0:0,0:0:0:0:
208,103,40563,1,8,0:0:0:0:
164,296,40816,1,2,0:0:0:0:
212,100,41069,6,0,P|259:114|305:135,1,100,2|0,0:0|0:0,0:0:0:0:
312,132,41321,1,2,0:0:0:0:
276,328,41574,1,8,0:0:0:0:
320,128,41743,2,0,P|380:144|420:188,1,112.500004291535,2|0,0:0|0:0,0:0:0:0:
476,336,42080,6,0,P|428:308|412:256,1,100,2|0,0:0|0:0,0:0:0:0:
414,178,42332,2,0,P|412:132|360:76,1,100,2|0,0:0|0:0,0:0:0:0:
290,224,42585,2,0,P|352:280|420:264,2,150,8|2|2,0:0|0:0|0:0,0:0:0:0:
284,216,43343,1,0,0:0:0:0:
140,40,43596,1,8,0:0:0:0:
276,208,43764,2,0,P|232:240|224:296,1,112.500004291535,2|0,0:0|0:0,0:0:0:0:
344,300,44101,6,0,L|446:283,1,100,8|0,0:0|0:0,0:0:0:0:
268,200,44354,2,0,L|368:216,1,100
172,340,44607,2,0,L|280:328,1,100,8|0,0:0|0:0,0:0:0:0:
112,280,44860,2,0,P|88:336|96:384,1,100,2|0,0:0|0:0,0:0:0:0:
216,284,45112,6,0,L|260:192,1,100,2|0,0:0|0:0,0:0:0:0:
163,180,45365,2,0,L|113:281,1,112.500004291535,2|8,0:0|0:0,0:0:0:0:
300,324,45786,2,0,P|257:263|254:189,1,150,2|0,0:0|0:0,0:0:0:0:
248,184,46123,1,2,0:0:0:0:
116,48,46376,1,2,0:0:0:0:
242,178,46629,1,8,0:0:0:0:
108,40,46882,1,2,0:0:0:0:
108,40,47134,6,0,P|92:100|132:160,1,100,4|0,0:0|0:0,0:0:0:0:
212,88,47387,2,0,L|276:172,1,100,2|0,0:0|0:0,0:0:0:0:
368,228,47640,6,0,P|392:184|383:136,1,100,12|0,0:0|0:0,0:0:0:0:
272,88,47893,2,0,L|211:167,1,100,2|0,0:0|0:0,0:0:0:0:
108,228,48145,6,0,P|92:168|132:108,1,100,4|0,0:0|0:0,0:0:0:0:
212,88,48398,2,0,L|276:172,1,100,2|0,0:0|0:0,0:0:0:0:
280,164,48651,1,8,0:0:0:0:
164,316,48903,1,2,0:0:0:0:
288,160,49156,6,0,P|324:196|364:240,1,100,2|0,0:0|0:0,0:0:0:0:
364,228,49409,1,2,0:0:0:0:
384,68,49662,1,8,0:0:0:0:
368,224,49830,2,0,P|360:280|312:344,1,112.500004291535,2|0,0:0|0:0,0:0:0:0:
165,317,50167,6,0,P|210:299|235:256,1,100,2|0,0:0|0:0,0:0:0:0:
288,160,50420,2,0,P|309:205|353:225,1,100,2|0,0:0|0:0,0:0:0:0:
400,100,50673,2,0,P|332:40|260:36,2,150,8|2|2,0:0|0:0|0:0,0:0:0:0:
400,108,51431,1,2,0:0:0:0:
204,128,51684,1,8,0:0:0:0:
400,116,51852,2,0,L|368:224,1,112.500004291535,2|0,0:0|0:0,0:0:0:0:
181,252,52189,6,0,P|133:277|88:270,1,100,8|0,0:0|0:0,0:0:0:0:
204,128,52442,2,0,L|120:184,1,100,2|0,0:0|0:0,0:0:0:0:
275,279,52695,2,0,L|175:251,1,100,8|0,0:0|0:0,0:0:0:0:
288,168,52947,2,0,P|234:159|200:120,1,100,2|0,0:0|0:0,0:0:0:0:
200,120,53200,1,2,0:0:0:0:
48,256,53453,5,2,0:0:0:0:
275,279,53705,1,8,0:0:0:0:
196,116,53874,2,0,L|100:204,1,112.500004291535,2|0,0:0|0:0,0:0:0:0:
108,200,54211,1,2,0:0:0:0:
288,68,54464,1,2,0:0:0:0:
344,232,54716,1,8,0:0:0:0:
204,344,54969,1,2,0:0:0:0:
196,160,55222,6,0,P|228:200|272:232,1,100,4|0,0:0|0:0,0:0:0:0:
359,312,55475,2,0,P|404:291|424:246,1,100,2|0,0:0|0:0,0:0:0:0:
328,160,55727,6,0,P|296:120|252:88,1,100,4|0,0:0|0:0,0:0:0:0:
163,16,55980,2,0,P|118:35|99:80,1,100,2|0,0:0|0:0,0:0:0:0:
196,160,56233,6,0,P|236:192|268:236,1,100,4|0,0:0|0:0,0:0:0:0:
360,312,56486,2,0,P|332:364|292:376,1,100,2|0,0:0|0:0,0:0:0:0:
288,380,56738,1,8,0:0:0:0:
76,248,56991,1,0,0:0:0:0:
328,236,57244,6,0,P|282:215|234:200,1,100,2|0,0:0|0:0,0:0:0:0:
228,204,57497,1,2,0:0:0:0:
48,320,57749,1,8,0:0:0:0:
172,108,57918,2,0,P|200:160|220:216,1,112.500004291535,2|0,0:0|0:0,0:0:0:0:
218,210,58255,6,0,P|268:184|300:124,1,100,2|0,0:0|0:0,0:3:0:0:
172,108,58508,2,0,P|130:136|104:178,1,100,2|0,0:0|0:0,0:3:0:0:
296,296,58760,2,0,P|364:244|404:172,2,150,8|2|2,0:0|0:0|0:0,0:0:0:0:
292,152,59518,1,0,0:0:0:0:
168,32,59771,1,8,0:0:0:0:
40,180,59940,2,0,P|92:212|152:228,1,112.500004291535,2|0,0:0|0:0,0:0:0:0:
296,272,60277,6,0,L|197:288,1,100,8|0,0:0|0:0,0:0:0:0:
200,140,60529,2,0,L|300:156,1,100,2|0,0:0|0:0,0:0:0:0:
304,296,60782,2,0,L|204:296,1,100,8|0,0:0|0:0,0:0:0:0:
188,120,61035,2,0,L|288:124,1,100,2|0,0:0|0:0,0:0:0:0:
352,232,61288,6,0,L|308:322,1,100,2|0,0:0|0:0,0:0:0:0:
216,312,61540,2,0,L|266:211,1,112.500004291535,2|8,0:0|0:0,0:0:0:0:
64,204,61962,2,0,P|137:191|191:141,1,150,2|0,0:0|0:0,0:3:0:0:
196,128,62299,1,2,0:0:0:0:
384,132,62551,1,2,0:0:0:0:
125,294,62804,1,8,0:0:0:0:
356,288,63057,1,2,0:0:0:0:
132,288,63310,6,0,P|192:304|252:264,1,100,4|0,0:0|0:0,0:0:0:0:
264,144,63562,2,0,L|180:208,1,100,2|0,0:0|0:0,0:0:0:0:
211,384,63815,6,0,P|235:340|226:292,1,100,12|0,0:0|0:0,0:0:0:0:
264,144,64068,2,0,L|325:223,1,100,2|0,0:0|0:0,0:0:0:0:
328,316,64320,6,0,P|312:256|352:196,1,100,4|0,0:0|0:0,0:0:0:0:
360,72,64573,2,0,L|276:136,1,100,2|0,0:0|0:0,0:0:0:0:
268,140,64826,5,8,0:0:0:0:
96,69,65079,1,2,0:0:0:0:
96,69,65331,6,0,L|180:53,1,75.000002861023,6|0,0:0|0:0,0:0:0:0:
250,40,65584,1,2,0:0:0:0:
308,180,65753,1,0,0:0:0:0:
308,180,65837,2,0,P|260:192|212:180,1,100,8|0,0:0|0:0,0:0:0:0:
192,176,66090,2,0,B|152:168|144:192|144:192|152:244|108:280,1,150,2|2,0:0|0:0,0:0:0:0:
36,208,66595,6,0,P|16:168|20:112,1,100,2|0,0:0|0:0,0:0:0:0:
32,316,66848,2,0,P|64:352|116:364,1,100,8|0,0:0|0:0,0:0:0:0:
132,360,67101,2,0,B|196:336|248:360|248:360|276:340,1,150,2|2,0:0|0:0,0:0:0:0:
273,342,67606,1,2,0:0:0:0:
300,224,67775,1,0,0:0:0:0:
300,224,67859,2,0,P|324:176|368:152,1,100,8|0,0:0|0:0,0:0:0:0:
388,236,68112,1,2,0:0:0:0:
448,132,68364,6,0,P|420:88|376:68,1,100,2|0,0:0|0:0,0:0:0:0:
264,100,68617,2,0,P|219:78|193:36,1,100,2|0,0:0|0:0,0:0:0:0:
193,36,68870,1,8,0:0:0:0:
108,120,69122,2,0,B|64:176|64:176|52:216|64:256,1,150,2|2,0:0|0:0,0:0:0:0:
172,228,69544,1,0,0:0:0:0:
172,228,69628,2,0,L|244:344,1,100,2|0,0:0|0:0,0:0:0:0:
300,220,69881,2,0,L|372:336,1,100,8|0,0:0|0:0,0:0:0:0:
352,304,70133,1,2,0:0:0:0:
512,272,70386,5,2,0:0:0:0:
372,24,70639,1,2,0:0:0:0:
340,140,70807,1,0,0:0:0:0:
340,140,70892,2,0,P|292:116|260:76,1,100,8|0,0:0|0:0,0:0:0:0:
244,88,71144,2,0,P|208:164|148:204,1,150,2|2,0:0|0:0,0:0:0:0:
36,180,71650,1,2,0:0:0:0:
108,68,71903,1,8,0:0:0:0:
108,68,72071,2,0,L|224:172,1,150,2|0,0:0|0:0,0:0:0:0:
219,168,72408,5,2,0:0:0:0:
312,272,72577,1,0,0:0:0:0:
312,272,72661,1,2,0:0:0:0:
312,272,72914,2,0,L|288:369,1,100,8|0,0:0|0:0,0:0:0:0:
164,324,73166,2,0,L|140:226,1,100,2|0,0:0|0:0,0:0:0:0:
136,208,73419,6,0,B|124:144|124:144|76:136|52:96,1,150,2|0,0:0|0:0,0:0:0:0:
152,40,73840,1,0,0:0:0:0:
152,40,73925,2,0,P|192:60|216:108,1,100,8|0,0:0|0:0,0:0:0:0:
220,128,74177,2,2,P|300:112|348:56,1,150,2|0,0:0|0:0,0:0:0:0:
436,140,74683,2,0,L|508:208,1,100,2|0,0:0|0:0,0:0:0:0:
500,328,74935,2,0,L|428:260,1,100,8|0,0:0|0:0,0:0:0:0:
344,192,75188,2,0,P|276:164|208:192,1,150,2|2,0:0|0:0,0:0:0:0:
276,292,75609,1,0,0:0:0:0:
276,292,75694,2,0,P|248:336|196:368,1,100,2|0,0:0|0:0,0:0:0:0:
128,284,75946,2,0,P|80:308|56:348,1,100,8|0,0:0|0:0,0:0:0:0:
56,346,76199,1,2,0:0:0:0:
26,219,76452,5,2,0:0:0:0:
11,91,76705,2,0,L|99:15,1,100,2|0,0:0|0:0,0:0:0:0:
184,96,76957,1,8,0:0:0:0:
184,96,77210,2,0,B|236:52|236:52|256:92|304:92,1,150,2|2,0:0|0:0,0:0:0:0:
424,92,77631,1,0,0:0:0:0:
424,92,77716,2,0,P|468:80|500:36,1,100,2|0,0:0|0:0,0:0:0:0:
364,156,77968,2,0,L|300:240,1,100,8|0,0:0|0:0,0:0:0:0:
292,252,78221,2,0,B|248:304|248:304|204:288|156:308,1,150,2|0,0:0|0:0,0:0:0:0:
60,356,78727,5,2,0:0:0:0:
168,304,78979,2,0,L|108:188,1,100,8|0,0:0|0:0,0:0:0:0:
122,215,79232,1,2,0:0:0:0:
140,44,79485,2,0,B|180:120|180:120|256:120,1,150,2|0,0:0|0:0,0:0:0:0:
336,312,79990,1,8,0:0:0:0:
336,312,80243,2,0,L|352:152,1,150,8|2,0:0|0:0,0:0:0:0:
350,162,80580,1,0,0:0:0:0:
160,184,80748,2,2,P|88:168|36:104,1,150
256,336,81254,1,2,0:0:0:0:
256,336,81338,1,0,0:0:0:0:
256,336,81507,6,0,P|328:316|352:248,1,150,2|2,0:0|0:0,0:0:0:0:
160,184,81928,1,0,0:0:0:0:
160,184,82012,1,8,0:0:0:0:
324,68,82181,1,0,0:0:0:0:
324,68,82265,2,0,B|364:56|376:24|376:24|416:48|456:24,1,150,2|2,0:0|0:0,0:0:0:0:
396,136,82770,2,0,L|336:232,1,100,2|0,0:0|0:0,0:0:0:0:
512,152,83023,2,0,L|460:248,1,100,8|0,0:0|0:0,0:0:0:0:
384,332,83276,2,0,B|324:368|264:332|264:332|244:360,1,150,2|2,0:0|0:0,0:0:0:0:
250,350,83781,1,2,0:0:0:0:
160,248,83950,1,0,0:0:0:0:
160,248,84034,2,0,L|96:332,1,100,8|0,0:0|0:0,0:0:0:0:
99,327,84287,1,2,0:0:0:0:
12,244,84540,5,2,0:0:0:0:
95,155,84792,2,0,L|157:71,1,100,2|0,0:0|0:0,0:0:0:0:
160,248,85045,2,0,L|221:158,1,100,8|0,0:0|0:0,0:0:0:0:
356,168,85298,2,0,P|424:168|484:84,1,150,2|2,0:0|0:0,0:0:0:0:
370,28,85719,1,0,0:0:0:0:
370,28,85803,1,2,0:0:0:0:
356,168,86056,2,0,L|336:280,1,100,8|0,0:0|0:0,0:0:0:0:
320,260,86309,2,0,P|248:232|184:260,1,150,2|2,0:0|0:0,0:0:0:0:
60,52,86814,5,2,0:0:0:0:
28,276,87067,1,8,0:0:0:0:
224,164,87320,1,2,0:0:0:0:
224,164,87404,1,0,0:0:0:0:
224,164,87572,2,0,P|296:140|368:160,1,150,2|0,0:0|0:0,0:0:0:0:
452,188,88078,2,0,P|420:236|372:248,1,100,8|0,0:0|0:0,0:0:0:0:
252,284,88331,2,0,B|172:272|172:272|140:232,1,100,2|2,0:0|0:0,0:0:0:0:
160,257,88583,5,0,0:0:0:0:
289,24,88752,1,0,0:0:0:0:
289,24,88836,1,2,0:0:0:0:
108,92,89089,2,0,P|64:124|48:168,1,100,8|0,0:0|0:0,0:0:0:0:
124,224,89342,2,0,P|108:276|64:316,1,100,2|0,0:0|0:0,0:0:0:0:
96,320,89594,2,0,P|164:300|240:320,1,150,2|0,0:0|0:0,0:0:0:0:
344,264,90016,1,0,0:0:0:0:
344,264,90100,2,0,L|444:208,1,100,8|0,0:0|0:0,0:0:0:0:
460,188,90352,2,0,P|468:116|520:48,1,150,2|0,0:0|0:0,0:0:0:0:
392,36,90858,5,2,0:0:0:0:
272,48,91111,2,0,L|172:52,1,100,8|0,0:0|0:0,0:0:0:0:
172,51,91363,1,2,0:0:0:0:
80,132,91616,2,0,P|51:172|43:221,1,100,2|0,0:0|0:0,0:0:0:0:
236,156,91869,2,0,P|228:204|192:252,1,100,2|0,0:0|0:0,0:0:0:0:
184,256,92122,2,0,P|128:304|124:384,1,150,8|2,0:0|0:0,0:0:0:0:
364,313,92543,1,0,0:0:0:0:
364,312,92627,6,0,P|420:268|444:196,1,150,2|2,0:0|0:0,0:0:0:0:
332,180,93133,2,0,P|288:152|232:156,1,100,8|0,0:0|0:0,0:0:0:0:
88,236,93385,2,0,P|137:263|192:260,1,100,2|0,0:0|0:0,0:0:0:0:
160,156,93638,1,2,0:0:0:0:
264,84,93807,1,0,0:0:0:0:
264,84,93891,2,0,P|298:48|345:32,1,100,2|0,0:0|0:0,0:0:0:0:
376,176,94144,2,0,P|428:156|460:120,1,100,8|0,0:0|0:0,0:0:0:0:
476,120,94396,2,0,P|504:204|484:260,1,150,2|2,0:0|0:0,0:0:0:0:
380,316,94902,6,0,P|346:348|288:364,1,100,2|0,0:0|0:0,0:0:0:0:
168,240,95155,2,0,P|113:250|76:288,1,100,8|0,0:0|0:0,0:0:0:0:
160,355,95407,1,2,0:0:0:0:
168,236,95660,2,0,L|188:84,1,150,2|2,0:0|0:0,0:0:0:0:
480,256,96165,2,0,P|448:216|404:188,1,100,8|0,0:0|0:0,0:0:0:0:
252,168,96418,2,0,P|283:213|328:236,1,100,2|0,0:0|0:0,0:0:0:0:
384,288,96671,5,2,0:0:0:0:
480,44,96924,1,2,0:0:0:0:
252,168,97176,1,8,0:0:0:0:
176,48,97429,1,0,0:0:0:0:
188,60,97556,1,0,0:0:0:0:
200,72,97682,6,0,L|356:72,1,150,4|2,0:0|0:0,0:0:0:0:
504,288,98187,1,8,0:0:0:0:
432,192,98356,1,2,0:2:0:0:
144,144,98609,1,0,0:0:0:0:
92,176,98693,2,0,P|44:276|56:312,1,150,2|2,0:0|0:0,0:0:0:0:
200,376,99114,1,0,0:0:0:0:
256,368,99198,2,0,P|304:336|320:296,1,100,8|2,0:0|0:2,0:0:0:0:
456,32,99704,5,2,0:0:0:0:
352,176,99957,1,2,0:0:0:0:
272,88,100125,2,0,P|200:48|136:64,1,150,2|0,0:0|0:3,0:0:0:0:
88,88,100462,1,2,0:0:0:0:
48,240,100630,1,0,0:0:0:0:
88,288,100715,2,0,P|176:320|240:288,1,150,2|2,0:0|0:0,0:0:0:0:
184,160,101136,1,0,0:0:0:0:
216,112,101220,2,0,P|264:72|320:56,1,100,8|2,0:0|0:2,0:0:0:0:
352,296,101726,6,0,P|424:264|448:200,1,150,2|0,0:0|0:0,0:0:0:0:
376,56,102147,2,0,P|296:16|224:32,1,150,2|2,0:0|0:2,0:0:0:0:
184,56,102484,1,0,0:0:0:0:
120,160,102652,1,0,0:0:0:0:
168,200,102737,2,0,P|184:288|136:336,1,150,2|0,0:0|0:0,0:0:0:0:
32,328,103158,1,0,0:0:0:0:
0,272,103242,2,0,P|40:224|48:184,1,100,8|2,0:0|0:0,0:0:0:0:
256,72,103748,6,0,P|352:88|392:136,1,150,2|0,0:0|0:0,0:0:0:0:
304,280,104169,1,0,0:0:0:0:
256,312,104253,2,0,P|160:296|120:248,1,150,8|0,0:0|0:0,0:0:0:0:
208,104,104674,1,0,0:0:0:0:
256,72,104759,1,2,0:0:0:0:
432,304,105011,1,2,0:0:0:0:
432,80,105264,1,8,0:0:0:0:
256,312,105517,1,2,0:0:0:0:
168,344,105643,1,0,0:0:0:0:
80,312,105770,6,0,P|32:216|64:128,1,200,2|2,0:0|0:0,0:0:0:0:
328,272,106443,1,0,0:0:0:0:
368,224,106528,1,2,0:0:0:0:
216,64,106780,2,0,P|128:88|112:104,1,100,2|0,0:0|0:0,0:0:0:0:
296,128,107033,2,0,P|384:152|400:168,1,100,2|0,0:0|0:0,0:0:0:0:
216,192,107286,2,0,P|128:216|112:232,1,100,8|0,0:0|0:0,0:0:0:0:
296,256,107539,2,0,P|384:280|400:296,1,100,2|0,0:0|0:0,0:0:0:0:
216,312,107791,6,0,P|129:358|48:312,1,200,2|2,0:0|0:0,0:0:0:0:
144,32,108465,1,0,0:0:0:0:
200,48,108550,1,2,0:0:0:0:
408,328,108802,2,0,P|336:256|440:240,1,250,2|0,0:0|0:0,0:0:0:0:
504,216,109308,1,8,0:0:0:0:
256,32,109561,1,2,0:0:0:0:
75,235,109813,6,0,P|96:312|160:304,1,150,2|2,0:0|0:0,0:0:0:0:
256,248,110235,1,2,0:0:0:0:
408,48,110487,1,0,0:0:0:0:
456,88,110572,1,2,0:0:0:0:
328,336,110824,2,0,P|240:360|136:240,1,250,2|0,0:0|0:0,0:0:0:0:
136,126,111330,2,0,P|209:32|328:48,1,250,8|0,0:0|0:0,0:0:0:0:
448,56,111835,6,0,P|488:192|432:352,1,300,2|8,0:0|0:0,0:0:0:0:
272,224,112509,1,0,0:0:0:0:
272,168,112593,1,2,0:0:0:0:
136,344,112846,1,2,0:0:0:0:
304,40,113099,1,0,0:3:0:0:
304,344,113352,1,8,0:0:0:0:
136,40,113604,1,2,0:0:0:0:
64,96,113731,1,0,0:0:0:0:
8,168,113857,5,6,0:2:0:0:
376,192,114110,1,2,0:0:0:0:
104,240,114489,1,2,0:0:0:0:
432,136,114868,2,0,P|360:88|288:104,1,150,2|2,0:0|0:0,0:0:0:0:
232,192,115289,1,0,0:0:0:0:
208,248,115374,2,0,P|152:320|72:312,1,150,8|0,0:0|0:0,0:0:0:0:
88,144,115879,6,0,B|158:105|187:49|187:49|246:67|323:43,1,250,2|2,0:0|0:0,0:0:0:0:
408,192,116553,1,0,0:0:0:0:
464,192,116637,1,2,0:0:0:0:
296,248,116890,2,0,P|264:328|208:360,1,150,2|2,0:2|0:0,0:0:0:0:
232,176,117311,1,0,0:0:0:0:
208,232,117395,2,0,P|149:295|85:305,1,150,8|2,0:2|0:0,0:0:0:0:
192,104,117817,1,0,0:0:0:0:
149,147,117901,6,0,P|71:185|8:171,1,150,2|0,0:2|0:0,0:0:0:0:
136,24,118322,1,2,0:0:0:0:
368,88,118575,1,0,0:0:0:0:
384,32,118659,1,2,0:0:0:0:
216,192,118912,2,0,P|200:272|112:296,1,150,2|2,0:0|0:0,0:0:0:0:
32,152,119333,1,0,0:0:0:0:
64,104,119417,2,0,P|104:56|160:48,1,100,8|0,0:0|0:0,0:0:0:0:
320,240,119839,1,0,0:0:0:0:
376,256,119923,6,0,P|464:224|488:160,1,150,2|2,0:0|0:0,0:0:0:0:
136,256,120428,2,0,P|48:224|24:160,1,150,8|2,0:0|0:0,0:0:0:0:
400,144,120934,1,2,0:0:0:0:
112,344,121187,1,2,0:0:0:0:
112,144,121439,1,8,0:0:0:0:
400,344,121692,1,2,0:0:0:0:
496,144,121945,6,0,B|512:56|512:56|448:80|400:32,1,200,2|2,0:0|0:0,0:0:0:0:
112,48,122619,1,2,0:0:0:0:
168,280,122956,2,0,P|256:206|344:280,1,250,2|0,0:0|0:0,0:0:0:0:
384,328,123461,1,8,0:0:0:0:
472,240,123630,1,0,0:0:0:0:
488,184,123714,2,0,P|456:136|472:24,1,150,2|2,0:0|0:0,0:0:0:0:
352,192,124219,5,2,0:0:0:0:
88,344,124472,1,8,0:0:0:0:
40,232,124641,1,0,0:0:0:0:
16,176,124725,2,0,P|0:96|40:40,1,150,2|2,0:0|0:0,0:0:0:0:
208,216,125230,2,0,P|264:200|296:160,1,100,2|0,0:0|0:0,0:0:0:0:
312,112,125483,1,8,0:0:0:0:
440,32,125652,2,0,P|488:72|472:176,1,150,2|0,0:0|0:0,0:0:0:0:
440,192,125989,6,0,P|368:232|360:312,1,150,2|2,0:0|0:0,0:0:0:0:
496,368,126410,1,2,0:0:0:0:
416,112,126663,1,0,0:0:0:0:
368,80,126747,1,2,0:0:0:0:
160,280,126999,2,0,P|80:200|80:144,1,150,2|2,0:0|0:0,0:0:0:0:
152,80,127421,1,0,0:0:0:0:
168,136,127505,2,0,P|248:176|312:144,1,150,8|2,0:0|0:0,0:0:0:0:
480,144,128010,6,0,B|480:232|480:232|480:280|432:304,1,150,2|2,0:0|0:0,0:0:0:0:
360,360,128432,1,2,0:0:0:0:
184,312,128684,1,0,0:0:0:0:
128,304,128769,1,2,0:0:0:0:
72,40,129021,1,2,0:0:0:0:
432,96,129274,1,2,0:0:0:0:
312,72,129443,1,0,0:0:0:0:
256,64,129527,1,8,0:0:0:0:
40,296,129780,1,2,0:0:0:0:
198,261,130032,6,0,P|239:252|312:264,1,100,4|0,0:0|0:0,0:0:0:0:
362,309,130285,1,2,0:0:0:0:
111,247,130538,1,8,0:0:0:0:
227,176,130706,2,0,P|266:138|251:49,1,150,2|0,0:0|0:0,0:0:0:0:
182,29,131043,5,2,0:0:0:0:
152,192,131212,2,0,P|125:189|101:182,1,50,0|2,0:0|0:0,0:0:0:0:
323,27,131465,1,0,0:0:0:0:
333,35,131549,2,0,P|393:35|443:30,1,100,8|2,0:0|0:0,0:0:0:0:
271,114,131802,2,0,P|321:118|371:117,1,100,2|0,0:0|0:0,0:0:0:0:
474,197,132054,6,0,P|419:239|358:192,1,150,2|2,0:0|0:0,0:0:0:0:
284,35,132475,1,0,0:0:0:0:
293,25,132560,2,0,P|290:81|269:132,1,100,8|0,0:0|0:0,0:0:0:0:
223,179,132812,1,2,0:0:0:0:
53,227,132981,1,0,0:0:0:0:
45,217,133065,6,0,P|83:186|142:202,1,100,2|0,0:0|0:0,0:0:0:0:
175,320,133318,2,0,P|213:351|272:335,1,100,2|0,0:0|0:0,0:0:0:0:
323,287,133571,1,8,0:0:0:0:
27,300,133823,2,0,L|152:305,1,112.500004291535,2|2,0:0|0:0,0:0:0:0:
406,345,134329,6,0,P|437:302|445:253,1,100,2|0,0:0|0:0,0:0:0:0:
399,186,134582,1,8,0:0:0:0:
278,354,134750,2,0,P|320:316|326:219,1,150,2|0,0:0|0:0,0:0:0:0:
269,174,135087,5,2,0:0:0:0:
416,40,135340,2,0,P|416:82|463:117,1,100,2|0,0:0|0:0,0:0:0:0:
334,66,135593,2,0,P|291:73|230:69,1,100,8|0,0:0|0:0,0:0:0:0:
365,155,135845,2,0,P|315:158|265:151,1,100,2|0,0:0|0:0,0:0:0:0:
151,43,136098,5,2,0:0:0:0:
33,200,136351,2,0,P|87:184|110:142,1,100,2|0,0:0|0:0,0:0:0:0:
37,124,136604,1,8,0:0:0:0:
12,300,136772,2,0,P|81:269|157:291,1,150,2|0,0:0|0:0,0:0:0:0:
204,338,137109,6,0,L|325:346,1,112.500004291535,2|2,0:0|0:0,0:0:0:0:
430,187,137614,2,0,L|309:179,1,112.500004291535,8|2,0:0|0:0,0:0:0:0:
127,50,138120,6,0,P|146:92|131:146,1,100
77,210,138373,1,2,0:0:0:0:
217,40,138625,1,8,0:0:0:0:
139,169,138794,2,0,P|129:228|184:299,1,150,2|0,0:0|0:0,0:0:0:0:
266,287,139131,5,2,0:0:0:0:
79,374,139299,2,0,P|85:343|86:324,1,50,0|2,0:0|0:0,0:0:0:0:
17,157,139552,1,0,0:0:0:0:
13,144,139636,2,0,P|61:142|114:131,1,100,8|0,0:0|0:0,0:0:0:0:
73,232,139889,2,0,P|121:234|174:245,1,100,2|0,0:0|0:0,0:0:0:0:
304,356,140142,6,0,P|338:316|313:222,1,150,2|2,0:0|0:0,0:0:0:0:
197,87,140563,1,0,0:0:0:0:
205,98,140647,2,0,L|204:212,1,100,8|2,0:0|0:0,0:0:0:0:
202,282,140900,1,2,0:0:0:0:
386,355,141069,1,0,0:0:0:0:
386,355,141153,6,0,P|403:298|378:253,1,100,2|0,0:0|0:0,0:0:0:0:
487,241,141406,2,0,P|470:184|495:139,1,100,2|0,0:0|0:0,0:0:0:0:
395,101,141658,1,8,0:0:0:0:
332,309,141911,2,0,L|331:195,1,112.500004291535,2|2,0:0|0:0,0:0:0:0:
138,161,142417,6,0,P|186:178|233:152,1,100,2|0,0:0|0:0,0:0:0:0:
269,95,142669,1,8,0:0:0:0:
248,254,142838,2,0,P|299:228|322:132,1,150,2|0,0:0|0:0,0:0:0:0:
386,98,143175,5,2,0:0:0:0:
81,94,143427,2,0,P|140:72|188:92,1,100,2|0,0:0|0:0,0:0:0:0:
282,24,143680,2,0,P|278:78|280:130,1,100,8|2,0:0|0:0,0:0:0:0:
407,143,143933,2,0,P|408:93|404:43,1,100,2|0,0:0|0:0,0:0:0:0:
336,186,144186,5,4,0:0:0:0:
464,288,144438,2,0,P|415:285|378:246,1,100,2|0,0:0|0:0,0:0:0:0:
448,215,144691,1,8,0:0:0:0:
374,352,144860,2,0,L|237:358,1,112.500004291535,2|0,0:0|0:0,0:0:0:0:
119,366,145197,6,0,P|131:318|130:261,1,100,2|0,0:0|0:0,0:0:0:0:
67,211,145449,1,6,0:0:0:0:
307,251,145702,2,0,P|256:234|205:250,1,100,10|0,0:0|0:0,0:0:0:0:
256,315,145955,1,2,0:0:0:0:
374,352,146081,1,10,0:0:0:0:
439,246,146208,6,0,P|446:195|447:139,1,100,4|0,0:0|0:0,0:0:0:0:
357,65,146460,2,0,P|412:77|444:42,1,100,2|0,0:0|0:0,0:0:0:0:
289,18,146713,1,8,0:0:0:0:
144,98,146882,2,0,P|196:77|289:98,1,150,2|0,0:0|0:0,0:0:0:0:
318,169,147219,6,0,L|322:278,1,100,2|0,0:0|0:0,0:0:0:0:
238,332,147471,2,0,L|242:223,1,100,2|0,0:0|0:0,0:0:0:0:
169,189,147724,1,8,0:0:0:0:
43,244,147893,2,0,P|80:237|110:238,1,50,0|2,0:0|0:0,0:0:0:0:
330,331,148229,6,0,P|282:349|216:260,1,150,2|2,0:0|0:0,0:0:0:0:
355,178,148651,1,0,0:0:0:0:
367,173,148735,2,0,L|259:166,1,100,8|0,0:0|0:0,0:0:0:0:
162,120,148988,2,0,P|151:168|163:217,1,100,2|0,0:0|0:0,0:0:0:0:
54,349,149240,6,0,P|93:291|61:202,2,150,2|2|8,0:0|0:0|0:0,0:0:0:0:
233,259,149999,2,0,P|288:248|336:256,1,100,2|0,0:0|0:0,0:0:0:0:
397,297,150251,5,2,0:0:0:0:
184,193,150504,2,0,P|238:178|281:149,1,100,2|0,0:0|0:0,0:0:0:0:
308,87,150757,1,8,0:0:0:0:
458,204,150925,2,0,P|412:238|333:200,1,150,2|0,0:0|0:0,0:0:0:0:
257,247,151262,6,0,P|260:303|252:348,1,100,2|0,0:0|0:0,0:0:0:0:
335,353,151515,1,2,0:0:0:0:
128,267,151768,2,0,P|77:275|28:275,1,100,8|0,0:0|0:0,0:0:0:0:
184,193,152021,2,0,P|134:192|92:186,1,75,2|0,0:0|0:0,0:0:0:0:
240,119,152273,6,0,P|283:86|373:128,1,150,2|2,0:0|0:0,0:0:0:0:
301,269,152695,1,0,0:0:0:0:
310,259,152779,2,0,L|306:158,1,100,8|2,0:0|0:0,0:0:0:0:
240,119,153032,1,2,0:0:0:0:
51,161,153200,1,0,0:0:0:0:
48,174,153284,6,0,P|87:205|146:184,1,100,2|0,0:0|0:0,0:0:0:0:
198,86,153537,2,0,P|150:77|112:108,1,100,2|0,0:0|0:0,0:0:0:0:
212,214,153790,2,0,L|322:216,1,100,8|0,0:0|0:0,0:0:0:0:
290,307,154042,2,0,L|400:305,1,100,8|0,0:0|0:0,0:0:0:0:
466,303,154295,6,0,P|471:249|466:194,1,100,2|0,0:0|0:0,0:0:0:0:
333,180,154548,2,0,P|300:134|308:80,1,100,2|0,0:0|0:0,0:0:0:0:
406,153,154801,1,8,0:0:0:0:
288,251,154969,2,0,P|248:212|218:120,1,150,2|0,0:0|0:0,0:0:0:0:
249,40,155306,6,0,L|368:37,1,100,2|0,0:0|0:0,0:0:0:0:
456,136,155559,2,0,L|337:133,1,100,2|0,0:0|0:0,0:0:0:0:
218,124,155812,1,8,0:0:0:0:
108,24,155980,2,0,P|110:50|109:80,1,50,0|2,0:0|0:0,0:0:0:0:
67,310,156317,6,0,P|32:247|53:177,1,150,2|2,0:0|0:0,0:0:0:0:
207,229,156738,1,0,0:0:0:0:
215,240,156823,2,0,L|330:245,1,100,8|0,0:0|0:0,0:0:0:0:
383,317,157075,2,0,P|410:262|406:205,1,100,2|0,0:0|0:0,0:0:0:0:
280,154,157328,6,0,L|272:2,1,150,2|2,0:0|0:0,0:0:0:0:
197,147,157749,2,0,P|201:181|206:200,1,50,0|8,0:0|0:0,0:0:0:0:
148,305,158086,2,0,P|196:289|259:307,1,100,2|0,0:0|0:0,0:0:0:0:
304,361,158339,5,2,0:0:0:0:
53,295,158592,2,0,P|81:252|85:197,1,100,2|0,0:0|0:0,0:0:0:0:
25,148,158844,1,8,0:0:0:0:
200,66,159013,2,0,P|132:95|62:75,1,150,2|0,0:0|0:0,0:0:0:0:
267,20,159350,6,0,L|376:19,1,100,2|0,0:0|0:0,0:0:0:0:
434,65,159603,1,2,0:0:0:0:
355,203,159771,1,0,0:0:0:0:
344,194,159855,2,0,P|335:138|335:89,1,100,8|0,0:0|0:0,0:0:0:0:
251,221,160108,2,0,P|251:171|260:121,1,100,2|0,0:0|0:0,0:0:0:0:
450,175,160361,6,0,L|457:308,1,112.500004291535,6|2,0:0|0:0,0:0:0:0:
174,277,160866,2,0,L|167:144,1,112.500004291535,8|2,0:0|0:0,0:0:0:0:
45,41,161288,1,0,0:0:0:0:
39,61,161372,2,0,P|86:52|152:59,1,100,2|0,0:0|0:0,0:0:0:0:
231,102,161625,2,0,P|278:111|344:104,1,100,4|0,0:0|0:0,0:0:0:0:
424,63,161877,5,10,0:0:0:0:
214,197,162130,2,0,P|217:254|236:307,1,100,4|0,0:0|0:0,0:0:0:0:
340,284,162383,5,2,0:0:0:0:
340,284,162636,6,0,P|357:224|379:193,1,100,2|0,0:0|0:0,0:0:0:0:
294,160,162888,2,0,P|338:116|373:100,1,100,8|0,0:0|0:0,0:0:0:0:
306,39,163141,1,2,0:0:0:0:
114,57,163394,5,2,0:0:0:0:
114,187,163562,1,0,0:0:0:0:
104,183,163647,1,0,0:0:0:0:
114,317,163815,1,0,0:0:0:0:
104,313,163899,2,0,P|150:291|200:284,1,100,8|0,0:0|0:0,0:0:0:0:
359,163,164152,2,0,P|313:141|263:134,1,100,2|0,0:0|0:0,0:0:0:0:
268,143,164405,1,2,0:0:0:0:
435,162,164657,6,0,P|420:213|364:239,1,100,2|0,0:0|0:0,0:0:0:0:
308,239,164910,2,0,P|267:266|255:314,1,100,8|0,0:0|0:0,0:0:0:0:
335,313,165163,1,0,0:0:0:0:
233,59,165331,1,2,0:0:0:0:
241,47,165416,6,0,L|161:153,1,100,2|0,0:0|0:0,0:0:0:0:
329,116,165668,2,0,L|409:10,1,100,2|0,0:0|0:0,0:0:0:0:
428,32,165921,1,8,0:0:0:0:
325,204,166090,1,2,0:0:0:0:
304,189,166174,2,0,P|251:141|263:70,1,150,8|0,0:0|0:0,0:0:0:0:
121,258,166679,5,2,0:0:0:0:
336,287,166848,1,2,0:0:0:0:
331,295,166932,2,0,L|232:320,1,100,8|0,0:0|0:0,0:0:0:0:
215,355,167185,1,2,0:0:0:0:
213,129,167438,2,0,P|256:151|299:129,1,100,2|0,0:0|0:0,0:0:0:0:
318,105,167690,1,2,0:0:0:0:
206,233,167859,1,0,0:0:0:0:
210,217,167943,2,0,P|201:298|221:373,1,150,8|2,0:0|0:0,0:0:0:0:
289,61,168364,1,0,0:0:0:0:
251,75,168449,5,2,0:0:0:0:
339,265,168701,1,2,0:0:0:0:
180,151,168954,2,0,P|135:81|70:64,1,150,8|2,0:0|0:0,0:0:0:0:
69,194,169375,1,0,0:0:0:0:
70,178,169459,6,0,L|61:283,1,100,2|0,0:0|0:0,0:0:0:0:
266,236,169712,2,0,L|251:131,1,100,2|0,0:0|0:0,0:0:0:0:
170,174,169965,2,0,L|148:277,1,100,8|0,0:0|0:0,0:0:0:0:
359,246,170218,2,0,L|355:140,1,100,2|0,0:0|0:0,0:0:0:0:
377,118,170470,1,2,0:0:0:0:
170,333,170723,5,2,0:0:0:0:
305,319,170892,2,0,L|236:329,1,50,0|8,0:0|0:0,0:0:0:0:
139,214,171144,2,0,L|208:204,1,50,2|0,0:0|0:0,0:0:0:0:
120,40,171481,5,2,0:0:0:0:
341,91,171650,1,0,0:0:0:0:
312,64,171734,1,2,0:0:0:0:
268,144,171903,1,0,0:0:0:0:
229,135,171987,1,8,0:0:0:0:
409,202,172240,1,2,0:0:0:0:
361,76,172408,1,2,0:0:0:0:
340,91,172492,6,2,P|347:163|409:201,1,150
233,298,172914,1,0,0:0:0:0:
225,274,172998,2,0,P|274:282|318:260,1,100,8|0,0:0|0:0,0:0:0:0:
262,202,173251,1,2,0:0:0:0:
452,35,173419,1,0,0:0:0:0:
452,35,173503,6,0,P|446:84|416:122,1,100,2|0,0:0|0:0,0:0:0:0:
268,49,173756,2,0,P|317:38|365:50,1,100,2|0,0:0|0:0,0:0:0:0:
361,59,174009,1,8,0:0:0:0:
121,78,174262,1,10,0:0:0:0:
263,270,174514,1,2,0:0:0:0:
263,270,174767,6,0,P|306:237|357:238,1,100,0|0,0:0|0:0,0:0:0:0:
237,156,175020,2,0,P|194:123|143:124,1,100,8|0,0:0|0:0,0:0:0:0:
172,194,175272,1,2,0:0:0:0:
174,208,175525,6,0,P|153:258|108:282,1,100,2|0,0:0|0:0,0:0:0:0:
317,140,175778,2,0,P|370:132|414:159,1,100,2|0,0:0|0:0,0:0:0:0:
354,205,176031,1,8,0:0:0:0:
158,93,176283,1,2,0:0:0:0:
381,68,176536,6,0,B|323:94|323:94|285:90|285:90|219:122,1,150,2|2,0:0|0:0,0:0:0:0:
131,316,177042,2,2,B|188:289|188:289|227:294|227:294|293:262,1,150,8|2,0:0|0:0,0:0:0:0:
394,122,177463,1,0,0:0:0:0:
394,122,177547,6,0,P|346:147|308:191,1,100,2|0,0:0|0:0,0:0:0:0:
315,55,177800,2,0,P|275:91|249:143,1,100,2|0,0:0|0:0,0:0:0:0:
357,228,178053,1,8,0:0:0:0:
247,66,178305,1,10,0:0:0:0:
187,60,178432,1,2,0:0:0:0:
140,97,178558,1,2,0:0:0:0:
268,202,178811,6,0,P|281:255|257:320,1,100,2|0,0:0|0:0,0:0:0:0:
346,338,179064,2,0,P|405:353|454:334,1,100,8|0,0:0|0:0,0:0:0:0:
473,246,179316,1,2,0:0:0:0:
216,247,179569,6,0,B|184:235|184:235|165:160,1,100,2|0,0:0|0:0,0:0:0:0:
286,215,179822,2,0,P|292:266|213:324,1,150,2|8,0:0|0:0,0:0:0:0:
373,208,180243,1,2,0:0:0:0:
406,186,180327,2,0,B|418:137|418:137|407:80,1,100,2|0,0:0|0:0,0:0:0:0:
375,65,180580,1,2,0:0:0:0:
148,45,180833,6,0,L|239:93,1,100,2|0,0:0|0:0,0:0:0:0:
275,172,181085,2,0,P|250:215|242:264,1,100,8|0,0:0|0:0,0:0:0:0:
312,336,181338,1,2,0:0:0:0:
200,175,181591,6,0,P|213:223|242:264,1,100,2|0,0:0|0:0,0:0:0:0:
342,251,181844,2,0,P|366:207|374:158,1,100,2|0,0:0|0:0,0:0:0:0:
383,164,182096,1,8,0:0:0:0:
268,53,182265,1,2,0:0:0:0:
264,77,182349,1,8,0:0:0:0:
118,114,182518,1,2,0:0:0:0:
114,138,182602,1,2,0:0:0:0:
58,67,182855,6,0,P|101:40|160:52,1,100,2|0,0:0|0:0,0:0:0:0:
202,117,183107,2,0,L|319:118,1,100,8|0,0:0|0:0,0:0:0:0:
383,164,183360,1,2,0:0:0:0:
58,217,183613,6,0,P|101:190|172:212,1,100,2|0,0:0|0:0,0:0:0:0:
202,267,183866,2,0,L|319:268,1,100,2|0,0:0|0:0,0:0:0:0:
383,314,184118,1,8,0:0:0:0:
132,265,184371,1,2,0:0:0:0:
281,182,184540,1,0,0:0:0:0:
241,180,184624,5,2,0:0:0:0:
457,44,184876,1,2,0:0:0:0:
396,290,185129,1,8,0:0:0:0:
374,141,185382,1,2,0:0:0:0:
198,99,185635,6,0,P|152:78|127:37,1,100,2|0,0:0|0:0,0:0:0:0:
247,31,185887,2,0,P|276:72|277:120,1,100,2|0,0:0|0:0,0:0:0:0:
244,214,186140,2,8,P|245:263|274:303,1,100,8|0,0:0|0:0,0:0:0:0:
394,297,186393,2,0,P|367:255|323:235,1,100,2|0,0:0|0:0,0:0:0:0:
328,226,186646,1,2,0:0:0:0:
112,291,186898,5,2,0:0:0:0:
136,115,187067,1,2,0:0:0:0:
136,115,187151,2,0,P|206:150|265:104,1,150,8|0,0:0|0:0,0:0:0:0:
398,54,187572,1,2,0:0:0:0:
379,89,187657,6,0,L|377:205,1,100,2|0,0:0|0:0,0:0:0:0:
323,255,187909,2,0,P|271:276|217:256,1,100,2|0,0:0|0:0,0:0:0:0:
271,196,188162,1,8,0:0:0:0:
454,146,188331,2,0,L|456:96,1,50,0|2,0:0|0:0,0:0:0:0:
325,205,188583,2,0,L|323:255,1,50,0|2,0:0|0:0,0:0:0:0:
323,255,188920,6,0,L|328:131,1,100,2|0,0:0|0:0,0:0:0:0:
403,252,189173,2,0,P|393:300|355:331,1,100,8|0,0:0|0:0,0:0:0:0:
315,338,189426,1,2,0:0:0:0:
121,268,189594,1,2,0:0:0:0:
121,268,189679,6,0,P|139:197|115:149,1,100,2|0,0:0|0:0,0:0:0:0:
155,101,189931,1,2,0:0:0:0:
352,73,190100,1,0,0:0:0:0:
350,112,190184,2,0,P|323:155|249:163,1,100,8|0,0:0|0:0,0:0:0:0:
276,93,190437,2,0,P|342:126|323:229,1,150,10|2,0:0|0:0,0:0:0:0:
202,162,190942,5,2,0:0:0:0:
178,209,191069,1,0,0:0:0:0:
188,260,191195,1,8,0:0:0:0:
229,292,191321,1,2,0:0:0:0:
283,120,191700,5,2,0:0:0:0:
299,170,191827,1,2,0:0:0:0:
342,199,191953,1,2,0:0:0:0:
394,192,192080,1,2,0:0:0:0:
430,155,192206,1,8,0:0:0:0:
315,294,192459,2,0,B|276:312|252:282|205:300,1,100,2|0,0:0|0:0,0:0:0:0:
140,299,192711,5,2,0:0:0:0:
224,41,192964,1,2,0:0:0:0:
309,300,193217,1,10,0:0:0:0:
88,139,193470,1,2,0:0:0:0:
360,139,193638,1,2,0:0:0:0:
369,143,193722,6,0,P|386:204|376:260,1,100,2|0,0:0|0:0,0:0:0:0:
304,258,193975,2,0,P|259:303|206:322,1,100,2|0,0:0|0:0,0:0:0:0:
163,239,194228,1,8,0:0:0:0:
143,94,194481,2,0,B|153:137|153:137|170:167|170:167|163:239,1,150,2|14,0:0|0:0,0:0:0:0:
163,239,194986,5,2,0:0:0:0:
46,337,195239,2,0,P|79:327|114:324,1,69.9999978637696,8|0,0:0|0:0,0:0:0:0:
124,327,195491,1,2,0:0:0:0:
365,262,195744,1,2,0:0:0:0:
217,363,195997,1,2,0:0:0:0:
163,239,196250,2,0,P|156:202|154:166,1,69.9999978637696,8|0,0:0|0:0,0:0:0:0:
156,159,196502,1,2,0:0:0:0:
250,238,196755,6,0,P|300:251|350:240,1,104.999996795654,10|2,0:0|0:0,0:0:0:0:
288,89,197261,2,0,L|298:161,1,69.9999978637696,8|2,0:0|0:0,0:0:0:0:
443,332,197766,2,0,L|452:259,1,69.9999978637696,2|2,0:0|0:0,0:0:0:0:
451,253,198019,1,2,0:0:0:0:
470,125,198187,1,2,0:0:0:0:
374,245,198440,1,2,0:0:0:0:
300,168,198693,6,0,P|235:147|165:152,1,139.999995727539,10|2,0:0|0:0,0:0:0:0:
374,245,199283,1,8,0:0:0:0:
435,171,199451,2,0,P|470:167|505:166,1,69.9999978637696,2|0,0:0|0:0,0:0:0:0:
300,169,199788,1,2,0:0:0:0:
374,244,199957,1,2,0:0:0:0:
424,31,200125,2,0,L|417:104,1,69.9999978637696,2|0,0:0|0:0,0:0:0:0:
301,238,200462,2,0,L|300:169,1,69.9999978637696,2|0,0:0|0:0,0:0:0:0:
263,330,200799,6,0,P|313:339|360:316,1,104.999996795654,4|0,0:0|0:0,0:0:0:0:
456,152,201304,2,0,B|440:188|484:224|448:264,1,104.999996795654,8|2,0:0|0:0,0:0:0:0:
379,105,201726,1,0,0:0:0:0:
379,105,201810,2,0,L|274:98,1,104.999996795654,4|2,0:0|0:0,0:0:0:0:
127,204,202315,2,0,P|176:218|224:199,2,104.999996795654,8|2|14,0:0|0:0|0:0,0:0:0:0:
45,144,203074,6,0,L|28:25,2,120,2|8|2,0:0|0:0|0:0,0:0:0:0:
55,338,203832,2,0,L|177:324,1,120,2|2,0:0|0:0,0:0:0:0:
324,368,204337,2,0,P|340:320|344:272,1,80,8|0,0:0|0:0,0:0:0:0:
344,281,204590,1,2,0:0:0:0:
420,135,204843,6,0,P|368:163|309:164,1,120,10|2,0:0|0:0,0:0:0:0:
217,50,205348,2,0,L|228:129,1,80,8|2,0:0|0:0,0:0:0:0:
344,75,205685,1,0,0:0:0:0:
116,26,205854,2,0,L|127:105,1,80,2|2,0:0|0:0,0:0:0:0:
241,262,206191,2,0,B|254:224|254:224|246:184,1,80,2|0,0:0|0:0,0:0:0:0:
29,131,206612,2,0,L|40:210,1,80,2|0,0:0|0:0,0:0:0:0:
53,229,206865,6,0,P|106:204|164:213,1,120,2|2,0:0|0:0,0:0:0:0:
345,308,207370,2,0,L|365:355,1,40,8|0,0:0|0:0,0:0:0:0:
431,169,207707,2,0,P|396:187|357:188,1,80,2|0,0:0|0:0,0:0:0:0:
248,142,208044,2,0,L|158:129,1,80,2|0,0:0|0:0,0:0:0:0:
236,313,208381,2,0,P|289:289|345:309,1,120,8|0,0:0|0:0,0:0:0:0:
368,332,208718,2,0,P|405:344|443:334,1,80,0|4,0:0|0:0,0:0:0:0:
495,122,209139,5,2,0:0:0:0:
419,243,209392,2,0,L|295:233,1,120,8|2,0:0|0:0,0:0:0:0:
164,193,209898,2,0,P|179:249|158:304,2,120,4|2|8,0:0|0:0|0:0,0:0:0:0:
22,139,210572,1,0,0:0:0:0:
83,241,210740,5,2,0:0:0:0:
83,241,210824,1,0,0:0:0:0:
83,241,210909,1,14,0:0:0:0:
148,94,211161,2,0,L|282:86,1,134.999995880127,2|8,0:0|0:0,0:0:0:0:
422,135,211582,2,0,P|455:215|418:294,1,179.999994506836,2|2,0:0|0:0,0:0:0:0:
317,39,212172,1,2,0:0:0:0:
242,191,212425,2,0,L|331:187,1,89.999997253418,8|2,0:0|0:0,0:0:0:0:
267,335,212762,1,0,0:0:0:0:
164,268,212930,6,0,P|134:208|148:144,1,134.999995880127,10|2,0:0|0:0,0:0:0:0:
316,39,213436,2,0,P|305:82|279:118,1,89.999997253418,8|2,0:0|0:0,0:0:0:0:
201,36,213773,1,0,0:0:0:0:
243,191,213941,2,0,L|261:284,1,89.999997253418,2|0,0:0|0:0,0:0:0:0:
474,46,214278,2,0,L|462:135,1,89.999997253418,2|0,0:0|0:0,0:0:0:0:
385,284,214615,2,0,L|373:194,1,89.999997253418,2|0,0:0|0:0,0:0:0:0:
362,84,214952,6,0,P|303:115|237:107,1,134.999995880127,10|2,0:0|0:0,0:0:0:0:
119,42,215458,1,8,0:0:0:0:
94,230,215626,2,0,P|174:192|261:205,1,179.999994506836,2|2,0:0|0:0,0:0:0:0:
374,173,216132,2,0,L|381:243,1,44.999998626709,0|2,0:0|0:0,0:0:0:0:
243,38,216469,1,2,0:0:0:0:
297,126,216637,2,0,P|363:131|421:99,1,134.999995880127,2|0,0:0|0:0,0:0:0:0:
421,98,216974,5,4,0:0:0:0:
167,38,217227,2,0,P|148:101|171:164,2,134.999995880127,2|8|2,0:0|0:0|0:0,0:0:0:0:
52,139,217901,2,0,L|44:186,1,44.999998626709,0|4,0:0|0:0,0:0:0:0:
152,266,218238,1,2,0:0:0:0:
242,97,218491,2,0,L|376:88,1,134.999995880127,8|2,0:0|0:0,0:0:0:0:
314,275,218996,6,0,B|287:234|287:234|295:183,1,100,14|0,0:0|0:0,0:0:0:0:
300,171,219249,1,2,0:0:0:0:
152,266,219502,2,0,L|52:257,1,100,8|2,0:0|0:0,0:0:0:0:
161,157,219839,1,0,0:0:0:0:
314,275,220007,2,0,L|301:374,1,100,2|0,0:0|0:0,0:0:0:0:
301,374,220260,1,2,0:0:0:0:
300,171,220428,2,0,L|351:188,2,50,0|8|0,0:0|0:0|0:0,0:0:0:0:
439,79,220765,1,2,0:0:0:0:
439,319,221018,6,0,P|366:324|314:274,2,150,10|2|8,0:0|0:0|0:0,0:0:0:0:
388,149,221692,2,0,L|392:248,1,100,2|0,0:0|0:0,0:0:0:0:
317,78,222029,1,2,0:0:0:0:
317,78,222113,1,0,0:0:0:0:
317,78,222197,2,0,P|263:105|165:91,1,150,2|0,0:0|0:0,0:0:0:0:
161,92,222534,1,2,0:0:0:0:
97,204,222703,1,0,0:0:0:0:
97,204,222787,1,2,0:0:0:0:
97,204,222871,1,0,0:0:0:0:
161,309,223040,6,0,L|326:304,1,150,10|2,0:0|0:0,0:0:0:0:
430,362,223545,2,0,L|434:312,1,50,8|0,0:0|0:0,0:0:0:0:
482,164,223798,2,0,P|413:191|340:176,1,150,2|2,0:0|0:0,0:0:0:0:
325,170,224135,2,0,P|277:157|228:160,1,100,2|2,0:0|0:0,0:0:0:0:
271,335,224556,2,0,P|286:288|271:241,1,100,8|2,0:0|0:0,0:0:0:0:
258,233,224809,1,2,0:0:0:0:
121,351,224978,2,0,L|163:383,1,50,2|8,0:0|0:0,0:0:0:0:
258,233,225315,5,2,0:0:0:0:
57,143,225567,2,0,P|40:215|69:284,2,150,8|2|4,0:0|0:0|0:0,0:0:0:0:
230,186,226241,2,0,L|131:207,1,100,2|0,0:0|0:0,0:0:0:0:
298,95,226578,1,8,0:0:0:0:
386,246,226831,2,0,L|392:188,1,50,2|0,0:0|0:0,0:0:0:0:
296,16,227084,6,0,P|248:32|220:80,1,100,2|0,0:0|0:0,0:0:0:0:
232,188,227336,1,2,0:0:0:0:
386,246,227589,2,0,L|392:188,1,50,8|0,0:0|0:0,0:0:0:0:
440,328,227758,2,0,L|284:336,1,150,2|0,0:0|0:0,0:0:0:0:
152,368,228095,1,2,0:0:0:0:
232,256,228263,1,0,0:0:0:0:
232,256,228347,6,0,L|224:144,1,100,2|0,0:0|0:0,0:0:0:0:
304,112,228600,2,0,L|311:211,1,100,8|0,0:0|0:0,0:0:0:0:
312,296,228853,1,2,0:0:0:0:
152,368,229021,1,0,0:0:0:0:
152,368,229106,2,0,P|96:368|44:296,1,150,2|2,0:0|0:0,0:0:0:0:
128,132,229527,1,0,0:0:0:0:
144,164,229611,6,0,L|136:264,1,100,8|0,0:0|0:0,0:0:0:0:
236,208,229864,2,0,P|248:156|232:108,1,100,2|0,0:0|0:0,0:0:0:0:
164,52,230117,2,0,P|216:68|320:64,1,150,2|2,0:0|0:0,0:0:0:0:
424,20,230538,1,0,0:0:0:0:
452,72,230622,1,8,0:0:0:0:
384,172,230791,1,0,0:0:0:0:
388,216,230875,1,2,0:0:0:0:
312,320,231043,1,0,0:0:0:0:
288,352,231128,6,0,P|224:352|160:360,1,100,2|0,0:0|0:0,0:0:0:0:
24,268,231380,2,0,P|76:272|128:268,1,100,2|0,0:0|0:0,0:0:0:0:
192,224,231633,1,8,0:0:0:0:
56,44,231802,2,0,L|64:200,1,150,2|0,0:0|0:0,0:0:0:0:
76,364,232139,1,2,0:0:0:0:
192,224,232307,1,0,0:0:0:0:
176,164,232391,1,2,0:0:0:0:
292,124,232560,1,0,0:0:0:0:
304,76,232644,1,8,0:0:0:0:
440,60,232812,1,0,0:0:0:0:
472,40,232896,6,0,P|460:96|472:184,1,100,2|0,0:0|0:0,0:0:0:0:
492,236,233149,2,0,P|432:224|384:224,1,100,2|0,0:0|0:0,0:0:0:0:
304,184,233402,1,2,0:0:0:0:
284,216,233486,1,0,0:0:0:0:
252,240,233571,1,0,0:0:0:0:
212,248,233655,1,8,0:0:0:0:
76,208,233823,1,0,0:0:0:0:
56,160,233908,1,2,0:0:0:0:
156,32,234076,1,0,0:0:0:0:
148,72,234160,6,0,L|304:64,1,150,2|2,0:0|0:0,0:0:0:0:
136,152,234582,1,0,0:0:0:0:
160,116,234666,6,0,L|272:108,1,112.500004291535,8|2,0:0|0:0,0:0:0:0:
440,176,235087,1,0,0:0:0:0:
452,216,235171,1,2,0:0:0:0:
348,356,235424,1,2,0:0:0:0:
176,304,235677,1,8,0:0:0:0:
160,268,235761,2,0,L|312:276,1,150,2|0,0:0|0:0,0:0:0:0:
144,236,236182,1,2,0:0:0:0:
348,356,236435,2,0,L|248:352,1,100,2|0,0:0|0:0,0:0:0:0:
64,248,236688,2,0,P|72:196|104:164,1,100,8|0,0:0|0:0,0:0:0:0:
184,164,236941,1,2,0:0:0:0:
316,320,237109,1,0,0:0:0:0:
348,356,237193,6,0,P|412:352|476:288,1,150,2|2,0:0|0:0,0:0:0:0:
360,224,237614,1,0,0:0:0:0:
380,260,237699,2,2,P|396:196|360:116,1,150,8|0,0:0|0:0,0:0:0:0:
112,196,238120,1,0,0:0:0:0:
132,228,238204,2,0,P|188:248|256:192,1,150,2|2,0:0|0:0,0:0:0:0:
80,24,238710,2,0,L|68:136,1,100,8|0,0:0|0:0,0:0:0:0:
12,196,238962,2,0,L|24:300,1,100,2|0,0:0|0:0,0:0:0:0:
88,356,239215,6,0,P|140:348|192:344,1,75.000002861023,2|0,0:0|0:0,0:0:0:0:
288,324,239468,2,0,P|240:308|200:256,1,100,2|0,0:0|0:0,0:0:0:0:
184,196,239721,1,8,0:0:0:0:
304,80,239889,2,0,L|296:232,1,150,2|0,0:0|0:0,0:0:0:0:
288,324,240226,1,2,0:0:0:0:
116,152,240479,2,0,P|164:116|216:124,1,100,2|0,0:0|0:0,0:0:0:0:
288,156,240732,2,0,P|337:154|373:121,1,100,8|0,0:0|0:0,0:0:0:0:
384,44,240984,1,2,0:0:0:0:
492,152,241153,1,0,0:0:0:0:
480,188,241237,6,0,L|472:308,1,100,2|0,0:0|0:0,0:0:0:0:
468,364,241490,1,2,0:0:0:0:
304,80,241743,6,0,L|312:200,1,100,8|0,0:0|0:0,0:0:0:0:
316,256,241996,1,2,0:0:0:0:
304,284,242080,1,0,0:0:0:0:
284,304,242164,1,0,0:0:0:0:
260,320,242248,2,0,L|152:316,1,75.000002861023,2|0,0:0|0:0,0:0:0:0:
144,224,242501,2,0,L|218:226,1,75.000002861023,2|0,0:0|0:0,0:0:0:0:
400,208,242753,6,0,P|408:148|392:72,1,100,8|0,0:0|0:0,0:0:0:0:
352,36,243006,2,0,L|268:44,1,75,2|0,0:0|0:0,0:0:0:0:
188,52,243259,1,2,0:0:0:0:
8,32,243512,1,2,0:0:0:0:
112,176,243764,1,8,0:0:0:0:
260,256,243933,2,0,L|412:276,1,150,2|0,0:0|0:0,0:0:0:0:
456,260,244270,1,2,0:0:0:0:
348,116,244523,1,2,0:0:0:0:
260,256,244691,1,0,0:0:0:0:
228,308,244775,2,0,P|178:307|131:289,1,100,8|0,0:0|0:0,0:0:0:0:
260,256,245028,2,0,P|309:255|356:237,1,100,2|0,0:0|0:0,0:0:0:0:
392,204,245281,5,2,0:0:0:0:
316,40,245534,1,2,0:0:0:0:
208,128,245702,1,0,0:0:0:0:
172,160,245786,2,0,B|135:194|135:194|132:136|88:72,1,150,8|2,0:0|0:0,0:0:0:0:
36,228,246208,1,0,0:0:0:0:
52,276,246292,2,0,P|116:312|204:276,1,150,2|2,0:0|0:0,0:0:0:0:
324,124,246797,1,8,0:0:0:0:
464,344,247050,2,0,L|452:240,1,100,2|0,0:0|0:0,0:0:0:0:
428,200,247303,5,2,0:0:0:0:
264,252,247556,2,0,P|320:268|372:256,1,100,2|0,0:0|0:0,0:0:0:0:
400,240,247808,1,8,0:0:0:0:
324,124,247977,1,2,0:0:0:0:
220,336,248229,1,0,0:0:0:0:
188,296,248314,2,0,P|175:245|204:188,1,100,2|0,0:0|0:0,0:0:0:0:
239,112,248566,2,0,P|191:124|143:113,1,100,2|0,0:0|0:0,0:0:0:0:
96,96,248819,1,8,0:0:0:0:
344,36,249072,1,2,0:0:0:0:
360,48,249156,1,0,0:0:0:0:
376,60,249240,1,0,0:0:0:0:
392,72,249325,6,0,B|416:92|416:92|408:124|404:172,1,100,2|0,0:0|0:0,0:0:0:0:
416,208,249577,1,2,0:0:0:0:
488,356,249746,1,0,0:0:0:0:
440,344,249830,2,0,B|392:332|392:332|344:356|290:344,1,150,8|2,0:0|0:0,0:0:0:0:
184,300,250251,1,0,0:0:0:0:
160,256,250336,5,2,0:0:0:0:
80,96,250588,1,2,0:0:0:0:
344,192,250841,1,8,0:0:0:0:
440,344,251094,1,2,0:0:0:0:
160,256,251347,5,2,0:0:0:0:
407,256,251599,2,0,P|434:188|403:122,1,150,2|8,0:0|0:0,0:0:0:0:
284,40,252021,1,2,0:0:0:0:
236,180,252273,1,0,0:0:0:0:
200,216,252358,2,0,L|176:360,1,100,2|0,0:0|0:0,0:0:0:0:
84,344,252610,2,0,L|100:245,1,100,2|0,0:0|0:0,0:0:0:0:
92,196,252863,1,8,0:0:0:0:
20,24,253116,1,2,0:0:0:0:
216,112,253368,6,0,P|280:139|361:102,1,150,2|2,0:0|0:0,0:0:0:0:
452,20,253790,1,0,0:0:0:0:
480,60,253874,2,0,L|444:164,1,100,8|0,0:0|0:0,0:0:0:0:
448,204,254127,1,2,0:0:0:0:
316,324,254295,1,0,0:0:0:0:
288,284,254379,2,0,P|361:249|436:290,1,150,2|2,0:0|0:0,0:0:0:0:
272,192,254801,1,0,0:0:0:0:
228,168,254885,1,8,0:0:0:0:
168,340,255138,1,2,0:0:0:0:
67,192,255390,6,0,P|88:121|55:56,1,150,2|2,0:0|0:0,0:0:0:0:
300,72,255896,1,8,0:0:0:0:
228,168,256064,2,0,P|207:238|240:303,1,150,2|0,0:0|0:0,0:0:0:0:
280,336,256401,1,2,0:0:0:0:
396,192,256570,1,0,0:0:0:0:
384,144,256654,1,2,0:0:0:0:
156,192,256907,1,8,0:0:0:0:
351,259,257160,2,0,P|400:274|451:251,1,100,2|0,0:0|0:0,0:0:0:0:
344,183,257412,6,0,P|284:224|286:295,1,150,4|2,0:0|0:0,0:0:0:0:
451,95,257918,2,0,P|412:66|363:67,1,100,8|0,0:0|0:0,0:0:0:0:
316,84,258171,1,2,0:0:0:0:
132,212,258423,5,2,0:0:0:0:
352,260,258676,1,10,0:0:0:0:
316,83,258929,2,0,P|247:112|176:92,1,150,8|2,0:0|0:0,0:0:0:0:
116,48,259350,1,8,0:0:0:0:
96,120,259434,6,0,P|76:192|112:268,1,150,0|2,0:0|0:0,0:0:0:0:
240,328,259940,1,8,0:0:0:0:
240,328,260108,2,0,L|296:316,1,50,0|2,0:0|0:0,0:0:0:0:
436,288,260445,1,2,0:0:0:0:
336,180,260698,1,0,0:0:0:0:
288,320,260951,2,0,P|320:364|376:372,1,100,8|0,0:0|0:0,0:0:0:0:
360,300,261203,1,2,0:0:0:0:
120,292,261456,6,0,P|92:248|120:144,1,150,2|2,0:0|0:0,0:0:0:0:
256,216,261962,2,0,P|304:224|352:184,1,100,8|0,0:0|0:0,0:0:0:0:
372,132,262214,2,0,L|392:256,1,100,2|0,0:0|0:0,0:0:0:0:
360,300,262467,2,0,P|428:296|460:224,1,150,2|2,0:0|0:0,0:0:0:0:
400,32,262973,2,0,P|344:24|300:48,1,100,8|0,0:0|0:0,0:0:0:0:
264,104,263225,2,0,P|196:120|132:60,1,150,2|2,0:0|0:0,0:0:0:0:
360,100,263731,5,2,0:0:0:0:
360,100,263983,2,0,L|376:204,1,100,8|2,0:0|0:0,0:0:0:0:
256,368,264489,1,2,0:0:0:0:
164,248,264742,2,0,L|179:149,1,100,2|0,0:0|0:0,0:0:0:0:
232,96,264994,2,0,P|188:76|132:92,1,100,8|0,0:0|0:0,0:0:0:0:
100,152,265247,1,2,0:0:0:0:
152,372,265500,6,0,P|208:372|264:296,1,150,2|2,0:0|0:0,0:0:0:0:
260,184,265921,1,0,0:0:0:0:
260,184,266005,2,0,L|380:168,1,100,8|0,0:0|0:0,0:0:0:0:
432,188,266258,2,0,P|428:136|392:104,1,100,2|0,0:0|0:0,0:0:0:0:
360,171,266511,2,0,P|362:219|397:253,1,100,2|0,0:0|0:0,0:0:0:0:
472,276,266764,1,2,0:0:0:0:
369,95,267016,2,0,P|320:104|284:152,1,100,8|0,0:0|0:0,0:0:0:0:
256,208,267269,2,0,L|216:112,1,100,2|0,0:0|0:0,0:0:0:0:
184,48,267522,5,2,0:0:0:0:
180,232,267775,2,0,P|236:288|312:264,1,150,2|8,0:0|0:0,0:0:0:0:
364,176,268196,2,0,L|416:168,1,50,0|2,0:0|0:0,0:0:0:0:
496,304,268533,1,2,0:0:0:0:
413,169,268786,2,0,P|404:120|424:72,1,100,2|0,0:0|0:0,0:0:0:0:
476,20,269038,2,0,L|368:20,1,100,8|0,0:0|0:0,0:0:0:0:
304,36,269291,1,2,0:0:0:0:
148,168,269544,6,0,P|212:200|288:160,1,150,2|2,0:0|0:0,0:0:0:0:
152,84,270049,2,0,P|100:92|68:128,1,100,8|0,0:0|0:0,0:0:0:0:
68,200,270302,2,0,L|64:312,1,100,2|0,0:0|0:0,0:0:0:0:
60,376,270555,2,0,P|116:360|136:272,1,150,2|2,0:0|0:0,0:0:0:0:
40,124,271060,2,0,P|88:120|140:164,1,100,8|0,0:0|0:0,0:0:0:0:
176,208,271313,2,0,P|216:220|268:200,1,100,2|0,0:0|0:0,0:0:0:0:
308,136,271566,5,2,0:0:0:0:
96,40,271818,1,2,0:0:0:0:
216,140,272071,1,8,0:0:0:0:
256,48,272240,2,0,L|320:36,1,50,0|2,0:0|0:0,0:0:0:0:
472,192,272577,1,2,0:0:0:0:
332,340,272829,2,0,L|216:352,1,100,2|0,0:0|0:0,0:0:0:0:
156,352,273082,2,0,P|116:316|112:264,1,100,8|0,0:0|0:0,0:0:0:0:
184,284,273335,1,2,0:0:0:0:
20,200,273588,6,0,P|72:156|152:160,1,150,2|2,0:0|0:0,0:0:0:0:
256,312,274093,2,0,P|304:308|340:268,1,100,8|0,0:0|0:0,0:0:0:0:
272,240,274346,1,2,0:0:0:0:
396,356,274598,2,0,P|432:292|420:220,1,150,2|2,0:0|0:0,0:0:0:0:
295,103,275104,2,0,P|259:167|271:239,1,150,8|2,0:0|0:0,0:0:0:0:
312,344,275525,1,0,0:0:0:0:
312,344,275609,6,0,P|232:352|180:296,1,150,4|2,0:0|0:0,0:0:0:0:
80,164,276115,2,0,P|124:136|184:144,1,100,8|0,0:0|0:0,0:0:0:0:
256,348,276620,1,2,0:0:0:0:
368,248,276873,2,0,P|384:196|364:144,1,100,2|0,0:0|0:0,0:0:0:0:
320,92,277126,2,0,P|372:76|424:96,1,100,8|0,0:0|0:0,0:0:0:0:
456,152,277379,1,2,0:0:0:0:
428,296,277631,6,0,P|356:324|300:280,1,150,2|2,0:0|0:0,0:0:0:0:
256,140,278053,1,0,0:0:0:0:
256,140,278137,2,0,P|204:136|164:164,1,100,8|0,0:0|0:0,0:0:0:0:
148,236,278390,2,0,L|136:336,1,100,2|0,0:0|0:0,0:0:0:0:
64,356,278642,2,0,L|84:184,1,150,2|2,0:0|0:0,0:0:0:0:
188,64,279148,2,0,L|300:52,1,100,8|0,0:0|0:0,0:0:0:0:
364,44,279401,2,0,P|356:96|260:128,1,150,2|2,0:0|0:0,0:0:0:0:
116,32,279906,5,2,0:0:0:0:
28,192,280159,1,8,0:0:0:0:
124,152,280327,2,0,L|192:144,1,50,0|2,0:0|0:0,0:0:0:0:
316,224,280580,2,0,L|248:232,1,50,0|2,0:0|0:0,0:0:0:0:
144,332,280833,2,0,L|212:324,1,50,0|2,0:0|0:0,0:0:0:0:
440,224,281170,2,0,P|460:172|440:116,1,100,8|0,0:0|0:0,0:0:0:0:
400,72,281422,1,2,0:0:0:0:
368,276,281675,6,0,P|416:308|504:276,1,150,2|2,0:0|0:0,0:0:0:0:
384,168,282096,1,0,0:0:0:0:
384,168,282181,2,0,L|280:160,1,100,8|0,0:0|0:0,0:0:0:0:
212,152,282433,1,2,0:0:0:0:
160,288,282602,1,0,0:0:0:0:
232,278,282686,2,0,P|288:232|284:160,1,150,2|2,0:0|0:0,0:0:0:0:
96,64,283192,2,0,L|80:168,1,100,8|0,0:0|0:0,0:0:0:0:
24,212,283444,2,0,P|88:236|152:184,1,150,2|2,0:0|0:0,0:0:0:0:
256,28,283950,5,2,0:0:0:0:
362,191,284203,1,8,0:0:0:0:
256,160,284371,2,0,L|192:156,1,50,0|2,0:0|0:0,0:0:0:0:
256,284,284624,2,0,L|320:288,1,50,0|2,0:0|0:0,0:0:0:0:
362,191,284876,1,0,0:0:0:0:
362,191,284961,2,0,P|364:136|340:96,1,100,2|0,0:0|0:0,0:0:0:0:
268,84,285213,2,0,P|216:92|176:64,1,100,8|0,0:0|0:0,0:0:0:0:
232,16,285466,1,2,0:0:0:0:
188,228,285719,6,0,L|164:376,1,150,2|2,0:0|0:0,0:0:0:0:
304,344,286140,1,0,0:0:0:0:
304,344,286224,2,0,L|320:228,1,100,8|0,0:0|0:0,0:0:0:0:
328,172,286477,2,0,P|372:188|396:248,1,100,2|0,0:0|0:0,0:0:0:0:
408,308,286730,2,0,P|464:264|456:184,1,150,2|2,0:0|0:0,0:0:0:0:
392,72,287151,2,0,L|332:68,1,50,0|8,0:0|0:0,0:0:0:0:
104,56,287488,2,0,P|84:112|100:160,1,100,2|0,0:0|0:0,0:0:0:0:
148,204,287741,5,2,0:0:0:0:
352,152,287994,1,2,0:0:0:0:
256,304,288246,1,8,0:0:0:0:
256,196,288415,2,0,L|244:124,1,50,0|2,0:0|0:0,0:0:0:0:
328,28,288668,2,0,L|340:100,1,50,0|2,0:0|0:0,0:0:0:0:
332,228,288920,1,0,0:0:0:0:
332,228,289005,2,0,P|376:228|424:184,1,100,2|0,0:0|0:0,0:0:0:0:
468,140,289257,2,0,L|480:252,1,100,8|0,0:0|0:0,0:0:0:0:
488,316,289510,1,2,0:0:0:0:
328,368,289763,6,0,B|228:372|228:372|192:336,1,150,2|2,0:0|0:0,0:0:0:0:
108,240,290268,2,0,B|208:236|208:236|244:272,1,150,8|2,0:0|0:0,0:0:0:0:
328,368,290689,1,0,0:0:0:0:
328,368,290774,2,0,P|364:328|360:232,1,150,2|2,0:0|0:0,0:0:0:0:
256,108,291279,1,8,0:0:0:0:
256,108,291532,6,0,L|356:124,1,100,8|8,0:0|0:0,0:0:0:0:
436,80,291785,5,4,0:0:0:0:
168,52,292037,1,2,0:0:0:0:
160,76,292122,1,0,0:0:0:0:
152,100,292206,1,0,0:0:0:0:
144,124,292290,2,0,L|164:224,1,100,8|0,0:0|0:0,0:0:0:0:
128,312,292543,1,2,0:0:0:0:
368,152,292796,6,0,B|316:164|316:164|260:244,1,150,2|2,0:0|0:0,0:0:0:0:
264,340,293175,1,0,0:0:0:0:
356,372,293301,2,0,B|408:360|408:360|464:280,1,150,8|2,0:0|0:0,0:0:0:0:
290,92,293807,2,0,L|142:124,1,150,2|2,0:0|0:0,0:0:0:0:
76,52,294186,2,0,L|149:37,1,75,0|8,0:0|0:0,0:0:0:0:
384,320,294818,6,0,L|236:352,1,150,2|2,0:0|0:0,0:0:0:0:
156,296,295197,1,0,0:0:0:0:
88,224,295323,2,0,L|234:192,1,150,8|2,0:0|0:0,0:0:0:0:
316,244,295702,1,0,0:0:0:0:
392,184,295828,2,0,B|328:44|328:44|384:88,1,225,2|0,0:0|0:0,0:0:0:0:
492,184,296334,1,8,0:0:0:0:
301,339,296587,5,2,0:0:0:0:
136,60,296839,2,0,P|216:56|272:92,1,150,2|2,0:0|0:0,0:0:0:0:
224,280,297345,2,0,P|144:284|88:248,1,150,8|2,0:0|0:0,0:0:0:0:
340,36,297850,2,0,P|352:140|252:180,1,225,2|0,0:0|0:0,0:0:0:0:
204,96,298356,1,8,0:0:0:0:
204,96,298861,5,2,0:0:0:0:
256,308,299114,1,2,0:0:0:0:
340,36,299367,1,8,0:0:0:0:
124,192,299620,1,2,0:0:0:0:
216,224,299746,1,0,0:0:0:0:
288,160,299872,2,0,B|364:128|448:160|448:160|420:168|400:196,1,225,2|0,0:0|0:0,0:0:0:0:
384,292,300378,1,8,0:0:0:0:
204,96,300883,6,0,P|124:92|68:128,1,150,2|2,0:0|0:0,0:0:0:0:
44,224,301262,1,0,0:0:0:0:
112,296,301389,2,0,P|192:300|248:264,1,150,8|2,0:0|0:0,0:0:0:0:
344,40,301894,2,0,L|372:188,1,150,2|2,0:0|0:0,0:0:0:0:
456,240,302273,1,0,0:0:0:0:
460,144,302400,1,8,0:0:0:0:
168,344,302905,6,0,L|140:196,1,150,2|2,0:0|0:0,0:0:0:0:
56,144,303284,1,0,0:0:0:0:
52,240,303411,1,8,0:0:0:0:
256,96,303663,1,2,0:0:0:0:
456,240,303916,2,0,L|308:216,1,150,2|2,0:0|0:0,0:0:0:0:
228,160,304295,1,0,0:0:0:0:
316,120,304422,1,8,0:0:0:0:
20,368,304927,6,0,L|168:344,1,150,2|2,0:0|0:0,0:0:0:0:
196,252,305306,1,0,0:0:0:0:
228,160,305433,2,0,L|376:184,1,150,8|2,0:0|0:0,0:0:0:0:
132,176,305938,2,0,B|96:108|116:28|116:28|140:60|180:68,1,225,2|0,0:0|0:0,0:0:0:0:
264,28,306443,1,8,0:0:0:0:
264,28,306949,5,2,0:0:0:0:
196,252,307202,1,2,0:0:0:0:
316,120,307454,1,2,0:0:0:0:
132,176,307707,1,2,0:0:0:0:
196,252,307834,1,0,0:0:0:0:
284,212,307960,5,6,0:0:0:0:
64,88,308213,1,2,0:0:0:0:
56,112,308298,1,0,0:0:0:0:
48,136,308382,1,0,0:0:0:0:
40,160,308466,2,0,L|60:260,1,100,8|0,0:0|0:0,0:0:0:0:
36,344,308718,1,2,0:0:0:0:
207,203,308971,6,0,L|195:255,2,50,2|0|0,0:0|0:0|0:0,0:0:0:0:
224,184,309224,2,0,P|268:168|324:168,1,100,2|0,0:0|0:0,0:0:0:0:
384,224,309476,2,0,P|424:220|460:208,1,75,8|0,0:0|0:0,0:0:0:0:
444,84,309729,2,0,P|404:88|368:100,1,75,2|0,0:0|0:0,0:0:0:0:
300,248,309982,5,2,0:0:0:0:
208,72,310235,2,0,L|220:20,2,50,2|0|0,0:0|0:0|0:0,0:0:0:0:
191,91,310488,2,0,P|147:107|91:107,1,100,8|0,0:0|0:0,0:0:0:0:
28,48,310740,1,2,0:0:0:0:
224,184,310993,5,2,0:0:0:0:
236,206,311078,1,0,0:0:0:0:
247,229,311162,1,0,0:0:0:0:
258,251,311246,2,0,L|356:284,1,100,2|0,0:0|0:0,0:0:0:0:
404,212,311498,2,0,L|332:188,1,75,8|0,0:0|0:0,0:0:0:0:
204,320,311751,2,0,L|276:344,1,75,2|0,0:0|0:0,0:0:0:0:
444,296,312004,5,2,0:0:0:0:
260,26,312256,2,0,L|208:14,2,50,2|0|0,0:0|0:0|0:0,0:0:0:0:
279,43,312509,2,0,P|295:87|295:143,1,100,8|0,0:0|0:0,0:0:0:0:
236,206,312761,1,2,0:0:0:0:
444,296,313015,6,0,L|496:284,2,50,2|0|0,0:0|0:0|0:0,0:0:0:0:
420,304,313268,2,0,P|376:288|320:288,1,100,2|0,0:0|0:0,0:0:0:0:
244,332,313520,2,0,L|168:320,1,75,8|0,0:0|0:0,0:0:0:0:
40,164,313773,1,2,0:0:0:0:
136,184,313899,1,0,0:0:0:0:
236,206,314026,5,2,0:0:0:0:
484,148,314278,1,2,0:0:0:0:
460,140,314363,1,0,0:0:0:0:
436,132,314447,1,0,0:0:0:0:
412,124,314531,2,0,L|312:144,1,100,8|0,0:0|0:0,0:0:0:0:
224,108,314784,1,2,0:0:0:0:
224,108,315037,5,0,0:0:0:0:
244,332,315289,1,2,0:0:0:0:
328,44,315542,1,8,0:0:0:0:
136,184,315795,1,2,0:0:0:0:
216,240,315921,1,0,0:0:0:0:
244,332,316048,5,6,0:0:0:0:
53,112,316300,1,2,0:0:0:0:
77,104,316385,1,0,0:0:0:0:
100,96,316469,1,0,0:0:0:0:
125,88,316553,2,0,L|224:108,1,100,8|0,0:0|0:0,0:0:0:0:
292,48,316806,1,2,0:0:0:0:
244,332,317058,6,0,L|192:344,2,50,2|0|0,0:0|0:0|0:0,0:0:0:0:
263,315,317311,2,0,P|279:271|279:215,1,100,2|0,0:0|0:0,0:0:0:0:
212,160,317563,2,0,P|172:164|136:176,1,75,8|0,0:0|0:0,0:0:0:0:
68,312,317816,2,0,P|108:308|144:296,1,75,2|0,0:0|0:0,0:0:0:0:
296,132,318069,5,2,0:0:0:0:
68,312,318322,2,0,L|56:364,2,50,2|0|0,0:0|0:0|0:0,0:0:0:0:
80,288,318575,2,0,P|124:272|180:272,1,100,8|0,0:0|0:0,0:0:0:0:
244,332,318828,1,2,0:0:0:0:
424,230,319080,5,2,0:0:0:0:
412,208,319165,1,0,0:0:0:0:
401,185,319249,1,0,0:0:0:0:
390,163,319333,2,0,L|296:132,1,100,2|0,0:0|0:0,0:0:0:0:
212,160,319586,2,0,L|248:226,1,75,8|0,0:0|0:0,0:0:0:0:
372,304,319839,2,0,L|336:238,1,75,2|0,0:0|0:0,0:0:0:0:
168,84,320091,5,2,0:0:0:0:
372,304,320344,2,0,L|396:348,2,50,2|0|0,0:0|0:0|0:0,0:0:0:0:
352,288,320597,2,0,P|308:272|252:272,1,100,8|0,0:0|0:0,0:0:0:0:
189,331,320849,1,2,0:0:0:0:
51,116,321102,6,0,L|27:160,2,50,2|0|0,0:0|0:0|0:0,0:0:0:0:
71,100,321355,2,0,P|115:84|171:84,1,100,2|0,0:0|0:0,0:0:0:0:
224,152,321607,2,0,P|186:164|144:164,1,75,8|0,0:0|0:0,0:0:0:0:
168,0,321860,2,0,P|206:9|242:30,1,75,2|0,0:0|0:0,0:0:0:0:
288,212,322113,5,2,0:0:0:0:
436,24,322365,1,2,0:0:0:0:
428,48,322450,1,0,0:0:0:0:
420,72,322534,1,0,0:0:0:0:
412,96,322618,2,0,L|432:196,1,100,8|0,0:0|0:0,0:0:0:0:
396,284,322871,1,2,0:0:0:0:
396,284,323124,5,2,0:0:0:0:
235,61,323376,1,8,0:0:0:0:
288,332,323630,1,8,0:0:0:0:
312,124,323882,1,2,0:0:0:0:
219,149,324009,1,2,0:0:0:0:
149,92,324135,6,0,B|92:79|92:79|54:95|54:95|-11:79,1,150,2|2,0:0|0:0,0:0:0:0:
49,4,324514,1,0,0:0:0:0:
140,184,324641,1,8,0:0:0:0:
210,241,324767,1,0,0:0:0:0:
294,209,324893,2,0,B|351:222|351:222|389:206|389:206|454:222,2,150,2|2|2,0:0|0:0|0:0,0:0:0:0:
224,152,325525,1,0,0:0:0:0:
140,184,325652,2,0,P|137:138|152:97,1,75,8|0,0:0|0:0,0:0:0:0:
294,209,325904,2,0,P|297:255|282:296,1,75,2|0,0:0|0:0,0:0:0:0:
64,239,326157,6,0,B|135:208|135:268|210:241,1,150,2|2,0:0|0:0,0:0:0:0:
294,209,326536,1,0,0:0:0:0:
357,145,326663,2,0,P|365:108|361:71,1,75,8|0,0:0|0:0,0:0:0:0:
144,110,326915,2,0,P|136:146|140:184,1,75,2|0,0:0|0:0,0:0:0:0:
294,209,327168,2,0,L|456:186,1,150,2|0,0:0|0:0,0:0:0:0:
506,251,327547,1,0,0:0:0:0:
506,251,327673,2,0,L|357:272,1,150,8|2,0:0|0:0,0:0:0:0:
269,295,328053,1,0,0:0:0:0:
73,221,328179,6,0,P|141:195|206:230,1,150,2|2,0:0|0:0,0:0:0:0:
136,290,328558,1,0,0:0:0:0:
46,133,328684,1,8,0:0:0:0:
144,110,328853,1,0,0:0:0:0:
144,110,328937,2,0,P|170:60|170:28,1,75,2|0,0:0|0:0,0:0:0:0:
160,199,329190,2,0,L|239:183,1,75,2|0,0:0|0:0,0:0:0:0:
302,126,329443,2,0,P|305:80|296:51,1,75,2|0,0:0|0:0,0:0:0:0:
233,184,329695,2,0,P|225:231|241:289,1,100,8|0,0:0|0:0,0:0:0:0:
429,193,330201,6,0,P|441:113|429:38,1,150,2|2,0:0|0:0,0:0:0:0:
340,45,330580,1,0,0:0:0:0:
302,126,330706,2,0,P|264:89|254:58,1,75,8|0,0:0|0:0,0:0:0:0:
340,208,330959,2,0,P|302:210|268:196,1,75,2|0,0:0|0:0,0:0:0:0:
61,249,331212,2,0,P|134:235|204:260,1,150,2|2,0:0|0:0,0:0:0:0:
256,333,331591,1,0,0:0:0:0:
450,249,331717,2,0,P|377:235|307:260,1,150,8|2,0:0|0:0,0:0:0:0:
256,333,332096,1,0,0:0:0:0:
256,186,332223,6,0,P|272:120|256:32,1,150,2|2,0:0|0:0,0:0:0:0:
172,12,332602,1,0,0:0:0:0:
340,208,332728,2,0,L|414:175,1,75,8|0,0:0|0:0,0:0:0:0:
203,259,332981,2,0,L|129:226,1,75,2|0,0:0|0:0,0:0:0:0:
338,297,333234,2,0,P|392:285|487:309,1,150,2|2,0:0|0:0,0:0:0:0:
256,333,333613,1,0,0:0:0:0:
203,259,333739,2,0,P|149:247|54:271,1,150,8|2,0:0|0:0,0:0:0:0:
2,339,334118,1,0,0:0:0:0:
58,178,334245,6,0,P|65:139|61:97,1,75,2|0,0:0|0:0,0:0:0:0:
25,22,334497,1,2,0:0:0:0:
152,103,334624,1,0,0:0:0:0:
152,103,334750,2,0,B|208:110|208:110|253:93|253:93|316:100,1,150,8|2,0:0|0:0,0:0:0:0:
387,112,335129,1,0,0:0:0:0:
469,74,335256,2,0,P|487:35|491:-5,1,75,2|0,0:0|0:0,0:0:0:0:
330,182,335508,2,0,P|312:221|308:261,1,75,2|0,0:0|0:0,0:0:0:0:
512,310,335761,2,0,P|441:293|371:316,1,150,8|2,0:0|0:0,0:0:0:0:
256,357,336182,5,0,0:0:0:0:
256,357,336267,2,0,P|239:286|262:216,1,150,2|2,0:0|0:0,0:0:0:0:
318,143,336646,1,0,0:0:0:0:
181,174,336772,2,0,B|125:181|125:181|80:164|80:164|17:171,1,150,8|2,0:0|0:0,0:0:0:0:
237,104,337278,2,0,P|243:51|231:10,1,75,2|0,0:0|0:0,0:0:0:0:
156,64,337530,1,2,0:0:0:0:
262,214,337657,1,0,0:0:0:0:
406,154,337783,2,0,L|490:146,1,75,8|0,0:0|0:0,0:0:0:0:
106,230,338288,6,0,L|22:238,1,75,2|0,0:0|0:0,0:0:0:0:
189,265,338541,1,2,0:0:0:0:
262,214,338668,1,0,0:0:0:0:
351,225,338794,1,8,0:0:0:0:
406,154,338920,2,0,L|398:70,1,75,2|2,0:0|0:0,0:0:0:0:
106,230,339173,1,0,0:0:0:0:
106,230,339299,6,0,L|114:314,1,75,2|0,0:0|0:0,0:0:0:0:
187,356,339552,1,2,0:0:0:0:
406,154,339679,1,0,0:0:0:0:
406,154,339805,6,0,L|398:70,1,75,8|0,0:0|0:0,0:0:0:0:
325,28,340058,1,2,0:0:0:0:
256,86,340184,1,0,0:0:0:0:
304,180,340310,5,6,0:0:0:0:
418,288,340563,1,2,0:0:0:0:
394,280,340648,1,0,0:0:0:0:
370,272,340732,1,0,0:0:0:0:
346,264,340816,2,0,L|246:284,1,100,8|0,0:0|0:0,0:0:0:0:
106,230,341068,1,2,0:0:0:0:
356,120,341321,6,0,P|396:160|408:224,1,100,2|0,0:0|0:0,0:0:0:0:
248,284,341574,2,0,P|199:292|152:276,1,100,2|0,0:0|0:0,0:0:0:0:
312,196,341827,2,0,P|364:188|416:216,1,100,8|0,0:0|0:0,0:0:0:0:
512,280,342080,1,2,0:0:0:0:
358,120,342332,5,2,0:0:0:0:
334,112,342417,1,0,0:0:0:0:
310,104,342501,1,0,0:0:0:0:
286,96,342585,2,0,L|218:96,1,50,2|0,0:0|0:0,0:0:0:0:
158,176,342753,2,0,L|208:176,1,50,2|8,0:0|0:0,0:0:0:0:
406,206,343006,1,0,0:0:0:0:
348,336,343090,1,2,0:0:0:0:
158,176,343343,2,0,P|150:124|182:56,1,100,2|0,0:0|0:0,0:0:0:0:
104,264,343596,2,0,P|80:305|16:337,1,100,2|0,0:0|0:0,0:0:0:0:
176,348,343849,1,8,0:0:0:0:
52,168,344101,1,2,0:0:0:0:
264,144,344354,6,0,P|320:144|376:120,1,100,2|0,0:0|0:0,0:0:0:0:
180,203,344607,2,0,P|131:211|88:236,1,100,2|0,0:0|0:0,0:0:0:0:
36,352,344860,1,8,0:0:0:0:
180,203,345112,2,0,L|160:143,2,50,2|0|0,0:0|0:0|0:0,0:0:0:0:
264,348,345365,2,0,P|316:312|388:304,1,100,2|0,0:0|0:0,0:0:0:0:
312,180,345618,2,0,P|368:168|435:123,1,100,2|0,0:0|0:0,0:0:0:0:
472,352,345871,2,0,L|460:240,1,100,8|0,0:0|0:0,0:0:0:0:
416,140,346123,1,2,0:0:0:0:
220,40,346376,6,0,P|200:88|208:144,1,100,2|0,0:0|0:0,0:0:0:0:
283,263,346629,2,0,P|231:243|175:235,1,100,2|0,0:0|0:0,0:0:0:0:
40,228,346882,1,8,0:0:0:0:
204,352,347050,1,0,0:0:0:0:
180,236,347134,1,2,0:0:0:0:
220,40,347387,2,0,P|232:94|264:152,1,100,2|0,0:0|0:0,0:0:0:0:
172,236,347640,2,0,P|156:188|108:132,1,100,2|0,0:0|0:0,0:0:0:0:
32,348,347893,2,0,P|84:322|132:316,1,100,8|0,0:0|0:0,0:0:0:0:
290,304,348145,2,0,P|253:332|162:355,1,100,2|0,0:0|0:0,0:0:0:0:
127,148,348398,6,0,P|112:96|64:36,1,100,2|0,0:0|0:0,0:0:0:0:
251,133,348651,2,0,P|271:173|335:217,1,100,2|0,0:0|0:0,0:0:0:0:
448,252,348903,1,8,0:0:0:0:
360,88,349072,1,0,0:0:0:0:
312,208,349156,1,2,0:0:0:0:
480,346,349409,2,0,L|444:242,1,100,2|0,0:0|0:0,0:0:0:0:
348,352,349662,1,2,0:0:0:0:
40,242,349914,2,0,L|76:346,1,100,8|0,0:0|0:0,0:0:0:0:
172,236,350167,1,2,0:0:0:0:
320,108,350420,6,0,P|272:112|216:156,1,100,2|0,0:0|0:0,0:0:0:0:
316,308,350673,2,0,P|328:252|312:196,1,100,2|0,0:0|0:0,0:0:0:0:
224,144,350925,1,8,0:0:0:0:
4,335,351178,2,0,L|44:231,1,100,2|0,0:0|0:0,0:0:0:0:
172,236,351431,2,0,P|164:268|144:304,2,50,2|0|0,0:0|0:0|0:0,0:0:0:0:
224,144,351684,2,0,P|212:116|204:84,2,50,2|0|0,0:0|0:0|0:0,0:0:0:0:
280,272,351936,1,8,0:0:0:0:
380,132,352105,1,0,0:0:0:0:
392,152,352189,1,2,0:0:0:0:
404,172,352273,1,0,0:0:0:0:
416,196,352358,1,0,0:0:0:0:
428,216,352442,6,0,P|396:256|348:296,1,100,2|0,0:0|0:0,0:0:0:0:
176,272,352695,2,0,P|216:236|268:216,1,100,2|0,0:0|0:0,0:0:0:0:
220,352,352947,1,8,0:0:0:0:
56,340,353116,2,0,L|33:295,1,50,0|2,0:0|0:0,0:0:0:0:
76,76,353453,2,0,P|80:120|104:172,1,100,2|0,0:0|0:0,0:0:0:0:
208,220,353705,2,0,L|340:188,1,100,2|0,0:0|0:0,0:0:0:0:
20,208,353958,2,0,P|72:188|116:180,1,100,8|0,0:0|0:0,0:0:0:0:
224,236,354211,2,0,L|356:204,1,100,2|0,0:0|0:0,0:0:0:0:
420,120,354464,6,0,P|456:160|468:240,1,100,2|0,0:0|0:0,0:0:0:0:
332,320,354716,2,0,P|324:276|348:208,1,100,2|0,0:0|0:0,0:0:0:0:
412,112,354969,1,8,0:0:0:0:
332,320,355222,2,0,P|284:332|227:323,1,100,2|0,0:0|0:0,0:0:0:0:
128,156,355475,2,0,P|160:200|172:260,1,100,2|0,0:0|0:0,0:0:0:0:
80,348,355727,1,8,0:0:0:0:
248,144,355980,1,8,0:0:0:0:
332,320,356233,1,8,0:0:0:0:
20,208,356486,1,4,0:0:0:0:
