osu file format v14

[General]
AudioFilename: audio.mp3
AudioLeadIn: 0
PreviewTime: 238295
Countdown: 0
SampleSet: Drum
StackLeniency: 0.2
Mode: 0
LetterboxInBreaks: 0
WidescreenStoryboard: 1

[Editor]
Bookmarks: 15,55,95,136,176,216,257,297,337,378,418,458,499,539,579,620,10902,21224,41869,82353,124450,145095,166386,185579,206869,227676,268966,298482,310257,343926,344006,344087,344168,344248,344329,344410,344490,344571,344652,344732,344813,344894,344974,345055,345135,345216,345297,345377,345458,345539,345619,345700,345781,345861,345942,346023,346103,346184,346265,346345,346426,346506,346587,346668,346748,346829,346910,346990,347071,347152,347232,347313,347394,347474,347555,347635,347716,347797,347877,347958,348039,348119,348200,348281,348361,348442,348523,348603,348684,348765
DistanceSpacing: 2.2
BeatDivisor: 4
GridSize: 32
TimelineZoom: 8

[Metadata]
Title:Tiny Little Adiantum
TitleUnicode:タイニーリトル・アジアンタム
Artist:Shibayan feat. 3L
ArtistUnicode:Shibayan feat. 3L
Creator:kelinimo
Version:Sweet Romance
Source:東方花映塚 ~ Phantasmagoria of Flower View.
Tags:Touhou 9 kazami yuuka video game japanese elevator music ShibayanRecords milka 3L 今昔幻想郷 ~ Flower Land Gensokyo Past and Present ~ wenect wenet Kaeizuka toho bossa nova 2 swing jazz theme 風見 幽香 j-pop jpop pop th9
BeatmapID:3403189
BeatmapSetID:1464714

[Difficulty]
HPDrainRate:4.5
CircleSize:4.5
OverallDifficulty:8.2
ApproachRate:9
SliderMultiplier:1.9
SliderTickRate:1

[Events]
//Background and Video events
0,0,"bg.jpg",0,0
//Break Periods
//Storyboard Layer 0 (Background)
//Storyboard Layer 1 (Fail)
//Storyboard Layer 2 (Pass)
//Storyboard Layer 3 (Foreground)
//Storyboard Layer 4 (Overlay)
//Storyboard Sound Samples

[TimingPoints]
620,322.58064516129,4,3,1,45,1,0
620,-161.290322580645,4,3,1,45,0,0
10942,-98.2516705977524,4,3,1,45,0,0
11183,-98.2516705977524,4,3,1,5,0,0
11265,-98.2516705977524,4,3,1,45,0,0
13281,-98.2516705977524,4,3,1,5,0,0
13361,-196.078431372549,4,3,1,45,0,0
13442,-196.078431372549,4,3,1,5,0,0
13523,-122.280123409522,4,3,1,45,0,0
13765,-122.280123409522,4,3,1,5,0,0
13845,-122.280123409522,4,3,1,45,0,0
15136,-98.2516705977523,4,3,1,45,0,0
15378,-98.2516705977523,4,3,1,5,0,0
15458,-98.2516705977523,4,3,1,45,0,0
15539,-98.2516705977523,4,3,1,5,0,0
15619,-193.126847732956,4,3,1,45,0,0
15861,-98.2516705977523,4,3,1,5,0,0
15942,-98.2516705977523,4,3,1,45,0,0
16345,-98.2516705977523,4,3,1,5,0,0
16426,-98.2516705977523,4,3,1,45,0,0
19732,-98.2516705977523,4,3,1,5,0,0
19813,-98.2516705977523,4,3,1,45,0,0
21265,-138.888888888889,4,3,1,60,0,0
21507,-138.888888888889,4,3,1,5,0,0
21587,-81.9672131147541,4,3,1,60,0,0
22071,-161.290322580645,4,3,1,60,0,0
22555,-131.578947368421,4,3,1,60,0,0
22877,-81.9672131147541,4,3,1,60,0,0
23361,-161.290322580645,4,3,1,60,0,0
23845,-241.82002083094,4,3,1,60,0,0
24087,-241.82002083094,4,3,1,5,0,0
24168,-81.9672131147541,4,3,1,60,0,0
24652,-121.117125775692,4,3,1,60,0,0
24894,-121.117125775692,4,3,1,5,0,0
24974,-121.117125775692,4,3,1,60,0,0
25136,-81.9672131147541,4,3,1,60,0,0
25216,-81.9672131147541,4,3,1,5,0,0
25297,-81.9672131147541,4,3,1,60,0,0
25378,-81.9672131147541,4,3,1,5,0,0
25458,-81.8663816504758,4,3,1,60,0,0
25942,-100.463521670569,4,3,1,60,0,0
26426,-373.352802980488,4,3,1,60,0,0
26668,-373.352802980488,4,3,1,5,0,0
26749,-81.9672131147541,4,3,1,60,0,0
27232,-161.290322580645,4,3,1,60,0,0
28039,-81.9672131147541,4,3,1,60,0,0
28522,-161.290322580645,4,3,1,60,0,0
29007,-81.9672131147541,4,3,1,60,0,0
29813,-102.567661884629,4,3,1,60,0,0
30297,-98.0392156862745,4,3,1,60,0,0
31103,-126.954434155382,4,3,1,60,0,0
31587,-192.307692307692,4,3,1,60,0,0
31829,-192.307692307692,4,3,1,5,0,0
31910,-81.9672131147541,4,3,1,60,0,0
32394,-161.290322580645,4,3,1,60,0,0
33200,-81.9672131147541,4,3,1,60,0,0
33684,-161.290322580645,4,3,1,60,0,0
34168,-454.545454545455,4,3,1,60,0,0
34410,-454.545454545455,4,3,1,5,0,0
34490,-81.9672131147541,4,3,1,60,0,0
34974,-121.768045619472,4,3,1,60,0,0
35216,-121.768045619472,4,3,1,5,0,0
35297,-121.768045619472,4,3,1,60,0,0
35458,-81.8844216536762,4,3,1,60,0,0
35539,-81.8844216536762,4,3,1,5,0,0
35619,-81.8844216536762,4,3,1,60,0,0
35700,-81.8844216536762,4,3,1,5,0,0
35781,-81.8844216536762,4,3,1,60,0,0
36265,-97.9207973756141,4,3,1,60,0,0
36749,-311.300022052829,4,3,1,60,0,0
36990,-311.300022052829,4,3,1,5,0,0
37071,-81.9672131147541,4,3,1,60,0,0
37555,-161.290322580645,4,3,1,60,0,0
38361,-81.9672131147541,4,3,1,60,0,0
38845,-161.290322580645,4,3,1,60,0,0
39329,-81.9672131147541,4,3,1,60,0,0
40136,-98.0392156862745,4,3,1,60,0,0
41426,-121.951219512195,4,3,1,60,0,0
41910,-70.4225352112676,4,3,1,60,0,0
42151,-70.4225352112676,4,3,1,5,0,0
42232,-70.4225352112676,4,3,1,70,0,0
44007,-281.689992691475,4,3,1,70,0,0
44087,-281.689992691475,4,3,1,5,0,0
44168,-281.689869825613,4,3,1,70,0,0
44249,-281.689869825613,4,3,1,5,0,0
44329,-281.690042813198,4,3,1,70,0,0
44410,-281.690042813198,4,3,1,5,0,0
44490,-79.6812670564151,4,3,1,70,0,0
46426,-55.4729284255233,4,3,1,70,0,0
46749,-215.475901423004,4,3,1,70,0,0
46829,-215.475901423004,4,3,1,5,0,0
46910,-215.475904093123,4,3,1,70,0,0
46990,-215.475904093123,4,3,1,5,0,0
47071,-115.220028095447,4,3,1,70,0,0
47716,-55.1133739533427,4,3,1,70,0,0
48039,-136.052591499135,4,3,1,70,0,0
48119,-136.052591499135,4,3,1,5,0,0
48200,-136.052591499135,4,3,1,70,0,0
48281,-136.052591499135,4,3,1,5,0,0
48361,-96.6174344687297,4,3,1,70,0,0
49007,-69.6859309867217,4,3,1,70,0,0
49894,-69.6859309867217,4,3,1,5,0,0
49974,-69.6859309867217,4,3,1,70,0,0
50055,-69.6859309867217,4,3,1,5,0,0
50136,-57.0269452053826,4,3,1,70,0,0
50458,-57.0269452053826,4,3,1,70,0,0
50781,-75.3794283386883,4,3,1,70,0,0
51103,-97.4068452788793,4,3,1,70,0,0
51426,-120.974293944905,4,3,1,70,0,0
51910,-97.406845278879,4,3,1,70,0,0
52152,-97.406845278879,4,3,1,5,0,0
52232,-59.3411789084905,4,3,1,70,0,0
52474,-59.3411789084905,4,3,1,5,0,0
52555,-59.3411789084905,4,3,1,70,0,0
53200,-73.3366197816476,4,3,1,70,0,0
54249,-73.3366197816476,4,3,1,5,0,0
54329,-64.8056581940423,4,3,1,70,0,0
54571,-64.8056581940423,4,3,1,5,0,0
54652,-64.8056581940423,4,3,1,70,0,0
56426,-79.6106978701946,4,3,1,70,0,0
56749,-57.4770252842692,4,3,1,70,0,0
57071,-67.3568317965036,4,3,1,70,0,0
57152,-67.3568317965036,4,3,1,5,0,0
57232,-67.3568578598867,4,3,1,70,0,0
57313,-67.3568578598867,4,3,1,5,0,0
57394,-119.011178191909,4,3,1,70,0,0
58039,-56.4571521849484,4,3,1,70,0,0
58361,-113.521962259638,4,3,1,70,0,0
58442,-113.521962259638,4,3,1,5,0,0
58523,-113.845017909185,4,3,1,70,0,0
58603,-113.845017909185,4,3,1,5,0,0
58684,-99.5076792793889,4,3,1,70,0,0
59490,-71.4285714285714,4,3,1,70,0,0
59974,-71.4285714285714,4,3,1,70,0,0
60216,-71.4285714285714,4,3,1,5,0,0
60297,-71.4285714285714,4,3,1,70,0,0
60378,-71.4285714285714,4,3,1,5,0,0
60458,-88.4152447097756,4,3,1,70,0,0
61103,-92.8528744052748,4,3,1,70,0,0
61426,-107.497845336936,4,3,1,70,0,0
61749,-136.939178625931,4,3,1,70,0,0
62232,-97.4683573847719,4,3,1,70,0,0
62474,-97.4683573847719,4,3,1,5,0,0
62555,-59.1715976331361,4,3,1,70,0,0
62797,-59.1715976331361,4,3,1,5,0,0
62878,-59.1715976331361,4,3,1,70,0,0
63200,-71.1796083050048,4,3,1,70,0,0
63523,-73.914083878587,4,3,1,70,0,0
64571,-305.974397540395,4,3,1,5,0,0
64652,-300.182651287885,4,3,1,70,0,0
64732,-305.974397540395,4,3,1,5,0,0
64813,-300.182651287885,4,3,1,70,0,0
64894,-305.974397540395,4,3,1,5,0,0
64974,-305.974397540395,4,3,1,70,0,0
65055,-305.974397540395,4,3,1,5,0,0
65136,-305.974397540395,4,3,1,70,0,0
66749,-79.610700323268,4,3,1,70,0,0
67071,-53.3982302724261,4,3,1,70,0,0
67394,-106.796487455729,4,3,1,70,0,0
67474,-305.974397540395,4,3,1,5,0,0
67555,-106.796492111052,4,3,1,70,0,0
67636,-305.974397540395,4,3,1,5,0,0
67716,-96.6913008998822,4,3,1,70,0,0
68361,-57.0327743910023,4,3,1,70,0,0
68684,-61.4258548963224,4,3,1,70,0,0
68765,-305.974397540395,4,3,1,5,0,0
68845,-61.4258548963224,4,3,1,70,0,0
68926,-305.974397540395,4,3,1,5,0,0
69007,-96.6913008998823,4,3,1,70,0,0
69974,-454.545454545455,4,3,1,70,0,0
70216,-305.974397540395,4,3,1,70,0,0
70297,-69.1113708175397,4,3,1,70,0,0
70539,-305.974397540395,4,3,1,5,0,0
70619,-133.156751280642,4,3,1,70,0,0
70700,-305.974397540395,4,3,1,5,0,0
70781,-82.478002730498,4,3,1,70,0,0
71103,-82.392166683487,4,3,1,70,0,0
71426,-98.4962666794586,4,3,1,70,0,0
71749,-122.606605630943,4,3,1,70,0,0
72071,-117.179970453921,4,3,1,70,0,0
72878,-59.1715976331361,4,3,1,70,0,0
73119,-59.1715976331361,4,3,1,5,0,0
73200,-59.1715976331361,4,3,1,70,0,0
73523,-66.4612866216575,4,3,1,70,0,0
74652,-73.5117482094521,4,3,1,70,0,0
74894,-73.5117482094521,4,3,1,5,0,0
74974,-73.5117482094521,4,3,1,70,0,0
75700,-73.5117482094521,4,3,1,70,0,0
75781,-73.5117482094521,4,3,1,70,0,0
76023,-73.5117482094521,4,3,1,70,0,0
76103,-73.5117482094521,4,3,1,70,0,0
76184,-73.5117482094521,4,3,1,70,0,0
76265,-73.5117482094521,4,3,1,70,0,0
77071,-80.0136089954555,4,3,1,70,0,0
77394,-58.7020141994282,4,3,1,70,0,0
77716,-219.820697876481,4,3,1,70,0,0
77797,-219.820697876481,4,3,1,5,0,0
77878,-219.820697876481,4,3,1,70,0,0
77958,-219.820697876481,4,3,1,5,0,0
78039,-119.011178191909,4,3,1,70,0,0
78684,-50,4,3,1,70,0,0
79007,-62.7625561673093,4,3,1,70,0,0
79087,-62.7625561673093,4,3,1,5,0,0
79168,-62.762515907129,4,3,1,70,0,0
79249,-62.762515907129,4,3,1,5,0,0
79329,-97.6601267518948,4,3,1,70,0,0
79813,-117.748019084861,4,3,1,70,0,0
80136,-68.9655172413793,4,3,1,70,0,0
80378,-68.9655172413793,4,3,1,5,0,0
80458,-58.6322265883669,4,3,1,70,0,0
80539,-58.6322265883669,4,3,1,70,0,0
80619,-77.8257221756961,4,3,1,70,0,0
81103,-94.901378842173,4,3,1,70,0,0
81749,-307.692307692308,4,3,1,70,0,0
83200,-105.756718362777,4,3,1,70,0,0
83845,-97.8786084089229,4,3,1,70,0,0
86910,-60.014416851958,4,3,1,70,0,0
86990,-60.014416851958,4,3,1,5,0,0
87071,-60.014416851958,4,3,1,70,0,0
87152,-60.014416851958,4,3,1,5,0,0
87232,-60.014416851958,4,3,1,70,0,0
87313,-60.014416851958,4,3,1,5,0,0
87394,-98.0392156862745,4,3,1,70,0,0
87878,-121.951219512195,4,3,1,70,0,0
88361,-98.0392156862744,4,3,1,70,0,0
88845,-65.7285804952242,4,3,1,70,0,0
89168,-98.0392156862745,4,3,1,70,0,0
89652,-192.307692307692,4,3,1,70,0,0
90942,-96.8362599314063,4,3,1,70,0,0
91184,-96.8362599314063,4,3,1,5,0,0
91265,-96.8362599314063,4,3,1,70,0,0
91345,-96.8362599314063,4,3,1,5,0,0
91426,-158.060027601897,4,3,1,70,0,0
91668,-158.060027601897,4,3,1,5,0,0
91749,-231.122478155137,4,3,1,70,0,0
92071,-108.695652173913,4,3,1,70,0,0
92152,-81.9672131147541,4,3,1,5,0,0
92232,-81.9672131147541,4,3,1,70,0,0
93523,-98.0392156862745,4,3,1,70,0,0
97232,-59.8802395209581,4,3,1,70,0,0
97313,-59.8802395209581,4,3,1,5,0,0
97394,-59.8802395209581,4,3,1,70,0,0
97474,-59.8802395209581,4,3,1,5,0,0
97555,-59.8802395209581,4,3,1,70,0,0
97636,-59.8802395209581,4,3,1,5,0,0
97716,-98.0392156862745,4,3,1,70,0,0
98200,-145.281325472648,4,3,1,70,0,0
98684,-98.0392156862745,4,3,1,70,0,0
99974,-192.307692307692,4,3,1,70,0,0
100458,-81.9672131147541,4,3,1,70,0,0
100619,-98.0392156862745,4,3,1,70,0,0
100861,-98.0392156862745,4,3,1,5,0,0
100942,-81.9672131147541,4,3,1,70,0,0
101184,-81.9672131147541,4,3,1,70,0,0
101265,-98.0392156862745,4,3,1,70,0,0
101749,-81.9672131147541,4,3,1,70,0,0
102071,-161.290322580645,4,3,1,70,0,0
102394,-98.0392156862745,4,3,1,70,0,0
102716,-108.695652173913,4,3,1,70,0,0
103039,-138.888888888889,4,3,1,70,0,0
103361,-108.695652173913,4,3,1,70,0,0
103845,-98.0392156862745,4,3,1,70,0,0
105942,-182.825325119429,4,3,1,70,0,0
106184,-182.825325119429,4,3,1,5,0,0
106265,-89.2857142857143,4,3,1,70,0,0
106910,-98.0392156862745,4,3,1,70,0,0
107555,-65.7894736842105,4,3,1,70,0,0
107636,-65.7894736842105,4,3,1,5,0,0
107716,-65.7894736842105,4,3,1,70,0,0
107797,-65.7894736842105,4,3,1,5,0,0
107878,-65.7894736842105,4,3,1,70,0,0
107958,-65.7894736842105,4,3,1,5,0,0
108039,-98.0392156862745,4,3,1,70,0,0
111587,-96.8362599314063,4,3,1,70,0,0
111829,-96.8362599314063,4,3,1,5,0,0
111910,-96.8362599314063,4,3,1,70,0,0
111990,-96.8362599314063,4,3,1,5,0,0
112071,-158.060027601897,4,3,1,70,0,0
112313,-158.060027601897,4,3,1,5,0,0
112394,-231.122478155137,4,3,1,70,0,0
112716,-98.0392156862745,4,3,1,70,0,0
113039,-108.695652173913,4,3,1,70,0,0
113361,-121.951219512195,4,3,1,70,0,0
113684,-98.0392156862744,4,3,1,70,0,0
116829,-98.0392156862744,4,3,1,5,0,0
116910,-98.0392156862744,4,3,1,70,0,0
117555,-98.0392156862744,4,3,1,5,0,0
117636,-98.0392156862744,4,3,1,70,0,0
117797,-98.0392156862744,4,3,1,5,0,0
117878,-68.0272108843537,4,3,1,70,0,0
117958,-68.0272108843537,4,3,1,5,0,0
118039,-68.0272108843537,4,3,1,70,0,0
118119,-68.0272108843537,4,3,1,5,0,0
118200,-68.0272108843537,4,3,1,70,0,0
118281,-68.0272108843537,4,3,1,5,0,0
118361,-98.0392156862745,4,3,1,70,0,0
119329,-454.545454545455,4,3,1,70,0,0
119571,-454.545454545455,4,3,1,5,0,0
119652,-98.0392156862745,4,3,1,70,0,0
120136,-121.951219512195,4,3,1,70,0,0
120458,-238.095238095238,4,3,1,70,0,0
121910,-108.695652173913,4,3,1,70,0,0
122152,-108.695652173913,4,3,1,5,0,0
122232,-108.695652173913,4,3,1,70,0,0
124732,-108.695652173913,4,3,1,5,0,0
124813,-108.695652173913,4,3,1,70,0,0
126829,-108.695652173913,4,3,1,5,0,0
126910,-108.695652173913,4,3,1,70,0,0
128200,-70.4225352112676,4,3,1,70,0,0
128281,-70.4225352112676,4,3,1,5,0,0
128361,-70.4225352112676,4,3,1,70,0,0
128442,-70.4225352112676,4,3,1,5,0,0
128523,-70.4225352112676,4,3,1,70,0,0
128603,-70.4225352112676,4,3,1,5,0,0
128684,-108.695652173913,4,3,1,70,0,0
129329,-192.307692307692,4,3,1,70,0,0
129652,-108.695652173913,4,3,1,70,0,0
130942,-593.460295176726,4,3,1,70,0,0
131587,-108.695652173913,4,3,1,70,0,0
135055,-108.695652173913,4,3,1,5,0,0
135136,-108.695652173913,4,3,1,70,0,0
137394,-104.166666666667,4,3,1,70,0,0
137716,-108.695652173913,4,3,1,70,0,0
138523,-70.4225352112676,4,3,1,70,0,0
138603,-70.4225352112676,4,3,1,5,0,0
138684,-70.4225352112676,4,3,1,70,0,0
138765,-70.4225352112676,4,3,1,5,0,0
138845,-70.4225352112676,4,3,1,70,0,0
138926,-70.4225352112676,4,3,1,5,0,0
139007,-108.695652173913,4,3,1,70,0,0
139652,-217.391311645497,4,3,1,70,0,0
139974,-108.695652173913,4,3,1,70,0,0
141265,-593.460468396609,4,3,1,70,0,0
141910,-108.695652173913,4,3,1,70,0,0
142232,-192.307692307692,4,3,1,70,0,0
142474,-192.307692307692,4,3,1,70,0,0
142555,-108.695652173913,4,3,1,70,0,0
144329,-121.951219512195,4,3,1,70,0,0
144652,-138.888888888889,4,3,1,70,0,0
144974,-138.888888888889,4,3,1,70,0,0
144984,-138.888888888889,4,3,1,70,0,0
145055,-138.888888888889,4,3,1,5,0,0
145136,-89.2857142857143,4,3,1,70,0,0
145377,-89.2857142857143,4,3,1,5,0,0
145458,-89.2857142857143,4,3,1,70,0,0
145942,-121.951219512195,4,3,1,70,0,0
146426,-89.2857142857143,4,3,1,70,0,0
146667,-89.2857142857143,4,3,1,5,0,0
146749,-89.2857142857143,4,3,1,70,0,0
147716,-81.9672131147541,4,3,1,70,0,0
147957,-81.9672131147541,4,3,1,5,0,0
148039,-238.095238095238,4,3,1,70,0,0
148119,-238.095238095238,4,3,1,5,0,0
148200,-238.095238095238,4,3,1,70,0,0
148280,-238.095238095238,4,3,1,5,0,0
148361,-238.095238095238,4,3,1,70,0,0
148523,-81.9672131147541,4,3,1,70,0,0
148764,-81.9672131147541,4,3,1,5,0,0
148845,-81.9672131147541,4,3,1,70,0,0
150538,-81.9672131147541,4,3,1,5,0,0
150619,-238.095238095238,4,3,1,70,0,0
150699,-238.095238095238,4,3,1,5,0,0
150781,-238.095238095238,4,3,1,70,0,0
150861,-238.095238095238,4,3,1,5,0,0
150942,-238.095238095238,4,3,1,70,0,0
151103,-89.2857142857143,4,3,1,70,0,0
151587,-192.307692307692,4,3,1,70,0,0
151910,-89.2857142857143,4,3,1,70,0,0
153119,-89.2857142857143,4,3,1,5,0,0
153200,-238.095238095238,4,3,1,70,0,0
153280,-238.095238095238,4,3,1,5,0,0
153361,-238.095238095238,4,3,1,70,0,0
153441,-238.095238095238,4,3,1,5,0,0
153523,-238.095238095238,4,3,1,70,0,0
155136,-454.545454545455,4,3,1,70,0,0
155377,-454.545454545455,4,3,1,5,0,0
155458,-89.2857142857143,4,3,1,70,0,0
155699,-89.2857142857143,4,3,1,5,0,0
155781,-89.2857142857143,4,3,1,70,0,0
156990,-89.2857142857143,4,3,1,5,0,0
157071,-89.2857142857143,4,3,1,70,0,0
158280,-89.2857142857143,4,3,1,5,0,0
158361,-238.095238095238,4,3,1,70,0,0
158441,-238.095238095238,4,3,1,5,0,0
158523,-238.095238095238,4,3,1,70,0,0
158603,-238.095238095238,4,3,1,5,0,0
158684,-238.095238095238,4,3,1,70,0,0
158845,-89.2857142857143,4,3,1,70,0,0
159086,-89.2857142857143,4,3,1,5,0,0
159168,-89.2857142857143,4,3,1,70,0,0
160860,-89.2857142857143,4,3,1,5,0,0
160942,-238.095238095238,4,3,1,70,0,0
161022,-238.095238095238,4,3,1,5,0,0
161103,-238.095238095238,4,3,1,70,0,0
161183,-238.095238095238,4,3,1,5,0,0
161265,-238.095238095238,4,3,1,70,0,0
161426,-89.2857142857143,4,3,1,70,0,0
161910,-192.307692307692,4,3,1,70,0,0
162232,-89.2857142857143,4,3,1,70,0,0
163200,-81.9672131147541,4,3,1,70,0,0
163441,-81.9672131147541,4,3,1,5,0,0
163523,-238.095238095238,4,3,1,70,0,0
163603,-238.095238095238,4,3,1,5,0,0
163684,-238.095238095238,4,3,1,70,0,0
163764,-238.095238095238,4,3,1,5,0,0
163845,-238.095238095238,4,3,1,70,0,0
165781,-238.095238095238,4,3,1,70,0,0
166103,-238.095238095238,4,3,1,50,0,0
166426,-133.114033322106,4,3,1,50,0,0
167071,-138.888888888889,4,3,1,50,0,0
168361,-111.662543270881,4,3,1,50,0,0
169007,-133.179219053331,4,3,1,50,0,0
169974,-121.951219512195,4,3,1,50,0,0
170458,-111.938856035725,4,3,1,50,0,0
170942,-168.536055945744,4,3,1,50,0,0
171749,-111.938840224564,4,3,1,50,0,0
172232,-144.228348296105,4,3,1,50,0,0
173523,-111.265242415059,4,3,1,50,0,0
174329,-143.112032361483,4,3,1,50,0,0
176103,-111.414812280773,4,3,1,50,0,0
179007,-143.359571854391,4,3,1,50,0,0
179249,-111.414812280773,4,3,1,5,0,0
179329,-111.414812280773,4,3,1,50,0,0
182555,-143.359571854391,4,3,1,50,0,0
184652,-111.414812280773,4,3,1,50,0,0
185136,-121.951219512195,4,3,1,50,0,0
186426,-75.5100277902725,4,3,1,70,0,1
187071,-83.1337501804446,4,3,1,70,0,1
187081,-83.1337501804446,4,3,2,70,0,1
187555,-83.1337501804446,4,3,1,70,0,1
187716,-90.7666075206545,4,3,1,70,0,1
187726,-90.7666075206545,4,3,3,70,0,1
188200,-90.7666075206545,4,3,1,70,0,1
188361,-97.9183093289371,4,3,1,70,0,1
188372,-97.9183093289371,4,3,4,70,0,1
188684,-97.9183093289371,4,3,1,70,0,1
189007,-65.6376194391338,4,3,1,70,0,1
189017,-65.6376194391338,4,3,5,70,0,1
189329,-65.6376194391338,4,3,1,70,0,1
189490,-76.2000041799276,4,3,1,70,0,1
189501,-76.2000041799276,4,3,6,70,0,1
189974,-76.2000041799276,4,3,1,70,0,1
190619,-87.6985059528512,4,3,1,70,0,1
190942,-128.654570018768,4,3,1,70,0,1
190952,-128.654570018768,4,3,5,70,0,1
191103,-128.654570018768,4,3,1,70,0,1
191265,-128.654583762686,4,3,1,70,0,1
191275,-128.654583762686,4,3,4,70,0,1
191426,-128.654583762686,4,3,1,70,0,1
191587,-85.62104567524,4,3,1,70,0,1
191597,-85.62104567524,4,3,5,70,0,1
191910,-85.62104567524,4,3,1,70,0,1
192071,-78.5308286207461,4,3,1,70,0,1
192081,-78.5308286207461,4,3,4,70,0,1
193200,-78.5308286207461,4,3,1,70,0,1
193684,-74.9681232105315,4,3,1,70,0,1
194168,-67.2213042231283,4,3,1,70,0,1
194178,-67.2213042231283,4,3,5,70,0,1
194329,-67.2213042231283,4,3,1,70,0,1
194490,-104.545665558076,4,3,1,70,0,1
194501,-104.545665558076,4,3,4,70,0,1
194652,-104.545665558076,4,3,1,70,0,1
194662,-104.545665558076,4,3,5,70,0,1
194813,-104.545665558076,4,3,1,70,0,1
194974,-95.2380952380952,4,3,1,70,0,1
194984,-95.2380952380952,4,3,6,70,0,1
195136,-95.2380952380952,4,3,1,70,0,1
195297,-76.9230804443319,4,3,1,70,0,1
195307,-76.9230804443319,4,3,7,70,0,1
195458,-76.9230804443319,4,3,1,70,0,1
195620,-111.111114501947,4,3,1,70,0,1
195630,-111.111114501947,4,3,6,70,0,1
195781,-111.111114501947,4,3,1,70,0,1
195942,-166.666671752921,4,3,1,70,0,1
195952,-166.666671752921,4,3,5,70,0,1
196103,-166.666671752921,4,3,1,70,0,1
196265,-249.999999999987,4,3,1,70,0,1
196275,-249.999999999987,4,3,4,70,0,1
196426,-249.999999999987,4,3,1,70,0,1
196749,-63.9515834407044,4,3,1,70,0,1
196759,-63.9515834407044,4,3,8,70,0,1
197071,-63.9515834407044,4,3,1,70,0,1
197232,-89.6301663357697,4,3,1,70,0,1
197242,-89.6301663357697,4,3,4,70,0,1
197878,-89.6301663357697,4,3,1,70,0,1
198684,-60.3774258139591,4,3,1,70,0,1
198694,-60.3774258139591,4,3,8,70,0,1
198926,-60.3774258139591,4,3,1,70,0,1
198936,-60.3774258139591,4,3,4,70,0,1
199168,-60.3774258139591,4,3,1,70,0,1
199329,-73.073637892489,4,3,1,70,0,1
199339,-73.073637892489,4,3,5,70,0,1
200458,-73.073637892489,4,3,1,70,0,1
200619,-92.0794735827497,4,3,1,70,0,1
200630,-92.0794735827497,4,3,2,70,0,1
201103,-92.0794735827497,4,3,1,70,0,1
201265,-74.2296189857708,4,3,1,70,0,1
201275,-74.2296189857708,4,3,9,70,0,1
201749,-74.2296189857708,4,3,1,70,0,1
201910,-191.749604000546,4,3,1,70,0,1
201920,-191.749604000546,4,3,5,70,0,1
202232,-191.749604000546,4,3,1,70,0,1
202394,-79.779481508313,4,3,1,70,0,1
202404,-79.779481508313,4,3,6,70,0,1
203523,-79.779481508313,4,3,1,70,0,1
204007,-74.9681232105315,4,3,1,70,0,1
204501,-74.9681232105315,4,3,7,70,0,1
204652,-74.9681232105315,4,3,1,70,0,1
204813,-126.521361548625,4,3,1,70,0,1
204823,-126.521361548625,4,3,6,70,0,1
204974,-126.521361548625,4,3,1,70,0,1
204984,-126.521361548625,4,3,7,70,0,1
205136,-126.521361548625,4,3,1,70,0,1
205297,-62.1551872390184,4,3,1,70,0,1
205307,-62.1551872390184,4,3,2,70,0,1
205458,-62.1551872390184,4,3,1,70,0,1
205619,-53.0421462819059,4,3,1,70,0,1
205630,-53.0421462819059,4,3,9,70,0,1
205781,-53.0421462819059,4,3,1,70,0,1
205942,-82.8775970446051,4,3,1,70,0,1
205952,-82.8775970446051,4,3,2,70,0,1
206103,-82.8775970446051,4,3,1,70,0,1
206587,-147.291017173592,4,3,1,70,0,1
206597,-147.291017173592,4,3,6,70,0,1
206749,-147.291017173592,4,3,1,70,0,0
206910,-147.291017173592,4,3,1,70,0,0
207071,-72.9009558414121,4,3,1,70,0,0
207151,-72.9009558414121,4,3,1,5,0,0
207232,-102.909866323349,4,3,1,70,0,0
207313,-102.909866323349,4,3,1,70,0,0
207393,-102.909866323349,4,3,1,70,0,0
207555,-90.4094305202283,4,3,1,70,0,0
208684,-88.6310690793795,4,3,1,70,0,0
209652,-89.3785292905211,4,3,1,70,0,0
209894,-89.3785292905211,4,3,1,5,0,0
209974,-237.405809835447,4,3,1,70,0,0
210054,-237.405809835447,4,3,1,5,0,0
210136,-238.756401403543,4,3,1,70,0,0
210216,-238.756401403543,4,3,1,5,0,0
210297,-238.756401403543,4,3,1,70,0,0
210458,-85.3194555422829,4,3,1,70,0,0
210781,-248.57372988457,4,3,1,70,0,0
211426,-199.086144402182,4,3,1,70,0,0
212232,-76.7875099880549,4,3,1,70,0,0
212474,-76.7875099880549,4,3,1,5,0,0
212555,-330.802554782102,4,3,1,70,0,0
212636,-330.802554782102,4,3,1,5,0,0
212716,-330.802554782102,4,3,1,70,0,0
212797,-330.802554782102,4,3,1,5,0,0
212878,-330.802554782102,4,3,1,70,0,0
213039,-76.9230769230769,4,3,1,70,0,0
213523,-200,4,3,1,70,0,0
213845,-90.9090909090909,4,3,1,70,0,0
214168,-76.9230769230769,4,3,1,70,0,0
215297,-166.666666666667,4,3,1,70,0,0
215619,-111.111111111111,4,3,1,70,0,0
215942,-76.9230769230769,4,3,1,70,0,0
216265,-111.111111111111,4,3,1,70,0,0
216587,-166.666666666667,4,3,1,70,0,0
216910,-250.000000000001,4,3,1,70,0,0
217232,-500.000000000005,4,3,1,70,0,0
217394,-76.923076923077,4,3,1,70,0,0
217878,-163.390170875826,4,3,1,70,0,0
218039,-108.913551362983,4,3,1,70,0,0
218684,-76.9230769230769,4,3,1,70,0,0
219974,-137.068319309956,4,3,1,70,0,0
220216,-137.068319309956,4,3,1,5,0,0
220296,-99.1385079442238,4,3,1,70,0,0
220780,-152.010345588152,4,3,1,70,0,0
221265,-63.1965048870234,4,3,1,70,0,0
221910,-83.3573362002096,4,3,1,70,0,0
222555,-75.959532220673,4,3,1,70,0,0
223200,-77.1078545242945,4,3,1,70,0,0
223845,-80.3196829554735,4,3,1,70,0,0
225136,-89.9181905716561,4,3,1,70,0,0
225378,-89.9181905716561,4,3,1,5,0,0
225458,-80.3196829554735,4,3,1,70,0,0
225539,-80.3196829554735,4,3,1,5,0,0
225619,-80.3196829554735,4,3,1,70,0,0
225700,-80.3196829554735,4,3,1,5,0,0
225781,-80.3196829554735,4,3,1,70,0,0
225942,-90.4953621137963,4,3,1,70,0,0
226184,-90.4953621137963,4,3,1,5,0,0
226265,-76.8328869374709,4,3,1,70,0,0
226587,-99.3512294577619,4,3,1,70,0,0
226910,-124.864147381626,4,3,1,70,0,0
227232,-141.753914024383,4,3,1,70,0,0
227716,-76.7556806081829,4,3,1,70,0,0
228039,-76.7556806081829,4,3,1,70,0,0
228200,-105.263157894737,4,3,1,70,0,0
228845,-89.2857142857143,4,3,1,70,0,0
231426,-59.8802395209581,4,3,1,70,0,0
231507,-59.8802395209581,4,3,1,5,0,0
231587,-59.8802395209581,4,3,1,70,0,0
231668,-59.8802395209581,4,3,1,5,0,0
231749,-59.8802395209581,4,3,1,70,0,0
231829,-59.8802395209581,4,3,1,5,0,0
231910,-89.2857142857143,4,3,1,70,0,0
232394,-145.281325472655,4,3,1,70,0,0
232878,-91.901262033519,4,3,1,70,0,0
233361,-89.2857142857144,4,3,1,70,0,0
234168,-192.307692307692,4,3,1,70,0,0
235136,-192.307692307692,4,3,1,70,0,0
235458,-89.2857142857143,4,3,1,70,0,0
235700,-89.2857142857143,4,3,1,5,0,0
235781,-89.2857142857143,4,3,1,70,0,0
235861,-89.2857142857143,4,3,1,5,0,0
235942,-89.2857142857143,4,3,1,70,0,0
237232,-114.066028701498,4,3,1,70,0,0
237474,-108.695652173913,4,3,1,5,0,0
237555,-89.2857142857143,4,3,1,70,0,0
239007,-161.290322580645,4,3,1,70,0,0
239249,-161.290322580645,4,3,1,5,0,0
239329,-89.2857142857143,4,3,1,70,0,0
240136,-93.0537060446124,4,3,1,70,0,0
240378,-89.2857142857143,4,3,1,5,0,0
240458,-89.2857142857143,4,3,1,70,0,0
241749,-65.7894736842105,4,3,1,70,0,0
241829,-65.7894736842105,4,3,1,5,0,0
241910,-65.7894736842105,4,3,1,70,0,0
241990,-65.7894736842105,4,3,1,5,0,0
242071,-65.7894736842105,4,3,1,70,0,0
242152,-65.7894736842105,4,3,1,5,0,0
242232,-89.2857142857143,4,3,1,70,0,0
242716,-144.841496394328,4,3,1,70,0,0
243200,-89.2857142857144,4,3,1,70,0,0
244490,-192.307692307692,4,3,1,70,0,0
245458,-192.307692307692,4,3,1,70,0,0
245781,-89.2857142857143,4,3,1,70,0,0
246023,-89.2857142857143,4,3,1,5,0,0
246103,-89.2857142857143,4,3,1,70,0,0
246184,-89.2857142857143,4,3,1,5,0,0
246265,-89.2857142857143,4,3,1,70,0,0
247555,-92.3032909883594,4,3,1,70,0,0
247797,-89.2857142857143,4,3,1,5,0,0
247878,-89.2857142857143,4,3,1,70,0,0
249490,-75.7575757575758,4,3,1,70,0,0
249813,-89.2857142857143,4,3,1,70,0,0
250458,-113.282082619887,4,3,1,70,0,0
250700,-108.695652173913,4,3,1,5,0,0
250781,-89.2857142857143,4,3,1,70,0,0
251749,-81.9672131147541,4,3,1,70,0,0
252071,-65.7894736842105,4,3,1,70,0,0
252152,-65.7894736842105,4,3,1,5,0,0
252232,-65.7894736842105,4,3,1,70,0,0
252313,-65.7894736842105,4,3,1,5,0,0
252394,-65.7894736842105,4,3,1,70,0,0
252474,-65.7894736842105,4,3,1,5,0,0
252555,-89.2857142857143,4,3,1,70,0,0
255781,-161.290322580645,4,3,1,70,0,0
256023,-161.290322580645,4,3,1,70,0,0
256103,-89.2857142857143,4,3,1,70,0,0
256910,-121.951219512195,4,3,1,70,0,0
257232,-89.2857142857143,4,3,1,70,0,0
257878,-108.695652173913,4,3,1,70,0,0
258200,-121.951219512195,4,3,1,70,0,0
258684,-98.0392156862744,4,3,1,60,0,0
259974,-89.2857142857143,4,3,1,60,0,0
260458,-98.0392156862745,4,3,1,60,0,0
261265,-89.2857142857143,4,3,1,60,0,0
262394,-65.7894736842105,4,3,1,60,0,0
262474,-65.7894736842105,4,3,1,5,0,0
262555,-65.7894736842105,4,3,1,60,0,0
262636,-65.7894736842105,4,3,1,5,0,0
262716,-65.7894736842105,4,3,1,60,0,0
262797,-65.7894736842105,4,3,1,5,0,0
262878,-98.0392156862745,4,3,1,60,0,0
263361,-113.362325794041,4,3,1,60,0,0
263845,-91.6430494676341,4,3,1,60,0,0
264329,-98.0392156862745,4,3,1,60,0,0
264652,-121.951219512195,4,3,1,60,0,0
264974,-138.888888888889,4,3,1,60,0,0
265297,-238.095238095238,4,3,1,60,0,0
265942,-121.951219512195,4,3,1,60,0,0
266023,-121.951219512195,4,3,1,5,0,0
266103,-121.951219512195,4,3,1,60,0,0
266184,-121.951219512195,4,3,1,5,0,0
266265,-121.951219512195,4,3,1,60,0,0
266426,-121.951219512195,4,3,1,55,0,0
269007,-138.888888888889,4,3,1,45,0,0
269813,-192.307692307693,4,3,1,45,0,0
272958,-192.307692307693,4,3,1,5,0,0
273039,-192.307692307693,4,3,1,45,0,0
273119,-192.307692307693,4,3,1,5,0,0
273200,-121.951219512195,4,3,1,45,0,0
274168,-192.307692307692,4,3,1,45,0,0
274974,-161.290322580645,4,3,1,45,0,0
278361,-238.095238095238,4,3,1,45,0,0
279329,-121.951219512195,4,3,1,45,0,0
280136,-192.307692307692,4,3,1,45,0,0
283281,-108.695652173913,4,3,1,5,0,0
283361,-192.307692307692,4,3,1,45,0,0
283442,-108.695652173913,4,3,1,5,0,0
283523,-121.951219512195,4,3,1,45,0,0
284490,-192.307692307692,4,3,1,45,0,0
285297,-161.290322580645,4,3,1,45,0,0
287394,-192.307692307692,4,3,1,45,0,0
293603,-108.695652173913,4,3,1,5,0,0
293684,-192.307692307692,4,3,1,45,0,0
293765,-108.695652173913,4,3,1,5,0,0
293845,-138.888888888889,4,3,1,45,0,0
294813,-192.307692307693,4,3,1,45,0,0
295619,-161.290322580646,4,3,1,45,0,0
297716,-192.307692307693,4,3,1,45,0,0
298200,-161.290322580646,4,3,1,45,0,0
298684,-113.460557800391,4,3,1,45,0,0
298926,-108.695652173913,4,3,1,5,0,0
299007,-108.695652173913,4,3,1,45,0,0
299168,-112.996143650438,4,3,1,45,0,0
299410,-108.695652173913,4,3,1,5,0,0
299490,-108.695652173913,4,3,1,45,0,0
299652,-110.919164310908,4,3,1,45,0,0
299894,-108.695652173913,4,3,1,5,0,0
299974,-161.290322580645,4,3,1,45,0,0
300781,-192.307692307692,4,3,1,45,0,0
303926,-192.307692307692,4,3,1,5,0,0
304007,-192.307692307692,4,3,1,45,0,0
304087,-192.307692307692,4,3,1,5,0,0
304168,-192.307692307692,4,3,1,45,0,0
305136,-238.095238095238,4,3,1,45,0,0
305942,-192.307692307692,4,3,1,45,0,0
309813,-173.834903973264,4,3,1,45,0,0
310216,-173.834903973264,4,3,1,5,0,0
310297,-118.203309692671,4,3,1,25,0,0
310337,-118.203309692671,4,3,2,20,0,0
312434,-118.203309692671,4,3,1,13,0,0
312515,-118.203309692671,4,3,2,10,0,0
312575,-118.203309692671,4,3,1,5,0,0
312716,-118.203309692671,4,3,1,5,0,0
312878,-259.256576216627,4,3,1,20,0,0
313845,-259.256576216627,4,3,2,15,0,0
313926,-259.256576216627,4,3,1,11,0,0
314007,-259.256576216627,4,3,2,5,0,0
314087,-181.818181818182,4,3,1,5,0,0
314168,-183.19766987525,4,3,1,18,0,0
315243,-138.888888888889,4,3,1,35,0,0
315458,-111.75969147622,4,3,1,20,0,0
317212,-111.75969147622,4,3,2,15,0,0
317293,-111.75969147622,4,3,1,11,0,0
317353,-111.75969147622,4,3,2,9,0,0
317394,-111.75969147622,4,3,1,7,0,0
317434,-111.75969147622,4,3,2,5,0,0
317555,-111.75969147622,4,3,1,20,0,0
318039,-208.333333333333,4,3,1,25,0,0
319329,-121.951219512195,4,3,1,20,0,0
320378,-121.951219512195,4,3,2,15,0,0
320438,-121.951219512195,4,3,1,12,0,0
320478,-121.951219512195,4,3,2,9,0,0
320519,-121.951219512195,4,3,1,5,0,0
320538,-121.951219512195,4,3,1,5,0,0
320619,-112.233445566779,4,3,1,30,0,0
323200,-163.023513725417,4,3,1,25,0,0
324329,-175.438596491228,4,3,1,5,0,0
324490,-238.095238095238,4,3,1,19,0,0
324511,-238.095238095238,4,3,1,13,0,0
325458,-238.095238095238,4,3,1,5,0,0
325619,-238.095238095238,4,3,1,29,0,0
325781,-84.0336124195771,4,3,1,32,0,0
327615,-89.2857142857143,4,3,2,25,0,0
327716,-89.2857142857143,4,3,1,21,0,0
327797,-89.2857142857143,4,3,2,14,0,0
327857,-89.2857142857143,4,3,1,9,0,0
327898,-89.2857142857143,4,3,2,5,0,0
328039,-89.2857142857143,4,3,1,15,0,0
328361,-192.307692307692,4,3,1,22,0,0
329652,-312.5,4,3,1,17,0,0
329672,-312.5,4,3,1,14,0,0
330861,-312.5,4,3,1,5,0,0
330942,-138.888888888889,4,3,1,30,0,0
330962,-138.888888888889,4,3,2,18,0,0
333200,-138.888888888889,4,3,1,18,0,0
333523,-136.986301369863,4,3,1,25,0,0
336103,-187.404375286067,4,3,1,20,0,0
336668,-187.404375286067,4,3,2,17,0,0
336990,-187.404375286067,4,3,1,13,0,0
338684,-136.756315198945,4,3,1,27,0,0
338704,-136.756315198945,4,3,2,24,0,0
339007,-136.756315198945,4,3,1,19,0,0
339329,-136.756315198945,4,3,2,13,0,0
339651,-136.756315198945,4,3,1,5,0,0
339672,-136.756315198945,4,3,1,25,0,0
339974,-237.775035849775,4,3,1,20,0,0
340297,-277.404208491402,4,3,2,16,0,0
340619,-277.404208491402,4,3,1,10,0,0
340942,-277.404208491402,4,3,1,5,0,0
341103,-277.404208491402,4,3,1,9,0,0
341184,-277.404208491402,4,3,1,5,0,0
341265,-1000,4,3,1,10,0,0
341910,-1000,4,3,2,7,0,0
342232,-1000,4,3,1,5,0,0
342555,-1000,4,3,1,5,0,0
343845,-1000,4,3,1,5,0,0

[Colours]
Combo1 : 255,45,82
Combo2 : 168,242,55
Combo3 : 160,193,45
Combo4 : 52,179,216
Combo5 : 44,216,235
Combo6 : 89,206,128
Combo7 : 219,76,60
Combo8 : 254,202,24

[HitObjects]
319,206,10942,6,0,B|280:203|256:233|256:233|232:265|194:263,1,145.035701464889,8|0,1:2|0:0,0:0:0:0:
184,257,11265,2,0,P|197:198|202:154,1,96.6904676432592,10|0,0:2|1:0,0:0:0:0:
148,93,11587,1,0,1:0:0:0:
311,196,11749,2,0,P|293:138|275:98,1,96.6904676432592,10|0,0:2|0:0,0:0:0:0:
320,31,12071,1,0,1:0:0:0:
438,168,12232,2,0,P|419:212|405:258,1,96.6904676432592,0|0,1:0|0:0,0:0:0:0:
367,380,12555,21,10,0:2:0:0:
485,336,12716,1,0,1:0:0:0:
344,305,12878,1,0,1:0:0:0:
264,364,13039,2,0,B|225:367|201:337|201:337|177:305|139:307,1,145.035701464889,10|0,0:2|0:0,0:0:0:0:
125,310,13361,2,0,L|136:339,1,24.1726169108148,2|0,1:3|0:0,0:0:0:0:
0,222,13523,102,0,P|27:173|83:175,1,116.535704258306,0|0,1:0|0:0,0:0:0:0:
93,187,13845,2,0,P|122:213|159:223,1,77.6904695055374,10|0,0:2|1:0,0:0:0:0:
222,181,14168,1,0,1:0:0:0:
125,310,14329,2,0,P|163:307|197:288,1,77.6904695055374,10|0,0:2|0:0,0:0:0:0:
271,310,14652,1,0,1:0:0:0:
371,196,14813,21,0,1:0:0:0:
438,165,14974,1,0,0:0:0:0:
498,204,15136,2,0,P|430:183|323:158,1,145.035701464889,10|0,0:2|0:0,0:0:0:0:
306,110,15458,2,0,P|282:117|250:123,1,48.3452338216296,0|0,1:0|0:0,0:0:0:0:
103,205,15619,2,0,P|78:216|95:194,1,73.7857023609753,10|0,0:2|0:0,0:0:0:0:
107,190,15942,1,8,0:2:0:0:
204,203,16103,6,0,B|242:211|257:246|257:246|272:283|311:290,1,145.035701464889,0|0,1:0|0:0,0:0:0:0:
320,282,16426,2,0,P|357:266|417:245,1,96.6904676432592,10|0,0:2|1:0,0:0:0:0:
474,285,16749,1,0,1:0:0:0:
319,125,16910,2,0,P|356:139|413:167,1,96.6904676432592,10|0,0:2|0:0,0:0:0:0:
478,131,17233,1,0,0:0:0:0:
361,11,17394,2,0,P|317:31|272:50,1,96.6904676432592,0|0,1:0|0:0,0:0:0:0:
105,105,17716,53,10,0:2:0:0:
206,6,17877,1,0,1:0:0:0:
50,38,18039,1,0,1:0:0:0:
50,38,18119,1,2,0:3:0:0:
50,38,18200,2,0,P|142:112|153:182,1,193.380935286518,10|2,0:2|0:3,0:0:0:0:
5,269,18684,22,0,P|32:230|78:216,1,96.6904676432592,8|0,1:2|0:0,0:0:0:0:
198,254,19007,2,0,P|225:292|271:306,1,96.6904676432592,10|0,0:2|1:0,0:0:0:0:
426,190,19329,1,0,1:0:0:0:
325,241,19490,2,0,B|364:238|388:270|388:270|412:300|451:297,1,145.035701464889,10|0,0:2|0:0,0:0:0:0:
458,286,19813,1,0,1:0:0:0:
256,384,19974,101,8,1:2:0:0:
191,0,20458,21,2,2:3:0:0:
77,150,20619,1,2,2:1:0:0:
4,167,20781,5,2,0:2:0:0:
182,230,20942,1,2,0:1:0:0:
125,36,21103,1,2,1:2:0:0:
120,24,21184,1,2,0:2:0:0:
110,13,21265,54,0,B|88:32|100:65|100:65|103:40|121:24,1,102.600002504883,4|0,1:2|0:0,0:0:0:0:
218,82,21587,2,0,P|105:73|22:149,1,231.799990450135,10|0,2:2|1:0,0:0:0:0:
184,144,22071,2,0,P|127:139|85:178,1,117.799995326538,2|0,0:2|1:0,0:0:0:0:
397,90,22555,21,0,1:0:0:0:
397,90,22716,1,0,0:0:0:0:
463,220,22878,2,0,P|350:229|267:153,1,231.799990450135,10|0,2:2|1:0,0:0:0:0:
430,156,23361,2,0,P|372:160|331:122,1,117.799995326538,10|4,0:2|1:2,0:0:0:0:
207,289,23845,102,0,P|187:268|158:263,1,58.9281232837305,0|0,1:0|0:0,0:0:0:0:
97,351,24168,2,0,P|180:275|293:284,1,231.799990450135,2|0,2:2|1:0,0:0:0:0:
161,381,24652,2,0,P|203:342|260:346,1,117.654707447325,2|0,0:2|0:0,0:0:0:0:
275,354,24974,1,0,1:0:0:0:
447,217,25136,22,0,P|457:190|455:157,1,57.9499976125337,0|0,1:0|0:0,0:0:0:0:
407,294,25297,2,0,P|389:271|360:256,1,57.9499976125337
451,351,25458,2,0,P|443:307|374:127,1,232.085506677763,10|0,2:2|1:0,0:0:0:0:
252,67,25942,2,0,B|270:78|278:96|278:96|293:86|313:83|313:83|307:64|312:43|312:43|291:44|274:34|274:34|270:53|252:67,1,190,6|2,0:2|1:3,0:0:0:0:
86,176,26426,6,0,P|103:167|121:162,1,38.1676512840214,0|0,1:0|0:0,0:0:0:0:
242,168,26749,2,0,P|129:177|46:101,1,231.799990450135,10|0,2:2|1:0,0:0:0:0:
208,106,27233,2,0,P|151:111|109:72,1,117.799995326538,2|0,2:2|2:0,0:0:0:0:
391,124,27716,53,0,1:0:0:0:
391,124,27878,1,0,0:0:0:0:
512,163,28039,2,0,P|399:154|316:230,1,231.799990450135,10|0,0:2|2:0,0:0:0:0:
478,225,28523,2,0,P|421:220|379:259,1,117.799995326538,10|0,0:2|0:0,0:0:0:0:
365,334,28926,1,2,0:3:0:0:
356,340,29007,22,0,B|291:334|273:257|300:259|283:181|219:177,2,231.799990450135,4|10|0,1:2|0:2|2:0,0:0:0:0:
180,112,29813,2,0,B|259:62|109:-2|100:154|177:112,1,185.24357142285,2|0,0:2|1:0,0:0:0:0:
402,172,30297,2,0,P|377:213|365:260,1,96.9000005914307,0|0,2:0|0:0,0:0:0:0:
237,384,30619,2,0,P|224:337|200:295,1,96.9000005914307,10|0,0:2|1:0,0:0:0:0:
78,243,30942,101,0,1:0:0:0:
178,107,31103,2,0,B|241:66|120:15|113:140|175:107,1,149.659995150273,10|0,0:2|1:0,0:0:0:0:
480,60,31587,22,0,B|499:48|492:26|492:26|472:37|480:60,1,74.0999995477295,4|0,1:2|0:0,0:0:0:0:
512,127,31910,2,0,P|428:51|316:60,1,231.799990450135,10|0,2:2|1:0,0:0:0:0:
449,156,32394,2,0,P|407:117|350:122,1,117.799995326538,2|0,0:2|1:0,0:0:0:0:
88,193,32878,5,0,1:0:0:0:
88,193,33039,1,0,0:0:0:0:
217,252,33200,2,0,P|133:328|21:320,1,231.799990450135,10|0,2:2|1:0,0:0:0:0:
154,224,33684,2,0,P|112:263|55:258,1,117.799995326538,10|4,0:2|1:2,0:0:0:0:
253,42,34168,54,0,P|259:27|263:12,1,31.3500009567261,0|0,1:0|0:0,0:0:0:0:
244,51,34490,2,0,P|137:85|88:187,1,231.799990450135,2|0,2:2|1:0,0:0:0:0:
238,123,34974,2,0,P|184:139|160:191,1,117.025775748522,2|0,0:2|0:0,0:0:0:0:
163,205,35297,1,0,1:0:0:0:
371,287,35458,22,0,P|346:301|329:324,1,57.9499976125337,0|0,1:0|0:0,0:0:0:0:
283,191,35619,2,0,P|282:219|292:246,1,57.9499976125337
285,381,35780,2,0,P|293:337|347:152,1,232.034365826854,10|0,2:2|1:0,0:0:0:0:
349,71,36265,2,0,B|405:74|434:34|434:34|410:77|429:127,1,194.034363939874,6|2,0:2|1:3,0:0:0:0:
475,267,36749,102,0,P|455:279|433:285,1,45.7757762988131,0|0,1:0|0:0,0:0:0:0:
502,338,37071,2,0,P|418:262|306:270,1,231.799990450135,10|0,2:2|1:0,0:0:0:0:
439,366,37555,2,0,P|397:327|340:332,1,117.799995326538,2|0,2:2|2:0,0:0:0:0:
74,211,38039,21,0,1:0:0:0:
74,211,38200,1,0,0:0:0:0:
31,331,38361,2,0,P|92:235|202:214,1,231.799990450135,10|0,0:2|2:0,0:0:0:0:
99,341,38845,2,0,P|129:292|185:282,1,117.799995326538,10|0,0:2|0:0,0:0:0:0:
191,355,39249,1,2,0:3:0:0:
200,361,39330,6,0,B|265:355|283:278|256:280|273:202|337:198,2,231.799990450135,4|10|0,1:2|0:2|2:0,0:0:0:0:
396,141,40136,54,0,B|421:96|373:55|373:55|313:69|312:117,1,193.800001182861,2|2,0:2|1:2,0:0:0:0:
184,281,40619,2,0,P|173:234|153:190,1,96.9000005914307,0|2,2:0|0:2,0:0:0:0:
366,277,40942,2,0,P|346:321|335:369,1,96.9000005914307,8|2,0:2|1:2,0:0:0:0:
235,160,41265,1,0,1:0:0:0:
390,135,41426,2,0,B|410:98|371:65|371:65|323:76|321:116,1,155.800002377319,10|0,0:2|1:0,0:0:0:0:
132,312,41910,22,0,B|178:288|227:317|227:317|276:345|325:325,1,202.349989810868,4|0,1:2|0:0,0:0:0:0:
333,319,42232,1,8,2:2:0:0:
147,177,42394,1,2,1:2:0:0:
207,135,42555,102,0,B|242:143|249:191|234:185|239:226|275:242,1,134.899993207245,2|0,1:2|0:0,0:0:0:0:
329,141,42878,2,0,B|358:148|383:128|383:128|343:155|332:184,1,134.899993207245,10|2,2:2|1:2,0:0:0:0:
101,13,43200,2,0,P|158:5|151:73,1,134.899993207245,2|0,1:2|0:0,0:0:0:0:
0,0,43523,1,10,2:2:0:0:
151,78,43684,2,0,P|86:26|164:0,1,202.349989810868,2|0,1:2|0:0,0:0:0:0:
174,9,44007,22,0,P|169:16|166:24,1,16.8625088687567,10|0,0:2|0:0,0:0:0:0:
101,184,44168,2,0,P|106:191|109:199,1,16.8625162237485,2|0,2:2|0:0,0:0:0:0:
225,149,44329,2,0,P|220:156|217:164,1,16.8625058683738,6|0,1:2|0:0,0:0:0:0:
179,350,44490,1,2,1:2:0:0:
179,350,44813,5,2,2:2:0:0:
212,249,44974,1,2,1:2:0:0:
41,215,45136,1,2,1:2:0:0:
95,345,45297,1,2,0:2:0:0:
264,339,45458,1,10,2:2:0:0:
335,169,45619,1,2,1:2:0:0:
170,28,45781,53,2,1:2:0:0:
142,61,45942,1,0,0:0:0:0:
163,68,46103,2,0,B|188:39|224:49|224:49|237:76|259:85,1,119.225012143356,8|2,2:2|1:2,0:0:0:0:
465,58,46426,22,0,B|540:89|516:-54|385:20|462:58,1,171.254705126203,2|6,1:2|0:2,0:0:0:0:
512,196,46749,2,0,P|507:206|504:216,1,22.044228466529,10|0,2:2|0:0,0:0:0:0:
368,122,46910,2,0,P|373:132|376:142,1,22.044228193363,2|0,1:3|0:0,0:0:0:0:
333,362,47071,2,0,B|326:314|368:284|371:310|421:280|410:232,1,164.901886538863,2|8,1:2|2:2,0:0:0:0:
276,119,47555,1,2,1:2:0:0:
120,117,47716,102,0,B|109:105|93:104|93:104|82:92|90:76|90:76|105:73|112:59|112:59|129:57|139:71|139:71|133:86|142:100|142:100|136:116|120:117,1,172.371958326758,2|2,1:2|2:2,0:0:0:0:
191,249,48039,2,0,P|182:265|175:280,1,34.9129696660735,10|0,0:2|0:0,0:0:0:0:
7,187,48200,2,0,P|16:203|23:219,1,34.9129696660735,2|0,2:2|0:0,0:0:0:0:
198,367,48361,2,0,B|206:309|156:274|152:305|93:269|106:212,1,196.651884420523,2|8,1:2|0:2,0:0:0:0:
230,125,48845,1,2,1:2:0:0:
299,290,49007,21,2,2:2:0:0:
299,290,49087,1,2,0:3:0:0:
299,290,49168,2,0,B|271:283|253:262|253:262|281:295|282:340,1,136.325944500658,10|2,0:2|0:2,0:0:0:0:
465,224,49490,1,2,1:2:0:0:
455,210,49571,1,2,0:3:0:0:
443,201,49652,6,0,P|391:289|356:385,1,204.488916750986,6|0,1:2|0:0,0:0:0:0:
376,379,49974,2,0,P|384:347|361:324,1,68.1629722503288,10|0,0:2|0:0,0:0:0:0:
316,229,50136,2,0,B|314:196|279:184|245:207|245:207|273:204|292:215|298:251|314:230,1,166.587916743316,2|0,1:2|2:0,0:0:0:0:
469,334,50458,2,0,B|471:301|506:289|540:312|540:312|512:309|493:320|487:356|471:335,1,166.587916743316,2|8,0:2|0:2,0:0:0:0:
380,137,50781,54,0,B|389:106|374:76|374:76|397:102|428:106,1,126.029085441369,2|0,1:2|2:0,0:0:0:0:
234,49,51103,2,0,B|229:26|258:13|258:13|261:42|235:54,1,97.5290801272938,2|8,0:2|0:2,0:0:0:0:
90,158,51426,2,0,B|109:160|123:176|123:176|114:158|119:138,1,78.5290782370185,2|0,1:2|1:0,0:0:0:0:
254,215,51749,1,10,0:2:0:0:
198,163,51910,2,0,B|154:159|130:197|153:199|129:244|86:237,1,146.293620190941,6|0,0:2|0:0,0:0:0:0:
10,223,52232,22,0,B|-49:180|-40:104|16:67|79:103|73:156,1,240.136786386468,4|0,1:2|0:0,0:0:0:0:
69,163,52555,1,8,2:2:0:0:
166,316,52716,1,2,1:2:0:0:
133,384,52878,102,0,B|86:392|60:343|85:340|59:299|11:303,1,160.091190924312,2|0,1:2|0:0,0:0:0:0:
166,316,53200,2,0,B|185:279|236:291|236:291|222:322|200:323,1,129.539654967757,10|2,2:2|1:2,0:0:0:0:
359,261,53523,2,0,P|415:244|432:300,1,129.539654967757,2|0,1:2|0:0,0:0:0:0:
512,384,53845,1,10,2:2:0:0:
354,275,54007,2,0,P|417:327|435:248,1,194.309482451635,2|0,1:2|0:0,0:0:0:0:
440,245,54329,2,0,P|416:334|348:273,1,219.88821322579,10|0,0:2|0:0,0:0:0:0:
356,117,54652,1,6,1:2:0:0:
356,117,54974,21,10,0:2:0:0:
477,155,55136,1,0,2:0:0:0:
270,138,55297,1,2,1:2:0:0:
450,44,55458,1,2,1:2:0:0:
450,44,55619,1,0,0:0:0:0:
283,0,55781,1,10,2:2:0:0:
374,205,55942,1,2,1:2:0:0:
245,115,56103,5,2,1:2:0:0:
261,144,56265,1,0,0:0:0:0:
238,133,56426,2,0,B|213:104|177:114|177:114|164:141|142:150,1,119.330696177162,8|2,2:2|1:2,0:0:0:0:
1,66,56749,54,0,B|17:24|-4:-13|-4:-13|21:21|69:19,1,165.283431997655,2|6,1:2|0:2,0:0:0:0:
52,176,57071,2,0,B|34:164|35:147|35:147|51:155|52:175,1,70.5199439063665,10|0,2:2|0:0,0:0:0:0:
147,64,57232,2,0,B|163:50|162:33|162:33|146:42|147:63,1,70.5199166190438,2|0,1:3|0:0,0:0:0:0:
141,150,57394,2,0,B|137:198|178:224|181:199|230:225|222:272,1,159.648869027765,2|8,1:2|2:2,0:0:0:0:
289,384,57878,1,2,1:2:0:0:
481,285,58039,22,0,B|506:320|469:360|469:360|416:354|411:312,1,168.269199583997,2|2,1:2|2:2,0:0:0:0:
320,285,58361,2,0,P|334:269|343:250,1,41.7233892816381,10|0,0:2|0:0,0:0:0:0:
509,209,58523,2,0,P|496:192|491:172,1,41.842123809807,2|0,2:2|0:0,0:0:0:0:
417,231,58684,2,0,B|409:174|456:140|462:170|518:136|506:80,1,190.940037367905,2|8,1:2|0:2,0:0:0:0:
446,21,59168,1,2,1:2:0:0:
509,209,59329,101,2,2:2:0:0:
362,136,59490,2,0,B|385:102|369:61|369:61|377:67|377:67|387:90|416:94,2,132.999995941162,10|6|2,0:2|0:2|0:2,0:0:0:0:
109,177,59974,22,0,P|204:145|289:94,1,199.499993911743,6|0,1:2|0:0,0:0:0:0:
289,85,60297,2,0,P|256:84|236:110,1,66.4999979705811,10|0,0:2|0:0,0:0:0:0:
212,229,60458,2,0,B|190:250|205:277|205:277|231:261|222:232,1,107.447533442525,2|0,1:2|2:0,0:0:0:0:
160,66,60781,2,0,B|139:42|111:57|111:57|128:84|157:75,1,107.447533442525,2|8,0:2|0:2,0:0:0:0:
293,191,61103,2,0,B|304:218|334:214|334:214|328:185|299:183,1,102.312395011771,2|0,1:2|2:0,0:0:0:0:
116,264,61426,2,0,B|106:287|81:284|81:284|86:259|111:257,1,88.373861724783,2|8,0:2|0:2,0:0:0:0:
303,330,61749,2,0,B|311:348|330:345|330:345|327:326|304:324,1,69.3738644145834,2|0,1:2|1:0,0:0:0:0:
182,383,62071,1,10,0:2:0:0:
232,328,62232,2,0,B|276:332|300:294|277:292|301:247|344:254,1,146.201294269748,6|0,0:2|0:0,0:0:0:0:
442,236,62555,6,0,B|411:262|418:312|418:312|363:307|338:235|369:191,1,240.825004501505,4|0,1:2|0:0,0:0:0:0:
380,180,62878,1,8,2:2:0:0:
448,12,63039,1,2,1:2:0:0:
512,52,63200,2,0,B|522:90|483:116|479:95|447:120|454:160,1,133.465190750874,2|2,1:2|0:2,0:0:0:0:
385,100,63523,2,0,B|344:72|326:117|326:117|347:98|375:100,1,128.527602609604,10|2,2:2|1:2,0:0:0:0:
493,317,63845,2,0,P|499:374|441:383,1,128.5275999846,2|0,1:2|0:0,0:0:0:0:
330,268,64168,1,10,2:2:0:0:
512,362,64329,2,0,P|461:300|434:375,1,192.791399976899,2|0,1:2|0:0,0:0:0:0:
439,382,64652,54,0,P|442:376|442:367,1,15.8236992698309,10|0,0:2|0:0,0:0:0:0:
512,181,64813,2,0,P|509:175|509:166,1,15.8236992698309,2|0,2:2|0:0,0:0:0:0:
330,268,64974,2,0,P|332:261|334:253,1,15.52417469626,4|0,1:2|0:0,0:0:0:0:
385,100,65136,1,2,1:2:0:0:
385,100,65458,21,2,2:2:0:0:
279,72,65619,1,2,1:2:0:0:
512,0,65781,1,2,1:2:0:0:
410,206,65942,1,2,0:2:0:0:
329,0,66103,1,10,2:2:0:0:
402,23,66265,1,2,1:2:0:0:
238,215,66426,101,2,1:2:0:0:
222,183,66588,1,0,0:0:0:0:
249,202,66749,2,0,B|273:203|295:223|295:223|332:220|345:183,1,119.330692500182,8|2,2:2|1:2,0:0:0:0:
38,26,67071,22,0,B|-37:63|94:137|118:-6|43:25,1,177.908517782951,2|6,1:2|0:2,0:0:0:0:
0,143,67394,2,0,P|13:161|21:182,1,44.4771182382663,10|0,2:2|0:0,0:0:0:0:
163,69,67555,2,0,P|150:87|142:108,1,44.4771162994823,2|0,1:3|0:0,0:0:0:0:
17,328,67716,2,0,B|3:271|49:231|56:262|111:220|92:164,1,196.501648267959,2|8,1:2|2:2,0:0:0:0:
240,58,68200,1,2,1:2:0:0:
484,81,68361,6,0,B|506:43|465:7|465:7|413:19|412:61,1,166.570890184482,2|2,1:2|2:2,0:0:0:0:
502,166,68684,2,0,B|503:188|479:192|479:192|478:169|498:162,1,77.3290010862247,10|0,0:2|0:0,0:0:0:0:
330,97,68845,2,0,B|326:118|350:125|350:125|353:102|334:93,1,77.3290010862247,2|0,2:2|0:0,0:0:0:0:
480,342,69007,2,0,B|494:285|448:245|441:276|386:234|405:178,1,196.501648267959,2|8,1:2|0:2,0:0:0:0:
479,192,69490,1,2,1:2:0:0:
416,384,69652,1,2,2:2:0:0:
298,190,69813,1,10,0:2:0:0:
298,190,69974,2,0,P|293:201|304:195,1,31.3500009567261,6|2,0:2|0:3,0:0:0:0:
385,154,70297,54,0,B|327:148|298:198|298:198|295:195|295:195|273:241|215:239,1,206.188935792075,6|0,1:2|0:0,0:0:0:0:
203,237,70619,2,0,P|206:222|224:218,1,35.6722430843094,10|0,0:2|0:0,0:0:0:0:
375,244,70781,2,0,B|407:262|393:296|393:296|360:278|373:248,1,115.182226599766,2|0,1:2|2:0,0:0:0:0:
212,136,71103,2,0,B|211:99|248:94|248:94|248:131|216:135,1,115.302223286529,2|8,0:2|0:2,0:0:0:0:
76,204,71426,2,0,B|51:215|36:188|36:188|65:176|80:203,1,96.4503561431085,2|0,1:2|2:0,0:0:0:0:
244,228,71749,2,0,B|257:246|279:232|279:232|264:213|243:226,1,77.4835903099401,2|8,0:2|0:2,0:0:0:0:
136,309,72071,2,0,B|125:329|144:345|144:345|167:337|165:315,1,81.0718761680845,2|0,1:2|1:0,0:0:0:0:
99,64,72394,1,10,0:2:0:0:
151,134,72555,2,0,P|183:113|180:75,1,81.0718761680845,6|2,0:2|1:2,0:0:0:0:
52,122,72797,1,0,0:0:0:0:
60,130,72878,22,0,B|124:162|179:114|146:103|216:52|278:90,1,240.825004501505,4|0,1:2|0:0,0:0:0:0:
289,98,73200,1,8,2:2:0:0:
354,248,73361,1,2,1:2:0:0:
283,287,73523,102,0,B|247:267|251:220|264:231|272:186|234:163,1,142.940356452628,2|2,1:2|0:2,0:0:0:0:
354,248,73845,2,0,B|375:268|408:269|408:269|364:291|353:330,1,142.940352515734,10|2,2:2|1:2,0:0:0:0:
22,372,74168,2,0,P|16:307|76:310,1,142.940352515734,2|0,1:2|0:0,0:0:0:0:
208,384,74490,1,10,2:2:0:0:
1,309,74652,2,0,P|30:384|82:322,1,193.846563875536,2|0,1:2|0:0,0:0:0:0:
76,310,74974,1,10,0:2:0:0:
0,176,75136,1,2,2:2:0:0:
126,35,75297,1,6,1:2:0:0:
0,0,75458,21,0,1:0:0:0:
133,131,75619,1,10,0:2:0:0:
373,41,75781,5,0,2:0:0:0:
245,215,75942,1,2,1:2:0:0:
220,224,76103,1,2,1:2:0:0:
224,199,76265,1,0,0:0:0:0:
425,238,76426,1,10,2:2:0:0:
259,296,76587,1,2,1:2:0:0:
404,123,76749,53,2,1:2:0:0:
440,145,76910,1,0,0:0:0:0:
423,159,77071,2,0,B|390:138|359:159|359:159|355:189|337:204,1,118.729802583203,8|2,2:2|1:2,0:0:0:0:
19,67,77394,22,0,B|60:67|91:102|91:102|78:56|101:18,1,161.834308625449,2|6,1:2|0:2,0:0:0:0:
22,172,77716,2,0,P|28:181|33:192,1,21.6085206275173,10|0,2:2|0:0,0:0:0:0:
188,97,77878,2,0,P|182:106|177:117,1,21.6085202434808,2|0,1:3|0:0,0:0:0:0:
203,302,78039,2,0,B|211:255|162:229|159:254|118:228|122:180,1,159.648869027765,2|8,1:2|2:2,0:0:0:0:
263,69,78523,1,2,1:2:0:0:
406,100,78684,102,0,B|422:85|441:82|441:82|436:65|438:45|438:45|418:46|399:36|399:36|395:56|380:70|380:70|398:79|406:100,1,190,2|2,1:2|2:2,0:0:0:0:
350,196,79007,2,0,B|329:199|319:180|319:180|340:174|350:194,1,75.6820673035955,10|0,0:2|0:0,0:0:0:0:
509,167,79168,2,0,B|530:163|534:142|534:142|511:143|509:165,1,75.6821158512619,2|0,2:2|0:0,0:0:0:0:
363,343,79329,2,0,B|347:292|396:246|408:275|448:231|428:176,1,194.552278706439,2|8,1:2|0:2,0:0:0:0:
448,342,79813,22,0,B|464:358|485:345|485:345|484:321|462:316,1,80.6807628173628,2|2,1:2|2:2,0:0:0:0:
350,196,80136,2,0,B|286:187|251:245|273:247|252:295|185:294,1,206.625006305695,10|0,0:2|0:0,0:0:0:0:
121,253,80458,2,0,B|101:242|109:218|109:218|132:213|142:233,1,81.0134677870555,2|2,0:2|0:3,0:0:0:0:
203,150,80619,6,0,B|189:113|209:65|285:80|285:80|232:111|266:145|221:159,1,244.13522250531,6|10,1:2|0:2,0:0:0:0:
112,130,81103,2,0,B|117:100|87:92|87:92|81:122|109:129,1,100.103919625858,2|0,1:2|2:0,0:0:0:0:
274,233,81426,2,0,B|300:251|320:227|320:227|295:209|276:231,1,100.103915824163,2|8,0:2|0:2,0:0:0:0:
14,374,81749,54,0,P|27:358|13:372,1,61.7499971733095,2|0,1:2|0:0,0:0:0:0:
14,374,82394,21,2,1:3:0:0:
83,366,82555,1,2,1:1:0:0:
90,297,82716,1,10,0:2:0:0:
155,258,82878,1,4,0:2:0:0:
220,295,83039,1,2,1:2:0:0:
220,370,83200,102,0,P|218:278|283:227,1,179.657611649904,4|8,1:2|2:2,0:0:0:0:
412,338,83684,1,2,1:2:0:0:
396,260,83845,2,0,P|354:307|399:262,1,194.118002407799,2|10,1:2|2:2,0:0:0:0:
437,119,84329,1,2,1:2:0:0:
314,109,84490,2,0,P|332:152|384:167,1,97.0590012038994,2|0,1:2|0:0,0:0:0:0:
223,59,84813,1,10,2:2:0:0:
233,136,84974,2,0,B|181:145|161:193|161:193|178:143|155:96,1,194.118002407799,2|10,1:2|0:2,0:0:0:0:
223,59,85458,1,0,2:0:0:0:
171,272,85619,22,0,B|108:282|77:238|103:221|63:178|12:191,1,194.118002407799,6|10,1:2|0:2,0:0:0:0:
235,313,86103,1,0,2:0:0:0:
300,272,86265,2,0,P|279:231|232:225,1,97.0590012038994,2|0,1:2|1:0,0:0:0:0:
423,331,86587,2,0,P|459:302|457:255,1,97.0590012038994,2|8,0:2|2:2,0:0:0:0:
235,54,86910,54,0,B|234:40|207:36|207:36|208:59|233:66,1,79.1476504662125,2|0,1:2|0:0,0:0:0:0:
372,76,87071,2,0,B|387:83|404:62|404:62|383:51|366:70,1,79.1476504662125,0|0,1:0|0:0,0:0:0:0:
313,19,87232,2,0,B|326:10|316:-15|316:-15|296:-3|304:21,1,79.1476504662125
298,106,87394,6,0,B|285:157|328:197|345:171|389:202|379:265,1,194.118002407799,8|2,2:2|1:2,0:0:0:0:
271,330,87878,2,0,B|206:356|227:230|343:295|276:328,1,155.800002377319,6|2,0:2|1:3,0:0:0:0:
134,204,88361,22,0,B|141:183|136:165|136:165|153:163|171:152|171:152|178:171|195:184|195:184|178:195|172:215|172:215|156:203|139:205,1,193.800001182861,2|8,1:2|2:2,0:0:0:0:
96,274,88845,2,0,B|116:304|103:343|103:343|118:304|154:296,1,144.533777063551,2|0,1:2|1:0,0:0:0:0:
254,124,89168,2,0,P|176:70|82:77,1,193.800001182861,0|0,2:0|2:0,0:0:0:0:
382,131,89652,2,0,P|363:171|313:178,1,98.7999993969727,0|8,1:0|0:2,0:0:0:0:
0,135,90136,1,2,1:2:0:0:
83,219,90297,1,2,2:2:0:0:
28,350,90458,1,10,0:2:0:0:
168,332,90619,2,0,L|162:281,1,49.3999996984863,6|0,0:2|0:0,0:0:0:0:
81,77,90942,102,0,P|143:28|207:35,1,147.155624390488,6|0,1:2|0:0,0:0:0:0:
230,105,91265,2,0,L|286:114,1,49.0518747968292,10|0,0:2|0:0,0:0:0:0:
183,40,91426,2,0,P|139:43|105:71,1,90.1556210855073,2|0,1:2|0:0,0:0:0:0:
126,148,91749,2,0,L|166:154,1,41.1037468335811,2|8,0:2|0:2,0:0:0:0:
446,307,92071,2,0,P|463:304|485:291,1,43.6999985330201,2|0,1:2|0:0,0:0:0:0:
377,318,92232,22,0,P|434:317|477:355,1,115.899995225067,0|2,2:0|0:2,0:0:0:0:
298,274,92555,2,0,P|325:224|379:206,1,115.899995225067,8|2,0:2|1:2,0:0:0:0:
509,156,92878,1,0,1:0:0:0:
458,212,93039,2,0,B|392:230|352:155|389:151|348:75|283:93,1,231.799990450135,10|0,0:2|1:0,0:0:0:0:
249,203,93442,1,0,0:0:0:0:
238,192,93523,6,0,B|185:208|211:288|304:252|293:162,1,193.800001182861,4|8,1:2|2:2,0:0:0:0:
154,15,94007,1,2,1:2:0:0:
167,92,94168,2,0,B|193:96|203:120|203:120|194:95|206:72,1,96.9000005914307,2|0,1:2|0:0,0:0:0:0:
255,213,94490,1,10,2:2:0:0:
90,295,94652,1,2,1:2:0:0:
101,219,94813,2,0,B|127:214|137:190|137:190|128:215|140:239,1,96.9000005914307,2|0,1:2|0:0,0:0:0:0:
312,358,95136,1,10,2:2:0:0:
257,299,95297,2,0,P|209:298|169:325,1,96.9000005914307,2|0,1:2|1:0,0:0:0:0:
101,219,95619,2,0,P|110:172|147:144,1,96.9000005914307,10|0,0:2|2:0,0:0:0:0:
388,210,95942,53,6,1:2:0:0:
340,144,96103,2,0,B|289:127|243:174|273:183|231:233|178:215,1,193.800001182861,0|2,1:0|2:2,0:0:0:0:
405,98,96587,2,0,P|380:57|336:37,1,96.9000005914307,2|0,1:2|1:0,0:0:0:0:
388,210,96910,2,0,P|347:234|327:278,1,96.9000005914307,2|8,0:2|2:2,0:0:0:0:
94,27,97232,86,0,B|84:8|58:14|58:14|67:36|87:36,1,79.324997518673,2|0,1:2|0:0,0:0:0:0:
147,141,97394,2,0,B|135:158|154:177|154:177|168:159|158:142,1,79.324997518673,0|0,1:0|0:0,0:0:0:0:
219,38,97555,2,0,B|240:38|247:13|247:13|224:10|214:27,1,79.324997518673
153,68,97716,22,0,B|142:119|187:157|203:130|248:159|242:222,1,194.118002407799,8|2,2:2|1:2,0:0:0:0:
221,341,98200,2,0,B|164:309|267:258|280:368|225:342,1,130.780745138348,6|2,0:2|1:3,0:0:0:0:
62,283,98684,22,0,B|86:238|72:187|72:187|89:236|140:248,1,194.118002407799,2|8,1:2|2:2,0:0:0:0:
329,234,99168,2,0,B|336:210|309:194|309:194|296:219|313:240,1,96.9000005914307,2|0,1:2|1:0,0:0:0:0:
312,384,99490,2,0,P|230:340|130:334,1,193.800001182861,0|0,2:0|2:0,0:0:0:0:
457,296,99974,2,0,P|431:336|384:341,1,98.7999993969727,0|8,1:0|0:2,0:0:0:0:
187,241,100458,1,2,1:2:0:0:
191,246,100539,1,0,0:0:0:0:
195,251,100619,2,0,P|214:179|209:98,1,145.350000887146,2|0,2:2|0:0,0:0:0:0:
147,56,100942,2,0,B|135:37|120:29|120:29|129:16|133:-2|133:-2|150:4|171:0|171:0|168:19|177:36|177:36|159:39|150:53,1,173.849992837601,6|2,0:2|0:3,0:0:0:0:
59,77,101265,101,6,1:2:0:0:
112,270,101587,21,10,0:2:0:0:
142,343,101749,2,0,B|115:351|96:378|96:378|86:348|61:329,1,115.899995225067,2|0,1:2|2:0,0:0:0:0:
385,290,102071,2,0,P|400:312|404:345,1,58.8999976632691,2|8,0:2|0:2,0:0:0:0:
333,383,102394,2,0,P|305:344|301:296,1,96.9000005914307,2|0,1:2|2:0,0:0:0:0:
180,231,102716,2,0,P|223:228|259:203,1,87.3999970660401,2|8,0:2|0:2,0:0:0:0:
436,301,103039,2,0,P|405:287|386:259,1,68.4000016699219,2|0,1:2|1:0,0:0:0:0:
352,105,103361,2,0,B|361:136|343:176|343:176|379:137|433:139,1,174.79999413208,10|0,0:2|1:0,0:0:0:0:
509,102,103765,1,0,0:0:0:0:
499,91,103845,6,0,B|425:128|443:199|443:199|474:211|483:240,1,193.800001182861,4|8,1:2|2:2,0:0:0:0:
313,378,104329,1,2,1:2:0:0:
323,295,104490,2,0,P|364:272|412:272,1,96.9000005914307,2|0,1:2|0:0,0:0:0:0:
347,189,104813,1,10,2:2:0:0:
504,237,104974,2,0,P|476:198|432:178,1,96.9000005914307,2|0,1:2|1:0,0:0:0:0:
88,246,105297,54,0,B|50:273|47:192|122:215|89:243,1,96.9000005914307,2|8,0:2|2:2,0:0:0:0:
250,348,105619,2,0,B|213:319|291:295|288:373|252:349,1,96.9000005914307,2|0,1:2|1:0,0:0:0:0:
298,185,105942,2,0,B|294:163|314:152|314:152|321:174|300:185,1,77.9432466721378,10|0,0:2|0:0,0:0:0:0:
251,247,106265,2,0,B|202:231|182:178|182:178|177:192|177:192|192:236|171:287,1,212.800002597656,6|8,1:2|0:2,0:0:0:0:
319,375,106749,1,2,2:2:0:0:
319,375,106910,2,0,P|304:356|234:324,1,96.9000005914307,2|0,1:2|1:0,0:0:0:0:
413,223,107232,2,0,P|398:242|328:274,1,96.9000005914307,2|8,0:2|2:2,0:0:0:0:
166,92,107555,102,0,B|149:98|136:77|136:77|158:69|167:84,1,72.1999991186524,2|0,1:2|0:0,0:0:0:0:
225,41,107716,2,0,B|212:29|223:7|223:7|241:22|233:38,1,72.1999991186524,0|0,1:0|0:0,0:0:0:0:
298,70,107878,2,0,B|302:52|327:51|327:51|323:74|306:74,1,72.1999991186524
237,118,108039,6,0,B|256:168|217:212|198:188|157:223|174:285,1,193.800001182861,8|2,2:2|1:2,0:0:0:0:
310,358,108523,1,4,0:2:0:0:
251,264,108685,1,10,2:2:0:0:
185,370,108845,1,2,1:3:0:0:
375,251,109007,21,2,1:2:0:0:
375,251,109329,2,0,P|389:206|411:154,1,96.9000005914307,8|2,2:2|1:2,0:0:0:0:
198,140,109652,1,2,1:2:0:0:
250,239,109813,1,2,2:2:0:0:
309,145,109975,1,10,0:2:0:0:
375,251,110135,1,2,2:2:0:0:
184,133,110297,101,2,1:2:0:0:
184,133,110619,2,0,P|170:86|151:42,1,96.9000005914307,8|2,0:2|1:2,0:0:0:0:
0,124,110942,1,2,2:2:0:0:
0,124,111023,1,2,0:3:0:0:
0,124,111103,2,0,B|52:115|87:163|60:176|86:224|150:220,1,193.800001182861,10|0,0:2|0:0,0:0:0:0:
191,142,111507,1,2,0:3:0:0:
184,133,111587,22,0,P|246:84|310:91,1,147.155624390488,6|0,1:2|0:0,0:0:0:0:
366,139,111910,2,0,L|422:130,1,49.0518747968292,10|0,0:2|0:0,0:0:0:0:
286,99,112071,2,0,P|242:99|206:125,1,90.1556210855073,2|0,1:2|0:0,0:0:0:0:
262,184,112394,2,0,L|302:178,1,41.1037468335811,2|8,0:2|0:2,0:0:0:0:
450,213,112716,2,0,P|423:172|372:167,1,96.9000005914307,2|0,1:2|2:0,0:0:0:0:
184,313,113039,2,0,P|204:275|242:257,1,87.3999970660401,2|8,0:2|0:2,0:0:0:0:
355,64,113361,2,0,P|317:82|305:125,1,77.9000011886597,2|0,1:2|1:0,0:0:0:0:
325,262,113684,2,0,B|329:198|281:172|268:199|220:164|229:112,1,193.800001182861,10|0,0:2|1:0,0:0:0:0:
144,119,114087,1,0,0:0:0:0:
137,128,114168,6,0,P|167:41|258:24,1,193.800001182861,4|8,1:2|2:2,0:0:0:0:
473,65,114652,1,2,1:2:0:0:
455,136,114813,2,0,B|427:141|418:163|418:163|425:139|413:115,1,96.9000005914307,2|0,1:2|0:0,0:0:0:0:
332,100,115136,1,10,2:2:0:0:
470,224,115297,1,2,1:2:0:0:
228,112,115458,2,0,B|148:148|167:-7|312:65|233:109,1,193.800001182861,0|10,1:0|2:2,0:0:0:0:
347,104,115942,2,0,B|377:104|384:134|384:134|354:135|344:108,1,96.9000005914307,2|0,1:2|1:0,0:0:0:0:
195,206,116265,2,0,B|200:235|173:249|173:249|164:220|192:206,1,96.9000005914307,10|0,0:2|2:0,0:0:0:0:
315,246,116587,54,0,B|352:243|375:282|354:289|369:328|418:330,1,145.350000887146,6|0,1:2|0:0,0:0:0:0:
431,328,116910,2,0,P|437:312|451:227,1,96.9000005914307,8|0,0:2|2:0,0:0:0:0:
212,177,117232,1,2,1:2:0:0:
258,241,117394,2,0,P|285:241|318:181,1,96.9000005914307,2|0,1:2|0:0,0:0:0:0:
326,218,117636,2,0,P|331:198|282:145,1,96.9000005914307,2|0,0:2|0:0,0:0:0:0:
66,161,117878,86,0,B|45:168|36:146|36:146|56:137|66:158,1,69.8249967503931,2|0,1:2|0:0,0:0:0:0:
187,129,118039,2,0,B|209:130|211:109|211:109|188:106|185:127,1,69.8249967503931,0|0,1:0|0:0,0:0:0:0:
151,249,118200,2,0,B|138:267|156:280|156:280|170:262|154:248,1,69.8249967503931
135,178,118362,22,0,B|116:226|154:271|174:247|214:282|198:344,1,194.118002407799,8|2,2:2|1:2,0:0:0:0:
9,330,118845,2,0,B|61:339|81:387|81:387|64:337|86:291,1,194.118002407799,6|2,0:2|1:3,0:0:0:0:
12,241,119329,22,0,L|0:212,1,31.3500009567261,2|0,1:2|0:0,0:0:0:0:
47,311,119652,1,10,2:2:0:0:
165,306,119813,2,0,P|192:266|194:216,1,96.9000005914307,2|0,1:2|1:0,0:0:0:0:
292,158,120136,2,0,P|276:125|236:108,1,77.9000011886597,2|8,2:2|0:2,0:0:0:0:
123,53,120458,102,0,P|127:25|119:52,1,79.7999975646973,2|0,2:2|0:0,0:0:0:0:
123,53,121103,21,2,1:2:0:0:
178,107,121265,1,0,2:0:0:0:
143,175,121426,1,10,0:2:0:0:
66,163,121587,1,6,0:2:0:0:
55,88,121749,1,0,0:0:0:0:
61,83,121829,1,2,0:3:0:0:
66,78,121910,6,0,P|122:86|196:111,1,131.09999559906,6|0,1:2|0:0,0:0:0:0:
204,120,122232,1,10,0:2:0:0:
367,40,122394,2,0,P|329:61|295:90,1,87.3999970660401,2|0,1:2|2:0,0:0:0:0:
194,217,122716,2,0,P|221:250|242:289,1,87.3999970660401,2|8,0:2|0:2,0:0:0:0:
418,384,123039,2,0,P|438:345|466:311,1,87.3999970660401,2|0,1:2|2:0,0:0:0:0:
323,218,123361,2,0,B|352:252|349:299|349:299|355:253|398:233,1,174.79999413208,2|2,0:2|1:2,0:0:0:0:
372,156,123845,1,0,1:0:0:0:
330,88,124007,2,0,B|286:70|246:105|267:123|236:159|179:144,1,174.79999413208,10|0,0:2|1:0,0:0:0:0:
131,90,124410,1,0,0:0:0:0:
136,75,124490,54,0,P|158:110|174:208,1,131.09999559906,4|0,1:2|0:0,0:0:0:0:
160,212,124813,2,0,L|133:304,1,87.3999970660401,8|0,2:2|1:0,0:0:0:0:
172,374,125136,1,0,1:0:0:0:
31,171,125297,2,0,L|58:263,1,87.3999970660401,0|8,0:0|2:2,0:0:0:0:
19,333,125620,1,2,1:2:0:0:
3,97,125781,22,0,P|45:90|82:111,1,87.3999970660401,2|0,1:2|0:0,0:0:0:0:
287,236,126103,1,10,2:2:0:0:
213,216,126264,2,0,P|179:244|173:286,1,87.3999970660401,2|0,1:2|1:0,0:0:0:0:
327,360,126587,2,0,P|302:300|288:236,1,131.09999559906,10|0,0:2|0:0,0:0:0:0:
266,160,126910,2,0,B|310:139|323:96|323:96|316:143|341:179,1,174.79999413208,6|10,1:2|0:2,0:0:0:0:
508,135,127394,1,0,2:0:0:0:
436,177,127555,2,0,P|419:217|410:260,1,87.3999970660401,2|0,1:2|1:0,0:0:0:0:
512,384,127878,2,0,P|495:343|486:300,1,87.3999970660401,2|8,0:2|2:2,0:0:0:0:
239,271,128200,70,0,B|234:250|214:254|214:254|217:276|238:274,1,67.4499966036226,2|0,1:2|0:0,0:0:0:0:
316,310,128361,2,0,B|335:316|342:296|342:296|321:289|314:306,1,67.4499966036226,0|0,1:0|0:0,0:0:0:0:
236,359,128523,2,0,B|220:372|234:388|234:388|250:374|238:358,1,67.4499966036226
252,349,128684,6,0,P|234:266|207:170,1,174.79999413208,8|2,2:2|1:2,0:0:0:0:
100,242,129168,1,4,0:2:0:0:
119,173,129329,2,0,L|135:122,1,49.3999996984863,10|2,2:2|1:3,0:0:0:0:
26,36,129652,22,0,B|22:21|31:7|31:7|25:-8|7:-11|7:-11|-4:1|-18:-1|-18:-1|-28:13|-22:28|-22:28|-8:31|-1:47|-1:47|16:50|26:36,1,174.79999413208,2|8,1:2|2:2,0:0:0:0:
58,110,130136,2,0,B|116:118|143:79|120:64|156:25|202:38,1,174.79999413208,2|0,1:2|2:0,0:0:0:0:
254,142,130619,1,8,0:2:0:0:
236,224,130781,1,0,2:0:0:0:
219,306,130942,2,0,L|211:337,1,32.0156211871642,0|8,1:0|0:2,0:0:0:0:
338,273,131426,1,2,1:2:0:0:
283,362,131587,2,0,B|237:371|201:332|224:317|197:278|139:286,1,174.79999413208,2|6,2:2|0:2,0:0:0:0:
9,358,132071,1,0,0:0:0:0:
6,370,132152,1,2,0:3:0:0:
9,380,132232,102,0,P|24:360|35:206,1,174.79999413208,6|10,1:2|0:2,0:0:0:0:
155,112,132716,2,0,P|121:86|81:99,1,87.3999970660401,2|0,1:2|2:0,0:0:0:0:
31,226,133039,2,0,P|47:202|29:225,1,87.3999970660401,2|8,0:2|0:2,0:0:0:0:
80,364,133361,2,0,P|98:324|126:291,1,87.3999970660401,2|0,1:2|2:0,0:0:0:0:
162,120,133684,2,0,P|189:153|225:177,1,87.3999970660401,2|8,0:2|0:2,0:0:0:0:
335,304,134007,2,0,P|372:282|415:272,1,87.3999970660401,2|0,1:2|1:0,0:0:0:0:
512,123,134329,2,0,B|481:61|412:78|412:78|402:106|376:116,1,174.79999413208,10|0,0:2|1:0,0:0:0:0:
328,50,134732,1,0,0:0:0:0:
341,55,134813,22,0,P|360:101|382:196,1,131.09999559906,4|0,1:2|0:0,0:0:0:0:
392,187,135136,2,0,P|373:225|365:268,1,87.3999970660401,8|0,2:2|1:0,0:0:0:0:
405,336,135458,1,0,1:0:0:0:
250,228,135619,2,0,P|264:268|288:304,1,87.3999970660401,0|8,0:0|2:2,0:0:0:0:
286,384,135941,1,2,1:2:0:0:
142,325,136103,6,0,B|68:288|197:215|221:356|148:327,1,174.79999413208,2|10,1:2|2:2,0:0:0:0:
43,228,136587,2,0,P|26:187|0:152,1,87.3999970660401,2|0,1:2|1:0,0:0:0:0:
259,127,136910,2,0,P|241:167|236:211,1,87.3999970660401,10|0,0:2|2:0,0:0:0:0:
144,152,137232,1,6,1:2:0:0:
82,98,137394,2,0,B|102:57|91:15|91:15|94:6|94:6|108:53|152:71,1,182.400004453125,2|0,1:2|2:0,0:0:0:0:
235,209,137878,2,0,P|275:227|299:263,1,87.3999970660401,2|0,1:2|1:0,0:0:0:0:
392,368,138200,2,0,P|416:332|416:288,1,87.3999970660401,0|8,0:0|2:2,0:0:0:0:
419,145,138523,22,0,B|436:156|448:139|448:139|430:126|417:142,1,67.4499966036226,0|0,1:0|0:0,0:0:0:0:
373,81,138684,2,0,B|390:69|379:51|379:51|360:62|369:81,1,67.4499966036226,0|0,1:0|0:0,0:0:0:0:
297,95,138845,2,0,B|293:74|273:77|273:77|275:99|296:98,1,67.4499966036226
345,146,139007,22,0,B|337:204|376:231|391:208|430:244|417:290,1,174.79999413208,8|2,2:2|1:2,0:0:0:0:
331,367,139490,1,4,0:2:0:0:
292,305,139652,2,0,L|298:261,1,43.6999985330201,10|2,2:2|1:3,0:0:0:0:
325,69,139974,22,0,B|369:48|382:5|382:5|375:52|400:88,1,174.79999413208,2|8,1:2|2:2,0:0:0:0:
512,101,140458,2,0,P|426:115|344:146,1,174.79999413208,2|0,1:2|2:0,0:0:0:0:
259,212,140942,1,8,0:2:0:0:
178,189,141104,1,0,2:0:0:0:
97,168,141265,2,0,L|66:158,1,32.0156118424101,0|8,1:0|0:2,0:0:0:0:
176,205,141749,1,0,1:0:0:0:
154,121,141910,2,0,P|111:129|71:147,1,87.3999970660401,2|8,2:2|0:2,0:0:0:0:
42,303,142232,2,0,B|21:294|27:272|27:272|46:281|43:302,1,74.0999995477295,6|2,0:2|0:3,0:0:0:0:
0,384,142555,102,0,P|49:315|134:313,1,174.79999413208,6|10,1:2|0:2,0:0:0:0:
190,164,143039,2,0,P|225:187|235:229,1,87.3999970660401,2|0,1:2|2:0,0:0:0:0:
231,361,143361,2,0,P|247:336|235:363,1,87.3999970660401,2|8,0:2|0:2,0:0:0:0:
18,191,143684,2,0,P|67:197|102:217,1,87.3999970660401,2|0,1:2|2:0,0:0:0:0:
257,111,144007,2,0,P|228:143|189:163,1,87.3999970660401,2|8,0:2|0:2,0:0:0:0:
326,48,144329,2,0,P|349:78|349:116,1,77.9000011886597,2|0,1:2|1:0,0:0:0:0:
257,111,144652,2,0,B|204:119|172:79|197:68|164:33|112:40,1,171.000004174805,10|0,0:2|0:0,0:0:0:0:
49,78,145136,22,0,P|99:139|129:213,1,159.600001948242,4|0,1:2|0:0,0:0:0:0:
112,327,145458,2,0,B|95:305|96:279|96:279|81:303|53:309,1,106.400001298828,8|0,2:2|1:0,0:0:0:0:
167,275,145781,1,0,1:0:0:0:
129,213,145942,2,0,P|144:178|174:153,1,77.9000011886597,0|8,0:0|2:2,0:0:0:0:
70,0,146265,1,0,1:0:0:0:
0,77,146426,2,0,B|92:80|47:15|142:18,1,159.600001948242,0|0,1:0|0:0,0:0:0:0:
216,73,146749,2,0,B|234:35|213:16|213:16|215:43|195:65,1,106.400001298828,8|0,2:2|1:0,0:0:0:0:
372,297,147071,5,2,1:2:0:0:
374,287,147286,53,2,0:2:0:0:
365,291,147501,21,2,0:2:0:0:
464,298,147716,2,0,L|288:322,1,173.849992837601,2|0,1:2|0:0,0:0:0:0:
240,265,148039,2,0,L|221:257,1,19.9499993911743,2|0,2:2|0:0,0:0:0:0:
236,371,148200,2,0,L|218:384,1,19.9499993911743,2|0,1:2|0:0,0:0:0:0:
291,321,148361,1,0,1:0:0:0:
127,321,148523,102,0,P|106:236|73:156,1,173.849992837601
60,138,148845,21,0,1:0:0:0:
85,231,149006,1,0,1:0:0:0:
127,320,149168,1,0,0:0:0:0:
60,138,149329,2,0,B|59:115|82:94|82:94|47:106|53:146,1,115.899995225067,8|0,2:2|1:0,0:0:0:0:
277,38,149652,5,2,1:2:0:0:
287,42,149867,53,2,0:2:0:0:
283,52,150082,21,2,0:2:0:0:
195,92,150297,2,0,P|280:76|367:78,1,173.849992837601,2|0,1:2|0:0,0:0:0:0:
411,141,150619,2,0,P|420:143|429:148,1,19.9499993911743,10|0,2:2|0:0,0:0:0:0:
432,39,150781,2,0,P|441:37|450:33,1,19.9499993911743,2|0,1:2|0:0,0:0:0:0:
367,78,150942,1,0,1:0:0:0:
301,285,151103,102,0,L|518:255,1,212.800002597656,0|0,2:0|2:0,0:0:0:0:
301,285,151587,2,0,B|285:287|279:298|279:298|278:286|269:279,1,49.3999996984863,0|0,1:0|0:0,0:0:0:0:
101,179,151910,2,0,B|132:182|146:204|146:204|147:178|170:158,1,106.400001298828,8|2,0:2|1:2,0:0:0:0:
326,159,152232,21,2,2:2:0:0:
319,168,152447,5,2,0:2:0:0:
314,157,152663,53,2,0:2:0:0:
404,144,152878,2,0,L|246:116,1,159.600001948242,6|0,1:2|0:0,0:0:0:0:
190,160,153200,2,0,L|171:166,1,19.9499993911743,10|0,0:2|0:0,0:0:0:0:
206,53,153361,2,0,L|190:40,1,19.9499993911743,2|0,1:2|0:0,0:0:0:0:
246,116,153523,1,0,2:0:0:0:
69,84,153684,22,0,L|113:91,1,39.8999987823487,2|8,0:2|0:2,0:0:0:0:
287,47,154007,1,2,1:2:0:0:
287,47,154087,1,2,0:2:0:0:
287,47,154168,1,0,2:0:0:0:
311,241,154329,101,2,0:2:0:0:
357,145,154490,1,8,0:2:0:0:
304,248,154652,21,2,1:2:0:0:
389,336,154813,1,0,1:0:0:0:
314,249,154974,5,10,0:2:0:0:
177,271,155136,54,0,L|208:266,1,31.3500009567261,4|0,0:2|0:0,0:0:0:0:
165,347,155458,22,0,P|147:274|118:191,1,159.600001948242,4|0,1:2|0:0,0:0:0:0:
35,208,155781,2,0,B|28:186|36:164|56:155|56:155|44:176|46:197,1,106.400001298828,8|0,2:2|1:0,0:0:0:0:
138,125,156103,1,0,1:0:0:0:
251,181,156265,2,0,P|235:231|225:284,1,106.400001298828,0|8,0:0|2:2,0:0:0:0:
366,350,156587,1,0,1:0:0:0:
441,305,156749,2,0,L|284:334,1,159.600001948242,0|0,1:0|0:0,0:0:0:0:
155,302,157071,2,0,B|182:300|198:326|198:326|199:296|224:283,1,106.400001298828,8|0,2:2|1:0,0:0:0:0:
263,135,157394,101,2,1:2:0:0:
282,137,157609,21,2,0:2:0:0:
299,147,157824,5,2,0:2:0:0:
290,235,158039,2,0,P|309:157|340:84,1,159.600001948242,2|0,1:2|0:0,0:0:0:0:
415,82,158361,2,0,L|431:70,1,19.9499993911743,2|0,2:2|0:0,0:0:0:0:
298,19,158523,2,0,L|297:0,1,19.9499993911743,2|0,1:2|0:0,0:0:0:0:
339,84,158684,1,0,1:0:0:0:
282,137,158845,54,0,L|125:107,1,159.600001948242
110,104,159168,21,0,1:0:0:0:
195,138,159329,1,0,1:0:0:0:
282,137,159490,1,0,0:0:0:0:
110,104,159652,2,0,B|85:121|82:147|82:147|70:124|39:117,1,106.400001298828,8|0,2:2|1:0,0:0:0:0:
177,344,159974,101,2,1:2:0:0:
171,333,160189,21,2,0:2:0:0:
164,326,160404,5,2,0:2:0:0:
253,320,160619,2,0,B|158:331|187:279|100:287,1,159.600001948242,2|0,1:2|0:0,0:0:0:0:
56,227,160942,2,0,L|37:220,1,19.9499993911743,10|0,2:2|0:0,0:0:0:0:
45,334,161103,2,0,L|26:340,1,19.9499993911743,2|0,1:2|0:0,0:0:0:0:
101,286,161265,1,0,1:0:0:0:
211,91,161426,54,0,L|0:117,1,212.800002597656,0|0,2:0|2:0,0:0:0:0:
211,91,161910,2,0,B|211:78|225:73|225:73|235:84|229:95,1,49.3999996984863,0|0,1:0|0:0,0:0:0:0:
333,241,162232,2,0,B|331:213|300:203|300:203|278:227|291:252,1,106.400001298828,8|2,0:2|1:2,0:0:0:0:
429,339,162555,21,2,2:2:0:0:
425,328,162770,101,2,0:2:0:0:
415,324,162985,21,2,0:2:0:0:
499,381,163200,2,0,P|416:347|325:328,1,173.849992837601,6|0,1:2|0:0,0:0:0:0:
301,260,163523,2,0,P|293:253|286:245,1,19.9499993911743,10|0,0:2|0:0,0:0:0:0:
274,372,163684,2,0,P|265:377|257:382,1,19.9499993911743,2|0,1:2|0:0,0:0:0:0:
333,329,163845,1,0,2:0:0:0:
167,281,164007,6,0,L|205:292,1,39.8999987823487,2|8,0:2|0:2,0:0:0:0:
71,196,164329,1,2,1:2:0:0:
71,196,164410,1,2,0:2:0:0:
71,196,164490,1,0,2:0:0:0:
271,174,164652,2,0,P|267:193|265:213,1,39.8999987823487,2|8,0:2|0:2,0:0:0:0:
228,32,164974,53,2,1:3:0:0:
167,281,165136,1,2,1:1:0:0:
414,210,165297,1,10,0:2:0:0:
193,155,165458,21,4,0:2:0:0:
291,249,165619,1,2,1:2:0:0:
323,117,165780,1,0,2:0:0:0:
315,378,166426,102,0,B|302:369|289:369|289:369|292:356|289:344|289:344|302:344|315:335|315:335|317:347|330:356|330:356|317:366|315:378,2,124.892921757027,2|2|2,0:1|0:1|0:1,0:0:0:0:
322,384,167071,2,0,P|329:329|352:247,2,136.800003339844,0|2|0,0:0|0:2|0:0,0:0:0:0:
252,360,167878,2,0,P|223:343|190:334,1,68.4000016699219,2|0,0:2|0:0,0:0:0:0:
139,384,168200,1,2,0:3:0:0:
72,350,168361,2,0,B|73:301|121:282|124:294|172:275|173:227,1,170.155536883197,0|2,0:0|0:2,0:0:0:0:
72,193,169007,22,0,B|69:205|62:212|62:212|70:218|76:226|76:226|83:220|95:218|95:218|90:209|92:197|92:197|80:198|71:192,2,106.998675178397,2|2|2,0:1|0:1|0:1,0:0:0:0:
121,288,169652,1,0,0:0:0:0:
185,322,169813,1,0,0:0:0:0:
249,356,169974,2,0,P|264:331|313:208,1,155.800002377319,2|0,0:2|0:0,0:0:0:0:
235,222,170458,2,0,B|236:270|284:289|287:277|335:296|336:345,1,169.735520558975,2|2,0:2|0:3,0:0:0:0:
384,270,170942,6,0,P|409:258|437:251,1,56.367760087908
326,220,171265,2,0,P|335:193|349:169,1,56.367760087908,2|0,0:2|0:0,0:0:0:0:
448,147,171587,1,0,0:0:0:0:
500,202,171749,2,0,B|455:218|451:269|464:268|461:320|414:336,1,169.735544533814,2|0,0:2|0:0,0:0:0:0:
348,296,172232,2,0,P|336:266|322:169,2,131.735545006749,0|2|0,0:0|0:2|0:0,0:0:0:0:
305,370,173039,2,0,P|282:345|233:260,1,131.735545006749,2|2,0:2|0:3,0:0:0:0:
236,251,173442,1,0,0:0:0:0:
241,242,173523,54,0,B|193:245|168:200|181:196|157:150|107:154,1,170.763120518116,0|2,0:0|0:2,0:0:0:0:
114,266,174168,1,0,0:0:0:0:
114,266,174329,2,0,P|138:222|162:139,1,132.763122681653,2|0,0:2|0:0,0:0:0:0:
229,184,174813,2,0,P|239:216|243:249,1,66.3815613408267
282,368,175136,2,0,P|286:335|296:303,1,66.3815613408267,2|0,0:2|0:0,0:0:0:0:
364,262,175458,1,0,0:0:0:0:
364,262,175619,2,0,P|381:325|411:384,1,132.763122681653,2|0,0:2|0:0,0:0:0:0:
419,384,176023,1,0,0:0:0:0:
427,380,176103,22,0,B|468:356|465:305|452:308|447:257|491:233,1,170.53387795618,0|2,0:0|0:2,0:0:0:0:
383,317,176749,1,0,0:0:0:0:
383,317,176910,2,0,P|310:329|213:357,1,170.533881170651,2|0,0:2|0:0,0:0:0:0:
147,316,177394,2,0,P|140:274|118:237,1,85.2669405853255
220,273,177716,2,0,P|235:233|234:191,1,85.2669405853255,2|0,0:2|0:0,0:0:0:0:
75,175,178039,1,0,0:0:0:0:
143,157,178200,2,0,B|97:171|90:222|103:222|97:273|49:287,1,170.53387795618,2|2,0:2|0:3,0:0:0:0:
207,197,178684,2,0,P|221:175|235:113,1,85.2669405853255
260,267,179007,2,0,P|313:227|353:169,1,132.533876560329,2|0,0:2|0:0,0:0:0:0:
482,185,179458,102,0,B|470:174|455:174|455:174|459:160|458:147|458:147|470:147|484:140|484:140|486:153|498:163|498:163|486:173|483:185,2,136.427104936521,2|2|2,0:1|0:1|0:1,0:0:0:0:
449,252,180136,1,0,0:0:0:0:
415,383,180297,2,0,P|406:348|333:229,1,170.533881170651,2|0,0:2|0:0,0:0:0:0:
402,187,180781,2,0,P|408:157|426:100,1,85.2669405853255,2|0,0:2|0:0,0:0:0:0:
366,50,181103,1,2,0:3:0:0:
312,108,181265,2,0,B|266:122|259:173|272:173|266:224|218:238,1,170.53387795618,0|2,0:0|0:2,0:0:0:0:
34,84,181974,22,0,B|28:71|16:62|16:62|28:52|30:38|30:38|45:46|57:46|57:46|56:58|59:73|59:73|45:73|34:84,2,136.427104936521,2|2|2,0:1|0:1|0:1,0:0:0:0:
41,93,182555,2,0,P|52:122|53:156,1,66.2669382801646,2|0,0:2|0:0,0:0:0:0:
145,156,182878,2,0,P|140:187|123:217,1,66.2669382801646,2|0,0:2|0:0,0:0:0:0:
133,356,183200,1,0,0:0:0:0:
126,348,183281,1,2,0:3:0:0:
124,337,183361,2,0,P|148:309|235:261,1,132.533876560329,2|2,0:2|0:3,0:0:0:0:
268,336,183845,2,0,P|287:363|315:381,1,66.2669382801646
308,271,184168,2,0,P|339:263|363:240,1,66.2669382801646,2|0,0:2|0:0,0:0:0:0:
512,180,184490,5,0,0:0:0:0:
445,206,184652,2,0,B|397:189|394:138|407:138|403:87|357:71,1,170.53387795618,2|0,0:2|0:0,0:0:0:0:
187,54,185136,53,2,0:3:0:0:
282,139,185619,21,2,0:3:0:0:
250,271,185781,1,2,0:1:0:0:
152,177,185942,1,2,0:2:0:0:
126,303,186103,101,2,0:3:0:0:
373,232,186265,1,2,1:2:0:0:
187,54,186426,54,0,B|171:82|171:82|266:237|266:237|250:271,1,251.622209076284,4|8,1:2|2:2,0:0:0:0:
178,240,186910,1,0,1:0:0:0:
268,344,187071,2,0,B|290:370|325:368|325:368|269:389|224:344|224:344|179:299|123:320|123:320|126:352|111:375,1,342.821052654764,2|0,1:1|1:0,2:0:0:0:
321,248,187716,22,0,B|345:201|309:130|218:154|218:154|290:188|245:232|304:247,1,313.992125281477,2|0,1:1|1:0,2:2:0:0:
387,140,188361,2,0,B|430:100|401:52|401:52|357:83|379:137,1,194.039292526641,2|2,1:1|2:2,2:2:0:0:
348,371,188845,1,4,1:2:0:0:
420,270,189007,102,0,B|407:223|453:166|531:205|531:205|469:215|492:270|436:272,1,289.468145894883,2|0,1:1|2:0,2:2:0:0:
348,371,189490,2,0,P|308:176|276:4,1,374.015727514978,2|8,1:1|2:2,2:2:0:0:
364,43,190136,1,0,1:0:0:0:
226,168,190297,1,0,1:0:0:0:
394,215,190458,1,0,0:0:0:0:
236,364,190619,2,0,B|220:336|250:318|250:318|269:350|240:365,1,108.325672635646,8|0,2:2|1:0,0:0:0:0:
101,172,190942,102,0,P|77:199|67:235,1,73.8411390952854,2|4,1:1|0:2,2:2:0:0:
147,66,191265,2,0,P|110:68|79:86,1,73.8411312069809,10|2,0:2|1:3,2:2:0:0:
143,234,191587,2,0,P|129:152|87:20,1,221.908052396779,2|8,1:1|2:2,2:2:0:0:
286,180,192071,22,0,B|196:231|203:142|120:165|120:165|146:124|305:76|242:276|350:262|350:262|335:163|461:34|488:142|507:146|512:173|522:108|502:253|462:138|404:190,1,846.801201107309,2|8,1:1|0:2,2:2:0:0:
300,105,193361,1,0,1:0:0:0:
381,64,193523,1,0,2:2:0:0:
440,129,193684,102,0,B|456:165|456:165|361:320|361:320|377:348,1,253.441051827357,8|2,0:2|0:2,0:0:0:0:
444,325,194087,1,2,0:3:0:0:
444,325,194168,2,0,P|405:259|362:211,1,141.324240585252,4|0,1:2|0:0,2:2:0:0:
220,57,194490,2,0,B|216:29|186:35|186:35|189:62|216:60,2,90.8693849650102,10|2|0,0:2|1:1|2:0,2:2:0:0:
122,112,194974,2,0,P|98:71|94:19,1,99.7499969558717,2|8,0:1|0:2,2:2:0:0:
398,0,195297,102,0,P|361:48|357:109,1,123.499994346619,2|0,1:1|2:0,2:2:0:0:
505,163,195620,2,0,P|464:171|432:200,1,85.4999973907472,2|8,0:1|0:2,2:2:0:0:
486,329,195942,2,0,P|467:307|441:296,1,56.9999982604981,2|0,1:1|1:0,2:2:0:0:
377,384,196265,2,0,P|376:365|365:349,1,38,2|4,0:1|0:2,2:2:0:0:
243,199,196587,1,2,1:2:0:0:
134,341,196749,22,0,B|72:370|23:271|138:210|200:287|200:287|202:317|223:335,1,297.099756605079,4|8,1:2|2:2,2:2:0:0:
425,207,197232,2,1,B|443:165|484:179|480:192|535:161|531:15|396:93|403:94|340:116|325:216|335:209|346:270|274:283,1,423.964409276298,2|0,1:0|1:0,2:2:0:0:
154,138,198039,2,0,P|180:114|158:142,1,106.221800999617,0|0,1:0|0:0,0:0:0:0:
0,93,198361,1,8,2:2:0:0:
75,232,198523,1,2,1:2:0:0:
6,264,198684,102,0,B|-24:204|29:146|49:178|103:123|72:60,2,236.015361832558,2|2|6,1:1|0:1|1:2,2:2:0:0:
72,59,199329,102,0,B|121:73|162:34|154:-38|139:-77|28:-83|-138:-48|-184:79|-38:223|98:334|190:180|310:213|328:272|306:267|329:281|321:282|366:324|355:375|302:417|244:408|209:363,1,910.040898283842,2|0,1:1|1:0,2:2:0:0:
268,174,200619,2,0,B|220:89|280:41|279:81|259:-20|382:9|378:117|284:43|267:136,1,309.515229917605,2|0,1:1|1:0,2:2:0:0:
158,309,201265,2,0,B|137:276|0:238|5:353|17:323|-64:333|-41:445|98:443|43:372|27:337|70:311|116:309,1,383.943773245869,2|2,1:1|1:3,2:2:0:0:
183,152,201910,2,0,B|181:121|152:114|152:114|153:141|176:150,1,99.087558335645,2|8,1:1|2:2,2:2:0:0:
480,19,202394,2,0,B|495:-12|543:-18|543:-18|485:-35|429:0|423:65|423:65|394:110|364:103|353:72|291:89|291:89|323:46|378:37|423:65|423:65|515:106|543:236|474:316,1,833.547674367898,2|8,1:1|0:2,2:2:0:0:
181,353,203684,21,0,1:0:0:0:
340,262,203845,1,0,2:0:0:0:
373,329,204007,102,0,B|338:346|338:346|178:258|178:258|151:277,1,253.441051827357,8|2,0:2|0:2,0:0:0:0:
181,353,204410,1,2,0:3:0:0:
181,353,204490,2,0,P|179:310|157:229,1,126.720523920587,4|0,1:2|0:0,2:2:0:0:
15,14,204813,2,0,B|17:-8|-5:-14|-5:-14|-11:6|8:17,2,75.0861347342436,10|2|0,0:2|1:1|2:0,2:2:0:0:
105,145,205297,2,0,P|45:99|-30:92,1,152.843240561376,2|8,0:1|0:2,2:2:0:0:
140,0,205619,2,0,P|187:74|185:162,1,179.102858121726,2|0,1:1|2:0,2:2:0:0:
46,291,205942,2,0,P|77:244|130:223,1,114.626875522067,2|8,2:1|0:2,2:2:0:0:
326,212,206265,101,2,1:3:0:0:
326,212,206426,1,2,1:1:0:0:
207,241,206587,2,0,P|234:256|267:260,1,64.4981627684983,10|4,2:2|0:2,2:2:0:0:
173,333,206910,37,2,1:2:0:0:
178,329,206990,1,2,0:2:0:0:
182,324,207071,2,0,P|151:331|124:350,1,65.1568965997207,4|0,1:2|0:0,0:0:0:0:
51,384,207232,2,0,P|41:349|-9:311,1,92.3137920445722,2|8,0:2|2:2,0:0:0:0:
117,61,207555,2,0,B|138:111|88:153|88:153|36:197|57:245,2,210.155067791838,2|0|0,1:2|0:0|1:0,0:0:0:0:
40,35,208361,1,0,1:0:0:0:
40,35,208523,1,0,0:0:0:0:
52,114,208684,2,0,P|91:148|123:193,1,107.185889763911,8|0,2:2|1:0,0:0:0:0:
368,239,209007,21,2,1:2:0:0:
341,247,209222,101,2,0:2:0:0:
348,221,209437,21,2,0:2:0:0:
413,245,209652,2,0,L|250:216,1,159.434258046271,2|0,1:2|0:0,0:0:0:0:
198,165,209974,2,0,P|192:156|189:147,1,20.0079351474908,2|0,2:2|0:0,0:0:0:0:
182,244,210136,2,0,P|175:251|170:259,1,19.8947539294721,2|0,1:2|0:0,0:0:0:0:
123,193,210297,1,0,1:0:0:0:
253,258,210458,2,0,B|296:278|333:232|333:232|372:188|416:205,1,185.577050101321,2|0,0:2|0:0,0:0:0:0:
419,218,210781,2,0,L|457:227,1,38.21803688622,2|0,1:2|1:0,0:0:0:0:
405,318,211103,5,2,0:2:0:0:
320,200,211265,1,8,2:2:0:0:
383,78,211426,2,0,P|403:66|426:59,1,47.7180353651442,2|0,1:2|1:0,0:0:0:0:
304,56,211749,2,0,P|288:38|269:24,1,47.7180353651442,6|8,0:2|2:2,0:0:0:0:
358,0,212071,1,2,1:3:0:0:
432,191,212232,54,0,L|249:222,1,185.577046413636,2|0,1:2|0:0,0:0:0:0:
179,190,212555,2,0,P|173:185|168:179,1,14.3590186404874,10|0,2:2|0:0,0:0:0:0:
191,270,212716,2,0,P|187:277|184:283,1,14.3590186404874,2|0,1:2|0:0,0:0:0:0:
123,239,212878,1,0,1:0:0:0:
266,292,213039,22,0,B|335:286|354:204|325:206|344:122|412:118,1,246.999988693238,0|0,2:0|2:0,0:0:0:0:
235,286,213523,2,0,B|246:293|247:305|247:305|252:295|266:292,1,47.5,0|0,1:0|0:0,0:0:0:0:
500,176,213845,2,0,B|475:193|473:219|473:219|462:197|432:191,1,104.500003189087,8|0,0:2|1:0,0:0:0:0:
165,0,214168,102,0,P|106:-9|72:38,1,123.499994346619,2|8,2:2|0:2,0:0:0:0:
179,203,214490,2,0,P|202:149|164:103,1,123.499994346619,6|0,0:2|0:0,0:0:0:0:
156,98,214732,1,2,0:3:0:0:
146,96,214813,2,0,P|81:169|58:321,1,246.999988693238,6|10,1:2|0:2,0:0:0:0:
318,248,215297,22,0,P|346:245|372:257,1,56.9999982604981,2|0,1:2|2:0,0:0:0:0:
367,352,215619,2,0,P|325:355|287:336,1,85.4999973907472,2|8,0:2|0:2,0:0:0:0:
224,5,215942,2,0,P|263:52|270:112,1,123.499994346619,2|0,1:2|2:0,0:0:0:0:
125,133,216265,2,0,P|161:154|182:191,1,85.4999973907472,2|8,0:2|0:2,0:0:0:0:
86,290,216587,2,0,P|110:275|138:273,1,56.9999982604981,2|0,1:2|1:0,0:0:0:0:
170,375,216910,2,0,P|174:357|187:343,1,38,10|4,0:2|0:2,0:0:0:0:
425,354,217232,5,2,1:2:0:0:
428,363,217313,1,2,0:2:0:0:
426,373,217394,2,0,B|353:390|305:323|345:315|297:248|224:265,1,246.999988693238,6|8,1:2|2:2,0:0:0:0:
203,377,217878,1,2,1:2:0:0:
219,358,217959,1,2,0:2:0:0:
243,342,218039,2,0,P|331:299|406:288,1,174.450284305554,0|8,1:0|2:2,0:0:0:0:
405,288,218523,1,0,1:0:0:0:
232,242,218684,2,0,B|198:177|293:115|384:218|293:315,1,246.999988693238,0|8,1:0|2:2,0:0:0:0:
222,336,219087,53,2,0:2:0:0:
229,323,219329,21,2,1:2:0:0:
233,343,219544,101,2,0:2:0:0:
241,331,219732,21,2,0:2:0:0:
123,91,219974,6,0,B|101:110|113:143|113:143|116:118|134:102,1,103.962754280047,2|0,1:2|0:0,0:0:0:0:
183,152,220296,54,0,P|102:162|23:234,1,191.651058645038,0|0,2:0|1:0,0:0:0:0:
185,228,220780,2,0,P|124:232|83:277,1,124.99149269404,0|2,0:0|1:2,0:0:0:0:
412,53,221265,22,1,B|429:12|500:-6|556:63|523:168|416:105|403:197,1,300.649538039585,2|8,1:2|2:2,0:0:0:0:
396,291,221749,1,0,1:0:0:0:
412,53,221910,2,1,B|397:4|323:-29|249:37|259:166|390:103|393:214,1,341.901520599795,2|2,1:2|1:3,0:0:0:0:
462,118,222555,2,0,P|344:77|223:45,1,250.1331886142,2|8,1:2|2:2,0:0:0:0:
177,126,223039,1,2,1:2:0:0:
191,124,223119,1,2,0:2:0:0:
199,129,223200,2,0,B|269:137|310:66|269:62|310:-10|384:0,1,246.408100928468,0|8,1:0|0:2,0:0:0:0:
384,0,223684,1,0,2:0:0:0:
113,96,223845,102,0,B|53:89|41:-14|153:-34|200:41,1,236.554718605313,0|8,1:0|0:2,0:0:0:0:
102,344,224329,21,2,0:2:0:0:
83,336,224490,5,2,0:2:0:0:
91,317,224706,53,2,0:2:0:0:
110,325,224921,21,2,0:2:0:0:
172,207,225136,102,0,P|156:130|102:74,1,158.477388272667,6|0,1:2|0:0,0:0:0:0:
56,16,225458,2,0,P|32:46|29:85,1,59.1386823720863,10|0,0:2|0:0,0:0:0:0:
75,144,225619,2,0,P|113:148|148:131,1,59.1386823720863,2|0,1:2|0:0,0:0:0:0:
216,91,225781,1,0,2:0:0:0:
216,91,225942,2,0,P|162:147|146:223,1,157.466633285371,2|0,0:2|0:0,0:0:0:0:
225,208,226265,22,0,P|255:157|315:154,1,123.644969994833,2|0,1:2|2:0,0:0:0:0:
345,228,226587,2,0,P|315:268|264:266,1,95.6203592582615,2|8,0:2|0:2,0:0:0:0:
410,309,226910,2,0,P|435:342|446:384,1,76.0826860539475,2|0,1:2|1:0,0:0:0:0:
505,323,227232,2,0,P|489:289|462:262,1,67.0175463146604,8|4,2:2|2:2,0:0:0:0:
291,136,227555,1,0,1:0:0:0:
302,143,227636,1,0,0:0:0:0:
308,152,227716,6,0,B|370:166|412:100|412:100|451:32|512:49,1,247.538681820696,4|8,1:2|2:2,0:0:0:0:
492,125,228200,1,2,1:2:0:0:
321,67,228361,2,0,P|409:88|492:125,1,181.456050872196,2|8,1:2|2:2,0:0:0:0:
450,193,228846,1,2,1:2:0:0:
286,202,229007,2,0,P|324:166|376:166,1,106.400001298828,2|0,1:2|0:0,0:0:0:0:
276,281,229330,1,8,2:2:0:0:
118,279,229491,2,0,B|174:288|195:340|195:340|177:286|202:235,1,212.800002597656,2|10,1:2|0:2,0:0:0:0:
122,189,229974,1,0,2:0:0:0:
35,364,230136,54,0,B|20:308|67:264|86:292|134:258|123:190,1,212.800002597656,6|10,0:2|0:2,0:0:0:0:
0,33,230619,1,0,2:0:0:0:
27,109,230781,2,0,P|75:118|117:68,1,106.400001298828,2|0,1:2|1:0,0:0:0:0:
299,52,231103,2,0,P|262:16|211:24,1,106.400001298828,2|8,0:2|2:2,0:0:0:0:
345,287,231426,86,0,B|367:286|376:264|376:264|350:258|340:277,1,79.8000009741211,2|0,1:2|0:0,0:0:0:0:
318,257,231587,2,0,B|306:238|282:241|282:241|290:267|311:268,1,79.324997518673,0|0,1:0|0:0,0:0:0:0:
306,296,231749,2,0,B|295:315|310:334|310:334|328:314|318:296,1,79.324997518673
325,277,231910,22,0,B|340:221|293:177|274:205|226:171|237:103,1,212.800002597656,8|2,2:2|1:2,0:0:0:0:
324,36,232394,2,0,B|381:4|278:-47|265:63|320:37,1,130.780745138348,6|2,0:2|1:3,0:0:0:0:
425,117,232878,22,0,B|449:115|466:129|466:129|471:108|491:95|491:95|473:80|465:60|465:60|448:72|427:74|427:74|432:94|425:117,1,206.743628131641,2|8,1:2|2:2,0:0:0:0:
392,237,233361,2,0,P|428:229|391:225,1,106.400001298828,2|0,1:2|1:0,0:0:0:0:
321,281,233684,2,0,P|233:223|129:225,1,212.800002597656,0|0,2:0|2:0,0:0:0:0:
466,309,234168,2,0,P|431:341|384:333,1,98.7999993969727,0|8,1:0|0:2,0:0:0:0:
78,288,234652,1,2,1:2:0:0:
202,180,234813,1,2,2:2:0:0:
116,89,234974,1,10,0:2:0:0:
200,0,235136,2,0,L|189:49,1,49.3999996984863,6|0,0:2|0:0,0:0:0:0:
204,355,235458,102,0,P|155:294|78:290,1,159.600001948242,6|0,1:2|0:0,0:0:0:0:
15,327,235781,2,0,L|26:378,1,53.2000006494141,10|0,0:2|0:0,0:0:0:0:
167,274,235942,2,0,B|198:261|191:232|191:232|159:241|167:274,1,106.400001298828,2|0,1:2|2:0,0:0:0:0:
0,190,236265,2,0,B|-31:177|-24:148|-24:148|8:157|0:190,1,106.400001298828,2|8,0:2|0:2,0:0:0:0:
169,139,236587,2,0,B|113:148|92:200|92:200|110:146|85:94,1,212.800002597656,2|2,1:2|0:2,0:0:0:0:
156,52,237071,1,8,0:2:0:0:
156,52,237232,2,0,B|101:21|200:-27|212:77|160:53,1,124.927642017688,2|0,1:2|0:0,0:0:0:0:
244,107,237555,2,0,B|312:110|336:164|304:177|338:232|395:229,1,212.800002597656,10|0,0:2|1:0,0:0:0:0:
463,102,237958,1,0,0:0:0:0:
471,102,238039,22,0,B|487:66|451:21|387:27|365:103|395:156,1,212.800002597656,4|8,1:2|2:2,0:0:0:0:
484,290,238523,1,2,1:2:0:0:
484,290,238684,2,0,P|452:246|398:239,1,106.400001298828,2|0,1:2|0:0,0:0:0:0:
327,353,239007,2,0,B|322:377|344:390|344:390|352:365|329:353,1,88.3499964949037,10|0,2:2|0:0,0:0:0:0:
339,284,239329,2,0,P|307:328|253:335,1,106.400001298828,2|0,1:2|0:0,0:0:0:0:
149,145,239652,1,10,2:2:0:0:
328,207,239813,1,2,1:2:0:0:
185,332,239974,1,2,1:2:0:0:
247,155,240136,2,0,B|240:138|228:129|228:129|237:119|243:103|243:103|257:111|274:111|274:111|270:126|276:142|276:142|259:142|247:155,1,153.137372015772,10|0,0:2|0:0,0:0:0:0:
177,187,240458,6,0,B|118:180|106:107|131:110|118:39|59:31,1,212.800002597656,6|8,0:2|0:2,0:0:0:0:
0,268,240942,1,2,2:2:0:0:
0,268,241103,2,0,P|36:231|88:227,1,106.400001298828,2|0,1:2|1:0,0:0:0:0:
237,28,241426,2,0,P|200:64|196:116,1,106.400001298828,2|8,0:2|2:2,0:0:0:0:
420,277,241749,38,0,B|437:271|450:292|450:292|428:300|419:285,1,72.1999991186524,2|0,1:2|0:0,0:0:0:0:
361,328,241910,2,0,B|374:340|363:362|363:362|345:347|353:331,1,72.1999991186524,0|0,1:0|0:0,0:0:0:0:
288,299,242072,2,0,B|284:317|259:318|259:318|263:295|280:295,1,72.1999991186524
347,254,242232,6,0,B|382:210|376:154|344:122|344:122|305:125|280:101,1,212.800002597656,8|2,2:2|1:2,0:0:0:0:
342,8,242716,2,0,B|398:-18|385:92|282:41|339:9,1,131.177877010284,6|2,0:2|1:3,0:0:0:0:
504,43,243200,22,0,B|563:31|534:-56|412:-8|460:93,1,212.800002597656,2|8,1:2|2:2,0:0:0:0:
469,178,243684,2,0,B|497:183|508:209|508:209|499:182|512:156,1,106.400001298828,2|0,1:2|1:0,0:0:0:0:
322,205,244007,2,0,P|234:263|130:261,1,212.800002597656,0|0,2:0|2:0,0:0:0:0:
469,178,244491,2,0,P|434:146|387:154,1,98.7999993969727,0|8,1:0|0:2,0:0:0:0:
394,370,244974,1,2,1:2:0:0:
478,277,245136,1,2,2:2:0:0:
322,205,245297,1,10,0:2:0:0:
446,74,245458,2,0,L|436:125,1,49.3999996984863,6|0,0:2|0:0,0:0:0:0:
394,370,245781,102,0,P|375:332|267:301,1,159.600001948242,6|0,1:2|0:0,0:0:0:0:
227,370,246103,2,0,L|174:376,1,53.2000006494141,10|0,0:2|0:0,0:0:0:0:
267,311,246265,2,0,P|319:306|364:332,1,106.400001298828,2|0,1:2|2:0,0:0:0:0:
323,159,246587,2,0,P|272:172|239:212,1,106.400001298828,2|8,0:2|0:2,0:0:0:0:
136,208,246910,2,0,P|108:164|111:112,1,106.400001298828,2|0,1:2|2:0,0:0:0:0:
0,298,247232,2,0,P|48:317|99:304,1,106.400001298828,2|8,0:2|0:2,0:0:0:0:
230,106,247555,2,0,B|236:88|247:79|247:79|238:69|231:53|231:53|217:62|200:63|200:63|205:78|200:94|200:94|217:93|230:106,1,154.382361099099,2|0,1:2|0:0,0:0:0:0:
272,170,247878,2,0,B|330:178|361:111|336:107|367:42|426:49,1,212.800002597656,10|0,0:2|1:0,0:0:0:0:
500,13,248281,1,0,0:0:0:0:
494,0,248361,22,0,B|551:22|554:99|523:137|523:137|476:116,1,212.800002597656,4|8,1:2|2:2,0:0:0:0:
270,94,248845,1,2,1:2:0:0:
265,183,249007,2,0,B|321:192|342:244|342:244|324:190|349:137,1,212.800002597656,2|10,1:2|2:2,0:0:0:0:
161,152,249490,2,0,B|128:157|116:187|116:187|126:156|111:125,1,125.39999961731,2|0,1:2|1:0,0:0:0:0:
37,74,249813,2,0,B|33:39|1:38|1:38|5:67|37:74,1,106.400001298828,2|8,0:2|2:2,0:0:0:0:
181,64,250136,2,0,B|210:50|205:20|205:20|176:30|181:64,1,106.400001298828,2|0,1:2|1:0,0:0:0:0:
85,308,250458,2,0,B|138:332|126:227|27:276|82:307,1,125.792178872765,10|0,0:2|0:0,0:0:0:0:
12,235,250781,6,0,B|70:227|101:294|76:298|107:363|166:356,1,212.800002597656,6|8,0:2|0:2,0:0:0:0:
357,151,251265,1,2,2:2:0:0:
379,259,251426,2,0,B|407:264|418:290|418:290|409:263|422:237,1,106.400001298828,2|0,1:2|1:0,0:0:0:0:
357,151,251749,2,0,B|311:172|322:77|411:122|362:150,1,115.899995225067,2|8,0:2|2:2,0:0:0:0:
463,148,252071,22,0,B|479:156|473:180|473:180|452:171|457:154,1,72.1999991186524,2|0,1:2|0:0,0:0:0:0:
476,16,252232,2,0,B|474:-1|498:-9|498:-9|500:14|483:19,1,72.1999991186524,0|0,1:0|0:0,0:0:0:0:
508,85,252394,2,0,B|522:75|541:91|541:91|522:105|508:93,1,72.1999991186524
433,78,252555,22,0,B|375:70|344:137|369:141|338:206|279:199,1,212.800002597656,8|2,2:2|1:2,0:0:0:0:
151,221,253039,1,6,0:2:0:0:
195,98,253201,1,10,2:2:0:0:
279,199,253361,1,2,1:3:0:0:
66,120,253523,21,2,1:2:0:0:
66,120,253845,2,0,P|51:70|28:22,1,106.400001298828,8|2,2:2|1:2,0:0:0:0:
289,199,254168,1,2,1:2:0:0:
151,221,254329,1,2,2:2:0:0:
279,200,254491,1,10,0:2:0:0:
196,99,254651,1,2,2:2:0:0:
233,323,254813,101,2,1:2:0:0:
233,323,255136,2,0,P|283:338|331:361,1,106.400001298828,8|2,0:2|1:2,0:0:0:0:
512,305,255458,1,2,2:2:0:0:
380,187,255619,1,10,2:2:0:0:
381,174,255700,1,0,2:0:0:0:
392,167,255781,2,0,P|399:196|385:169,1,88.3499964949037,6|2,2:2|0:3,0:0:0:0:
279,62,256103,22,0,B|268:93|283:123|322:129|322:129|341:101|373:85|406:86|434:103,1,212.800002597656,6|10,1:2|0:2,0:0:0:0:
380,269,256587,2,0,P|334:251|304:191,1,106.400001298828,2|0,1:2|2:0,0:0:0:0:
215,30,256910,2,0,P|238:1|277:-11,1,77.9000011886597,2|8,0:2|0:2,0:0:0:0:
479,152,257232,2,0,P|442:187|390:186,1,106.400001298828,2|0,1:2|2:0,0:0:0:0:
142,44,257555,2,0,P|191:59|216:104,1,106.400001298828,2|8,0:2|0:2,0:0:0:0:
29,278,257878,2,0,P|20:235|0:196,1,87.3999970660401,2|0,1:2|1:0,0:0:0:0:
142,117,258200,2,0,P|116:149|111:185,1,77.9000011886597,10|4,0:2|0:2,0:0:0:0:
223,381,258523,1,0,1:0:0:0:
232,375,258603,1,0,0:0:0:0:
239,366,258684,6,0,P|232:269|191:182,1,193.800001182861,4|8,1:2|2:2,0:0:0:0:
325,262,259168,1,2,1:2:0:0:
115,202,259329,2,0,P|113:154|142:117,1,96.9000005914307,2|0,1:2|0:0,0:0:0:0:
378,97,259652,1,10,2:2:0:0:
223,111,259813,1,2,1:2:0:0:
263,45,259974,54,0,B|322:38|353:103|328:107|359:174|417:166,1,212.800002597656,2|10,1:2|2:2,0:0:0:0:
455,45,260458,2,0,B|483:34|476:5|476:5|448:13|455:45,1,96.9000005914307,2|0,1:2|1:0,0:0:0:0:
476,218,260781,2,0,B|479:249|509:248|509:248|506:218|476:218,1,96.9000005914307,10|0,0:2|2:0,0:0:0:0:
290,240,261103,1,6,0:2:0:0:
343,185,261265,2,0,B|345:212|373:232|373:232|293:189|223:205,1,212.800002597656,0|0,1:0|2:0,0:0:0:0:
135,325,261749,1,2,1:2:0:0:
267,349,261910,2,0,P|238:304|193:277,1,106.400001298828,2|0,1:2|0:0,0:0:0:0:
72,284,262232,1,8,2:2:0:0:
230,64,262394,102,0,B|248:64|256:83|256:83|234:88|225:72,1,72.1999991186524,2|0,1:2|0:0,0:0:0:0:
203,94,262555,2,0,B|192:110|172:107|172:107|179:85|197:84,1,72.1999991186524,0|0,1:0|0:0,0:0:0:0:
191,55,262717,2,0,B|181:38|194:22|194:22|209:39|201:55,1,72.1999991186524
210,74,262878,6,0,B|223:124|180:165|163:139|119:170|129:232,1,193.800001182861,8|0,2:2|1:0,0:0:0:0:
249,281,263361,2,0,B|322:244|194:172|170:312|244:281,1,167.604183020368,6|2,0:2|1:3,0:0:0:0:
361,160,263845,22,0,B|352:141|359:116|359:116|337:115|320:102|320:102|313:124|294:136|294:136|310:148|317:168|317:168|336:156|361:160,1,207.326139430119,2|10,1:2|2:2,0:0:0:0:
249,281,264329,2,0,B|239:252|266:239|266:239|278:266|249:281,1,96.9000005914307,2|0,1:2|1:0,0:0:0:0:
171,312,264652,2,0,B|155:328|136:316|136:316|150:298|171:312,1,77.9000011886597,2|8,2:2|0:2,0:0:0:0:
240,363,264974,2,0,B|259:367|257:387|257:387|238:384|240:363,1,68.4000016699219,2|0,2:2|1:0,0:0:0:0:
467,350,265297,102,0,P|481:373|462:353,1,79.7999975646973,2|0,0:2|1:0,0:0:0:0:
467,350,265942,22,0,L|475:308,1,38.9500005943298,14|0,0:2|0:0,0:0:0:0:
512,102,266103,2,0,L|504:140,1,38.9500005943298,8|0,0:1|0:0,0:0:0:0:
403,210,266265,1,2,0:3:0:0:
403,210,266346,1,2,0:3:0:0:
403,210,266426,5,6,1:2:0:0:
174,68,266749,53,10,0:2:0:0:
175,151,266910,2,0,B|216:157|231:195|231:195|218:156|236:118,1,155.800002377319,2|10,1:2|0:2,0:0:0:0:
174,68,267394,1,0,0:0:0:0:
84,208,267555,2,0,P|123:211|156:232,1,77.9000011886597,10|4,0:2|1:2,0:0:0:0:
351,106,267878,2,0,P|321:130|307:166,1,77.9000011886597,10|2,0:2|0:3,0:0:0:0:
267,267,268200,2,0,P|292:296|300:333,1,77.9000011886597,2|4,1:2|1:2,0:0:0:0:
370,384,268523,2,0,P|403:364|445:360,1,77.9000011886597,2|4,2:2|1:2,0:0:0:0:
464,286,268845,1,2,0:2:0:0:
464,286,268926,1,0,0:0:0:0:
464,286,269007,22,0,P|451:241|370:219,2,136.800003339844,4|2|4,1:2|0:2|0:3,0:0:0:0:
321,282,269813,2,0,P|291:295|320:279,1,98.7999993969727,2|0,0:2|0:0,0:0:0:0:
227,242,270297,2,0,P|216:229|188:205,1,49.3999996984863,4|0,0:3|0:0,0:0:0:0:
322,114,270619,2,0,P|316:130|309:166,1,49.3999996984863,2|0,0:2|0:0,0:0:0:0:
329,243,270942,1,4,0:3:0:0:
310,174,271103,2,0,P|287:130|258:90,1,98.7999993969727,2|2,0:2|0:3,0:0:0:0:
100,16,271587,1,4,0:3:0:0:
100,16,271910,102,0,P|78:13|39:70,1,98.7999993969727,2|4,0:2|0:3,0:0:0:0:
187,119,272394,2,0,P|173:101|101:101,1,98.7999993969727,2|0,0:2|0:0,0:0:0:0:
17,182,272878,2,0,L|31:206,1,24.6999998492432,4|0,0:3|0:0,0:0:0:0:
99,236,273039,2,0,L|85:260,1,24.6999998492432
38,310,273200,2,0,P|53:272|60:151,1,155.800002377319,2|4,0:2|0:3,0:0:0:0:
61,158,273684,2,0,P|99:225|156:277,1,155.800002377319,2|2,0:2|0:3,0:0:0:0:
129,373,274168,22,0,P|109:342|116:378,2,98.7999993969727,4|2|4,0:3|0:2|0:3,0:0:0:0:
202,335,274974,2,0,B|268:320|231:285|298:274,1,117.799995326538,2|0,0:2|0:0,0:0:0:0:
472,201,275458,6,0,B|529:212|484:119|409:188|467:201,2,117.799995326538,4|2|4,0:3|0:2|0:3,0:0:0:0:
355,188,276265,2,0,B|288:176|325:141|258:127,1,117.799995326538,2|2,0:2|0:3,0:0:0:0:
174,63,276668,1,0,0:0:0:0:
183,64,276749,1,4,0:3:0:0:
183,64,277071,54,0,L|158:182,1,117.799995326538,2|4,0:2|0:3,0:0:0:0:
258,21,277555,2,0,L|283:139,1,117.799995326538,2|0,0:2|0:0,0:0:0:0:
368,168,278039,1,4,0:3:0:0:
368,168,278361,22,0,L|351:246,1,79.7999975646973,2|4,0:2|0:3,0:0:0:0:
450,136,278845,2,0,L|466:214,1,79.7999975646973,2|0,0:2|0:0,0:0:0:0:
446,358,279329,102,0,B|497:362|467:277|381:307|392:368,2,155.800002377319,4|2|4,0:3|0:2|0:3,0:0:0:0:
324,312,280136,2,0,P|314:292|270:228,1,98.7999993969727,2|0,0:2|0:0,0:0:0:0:
322,116,280619,2,0,P|310:137|295:157,1,49.3999996984863,4|0,0:3|0:0,0:0:0:0:
143,204,280942,2,0,P|166:210|189:219,1,49.3999996984863,2|0,0:2|0:0,0:0:0:0:
270,229,281265,1,4,0:3:0:0:
198,224,281426,2,0,P|149:233|102:248,1,98.7999993969727,2|2,0:2|0:3,0:0:0:0:
3,371,281910,1,4,0:3:0:0:
3,371,282232,22,0,P|17:358|32:281,1,98.7999993969727,2|4,0:2|0:3,0:0:0:0:
102,247,282716,2,0,P|93:229|21:206,1,98.7999993969727,2|0,0:2|0:0,0:0:0:0:
107,142,283200,2,0,P|102:129|94:121,1,24.6999998492432,4|0,0:3|0:0,0:0:0:0:
97,51,283361,2,0,P|83:48|72:51,1,24.6999998492432
25,107,283523,2,0,P|95:74|170:52,1,155.800002377319,2|4,0:2|0:3,0:0:0:0:
170,52,284007,2,0,P|240:84|315:106,1,155.800002377319,2|2,0:2|0:3,0:0:0:0:
443,39,284490,6,0,P|457:71|437:42,2,98.7999993969727,4|2|4,0:3|0:2|0:3,0:0:0:0:
389,130,285297,2,0,B|354:146|354:190|354:190|378:200|385:223,1,117.799995326538,2|0,0:2|0:0,0:0:0:0:
307,321,285781,54,0,B|254:296|340:253|363:347|311:323,2,117.799995326538,4|2|4,0:3|0:2|0:3,0:0:0:0:
247,373,286587,2,0,B|189:355|224:318|159:297,1,117.799995326538,2|2,0:2|0:3,0:0:0:0:
82,347,286990,1,0,0:0:0:0:
92,343,287071,1,4,0:3:0:0:
92,343,287394,22,0,P|84:294|61:250,1,98.7999993969727,2|4,0:2|0:3,0:0:0:0:
140,220,287878,2,0,P|147:171|170:127,1,98.7999993969727,2|0,0:2|0:0,0:0:0:0:
123,62,288361,2,0,P|112:46|83:32,1,49.3999996984863,4|0,0:3|0:0,0:0:0:0:
198,56,288684,2,0,P|249:48|286:21,1,98.7999993969727,2|4,0:2|0:3,0:0:0:0:
323,103,289168,2,0,P|362:131|410:137,1,98.7999993969727,2|0,0:2|0:0,0:0:0:0:
506,1,289652,102,0,B|503:50|471:38|468:89,2,98.7999993969727,4|2|4,0:3|0:2|0:3,0:0:0:0:
485,166,290458,2,0,P|491:183|507:263,1,98.7999993969727,2|0,0:2|0:0,0:0:0:0:
445,309,290942,2,0,P|422:301|396:294,1,49.3999996984863,4|0,0:3|0:0,0:0:0:0:
339,342,291265,2,0,P|316:350|290:357,1,49.3999996984863,2|0,0:2|0:0,0:0:0:0:
216,384,291587,1,4,0:3:0:0:
282,355,291749,2,0,P|279:321|259:257,1,98.7999993969727,2|2,0:2|0:3,0:0:0:0:
320,155,292232,2,0,P|299:168|287:190,1,49.3999996984863,4|0,0:3|0:0,0:0:0:0:
252,107,292555,22,0,P|205:93|178:53,1,98.7999993969727,2|4,0:2|0:3,0:0:0:0:
104,100,293039,2,0,P|94:63|118:8,1,98.7999993969727,2|0,0:2|0:0,0:0:0:0:
44,183,293523,2,0,P|35:173|26:166,1,24.6999998492432,4|0,0:3|0:0,0:0:0:0:
50,178,293684,2,0,P|46:165|41:155,1,24.6999998492432
17,254,293845,2,0,P|61:202|125:180,1,136.800003339844,2|4,0:2|0:3,0:0:0:0:
125,181,294329,2,0,P|143:245|127:311,1,136.800003339844,2|2,0:2|0:3,0:0:0:0:
31,372,294813,6,0,P|28:339|39:372,2,98.7999993969727,4|2|4,0:3|0:2|0:3,0:0:0:0:
121,384,295619,2,0,B|182:368|153:331|215:314,1,117.799995326538,2|0,0:2|0:0,0:0:0:0:
417,235,296103,54,0,B|437:211|404:192|376:207|376:207|403:213|417:235,2,117.799995326538,4|2|4,0:3|0:2|0:3,0:0:0:0:
354,278,296910,2,0,B|295:262|323:224|262:209,1,117.799995326538,2|2,0:2|0:3,0:0:0:0:
171,249,297313,1,0,0:0:0:0:
183,246,297394,1,4,0:3:0:0:
183,246,297716,22,0,P|162:214|161:155,1,98.7999993969727,2|4,0:2|0:3,0:0:0:0:
85,134,298200,2,0,P|98:102|120:83,1,58.8999976632691,2|0,0:2|0:0,0:0:0:0:
282,106,298523,37,0,0:0:0:0:
277,86,298684,2,0,B|273:102|261:108|261:108|271:117|274:129|274:129|287:124|299:123|299:123|297:111|301:99|301:99|289:96|277:86,1,125.594305865038,4|0,0:3|0:0,0:0:0:0:
201,193,299007,5,2,0:2:0:0:
181,187,299168,2,0,B|193:197|192:211|192:211|205:207|217:210|217:210|219:197|225:186|225:186|213:181|204:172|204:172|196:181|181:187,1,126.110498461643
234,305,299490,5,2,0:2:0:0:
218,319,299652,2,0,B|233:313|245:321|245:321|248:307|257:299|257:299|245:290|239:280|239:280|229:288|217:290|217:290|221:303|218:319,1,128.471937996731
308,365,299974,6,0,P|352:352|402:299,2,117.799995326538,4|2|4,0:3|0:2|0:3,0:0:0:0:
348,249,300781,2,0,P|318:210|322:162,1,98.7999993969727,2|0,0:2|0:0,0:0:0:0:
379,110,301265,2,0,B|433:96|407:71|460:55,2,98.7999993969727,4|2|4,0:3|0:2|0:3,0:0:0:0:
314,69,302071,2,0,P|299:43|236:18,1,98.7999993969727,2|2,0:2|0:3,0:0:0:0:
165,107,302555,2,0,L|173:58,1,49.3999996984863,4|0,0:3|0:0,0:0:0:0:
235,134,302878,22,0,P|205:172|158:185,1,98.7999993969727,2|4,0:2|0:3,0:0:0:0:
171,261,303361,2,0,P|123:255|89:221,1,98.7999993969727,2|0,0:2|0:0,0:0:0:0:
29,281,303845,2,0,L|36:305,1,24.6999998492432,4|0,0:3|0:0,0:0:0:0:
35,274,304007,2,0,L|42:298,1,24.6999998492432
6,369,304168,2,0,P|34:330|82:321,1,98.7999993969727,2|4,0:2|0:3,0:0:0:0:
135,375,304652,2,0,L|233:384,1,98.7999993969727,2|2,0:2|0:3,0:0:0:0:
330,276,305136,102,0,P|316:251|325:278,2,79.7999975646973,4|2|4,0:3|0:2|0:3,0:0:0:0:
330,276,305942,2,0,P|311:240|308:180,1,98.7999993969727,2|0,0:2|0:0,0:0:0:0:
413,57,306426,22,0,B|366:45|432:-2|465:69|417:58,2,98.7999993969727,4|2|4,0:3|0:2|0:3,0:0:0:0:
413,57,307232,2,0,B|364:76|395:96|339:118,1,98.7999993969727,2|2,0:2|0:3,0:0:0:0:
268,97,307636,1,0,0:0:0:0:
262,85,307716,6,0,P|264:66|279:38,1,49.3999996984863,4|0,0:3|0:0,0:0:0:0:
213,0,308039,2,0,P|189:6|169:21,1,49.3999996984863,2|0,0:2|0:0,0:0:0:0:
110,68,308361,1,4,0:3:0:0:
110,68,308523,2,0,P|104:112|122:165,1,98.7999993969727,2|0,0:2|0:0,0:0:0:0:
124,285,309007,2,0,P|130:261|127:237,1,49.3999996984863,4|0,0:3|0:0,0:0:0:0:
188,196,309330,2,0,P|205:178|277:166,1,98.7999993969727,2|4,0:2|0:3,0:0:0:0:
343,317,309813,2,0,P|319:255|256:238,1,136.623885405972,2|0,0:2|0:0,0:0:0:0:
247,241,310297,54,0,B|283:250|296:284|296:284|321:245|300:213|300:213|321:179|363:181|363:181|334:144|297:155|297:155|268:121|286:85|286:85|241:101|240:140|240:140|200:157|170:129|170:129|173:176|209:189|209:189|148:225|133:304|190:372|190:372|100:328|139:243|102:180|18:202|18:202|81:222|41:271|105:291,1,1205.55001618781,2|0,0:1|0:0,0:0:0:0:
247,241,312878,2,0,P|289:139|202:185,1,274.8242726945,2|0,0:1|0:0,0:0:0:0:
263,250,314168,2,0,P|297:136|196:202,1,311.139328566871,2|0,0:1|0:0,0:0:0:0:
165,289,315243,22,0,P|142:289|121:298,1,45.6000011132813,2|2,0:2|0:3,0:0:0:0:
178,295,315458,102,0,B|215:276|222:245|222:245|249:139|373:121|373:121|303:137|260:188|254:257|254:257|332:270|441:220|426:30|426:30|374:98|317:62|208:88|212:202,1,1105.04960007689,2|2,0:1|0:0,0:0:0:0:
178,295,318039,2,0,P|62:255|28:373,1,273.600006679688,2|0,0:1|0:0,0:0:0:0:
24,197,319168,1,2,0:3:0:0:
24,197,319249,1,2,0:2:0:0:
24,197,319329,2,0,B|77:143|77:49|77:49|78:-39|-62:-32|-6:107|80:48|80:48|200:25|145:100|282:80,1,584.250008914948,2|0,0:1|0:0,0:0:0:0:
284,85,320619,22,0,B|303:130|361:119|386:80|371:18|304:-45|226:-20|146:71|252:161|252:161|396:270|313:504|84:489|-125:362|0:16|296:74|318:308|243:319|178:323|164:283,1,1185.03001428488,2|2,0:1|0:0,0:0:0:0:
164,283,323200,2,0,B|184:202|110:137|25:164|25:164|97:198|74:283|148:287,1,407.916615709837,2|0,0:1|0:0,0:0:0:0:
330,304,324490,2,0,B|382:305|373:265|429:258|429:258|385:236|335:252|329:299,1,239.399992694092,2|0,0:1|0:0,0:0:0:0:
244,365,325619,5,2,0:2:0:0:
244,365,325700,1,2,0:2:0:0:
244,365,325781,2,0,B|324:383|379:293|306:250|368:161|462:174|462:174|378:108|237:123|181:242|212:350|212:350|143:357|92:268|128:190|163:233|213:151|118:64|6:130|6:130|120:113|98:256|129:122|135:169|150:165|147:155|164:148|164:148|255:105|242:12|183:2|183:2|209:22|208:57,1,1582.69996860489,2|2,0:1|0:0,0:0:0:0:
208,57,328361,54,0,B|288:57|318:145|318:145|316:54|391:33,1,296.399998190918,2|0,0:1|0:0,0:0:0:0:
382,27,329490,1,2,0:3:0:0:
382,27,329571,1,2,0:2:0:0:
382,27,329652,2,0,B|319:50|311:109|311:109|279:52|218:49,1,228,2|0,0:1|0:0,0:0:0:0:
178,111,330942,54,0,B|140:79|151:27|151:27|68:150|281:264|151:340|151:340|37:331|92:240|-4:204|-4:204|91:167|146:225|143:294|143:294|136:244|90:231,1,957.600023378907,2|2,0:1|0:0,0:0:0:0:
90,231,333523,54,0,B|126:148|-64:99|110:-37|155:68|155:68|266:4|314:184|178:216|141:159|100:256|148:353|148:353|212:303|285:349|258:363|319:404|380:380,1,970.900026666566,2|2,0:1|0:0,0:0:0:0:
457,211,336103,2,0,B|433:156|525:135|528:70|474:31|439:39|417:58|408:79|408:79|391:58|358:48|330:57|297:96|294:154|342:196|430:139|455:217|415:225|450:273|389:305|389:305|366:277|327:268|298:278,1,709.69528485923,2|0,0:1|0:0,0:0:0:0:
300,279,338684,6,0,B|275:193|340:132|439:160|439:160|361:211|398:280|316:283,1,416.799764728086,2|0,0:1|0:0,0:0:0:0:
176,269,339974,2,0,B|103:237|125:167|125:167|189:187|181:252,1,239.722390520478,2|0,0:1|0:0,0:0:0:0:
87,378,341265,22,0,B|70:377|61:391|61:391|53:377|39:372|39:372|50:360|49:346|49:346|63:351|79:346|79:346|77:362|87:378,1,152,2|2,0:1|0:1,0:0:0:0:
