osu file format v14

[General]
AudioFilename: audio.mp3
AudioLeadIn: 0
PreviewTime: 44438
Countdown: 0
SampleSet: Soft
StackLeniency: 0.7
Mode: 3
LetterboxInBreaks: 0
SpecialStyle: 1
WidescreenStoryboard: 1

[Editor]
Bookmarks: 12312,14202,16092
DistanceSpacing: 0.5
BeatDivisor: 2
GridSize: 4
TimelineZoom: 0.9

[Metadata]
Title:MyonMyonMyonMyonMyonMyon!
TitleUnicode:MyonMyonMyonMyonMyonMyon!
Artist:Shibayan feat. 3L
ArtistUnicode:Shibayan feat. 3L
Creator:imaikiseta
Version:Normal
Source:
Tags:やまざきさやか ShibayanRecords
BeatmapID:1356486
BeatmapSetID:639541

[Difficulty]
HPDrainRate:4
CircleSize:4
OverallDifficulty:7
ApproachRate:5
SliderMultiplier:1.4
SliderTickRate:1

[Events]
//Background and Video events
0,0,"bg.jpg",0,0
//Break Periods
//Storyboard Layer 0 (Background)
//Storyboard Layer 1 (Fail)
//Storyboard Layer 2 (Pass)
//Storyboard Layer 3 (Foreground)
//Storyboard Sound Samples

[TimingPoints]
963,472.44094488189,4,2,0,100,1,0
46317,-100,4,1,0,100,0,1
59309,-100,4,2,0,100,0,0
61435,-100,4,1,0,100,0,1
76553,-100,4,1,0,100,0,0

[HitObjects]
64,192,962,1,0,0:0:0:0:
448,192,962,1,0,0:0:0:0:
192,192,1199,1,0,0:0:0:0:
320,192,1199,1,0,0:0:0:0:
192,192,1907,1,0,0:0:0:0:
320,192,1907,1,0,0:0:0:0:
320,192,2616,1,0,0:0:0:0:
448,192,2616,1,0,0:0:0:0:
192,192,3088,1,0,0:0:0:0:
64,192,3088,1,0,0:0:0:0:
192,192,3797,1,0,0:0:0:0:
448,192,3797,1,0,0:0:0:0:
320,192,4033,1,0,0:0:0:0:
64,192,4033,1,0,0:0:0:0:
64,192,4742,1,0,0:0:0:0:
448,192,4742,1,0,0:0:0:0:
192,192,4978,1,0,0:0:0:0:
64,192,4978,1,0,0:0:0:0:
320,192,5687,1,0,0:0:0:0:
448,192,5687,1,0,0:0:0:0:
192,192,6396,1,0,0:0:0:0:
320,192,6396,1,0,0:0:0:0:
192,192,6868,1,0,0:0:0:0:
448,192,6868,1,0,0:0:0:0:
320,192,7340,1,0,0:0:0:0:
192,192,7340,1,0,0:0:0:0:
320,192,7577,128,0,8049:0:0:0:0:
64,192,7577,128,0,8049:0:0:0:0:
192,192,8049,128,0,8522:0:0:0:0:
448,192,8049,128,0,8522:0:0:0:0:
320,192,8522,1,0,0:0:0:0:
64,192,8522,1,0,0:0:0:0:
192,192,8758,1,0,0:0:0:0:
64,192,8758,1,0,0:0:0:0:
448,192,9466,1,0,0:0:0:0:
320,192,9466,1,0,0:0:0:0:
192,192,10175,1,0,0:0:0:0:
448,192,10175,1,0,0:0:0:0:
320,192,10648,1,0,0:0:0:0:
192,192,10648,1,0,0:0:0:0:
320,192,11356,1,0,0:0:0:0:
64,192,11356,1,0,0:0:0:0:
320,192,11592,1,0,0:0:0:0:
64,192,11592,1,0,0:0:0:0:
320,192,12301,1,0,0:0:0:0:
448,192,12301,1,0,0:0:0:0:
448,192,12537,1,0,0:0:0:0:
192,192,12537,1,0,0:0:0:0:
64,192,13246,1,0,0:0:0:0:
320,192,13246,1,0,0:0:0:0:
192,192,13718,1,0,0:0:0:0:
448,192,13955,128,0,14191:0:0:0:0:
64,192,14427,128,0,14663:0:0:0:0:
320,192,14663,128,0,15136:0:0:0:0:
192,192,15136,1,0,0:0:0:0:
448,192,15136,1,0,0:0:0:0:
64,192,15372,1,0,0:0:0:0:
448,192,15608,1,0,0:0:0:0:
320,192,15608,1,0,0:0:0:0:
192,192,15844,128,0,16081:0:0:0:0:
320,192,16081,128,0,16317:0:0:0:0:
64,192,16317,1,0,0:0:0:0:
192,192,16553,1,0,0:0:0:0:
64,192,16789,1,0,0:0:0:0:
448,192,17025,128,0,17498:0:0:0:0:
192,192,17025,1,4,0:0:0:0:
320,192,17498,1,0,0:0:0:0:
192,192,17734,128,0,18207:0:0:0:0:
64,192,17734,1,0,0:0:0:0:
320,192,18207,1,0,0:0:0:0:
448,192,18443,1,0,0:0:0:0:
192,192,18679,1,0,0:0:0:0:
320,192,18915,128,0,19151:0:0:0:0:
448,192,19151,1,0,0:0:0:0:
192,192,19388,128,0,19860:0:0:0:0:
64,192,19624,128,0,19860:0:0:0:0:
448,192,19860,1,0,0:0:0:0:
320,192,20096,1,0,0:0:0:0:
64,192,20333,1,0,0:0:0:0:
192,192,20569,128,0,20805:0:0:0:0:
320,192,20805,128,0,21277:0:0:0:0:
448,192,20805,1,0,0:0:0:0:
64,192,21277,1,0,0:0:0:0:
192,192,21277,1,0,0:0:0:0:
192,192,21514,1,0,0:0:0:0:
320,192,21750,1,0,0:0:0:0:
448,192,21986,1,0,0:0:0:0:
64,192,22222,1,0,0:0:0:0:
320,192,22459,1,0,0:0:0:0:
448,192,22695,1,0,0:0:0:0:
320,192,22931,1,0,0:0:0:0:
192,192,23167,1,0,0:0:0:0:
448,192,23167,128,0,23640:0:0:0:0:
64,192,23640,1,0,0:0:0:0:
192,192,23876,1,0,0:0:0:0:
320,192,24112,1,0,0:0:0:0:
192,192,24348,1,0,0:0:0:0:
448,192,24585,1,0,0:0:0:0:
320,192,24585,128,0,25057:0:0:0:0:
192,192,25057,1,0,0:0:0:0:
192,192,25293,128,0,25766:0:0:0:0:
64,192,25766,1,0,0:0:0:0:
192,192,26002,1,0,0:0:0:0:
320,192,26238,1,0,0:0:0:0:
448,192,26474,128,0,26711:0:0:0:0:
64,192,26474,1,0,0:0:0:0:
192,192,26711,1,0,0:0:0:0:
64,192,26711,1,0,0:0:0:0:
320,192,26947,128,0,27183:0:0:0:0:
64,192,27183,1,0,0:0:0:0:
320,192,27419,1,0,0:0:0:0:
448,192,27419,1,0,0:0:0:0:
320,192,27655,1,0,0:0:0:0:
192,192,27892,1,0,0:0:0:0:
320,192,28128,1,0,0:0:0:0:
64,192,28364,128,0,28837:0:0:0:0:
448,192,28364,128,0,28837:0:0:0:0:
192,192,28837,1,0,0:0:0:0:
320,192,29073,128,0,29545:0:0:0:0:
448,192,29545,1,0,0:0:0:0:
192,192,29781,1,0,0:0:0:0:
64,192,30018,1,0,0:0:0:0:
192,192,30254,128,0,30490:0:0:0:0:
448,192,30490,128,0,30726:0:0:0:0:
320,192,30726,128,0,31199:0:0:0:0:
192,192,30963,128,0,31199:0:0:0:0:
64,192,31199,1,0,0:0:0:0:
320,192,31435,1,0,0:0:0:0:
448,192,31435,1,0,0:0:0:0:
192,192,31671,128,0,31907:0:0:0:0:
320,192,31907,1,0,0:0:0:0:
320,192,32144,128,0,32616:0:0:0:0:
64,192,32144,128,0,32616:0:0:0:0:
448,192,32616,1,0,0:0:0:0:
320,192,32852,1,0,0:0:0:0:
192,192,32852,128,0,33325:0:0:0:0:
320,192,33325,1,0,0:0:0:0:
64,192,33561,1,0,0:0:0:0:
192,192,33797,1,0,0:0:0:0:
448,192,34033,128,0,34270:0:0:0:0:
320,192,34270,1,0,0:0:0:0:
64,192,34270,1,0,0:0:0:0:
192,192,34506,128,0,34742:0:0:0:0:
64,192,34742,1,0,0:0:0:0:
192,192,34978,1,0,0:0:0:0:
448,192,34978,1,0,0:0:0:0:
320,192,35214,1,0,0:0:0:0:
448,192,35451,1,0,0:0:0:0:
192,192,35687,1,0,0:0:0:0:
320,192,35923,128,0,36396:0:0:0:0:
64,192,36396,1,0,0:0:0:0:
192,192,36632,1,0,0:0:0:0:
448,192,36868,1,0,0:0:0:0:
192,192,37104,1,0,0:0:0:0:
64,192,37340,1,0,0:0:0:0:
192,192,37577,1,0,0:0:0:0:
448,192,37813,1,0,0:0:0:0:
320,192,37813,1,0,0:0:0:0:
64,192,38049,1,0,0:0:0:0:
192,192,38285,1,0,0:0:0:0:
320,192,38285,1,0,0:0:0:0:
448,192,38522,1,0,0:0:0:0:
320,192,38522,1,0,0:0:0:0:
192,192,38758,1,0,0:0:0:0:
64,192,38758,1,0,0:0:0:0:
192,192,38994,1,0,0:0:0:0:
448,192,38994,128,0,39466:0:0:0:0:
320,192,39466,1,0,0:0:0:0:
64,192,39703,128,0,40175:0:0:0:0:
192,192,39703,1,0,0:0:0:0:
320,192,40175,1,0,0:0:0:0:
192,192,40175,1,0,0:0:0:0:
448,192,40411,128,0,40884:0:0:0:0:
64,192,40411,1,0,0:0:0:0:
320,192,40884,1,0,0:0:0:0:
64,192,40884,128,0,41356:0:0:0:0:
192,192,41356,1,0,0:0:0:0:
448,192,41592,1,0,0:0:0:0:
192,192,41592,1,0,0:0:0:0:
320,192,41829,1,0,0:0:0:0:
64,192,41829,1,0,0:0:0:0:
448,192,42065,128,0,42537:0:0:0:0:
192,192,42301,128,0,42537:0:0:0:0:
64,192,42537,1,0,0:0:0:0:
320,192,42537,1,0,0:0:0:0:
192,192,42774,1,0,0:0:0:0:
320,192,42774,1,0,0:0:0:0:
320,192,43010,1,0,0:0:0:0:
448,192,43246,1,0,0:0:0:0:
192,192,43482,128,0,43955:0:0:0:0:
64,192,43482,128,0,43955:0:0:0:0:
320,192,43955,1,0,0:0:0:0:
448,192,44191,128,0,44663:0:0:0:0:
192,192,44191,1,0,0:0:0:0:
192,192,44663,1,0,0:0:0:0:
64,192,44663,1,0,0:0:0:0:
448,192,44900,1,0,0:0:0:0:
64,192,45136,1,0,0:0:0:0:
320,192,45372,128,0,45608:0:0:0:0:
448,192,45608,128,0,46317:0:0:0:0:
64,192,45844,128,0,46317:0:0:0:0:
192,192,46317,1,0,0:0:0:0:
448,192,46553,1,0,0:0:0:0:
192,192,46553,1,0,0:0:0:0:
320,192,46789,128,0,47262:0:0:0:0:
64,192,47262,1,0,0:0:0:0:
192,192,47262,128,0,47734:0:0:0:0:
320,192,47734,1,0,0:0:0:0:
448,192,47970,128,0,48443:0:0:0:0:
64,192,47970,1,0,0:0:0:0:
320,192,48207,128,0,48443:0:0:0:0:
64,192,48443,128,0,48915:0:0:0:0:
192,192,48679,128,0,48915:0:0:0:0:
320,192,49151,1,0,0:0:0:0:
448,192,49151,1,0,0:0:0:0:
448,192,49388,1,0,0:0:0:0:
192,192,49388,1,0,0:0:0:0:
64,192,49624,128,0,50096:0:0:0:0:
448,192,49860,1,0,0:0:0:0:
320,192,50096,1,0,0:0:0:0:
192,192,50096,1,0,0:0:0:0:
192,192,50333,1,0,0:0:0:0:
448,192,50333,1,0,0:0:0:0:
320,192,50569,128,0,51041:0:0:0:0:
192,192,50805,128,0,51041:0:0:0:0:
64,192,51041,1,0,0:0:0:0:
192,192,51277,1,0,0:0:0:0:
320,192,51514,1,0,0:0:0:0:
448,192,51750,128,0,52222:0:0:0:0:
320,192,51986,128,0,52222:0:0:0:0:
192,192,52222,1,0,0:0:0:0:
64,192,52459,1,0,0:0:0:0:
448,192,52695,1,0,0:0:0:0:
192,192,52695,1,0,0:0:0:0:
320,192,52931,128,0,53403:0:0:0:0:
192,192,52931,128,0,53403:0:0:0:0:
64,192,53403,128,0,53876:0:0:0:0:
448,192,53403,128,0,53876:0:0:0:0:
320,192,53876,1,0,0:0:0:0:
192,192,53876,1,0,0:0:0:0:
192,192,54112,1,0,0:0:0:0:
320,192,54112,1,0,0:0:0:0:
192,192,54348,128,0,54821:0:0:0:0:
448,192,54821,128,0,55293:0:0:0:0:
320,192,55057,128,0,55293:0:0:0:0:
64,192,55293,1,0,0:0:0:0:
192,192,55529,128,0,56002:0:0:0:0:
448,192,55529,1,0,0:0:0:0:
320,192,55766,128,0,56002:0:0:0:0:
448,192,56002,128,0,56474:0:0:0:0:
64,192,56238,1,0,0:0:0:0:
192,192,56711,1,0,0:0:0:0:
448,192,56711,1,0,0:0:0:0:
192,192,56947,1,0,0:0:0:0:
64,192,56947,1,0,0:0:0:0:
448,192,57183,128,0,57419:0:0:0:0:
320,192,57419,1,0,0:0:0:0:
192,192,57655,128,0,57892:0:0:0:0:
64,192,57655,1,0,0:0:0:0:
320,192,57892,128,0,58364:0:0:0:0:
448,192,57892,1,0,0:0:0:0:
64,192,58128,128,0,58364:0:0:0:0:
192,192,58364,1,0,0:0:0:0:
64,192,58600,1,0,0:0:0:0:
320,192,58837,1,0,0:0:0:0:
448,192,59073,1,0,0:0:0:0:
448,192,59309,128,0,59781:0:0:0:0:
192,192,59545,1,0,0:0:0:0:
320,192,59781,1,0,0:0:0:0:
64,192,60018,1,0,0:0:0:0:
192,192,60018,1,0,0:0:0:0:
320,192,60254,1,0,0:0:0:0:
448,192,60490,1,0,0:0:0:0:
192,192,60490,1,0,0:0:0:0:
320,192,60726,1,0,0:0:0:0:
192,192,60963,128,0,61435:0:0:0:0:
448,192,60963,1,0,0:0:0:0:
64,192,61199,128,0,61435:0:0:0:0:
448,192,61435,1,0,0:0:0:0:
320,192,61671,1,0,0:0:0:0:
192,192,61671,1,0,0:0:0:0:
64,192,61907,128,0,62380:0:0:0:0:
192,192,62380,1,0,0:0:0:0:
320,192,62380,128,0,62852:0:0:0:0:
448,192,62852,1,0,0:0:0:0:
192,192,63088,128,0,63561:0:0:0:0:
64,192,63088,1,0,0:0:0:0:
448,192,63325,128,0,63561:0:0:0:0:
320,192,63561,128,0,64033:0:0:0:0:
64,192,63797,128,0,64033:0:0:0:0:
320,192,64270,1,0,0:0:0:0:
448,192,64506,1,0,0:0:0:0:
192,192,64742,128,0,65214:0:0:0:0:
64,192,64978,128,0,65214:0:0:0:0:
320,192,65214,1,0,0:0:0:0:
192,192,65451,1,0,0:0:0:0:
448,192,65451,1,0,0:0:0:0:
320,192,65687,128,0,66159:0:0:0:0:
448,192,65923,128,0,66159:0:0:0:0:
64,192,66159,1,0,0:0:0:0:
192,192,66396,1,0,0:0:0:0:
320,192,66632,1,0,0:0:0:0:
448,192,66868,128,0,67340:0:0:0:0:
64,192,66868,1,0,0:0:0:0:
192,192,67104,128,0,67340:0:0:0:0:
320,192,67340,1,0,0:0:0:0:
64,192,67577,1,0,0:0:0:0:
192,192,67813,1,0,0:0:0:0:
320,192,67813,1,0,0:0:0:0:
320,192,68049,1,0,0:0:0:0:
448,192,68049,1,0,0:0:0:0:
192,192,68285,1,0,0:0:0:0:
64,192,68522,1,0,0:0:0:0:
320,192,68522,1,0,0:0:0:0:
448,192,68758,1,0,0:0:0:0:
192,192,68994,1,0,0:0:0:0:
320,192,69230,1,0,0:0:0:0:
64,192,69466,128,0,69939:0:0:0:0:
192,192,69703,128,0,69939:0:0:0:0:
448,192,69939,1,0,0:0:0:0:
320,192,70175,128,0,70648:0:0:0:0:
192,192,70411,128,0,70648:0:0:0:0:
64,192,70648,1,0,0:0:0:0:
320,192,70884,1,0,0:0:0:0:
448,192,71120,1,0,0:0:0:0:
192,192,71120,1,0,0:0:0:0:
320,192,71356,1,0,0:0:0:0:
448,192,71592,128,0,71829:0:0:0:0:
192,192,71829,1,0,0:0:0:0:
320,192,71829,1,0,0:0:0:0:
192,192,72065,1,0,0:0:0:0:
320,192,72065,1,0,0:0:0:0:
64,192,72301,128,0,72774:0:0:0:0:
320,192,72537,128,0,72774:0:0:0:0:
448,192,72774,1,0,0:0:0:0:
448,192,73010,1,0,0:0:0:0:
192,192,73010,1,0,0:0:0:0:
192,192,73246,128,0,73718:0:0:0:0:
64,192,73482,128,0,73718:0:0:0:0:
320,192,73718,1,0,0:0:0:0:
192,192,73955,1,0,0:0:0:0:
320,192,74191,1,0,0:0:0:0:
448,192,74427,128,0,74900:0:0:0:0:
64,192,74663,128,0,74900:0:0:0:0:
320,192,74900,1,0,0:0:0:0:
192,192,74900,1,0,0:0:0:0:
64,192,75136,1,0,0:0:0:0:
320,192,75136,1,0,0:0:0:0:
448,192,75372,1,0,0:0:0:0:
448,192,75608,1,0,0:0:0:0:
192,192,75608,1,0,0:0:0:0:
64,192,75844,1,0,0:0:0:0:
64,192,76081,1,0,0:0:0:0:
448,192,76081,1,0,0:0:0:0:
192,192,76317,1,0,0:0:0:0:
320,192,76553,1,0,0:0:0:0:
448,192,76553,1,0,0:0:0:0:
64,192,76553,1,0,0:0:0:0:
