osu file format v14

[General]
AudioFilename: audio.mp3
AudioLeadIn: 0
PreviewTime: 152502
Countdown: 0
SampleSet: Soft
StackLeniency: 0.7
Mode: 2
LetterboxInBreaks: 0
WidescreenStoryboard: 1

[Editor]
Bookmarks: 745,32620,62620,92620,122620,152620,182620,212620,242620,272620,302620,332620,362620
DistanceSpacing: 1.4
BeatDivisor: 4
GridSize: 4
TimelineZoom: 1

[Metadata]
Title:Monochrome in the Night (CYTOKINE remix)
TitleUnicode:モノクロ・インザナイト (CYTOKINE remix)
Artist:Shibayan feat. 3L
ArtistUnicode:Shibayan feat. 3L
Creator:JBHyperion
Version:Ghostly Salad
Source:東方神霊廟 ~ Ten Desires.
Tags:東方Project Touhou Shinreibyou Divine Spirit Mausoleum 死霊の夜桜 Night Sakura of Dead Spirits Stage One Theme 西行寺幽々子 Yuyuko Saigyouji ZYTOKINE ShibayanRecords Linjin cittan* 黒岩サトシ Satoshi Kuroiwa 君の美術館 Your Museum Adrastea Sedecim Kouroumu 11 ZUN Magic Girl Sorcerer TomTheWizard ZiRoX JBH Hyperion japanese electronic video game
BeatmapID:2076453
BeatmapSetID:992928

[Difficulty]
HPDrainRate:4
CircleSize:3
OverallDifficulty:7
ApproachRate:7
SliderMultiplier:1.5
SliderTickRate:1

[Events]
//Background and Video events
0,0,"Yuyuko.jpg",0,0
//Break Periods
2,212820,226720
//Storyboard Layer 0 (Background)
//Storyboard Layer 1 (Fail)
//Storyboard Layer 2 (Pass)
//Storyboard Layer 3 (Foreground)
//Storyboard Layer 4 (Overlay)
//Storyboard Sound Samples

[TimingPoints]
745,468.75,4,2,1,100,1,0
979,-100,4,2,1,75,0,0
15745,-100,4,2,2,80,0,0
17386,-100,4,2,1,80,0,0
17620,-100,4,2,2,80,0,0
18791,-100,4,2,1,80,0,0
19026,-100,4,2,1,80,0,0
19495,-100,4,2,2,80,0,0
20667,-100,4,2,1,80,0,0
20901,-100,4,2,2,80,0,0
22542,-100,4,2,1,80,0,0
22776,-100,4,2,2,80,0,0
23011,-100,4,2,1,80,0,0
23245,-100,4,2,2,85,0,0
24417,-100,4,2,1,80,0,0
24651,-100,4,2,2,80,0,0
26292,-100,4,2,1,85,0,0
26526,-100,4,2,2,85,0,0
26995,-100,4,2,2,90,0,0
28870,-100,4,2,2,80,0,0
29807,-100,4,2,2,60,0,0
30745,-100,4,2,1,60,0,0
32386,-100,4,2,1,60,0,0
32620,-100,4,2,2,70,0,0
32854,-100,4,2,1,70,0,0
33088,-100,4,2,2,70,0,0
33909,-100,4,2,1,70,0,0
34261,-100,4,2,77,50,0,0
34495,-100,4,2,2,70,0,0
34846,-100,4,2,1,70,0,0
35198,-66.6666666666667,4,2,1,70,0,0
35432,-100,4,2,2,70,0,0
35667,-100,4,2,77,50,0,0
35901,-100,4,2,2,70,0,0
36018,-100,4,2,1,70,0,0
36370,-100,4,2,2,70,0,0
37659,-100,4,2,1,70,0,0
38245,-100,4,2,2,70,0,0
38596,-100,4,2,1,70,0,0
38948,-100,4,2,1,100,0,0
39182,-100,4,2,2,70,0,0
39417,-100,4,2,77,50,0,0
39651,-100,4,2,2,70,0,0
40471,-100,4,2,1,70,0,0
41057,-100,4,2,2,70,0,0
41409,-100,4,2,1,70,0,0
41761,-100,4,2,77,50,0,0
41995,-100,4,2,2,70,0,0
42346,-100,4,2,1,70,0,0
42815,-100,4,2,2,70,0,0
43167,-100,4,2,77,50,0,0
43401,-100,4,2,2,70,0,0
43518,-100,4,2,1,70,0,0
43870,-100,4,2,2,70,0,0
44221,-100,4,2,1,70,0,0
44807,-100,4,2,2,70,0,0
45159,-100,4,2,1,70,0,0
45745,-100,4,2,2,70,0,0
46096,-100,4,2,1,70,0,0
46682,-100,4,2,2,60,0,0
47268,-100,4,2,1,70,0,0
47386,-100,4,2,2,60,0,0
47620,-100,4,2,2,80,0,0
48557,-100,4,2,1,100,0,0
49261,-100,4,2,1,80,0,0
49495,-100,4,2,2,80,0,0
49846,-100,4,2,1,80,0,0
50080,-100,4,2,2,80,0,0
50667,-100,4,2,77,50,0,0
50901,-100,4,2,2,80,0,0
51018,-100,4,2,1,80,0,0
51252,-100,4,2,2,80,0,0
51604,-100,4,2,1,80,0,0
51838,-100,4,2,2,80,0,0
52659,-100,4,2,1,80,0,0
53245,-100,4,2,2,80,0,0
53596,-100,4,2,1,80,0,0
53830,-100,4,2,2,80,0,0
53948,-100,4,2,1,100,0,0
54417,-100,4,2,77,50,0,0
54651,-100,4,2,2,80,0,0
54886,-100,4,2,1,80,0,0
55120,-100,4,2,2,80,0,0
55354,-100,4,2,1,80,0,0
55588,-100,4,2,2,80,0,0
56292,-100,4,2,1,80,0,0
56526,-100,4,2,2,80,0,0
56761,-100,4,2,1,80,0,0
56995,-100,4,2,2,80,0,0
57346,-100,4,2,1,80,0,0
57463,-100,4,2,2,80,0,0
58167,-100,4,2,77,50,0,0
58401,-100,4,2,2,80,0,0
58518,-100,4,2,1,80,0,0
58752,-100,4,2,2,80,0,0
58987,-100,4,1,0,40,0,0
59807,-100,4,2,2,90,0,0
59925,-100,4,1,0,50,0,0
60276,-100,4,2,2,90,0,0
60393,-100,4,1,0,50,0,0
60745,-100,4,1,0,90,0,0
60979,-100,4,2,1,70,0,0
62034,-100,4,2,2,70,0,0
62386,-100,4,2,1,80,0,0
62620,-80,4,2,3,90,0,1
64261,-80,4,2,1,90,0,1
64495,-80,4,2,3,90,0,1
68011,-80,4,2,1,100,0,1
68245,-80,4,2,10,90,0,1
68479,-80,4,2,3,90,0,1
69534,-80,4,2,1,90,0,1
69651,-80,4,2,3,90,0,1
71761,-80,4,2,1,90,0,1
71995,-80,4,2,3,90,0,1
75510,-80,4,2,1,90,0,1
75979,-80,4,2,2,90,0,1
76682,-80,4,2,2,80,0,1
77034,-80,4,2,2,70,0,1
77386,-80,4,2,3,60,0,1
77503,-80,4,2,1,90,0,1
77854,-80,4,2,3,90,0,1
79261,-80,4,2,1,90,0,1
79495,-80,4,2,3,90,0,1
83011,-80,4,2,1,90,0,1
83245,-80,4,2,10,90,0,1
83479,-80,4,2,3,90,0,1
83948,-80,4,2,1,90,0,1
84182,-80,4,2,3,90,0,1
84534,-80,4,2,1,90,0,1
84651,-80,4,2,3,90,0,1
86761,-80,4,2,1,90,0,1
86995,-80,4,2,3,90,0,1
88870,-80,4,2,2,80,0,1
88987,-80,4,1,0,40,0,1
89339,-80,4,2,2,80,0,1
89456,-80,4,1,0,40,0,1
89807,-80,4,2,2,90,0,1
89925,-80,4,1,0,50,0,1
90276,-80,4,2,2,90,0,1
90393,-80,4,1,0,50,0,1
90745,-80,4,2,3,80,0,0
90979,-80,4,2,1,70,0,0
92151,-80,4,2,77,50,0,0
92386,-80,4,2,1,70,0,0
92620,-80,4,2,3,90,0,1
94261,-80,4,2,1,90,0,1
94495,-80,4,2,3,90,0,1
98011,-80,4,2,1,90,0,1
98245,-80,4,2,3,90,0,1
98479,-80,4,2,1,90,0,1
98713,-80,4,2,3,90,0,1
99417,-80,4,2,1,90,0,1
99651,-80,4,2,3,90,0,1
100354,-80,4,2,1,90,0,1
100588,-80,4,2,3,90,0,1
101761,-80,4,2,1,90,0,1
101995,-80,4,2,3,90,0,1
104573,-80,4,2,1,90,0,1
104807,-80,4,2,3,90,0,1
105979,-80,4,2,2,90,0,1
106682,-80,4,2,2,80,0,1
107034,-80,4,2,2,70,0,1
107385,-66.6666666666667,4,2,3,90,0,1
107854,-80,4,2,3,90,0,1
109261,-80,4,2,1,90,0,1
109495,-80,4,2,3,90,0,1
112073,-80,4,2,1,90,0,1
112307,-80,4,2,3,90,0,1
112893,-80,4,2,1,90,0,1
113127,-80,4,2,3,90,0,1
113479,-80,4,2,1,90,0,1
113713,-80,4,2,3,90,0,1
113831,-80,4,2,1,90,0,1
114065,-80,4,2,3,90,0,1
114886,-80,4,2,1,90,0,1
115120,-80,4,2,3,90,0,1
116761,-80,4,2,1,90,0,1
116995,-80,4,2,3,90,0,1
118167,-80,4,2,1,90,0,1
118401,-80,4,2,3,90,0,1
118636,-80,4,2,1,90,0,1
118870,-80,4,2,2,80,0,1
118987,-80,4,1,0,40,0,1
119339,-80,4,2,2,80,0,1
119456,-80,4,1,0,40,0,1
119807,-80,4,2,2,90,0,1
119925,-80,4,1,0,50,0,1
120276,-80,4,2,2,90,0,1
120393,-80,4,1,0,50,0,1
120745,-80,4,2,3,80,0,1
120979,-80,4,2,1,70,0,1
121682,-80,4,2,77,50,0,1
121917,-80,4,2,1,70,0,1
122386,-80,4,2,1,80,0,1
122620,-100,4,2,2,80,0,0
122854,-100,4,2,2,70,0,0
123909,-100,4,2,1,70,0,0
124495,-100,4,2,2,70,0,0
124729,-100,4,2,1,70,0,0
124964,-100,4,2,2,70,0,0
125667,-100,4,2,77,50,0,0
125901,-100,4,2,2,70,0,0
126136,-100,4,2,1,70,0,0
126371,-100,4,2,2,70,0,0
126604,-100,4,2,1,70,0,0
126839,-100,4,2,2,70,0,0
128596,-100,4,2,1,70,0,0
128831,-100,4,2,2,70,0,0
129417,-100,4,2,77,50,0,0
129651,-100,4,2,2,70,0,0
130120,-100,4,2,2,70,0,0
131409,-100,4,2,1,60,0,0
131761,-100,4,2,77,40,0,0
131995,-100,4,2,1,60,0,0
132346,-100,4,2,1,60,0,0
132581,-100,4,2,1,60,0,0
132815,-100,4,2,1,60,0,0
133167,-100,4,2,77,50,0,0
133401,-100,4,2,2,70,0,0
133518,-100,4,2,1,70,0,0
133870,-100,4,2,2,70,0,0
134221,-100,4,2,1,70,0,0
135745,-100,4,2,2,70,0,0
136096,-100,4,2,1,70,0,0
136682,-100,4,2,2,60,0,0
137268,-100,4,2,1,70,0,0
137386,-100,4,2,2,60,0,0
137620,-100,4,2,2,80,0,0
139261,-100,4,2,1,80,0,0
139495,-100,4,2,2,80,0,0
139729,-100,4,2,1,80,0,0
139964,-100,4,2,2,80,0,0
140198,-100,4,2,1,80,0,0
140432,-100,4,2,2,80,0,0
140667,-100,4,2,77,50,0,0
140901,-100,4,2,2,80,0,0
141018,-100,4,2,1,80,0,0
141252,-100,4,2,2,80,0,0
141604,-100,4,2,1,80,0,0
141838,-100,4,2,2,80,0,0
142542,-100,4,2,1,80,0,0
142776,-100,4,2,2,80,0,0
143011,-100,4,2,1,80,0,0
143245,-100,4,2,2,80,0,0
143479,-100,4,2,1,80,0,0
143714,-100,4,2,2,80,0,0
144417,-100,4,2,77,50,0,0
144651,-100,4,2,2,80,0,0
144886,-100,4,2,1,80,0,0
145120,-100,4,2,2,80,0,0
145354,-100,4,2,1,80,0,0
145588,-100,4,2,2,80,0,0
146292,-100,4,2,1,80,0,0
146526,-100,4,2,2,80,0,0
146761,-100,4,2,1,80,0,0
146995,-100,4,2,2,80,0,0
147229,-100,4,2,1,80,0,0
147464,-100,4,2,2,80,0,0
148050,-100,4,2,1,5,0,0
148167,-100,4,2,77,50,0,0
148401,-100,4,2,2,80,0,0
148518,-100,4,2,1,80,0,0
148752,-100,4,2,2,80,0,0
148987,-100,4,1,0,40,0,0
149339,-100,4,2,2,80,0,0
149456,-100,4,1,0,40,0,0
149807,-100,4,2,2,90,0,0
149925,-100,4,1,0,50,0,0
150276,-100,4,2,2,90,0,0
150393,-100,4,1,0,50,0,0
150745,-100,4,1,0,90,0,0
150979,-100,4,2,1,70,0,0
151682,-100,4,2,1,70,0,0
152034,-100,4,2,2,70,0,0
152386,-100,4,2,1,80,0,0
152620,-80,4,2,3,90,0,1
152854,-80,4,2,3,90,0,1
154261,-80,4,2,1,90,0,1
154495,-80,4,2,3,90,0,1
155667,-80,4,2,1,90,0,1
155901,-80,4,2,3,90,0,1
156136,-80,4,2,1,90,0,1
156370,-80,4,2,3,90,0,1
157073,-80,4,2,1,90,0,1
157307,-80,4,2,3,90,0,1
158010,-66.6666666666667,4,2,1,90,0,1
158245,-66.6666666666667,4,2,10,90,0,1
158479,-80,4,2,1,90,0,1
158714,-80,4,2,2,90,0,1
158948,-80,4,2,1,90,0,1
159182,-80,4,2,3,90,0,1
159534,-80,4,2,1,90,0,1
160120,-80,4,2,3,90,0,1
161057,-80,4,2,1,90,0,1
161526,-80,4,2,3,90,0,1
161761,-80,4,2,1,90,0,1
161995,-80,4,2,3,90,0,1
162932,-80,4,2,1,90,0,1
163401,-80,4,2,3,90,0,1
163636,-80,4,2,1,90,0,1
163870,-80,4,2,3,90,0,1
164573,-80,4,2,1,90,0,1
164807,-80,4,2,3,90,0,1
165511,-80,4,2,1,90,0,1
165745,-80,4,2,3,90,0,1
165979,-80,4,2,3,90,0,1
166214,-80,4,2,1,100,0,1
166448,-80,4,2,1,100,0,1
166682,-80,4,2,2,80,0,1
167034,-80,4,2,2,70,0,1
167386,-80,4,2,3,60,0,1
167503,-80,4,2,1,90,0,1
167854,-80,4,2,1,90,0,1
168089,-80,4,2,3,90,0,1
169261,-80,4,2,1,90,0,1
169496,-80,4,2,3,90,0,1
170198,-80,4,2,1,90,0,1
170433,-80,4,2,3,90,0,1
170550,-80,4,2,1,90,0,1
170785,-80,4,2,3,90,0,1
171136,-80,4,2,1,90,0,1
171371,-80,4,2,3,90,0,1
172073,-80,4,2,1,90,0,1
172308,-80,4,2,3,90,0,1
173010,-66.6666666666667,4,2,1,90,0,1
173245,-80,4,2,10,90,0,1
173479,-80,4,2,3,90,0,1
173948,-80,4,2,1,90,0,1
174183,-80,4,2,3,90,0,1
174534,-80,4,2,1,90,0,1
175120,-80,4,2,3,90,0,1
176292,-80,4,2,1,90,0,1
176527,-80,4,2,3,90,0,1
176761,-80,4,2,1,90,0,1
176996,-80,4,2,3,90,0,1
178636,-80,4,2,1,90,0,1
178870,-80,4,2,2,80,0,1
178987,-80,4,1,0,40,0,1
179339,-80,4,2,2,80,0,1
179456,-80,4,1,0,40,0,1
179573,-80,4,2,1,100,0,1
179807,-80,4,2,2,90,0,1
179925,-80,4,1,0,50,0,1
180276,-80,4,2,2,90,0,1
180393,-80,4,1,0,50,0,1
180745,-100,4,2,3,90,0,0
180979,-100,4,2,1,70,0,0
182151,-100,4,2,77,50,0,0
182386,-100,4,2,1,70,0,0
182620,-80,4,2,3,90,0,1
183557,-80,4,2,1,90,0,1
184026,-80,4,2,3,90,0,1
184261,-80,4,2,1,90,0,1
184495,-80,4,2,3,90,0,1
185198,-80,4,2,1,90,0,1
185432,-80,4,2,3,90,0,1
185667,-80,4,2,1,90,0,1
185901,-80,4,2,3,90,0,1
186136,-80,4,2,1,90,0,1
186370,-80,4,2,3,90,0,1
187073,-80,4,2,1,90,0,1
187307,-80,4,2,3,90,0,1
188011,-80,4,2,1,90,0,1
188245,-80,4,2,3,90,0,1
188362,-80,4,2,3,60,0,1
188714,-80,4,2,3,90,0,1
188948,-80,4,2,1,90,0,1
189182,-80,4,2,3,90,0,1
189886,-80,4,2,1,90,0,1
190120,-80,4,2,2,90,0,1
190354,-80,4,2,1,90,0,1
190588,-80,4,2,3,90,0,1
191057,-80,4,2,1,90,0,1
191526,-80,4,2,3,90,0,1
191643,-80,4,2,1,90,0,1
191995,-80,4,2,3,90,0,1
193167,-80,4,2,1,90,0,1
193401,-80,4,2,3,90,0,1
194104,-80,4,2,1,90,0,1
194338,-80,4,2,3,90,0,1
194573,-80,4,2,1,90,0,1
194807,-80,4,2,3,90,0,1
195393,-80,4,2,1,90,0,1
195627,-80,4,2,3,90,0,1
196682,-80,4,2,3,90,0,1
197034,-80,4,2,3,90,0,1
197386,-80,4,2,3,90,0,1
197854,-80,4,2,3,90,0,1
199261,-80,4,2,1,90,0,1
199495,-80,4,2,3,90,0,1
200550,-80,4,2,1,90,0,1
200901,-80,4,2,3,90,0,1
201136,-80,4,2,1,90,0,1
201370,-80,4,2,3,90,0,1
202073,-80,4,2,1,90,0,1
202307,-80,4,2,3,90,0,1
202893,-80,4,2,1,90,0,1
203127,-80,4,2,3,90,0,1
203479,-80,4,2,1,90,0,1
203713,-80,4,2,3,90,0,1
203831,-80,4,2,1,90,0,1
204065,-80,4,2,3,90,0,1
204886,-80,4,2,1,90,0,1
205120,-80,4,2,3,90,0,1
205354,-80,4,2,1,90,0,1
205589,-80,4,2,3,90,0,1
206292,-80,4,2,1,90,0,1
206526,-80,4,2,3,90,0,1
208050,-80,4,2,1,90,0,1
208401,-80,4,2,3,90,0,1
208636,-80,4,2,1,90,0,1
208870,-80,4,2,2,80,0,1
208987,-80,4,1,0,40,0,1
209338,-80,4,2,3,90,0,1
209339,-80,4,2,2,80,0,1
209456,-80,4,1,0,40,0,1
209807,-80,4,2,2,90,0,1
209924,-80,4,2,1,90,0,1
209925,-80,4,1,0,50,0,1
210276,-80,4,2,3,90,0,1
210393,-80,4,1,0,50,0,1
210510,-80,4,2,1,90,0,1
210744,-80,4,2,3,90,0,1
210745,-80,4,2,3,80,0,1
210979,-80,4,2,1,70,0,1
211682,-80,4,2,77,50,0,1
211917,-80,4,2,1,90,0,1
212151,-80,4,2,3,90,0,1
212386,-80,4,2,1,80,0,1
212620,-100,4,2,2,80,0,0
227620,-100,4,2,4,80,0,0
227854,-100,4,2,3,70,0,0
228792,-100,4,2,1,70,0,0
229026,-100,4,2,3,70,0,0
229261,-100,4,2,1,70,0,0
229495,-100,4,2,4,70,0,0
229963,-100,4,2,3,70,0,0
230667,-100,4,2,1,70,0,0
230901,-100,4,2,3,70,0,0
231136,-100,4,2,1,70,0,0
231370,-100,4,2,4,80,0,0
231604,-100,4,2,3,70,0,0
232542,-100,4,2,1,70,0,0
232776,-100,4,2,3,70,0,0
233011,-100,4,2,1,70,0,0
233245,-100,4,2,4,80,0,0
233479,-100,4,2,3,70,0,0
234417,-100,4,2,1,70,0,0
234651,-100,4,2,3,70,0,0
234886,-100,4,2,1,70,0,0
235120,-100,4,2,4,80,0,0
235354,-100,4,2,3,70,0,0
236057,-100,4,2,4,80,0,0
236291,-100,4,2,3,70,0,0
236995,-100,4,2,4,80,0,0
237229,-100,4,2,3,70,0,0
237932,-100,4,2,4,80,0,0
238166,-100,4,2,3,70,0,0
238870,-100,4,2,4,80,0,0
238987,-100,4,2,3,50,0,0
239338,-100,4,2,3,35,0,0
239806,-100,4,2,3,40,0,0
240275,-100,4,2,3,45,0,0
240744,-100,4,2,4,50,0,0
241213,-100,4,2,4,55,0,0
241681,-100,4,2,4,60,0,0
242150,-100,4,2,3,65,0,0
242620,-100,4,2,1,60,0,0
243792,-100,4,2,2,80,0,0
243909,-100,4,2,1,100,0,1
244495,-100,4,2,3,80,0,0
244612,-100,4,2,2,80,0,0
246018,-100,4,2,1,80,0,0
246370,-100,4,2,2,80,0,0
247893,-100,4,2,1,80,0,0
248245,-100,4,2,2,80,0,0
248948,-100,4,2,1,80,0,0
249183,-100,4,2,2,80,0,0
249886,-100,4,2,1,80,0,0
250121,-100,4,2,2,80,0,0
250354,-100,4,2,1,80,0,0
250589,-100,4,2,2,80,0,0
251643,-100,4,2,1,80,0,0
251995,-100,4,2,2,80,0,0
252229,-100,4,2,1,80,0,0
252464,-100,4,2,2,80,0,0
253167,-100,4,2,1,80,0,0
253401,-100,4,2,2,80,0,0
253518,-100,4,2,1,80,0,0
253870,-100,4,2,2,80,0,0
255042,-100,4,2,1,80,0,0
255277,-100,4,2,2,80,0,0
255393,-100,4,2,1,80,0,0
255745,-100,4,2,3,80,0,0
257386,-100,4,2,2,50,0,0
257854,-100,4,2,2,80,0,1
258088,-100,4,2,2,80,0,0
259495,-100,4,2,2,80,0,0
260198,-100,4,2,1,80,0,0
260433,-100,4,2,2,80,0,0
260550,-100,4,2,1,80,0,0
260785,-100,4,2,2,80,0,0
262659,-100,4,2,1,80,0,0
262776,-100,4,2,2,80,0,0
262893,-100,4,2,1,80,0,0
263245,-100,4,2,2,80,0,0
263479,-100,4,2,1,80,0,0
263714,-100,4,2,2,80,0,0
263831,-100,4,2,1,80,0,0
264182,-100,4,2,2,80,0,0
264768,-100,4,2,1,80,0,0
265120,-100,4,2,2,80,0,0
265354,-100,4,2,1,80,0,0
265589,-100,4,2,2,80,0,0
266292,-100,4,2,1,80,0,0
266527,-100,4,2,2,80,0,0
266643,-100,4,2,1,80,0,0
266995,-100,4,2,2,80,0,0
267698,-100,4,2,1,80,0,0
267933,-100,4,2,2,80,0,0
268284,-100,4,2,1,80,0,0
268401,-100,4,2,2,80,0,0
268518,-100,4,2,1,80,0,0
268870,-100,4,2,2,80,0,0
268987,-100,4,1,0,40,0,0
269339,-100,4,2,2,80,0,0
269456,-100,4,1,0,40,0,0
269807,-100,4,2,2,90,0,0
269925,-100,4,1,0,50,0,0
270276,-100,4,2,2,90,0,0
270393,-100,4,1,0,50,0,0
270745,-100,4,2,3,80,0,0
270979,-100,4,2,1,70,0,0
272151,-100,4,2,77,50,0,0
272386,-100,4,2,1,70,0,0
272620,-66.6666666666667,4,2,3,80,0,1
272854,-100,4,2,1,80,0,1
273088,-100,4,2,2,80,0,0
274261,-100,4,2,1,80,0,0
274496,-100,4,2,2,80,0,0
275198,-100,4,2,1,80,0,0
275315,-100,4,2,1,80,0,0
275550,-100,4,2,1,80,0,0
275901,-100,4,2,2,80,0,0
276018,-100,4,2,1,80,0,0
276370,-100,4,2,2,80,0,0
276956,-100,4,2,1,80,0,0
277307,-100,4,2,2,80,0,0
277893,-100,4,2,1,80,0,0
278127,-80,4,2,1,100,0,0
278245,-100,4,2,2,80,0,0
278479,-100,4,2,1,100,0,0
279417,-100,4,2,1,80,0,0
279652,-100,4,2,2,80,0,0
279768,-100,4,2,1,80,0,0
280120,-100,4,2,2,80,0,0
280354,-100,4,2,1,80,0,0
280589,-100,4,2,2,80,0,0
281175,-100,4,2,1,80,0,0
281526,-100,4,2,2,80,0,0
281643,-100,4,2,1,80,0,0
281878,-100,4,2,1,100,0,0
281995,-100,4,2,2,80,0,0
282229,-100,4,2,1,100,0,0
282463,-100,4,2,2,80,0,0
283050,-100,4,2,1,80,0,0
283402,-100,4,2,2,80,0,0
283518,-100,4,2,1,80,0,0
283870,-100,4,2,2,80,0,0
284456,-100,4,2,1,80,0,0
284808,-100,4,2,2,80,0,0
285393,-100,4,2,1,80,0,0
285628,-100,4,2,2,80,0,0
285745,-100,4,2,3,80,0,0
285979,-100,4,2,3,80,0,0
287386,-100,4,2,2,80,0,0
287620,-66.6666666666667,4,2,3,80,0,1
287854,-100,4,2,2,80,0,1
288088,-100,4,2,2,80,0,0
289143,-100,4,2,1,80,0,0
289495,-100,4,2,2,80,0,0
289729,-100,4,2,1,100,0,0
289963,-100,4,2,2,80,0,0
290315,-100,4,2,2,80,0,0
290550,-100,4,2,2,80,0,0
290901,-100,4,2,2,80,0,0
291018,-100,4,2,1,80,0,0
291370,-100,4,2,2,80,0,0
292893,-100,4,2,1,80,0,0
293127,-80,4,2,1,100,0,0
293245,-100,4,2,2,80,0,0
293479,-100,4,2,1,80,0,0
293714,-100,4,2,2,80,0,0
293948,-100,4,2,1,80,0,0
294182,-100,4,2,2,80,0,0
294886,-100,4,2,1,80,0,0
295120,-100,4,2,2,80,0,0
295354,-100,4,2,1,80,0,0
295589,-100,4,2,2,80,0,0
296175,-100,4,2,1,80,0,0
296527,-100,4,2,2,80,0,0
296643,-100,4,2,1,80,0,0
296878,-100,4,2,1,100,0,0
296995,-100,4,2,2,80,0,0
297112,-100,4,1,0,50,0,0
297229,-100,4,2,1,100,0,0
297464,-100,4,2,2,80,0,0
297581,-100,4,1,0,50,0,0
297932,-100,4,2,2,90,0,0
298050,-100,4,1,0,60,0,0
298401,-100,4,2,2,90,0,0
298518,-100,4,1,0,60,0,0
298870,-100,4,2,2,80,0,0
299104,-100,4,2,2,60,0,0
300276,-100,4,2,2,70,0,0
300511,-100,4,2,2,70,0,0
300745,-100,4,2,2,80,0,0
301214,-100,4,2,2,90,0,0
301448,-100,4,2,2,70,0,0
301682,-100,4,2,2,80,0,0
302386,-100,4,2,1,80,0,0
302620,-83.3333333333333,4,2,3,90,0,1
302854,-83.3333333333333,4,2,1,90,0,1
303089,-83.3333333333333,4,2,3,90,0,1
303792,-83.3333333333333,4,2,1,90,0,1
304027,-83.3333333333333,4,2,3,90,0,1
304143,-83.3333333333333,4,2,1,90,0,1
304495,-83.3333333333333,4,2,3,90,0,1
304729,-83.3333333333333,4,2,1,90,0,1
304964,-83.3333333333333,4,2,3,90,0,1
305550,-83.3333333333333,4,2,1,90,0,1
305901,-83.3333333333333,4,2,3,90,0,1
306136,-83.3333333333333,4,2,1,90,0,1
306371,-83.3333333333333,4,2,3,90,0,1
307073,-83.3333333333333,4,2,1,90,0,1
307308,-83.3333333333333,4,2,3,90,0,1
307542,-83.3333333333333,4,2,1,90,0,1
307777,-83.3333333333333,4,2,3,90,0,1
307893,-83.3333333333333,4,2,1,90,0,1
308245,-83.3333333333333,4,2,3,90,0,1
308362,-83.3333333333333,4,2,1,90,0,1
308597,-83.3333333333333,4,2,3,90,0,1
308831,-83.3333333333333,4,2,1,90,0,1
309182,-83.3333333333333,4,2,3,90,0,1
309768,-83.3333333333333,4,2,1,90,0,1
310120,-83.3333333333333,4,2,3,90,0,1
310354,-83.3333333333333,4,2,1,90,0,1
310589,-83.3333333333333,4,2,3,90,0,1
311175,-83.3333333333333,4,2,1,90,0,1
311526,-83.3333333333333,4,2,3,90,0,1
311643,-83.3333333333333,4,2,1,90,0,1
311878,-83.3333333333333,4,2,3,90,0,1
312698,-83.3333333333333,4,2,1,90,0,1
312933,-83.3333333333333,4,2,3,90,0,1
313050,-83.3333333333333,4,2,1,90,0,1
313285,-83.3333333333333,4,2,3,90,0,1
313871,-83.3333333333333,4,2,3,90,0,1
314573,-83.3333333333333,4,2,1,90,0,1
314808,-83.3333333333333,4,2,3,90,0,1
315393,-83.3333333333333,4,2,1,90,0,1
315745,-83.3333333333333,4,2,3,90,0,1
315979,-83.3333333333333,4,2,3,90,0,1
317386,-83.3333333333333,4,2,3,90,0,1
317854,-83.3333333333333,4,2,1,90,0,1
318089,-83.3333333333333,4,2,3,90,0,1
318792,-83.3333333333333,4,2,1,90,0,1
319027,-83.3333333333333,4,2,3,90,0,1
319143,-83.3333333333333,4,2,1,90,0,1
319495,-83.3333333333333,4,2,3,90,0,1
320198,-83.3333333333333,4,2,1,90,0,1
320433,-83.3333333333333,4,2,3,90,0,1
320550,-83.3333333333333,4,2,1,90,0,1
320901,-83.3333333333333,4,2,3,90,0,1
321018,-83.3333333333333,4,2,1,90,0,1
321253,-83.3333333333333,4,2,3,90,0,1
321604,-83.3333333333333,4,2,1,90,0,1
321839,-83.3333333333333,4,2,3,90,0,1
322073,-83.3333333333333,4,2,1,90,0,1
322308,-83.3333333333333,4,2,3,90,0,1
322893,-83.3333333333333,4,2,1,90,0,1
323245,-83.3333333333333,4,2,3,90,0,1
323362,-83.3333333333333,4,2,1,90,0,1
323597,-83.3333333333333,4,2,3,90,0,1
323831,-83.3333333333333,4,2,1,90,0,1
324066,-83.3333333333333,4,2,3,90,0,1
324417,-83.3333333333333,4,2,1,90,0,1
324652,-83.3333333333333,4,2,3,90,0,1
324768,-83.3333333333333,4,2,1,90,0,1
325120,-83.3333333333333,4,2,3,90,0,1
325354,-83.3333333333333,4,2,1,90,0,1
325589,-83.3333333333333,4,2,3,90,0,1
326175,-83.3333333333333,4,2,1,90,0,1
326410,-83.3333333333333,4,2,3,90,0,1
326643,-83.3333333333333,4,2,1,90,0,1
326995,-83.3333333333333,4,2,3,90,0,1
328167,-83.3333333333333,4,2,1,90,0,1
328402,-83.3333333333333,4,2,3,90,0,1
328636,-83.3333333333333,4,2,1,90,0,1
328870,-83.3333333333333,4,2,2,80,0,1
328987,-83.3333333333333,4,1,0,40,0,1
329339,-83.3333333333333,4,2,2,80,0,1
329456,-83.3333333333333,4,1,0,40,0,1
329807,-83.3333333333333,4,2,2,90,0,1
329925,-83.3333333333333,4,1,0,50,0,1
330276,-83.3333333333333,4,2,2,90,0,1
330393,-83.3333333333333,4,1,0,50,0,1
330745,-100,4,2,3,80,0,0
330979,-100,4,2,1,70,0,0
331682,-100,4,2,77,50,0,0
331917,-100,4,2,1,70,0,0
332151,-100,4,2,3,70,0,0
332386,-100,4,2,1,80,0,0
332620,-100,4,2,2,80,0,0
334261,-100,4,2,1,80,0,0
334495,-100,4,2,2,80,0,0
335667,-100,4,2,1,80,0,0
335901,-100,4,2,2,80,0,0
338011,-100,4,2,1,80,0,0
338245,-100,4,2,2,80,0,0
339534,-100,4,2,1,80,0,0
339886,-100,4,2,1,80,0,0
340120,-100,4,2,2,80,0,0
341292,-100,4,2,1,80,0,0
341526,-100,4,2,2,80,0,0
343167,-100,4,2,1,80,0,0
343401,-100,4,2,2,80,0,0
343518,-100,4,2,1,80,0,0
343752,-100,4,2,2,80,0,0
345393,-100,4,2,1,80,0,0
345745,-100,4,2,2,80,0,0
346214,-100,4,2,1,80,0,0
346448,-100,4,2,2,80,0,0
346682,-100,4,2,2,60,0,0
347620,-100,4,2,2,70,0,0
347854,-100,4,2,1,70,0,0
350198,-100,4,2,1,70,0,0
350432,-100,4,2,1,70,0,0
354534,-100,4,2,1,100,0,0
354886,-100,4,2,1,100,0,0
358870,-100,4,2,1,20,0,0
359339,-100,4,2,1,24,0,0
359807,-100,4,2,1,28,0,0
360276,-100,4,2,1,32,0,0
360745,-100,4,2,1,36,0,0
361214,-100,4,2,1,40,0,0
361682,-100,4,2,1,44,0,0
362151,-100,4,2,1,48,0,0
362620,-100,4,2,0,60,0,0

[Colours]
Combo1 : 255,170,255
Combo2 : 160,160,255
Combo3 : 125,125,200
Combo4 : 80,55,115
Combo5 : 175,125,175
Combo6 : 225,125,225

[HitObjects]
189,280,745,6,0,P|145:212|157:132,1,150,4|2,0:0|0:0,0:0:0:0:
329,104,1682,2,0,P|373:172|361:252,1,150,2|0,0:0|0:0,0:0:0:0:
285,240,2385,1,2,0:0:0:0:
183,240,2620,6,0,L|27:240,1,150,8|2,0:0|0:0,0:0:0:0:
211,240,3557,2,0,L|291:240,1,75,0|2,0:0|0:0,0:0:0:0:
379,240,4026,1,8,0:0:0:0:
75,240,4495,6,0,L|225:240,1,150,8|2,0:0|0:0,0:0:0:0:
403,248,5432,2,0,P|447:180|435:100,1,150,2|2,0:0|0:0,0:0:0:0:
359,112,6135,1,0,0:0:0:0:
256,116,6370,6,0,P|212:184|224:264,1,150,8|2,0:0|0:0,0:0:0:0:
384,252,7307,2,0,L|496:248,2,112.5,2|2|0,0:0|0:0|0:0,0:0:0:0:
176,248,8245,6,0,P|132:180|144:100,1,150,8|2,0:0|0:0,0:0:0:0:
335,135,9182,2,0,P|378:196|374:270,1,150,2|2,0:0|0:0,0:0:0:0:
288,272,9885,1,0,0:0:0:0:
392,272,10120,6,0,P|434:211|430:137,1,150,8|2,0:0|0:0,0:0:0:0:
240,136,11057,2,0,L|160:136,1,75,2|2,0:0|0:0,0:0:0:0:
84,136,11526,1,8,0:0:0:0:
400,148,11995,6,0,P|432:224|404:296,1,150,8|2,0:0|0:0,0:0:0:0:
252,280,12932,2,0,L|252:124,1,150,2|2,0:0|0:0,0:0:0:0:
176,136,13635,1,0,0:0:0:0:
80,148,13870,6,0,P|48:224|76:296,1,150,8|2,0:0|0:0,0:0:0:0:
252,288,14807,2,0,L|364:292,2,112.5,2|2|2,0:0|0:0|0:0,0:0:0:0:
448,296,15745,6,0,P|480:220|432:144,1,150,6|2,0:0|0:0,0:0:0:0:
280,300,16682,2,0,L|184:304,2,75,2|0|2,0:0|0:0|0:0,0:0:0:0:
352,296,17385,1,2,0:0:0:0:
168,300,17620,6,0,P|92:244|92:172,1,150,2|2,0:0|0:0,0:0:0:0:
260,188,18557,2,0,L|336:184,1,75,2|2,0:0|0:0,0:0:0:0:
424,180,19026,1,2,0:0:0:0:
108,168,19495,6,0,P|86:237|127:296,1,150,2|2,0:0|0:0,0:0:0:0:
308,300,20432,2,0,L|404:304,2,75,2|2|2,0:0|0:0|0:0,0:0:0:0:
236,296,21135,1,0,0:0:0:0:
420,300,21370,6,0,P|496:244|496:172,1,150,2|2,0:0|0:0,0:0:0:0:
320,192,22307,2,0,L|208:196,2,112.5,2|2|2,0:0|0:0|0:0,0:0:0:0:
120,196,23245,6,0,L|0:296,1,150,2|2,0:0|0:0,0:0:0:0:
204,200,24182,2,0,L|124:272,2,75,2|2|2,0:0|0:0|0:0,0:0:0:0:
388,200,25120,6,0,L|268:300,1,150,2|2,0:0|0:0,0:0:0:0:
108,304,26057,2,0,L|188:376,2,75,2|2|2,0:0|0:0|0:0,0:0:0:0:
448,336,26995,6,0,L|464:168,1,150,2|2,0:0|0:0,0:0:0:0:
333,230,27932,2,0,L|389:179,1,75,2|0,0:0|0:0,0:0:0:0:
454,131,28401,1,2,0:0:0:0:
64,336,28870,6,0,L|48:168,1,150,6|0,0:0|0:0,0:0:0:0:
204,232,29807,2,0,L|259:181,2,75,8|2|8,0:0|0:0|0:0,0:0:0:0:
474,240,30745,6,0,L|382:240,1,75
317,244,31213,1,0,0:0:0:0:
135,244,31682,2,0,L|279:244,2,112.5,2|0|0,0:0|0:0|0:0,0:0:0:0:
339,244,32620,5,6,0:0:0:0:
427,236,32854,1,0,0:0:0:0:
447,148,33088,1,2,0:0:0:0:
267,148,33557,2,0,P|215:132|191:72,2,112.5,2|2|8,0:0|0:0|0:0,0:0:0:0:
371,148,34495,6,0,L|239:148,2,112.5,2|2|2,0:0|0:0|0:0,0:0:0:0:
459,148,35432,2,0,L|471:224,1,75,2|8,0:0|0:0,0:0:0:0:
367,220,35901,2,0,L|363:304,1,75,2|2,0:0|0:0,0:0:0:0:
167,292,36370,6,0,L|71:292,2,75,2|0|2,0:0|0:0|0:0,0:0:0:0:
255,280,37073,1,0,0:0:0:0:
151,204,37307,2,0,L|39:156,2,112.5,2|2|2,0:0|0:0|0:0,0:0:0:0:
255,204,38245,6,0,L|367:204,2,112.5,2|2|2,0:0|0:0|0:0,0:0:0:0:
167,204,39182,1,2,0:0:0:0:
287,204,39416,1,8,0:0:0:0:
175,204,39651,2,0,L|99:192,1,75,2|0,0:0|0:0,0:0:0:0:
303,204,40120,6,0,L|415:188,1,112.5,2|2,0:0|0:0,0:0:0:0:
331,192,40823,1,2,0:0:0:0:
135,196,41057,2,0,L|27:168,2,112.5,8|2|8,0:0|0:0|0:0,0:0:0:0:
335,192,41995,6,0,L|427:192,1,75,2|0,0:0|0:0,0:0:0:0:
447,192,42346,2,0,L|359:192,1,75,2|0,0:0|0:0,0:0:0:0:
243,280,42932,2,0,L|319:280,1,75,8|8,0:0|0:0,0:0:0:0:
423,268,43401,2,0,L|343:268,1,75,2|2,0:0|0:0,0:0:0:0:
151,268,43870,6,0,P|99:288|79:344,1,112.5,2|2,0:0|0:0,0:0:0:0:
227,336,44573,1,2,0:0:0:0:
31,232,44807,2,0,L|163:232,1,112.5,8|2,0:0|0:0,0:0:0:0:
279,236,45510,1,2,0:0:0:0:
472,236,45745,6,0,L|412:192,1,75,6|0,0:0|0:0,0:0:0:0:
360,192,46096,2,0,L|420:148,1,75,2|0,0:0|0:0,0:0:0:0:
151,192,46682,2,0,L|147:144,1,37.5,8|2,0:0|0:0,0:0:0:0:
267,152,47034,2,0,L|391:152,1,112.5,8|8,0:0|0:0,0:0:0:0:
163,152,47620,6,0,L|63:152,1,75,6|0,0:0|0:0,0:0:0:0:
195,152,48088,1,8,0:0:0:0:
259,68,48323,1,0,0:0:0:0:
155,64,48557,2,0,P|107:88|87:144,2,112.5,2|2|2,0:0|0:0|0:0,0:0:0:0:
359,64,49495,6,0,L|439:64,1,75,2|0,0:0|0:0,0:0:0:0:
391,148,49846,2,0,L|315:148,1,75,2|0,0:0|0:0,0:0:0:0:
372,148,50198,1,0,0:0:0:0:
476,240,50432,2,0,L|400:240,1,75,2|8,0:0|0:0,0:0:0:0:
296,240,50901,2,0,L|208:240,1,75,8|2,0:0|0:0,0:0:0:0:
20,240,51370,5,2,0:0:0:0:
108,192,51604,1,2,0:0:0:0:
212,192,51838,2,0,L|288:192,1,75,8|0,0:0|0:0,0:0:0:0:
180,112,52307,2,0,P|128:92|108:32,2,112.5,2|2|2,0:0|0:0|0:0,0:0:0:0:
384,44,53245,6,0,L|500:44,2,112.5,2|2|2,0:0|0:0|0:0,0:0:0:0:
288,44,54182,1,2,0:0:0:0:
392,44,54416,1,8,0:0:0:0:
264,44,54651,2,0,L|168:44,1,75,8|2,0:0|0:0,0:0:0:0:
400,44,55120,6,0,L|404:160,1,112.5,2|2,0:0|0:0,0:0:0:0:
268,156,55823,1,2,0:0:0:0:
64,192,56057,2,0,L|172:156,2,112.5,2|2|0,0:0|0:0|0:0,0:0:0:0:
176,192,56995,6,0,L|252:192,1,75,2|0,0:0|0:0,0:0:0:0:
212,192,57346,2,0,L|128:192,1,75,2|0,0:0|0:0,0:0:0:0:
272,192,57932,2,0,L|284:268,1,75,2|8,0:0|0:0,0:0:0:0:
372,264,58401,2,0,L|452:264,1,75,8|2,0:0|0:0,0:0:0:0:
240,268,58870,6,0,L|124:268,1,112.5,2|0,0:0|0:0,0:0:0:0:
272,268,59573,1,0,0:0:0:0:
468,192,59807,2,0,L|370:135,1,112.5,2|0,0:0|0:0,0:0:0:0:
272,136,60393,2,0,L|220:136,1,37.5,0|0,0:0|0:0,0:0:0:0:
444,136,60745,6,0,L|448:40,1,75,4|0,2:1|0:0,0:0:0:0:
328,60,61213,2,0,L|240:60,1,75,2|0,0:0|0:0,0:0:0:0:
356,60,61682,1,2,0:0:0:0:
388,112,61799,1,2,0:0:0:0:
384,172,61916,1,2,0:0:0:0:
340,208,62034,1,2,0:0:0:0:
284,208,62151,2,0,L|180:208,1,75,8|2,0:0|0:0,0:0:0:0:
440,208,62620,6,0,L|347:208,1,93.75,6|2,0:0|0:0,0:0:0:0:
288,208,62971,1,0,0:0:0:0:
232,208,63088,2,0,L|112:208,1,93.75,8|0,0:0|0:0,0:0:0:0:
288,152,63557,2,0,L|192:152,1,93.75,2|0,0:0|0:0,0:0:0:0:
136,152,63909,1,0,0:0:0:0:
80,152,64026,2,0,L|48:272,1,93.75,8|2,0:0|0:0,0:0:0:0:
200,120,64495,6,0,L|304:120,1,93.75,2|0,0:0|0:0,0:0:0:0:
400,120,64963,2,0,L|296:120,1,93.75,8|0,0:0|0:0,0:0:0:0:
184,40,65432,1,2,0:0:0:0:
184,120,65666,1,2,0:0:0:0:
384,120,65901,1,8,0:0:0:0:
304,120,66135,1,0,0:0:0:0:
104,208,66370,6,0,L|197:208,1,93.75,2|0,0:0|0:0,0:0:0:0:
312,208,66838,2,0,L|328:320,1,93.75,8|0,0:0|0:0,0:0:0:0:
192,208,67307,6,0,L|99:208,1,93.75,2|2,0:0|0:0,0:0:0:0:
40,208,67659,1,0,0:0:0:0:
98,208,67776,1,8,0:0:0:0:
312,208,68010,2,0,L|392:152,1,93.75,8|0,0:0|0:0,0:0:0:0:
288,120,68479,1,0,0:0:0:0:
64,104,68713,2,0,L|144:48,1,93.75,8|0,0:0|0:0,0:0:0:0:
271,127,69182,2,0,L|289:26,1,93.75,2|0,0:0|0:0,0:0:0:0:
224,24,69534,1,2,0:0:0:0:
120,24,69768,1,0,0:0:0:0:
424,208,70120,6,0,L|331:208,1,93.75,2|0,0:0|0:0,0:0:0:0:
280,208,70471,1,0,0:0:0:0:
224,208,70588,2,0,L|208:304,1,93.75,8|0,0:0|0:0,0:0:0:0:
344,280,71057,2,0,L|320:184,1,93.75,2|0,0:0|0:0,0:0:0:0:
272,184,71409,1,0,0:0:0:0:
216,184,71526,2,0,L|120:184,1,93.75,8|2,0:0|0:0,0:0:0:0:
240,184,71995,6,0,L|344:184,1,93.75,2|0,0:0|0:0,0:0:0:0:
422,112,72463,2,0,L|318:112,1,93.75,8|0,0:0|0:0,0:0:0:0:
190,30,72932,1,2,0:0:0:0:
190,112,73166,1,2,0:0:0:0:
390,112,73401,1,8,0:0:0:0:
310,112,73635,1,0,0:0:0:0:
112,112,73870,6,0,L|16:112,1,93.75,2|0,0:0|0:0,0:0:0:0:
136,112,74338,2,0,L|136:216,1,93.75,8|0,0:0|0:0,0:0:0:0:
264,248,74807,2,0,L|256:144,1,93.75,2|2,0:0|0:0,0:0:0:0:
360,144,75276,1,8,0:0:0:0:
144,144,75510,6,0,L|336:144,1,187.5,8|8,0:0|0:0,0:0:0:0:
432,144,76213,2,0,L|333:146,1,93.75,2|8,0:0|0:0,0:0:0:0:
224,240,76682,1,2,0:0:0:0:
178,240,76799,1,0,0:0:0:0:
131,240,76916,1,2,0:0:0:0:
84,240,77034,1,8,0:0:0:0:
323,244,77385,1,12,0:0:0:0:
323,244,77502,1,2,0:0:0:0:
160,240,77854,5,0,0:0:0:0:
368,248,78088,2,0,L|464:248,1,93.75,8|0,0:0|0:0,0:0:0:0:
368,152,78557,2,0,L|272:152,1,93.75,2|0,0:0|0:0,0:0:0:0:
216,152,78909,1,0,0:0:0:0:
160,152,79026,2,0,L|64:152,1,93.75,8|2,0:0|0:0,0:0:0:0:
288,120,79495,6,0,L|392:120,1,93.75,2|0,0:0|0:0,0:0:0:0:
288,120,79963,2,0,L|184:120,1,93.75,8|0,0:0|0:0,0:0:0:0:
312,36,80432,1,2,0:0:0:0:
312,120,80666,1,2,0:0:0:0:
112,120,80901,1,8,0:0:0:0:
192,120,81135,1,0,0:0:0:0:
400,208,81370,6,0,L|307:208,1,93.75,2|0,0:0|0:0,0:0:0:0:
192,208,81838,2,0,L|72:208,1,93.75,8|0,0:0|0:0,0:0:0:0:
232,208,82307,2,0,L|325:208,1,93.75,2|2,0:0|0:0,0:0:0:0:
326,208,82776,1,8,0:0:0:0:
120,208,83010,6,0,L|40:152,1,93.75,8|0,0:0|0:0,0:0:0:0:
144,120,83479,1,0,0:0:0:0:
368,104,83713,2,0,L|288:48,1,93.75,8|2,0:0|0:0,0:0:0:0:
96,104,84182,2,0,L|184:72,1,93.75,2|0,0:0|0:0,0:0:0:0:
240,64,84534,1,2,0:0:0:0:
368,64,84768,1,0,0:0:0:0:
72,208,85120,6,0,L|165:208,1,93.75,2|0,0:0|0:0,0:0:0:0:
224,208,85471,1,0,0:0:0:0:
280,208,85588,2,0,L|296:304,1,93.75,8|0,0:0|0:0,0:0:0:0:
168,264,86057,2,0,L|232:184,1,93.75,2|0,0:0|0:0,0:0:0:0:
280,184,86409,1,0,0:0:0:0:
336,184,86526,2,0,L|432:184,1,93.75,8|2,0:0|0:0,0:0:0:0:
312,184,86995,6,0,L|208:184,1,93.75,2|0,0:0|0:0,0:0:0:0:
130,112,87463,2,0,L|234:112,1,93.75,8|0,0:0|0:0,0:0:0:0:
364,28,87932,1,2,0:0:0:0:
362,112,88166,1,2,0:0:0:0:
162,112,88401,1,8,0:0:0:0:
242,112,88635,1,2,0:0:0:0:
456,24,88870,6,0,L|456:144,1,93.75,2|0,0:0|0:0,0:0:0:0:
328,112,89338,2,0,L|328:216,1,93.75,8|0,0:0|0:0,0:0:0:0:
136,144,89807,2,0,L|232:144,1,93.75,2|0,0:0|0:0,0:0:0:0:
296,144,90159,1,0,0:0:0:0:
408,144,90393,1,0,0:0:0:0:
208,144,90627,6,0,L|67:144,1,140.625,0|0,0:0|0:0,0:0:0:0:
168,144,91213,2,0,L|288:144,1,93.75,2|0,0:0|0:0,0:0:0:0:
384,144,91682,2,0,L|264:144,1,93.75,2|0,0:0|0:0,0:0:0:0:
168,144,92151,2,0,L|48:144,1,93.75,8|2,0:0|0:0,0:0:0:0:
284,140,92620,6,0,L|288:248,1,93.75,4|2,0:0|0:0,0:0:0:0:
232,232,92971,1,0,0:0:0:0:
176,232,93088,2,0,L|92:192,1,93.75,8|0,0:0|0:0,0:0:0:0:
212,128,93557,2,0,L|112:128,1,93.75,2|2,0:0|0:0,0:0:0:0:
212,40,94026,2,0,L|308:40,1,93.75,8|2,0:0|0:0,0:0:0:0:
496,40,94495,6,0,L|504:144,1,93.75,2|0,0:0|0:0,0:0:0:0:
392,132,94963,2,0,L|488:132,1,93.75,8|0,0:0|0:0,0:0:0:0:
372,132,95432,1,2,0:0:0:0:
309,172,95549,1,0,0:0:0:0:
310,246,95666,1,2,0:0:0:0:
375,283,95784,1,0,0:0:0:0:
452,284,95901,2,0,L|356:284,1,93.75,8|0,0:0|0:0,0:0:0:0:
168,284,96370,5,2,0:0:0:0:
280,284,96604,2,0,L|176:284,2,93.75,0|8|2,0:0|0:0|0:0,0:0:0:0:
92,284,97307,2,0,L|88:176,1,93.75,2|0,0:0|0:0,0:0:0:0:
204,188,97776,2,0,L|296:152,1,93.75,8|2,0:0|0:0,0:0:0:0:
176,96,98245,5,2,0:0:0:0:
228,76,98362,1,0,0:0:0:0:
280,56,98479,1,2,0:0:0:0:
392,56,98713,2,0,L|296:56,1,93.75,8|2,0:0|0:0,0:0:0:0:
184,56,99182,1,2,0:0:0:0:
312,56,99416,1,2,0:0:0:0:
120,56,99651,2,0,L|24:56,1,93.75,8|2,0:0|0:0,0:0:0:0:
148,56,100120,6,0,L|152:168,1,93.75,2|2,0:0|0:0,0:0:0:0:
92,148,100471,1,2,0:0:0:0:
32,144,100588,2,0,L|128:148,1,93.75,8|0,0:0|0:0,0:0:0:0:
312,148,101057,2,0,L|228:192,1,93.75,2|2,0:0|0:0,0:0:0:0:
108,236,101526,2,0,L|192:280,1,93.75,8|2,0:0|0:0,0:0:0:0:
384,280,101995,6,0,L|488:280,1,93.75,2|2,0:0|0:0,0:0:0:0:
356,192,102463,2,0,L|456:192,1,93.75,8|2,0:0|0:0,0:0:0:0:
336,192,102932,2,0,L|332:128,2,46.875,2|0|0,0:0|0:0|0:0,0:0:0:0:
144,192,103401,2,0,L|40:192,1,93.75,8|0,0:0|0:0,0:0:0:0:
164,192,103870,5,2,0:0:0:0:
32,192,104104,1,0,0:0:0:0:
164,192,104338,2,0,L|280:192,1,93.75,8|2,0:0|0:0,0:0:0:0:
68,192,104807,2,0,L|64:84,1,93.75,2|0,0:0|0:0,0:0:0:0:
176,96,105276,2,0,L|72:96,1,93.75,8|0,0:0|0:0,0:0:0:0:
284,96,105745,6,0,L|392:96,1,93.75,6|8,0:0|0:0,0:0:0:0:
332,96,106096,1,0,0:0:0:0:
266,131,106213,1,2,0:0:0:0:
265,206,106330,1,0,0:0:0:0:
329,243,106448,1,8,0:0:0:0:
460,244,106682,2,0,L|364:244,1,93.75,2|2,0:0|0:0,0:0:0:0:
420,244,107034,1,8,0:0:0:0:
472,244,107151,1,2,0:0:0:0:
268,244,107385,6,0,P|196:184|268:104,1,225.000008583069,6|2,0:0|0:0,0:0:0:0:
324,104,107971,1,2,0:0:0:0:
380,104,108088,2,0,L|280:104,1,93.75,8|0,0:0|0:0,0:0:0:0:
92,104,108557,2,0,L|88:208,1,93.75,2|0,0:0|0:0,0:0:0:0:
220,200,109026,1,8,0:0:0:0:
164,200,109143,1,0,0:0:0:0:
108,200,109260,1,2,0:0:0:0:
296,200,109495,6,0,L|300:296,1,93.75,2|2,0:0|0:0,0:0:0:0:
188,292,109963,2,0,L|288:292,1,93.75,8|0,0:0|0:0,0:0:0:0:
400,292,110432,2,0,L|412:236,2,46.875,2|0|2,0:0|0:0|0:0,0:0:0:0:
204,292,110901,2,0,L|96:292,1,93.75,8|2,0:0|0:0,0:0:0:0:
240,296,111370,6,0,L|256:200,1,93.75,2|0,0:0|0:0,0:0:0:0:
60,204,111838,2,0,L|52:104,1,93.75,8|2,0:0|0:0,0:0:0:0:
108,112,112190,1,0,0:0:0:0:
164,112,112307,2,0,L|264:112,1,93.75,2|2,0:0|0:0,0:0:0:0:
136,24,112776,1,8,0:0:0:0:
188,24,112893,1,0,0:0:0:0:
240,24,113010,1,2,0:0:0:0:
360,24,113245,6,0,L|256:24,1,93.75,2|2,0:0|0:0,0:0:0:0:
380,24,113713,2,0,L|432:24,2,46.875,8|0|2,0:0|0:0|0:0,0:0:0:0:
256,124,114182,2,0,L|352:124,1,93.75,2|2,0:0|0:0,0:0:0:0:
152,124,114651,2,0,L|104:124,2,46.875,8|0|2,0:0|0:0|0:0,0:0:0:0:
348,124,115120,6,0,L|448:124,1,93.75,2|2,0:0|0:0,0:0:0:0:
488,124,115471,1,0,0:0:0:0:
432,124,115588,2,0,L|328:124,1,93.75,8|0,0:0|0:0,0:0:0:0:
224,124,116057,1,2,0:0:0:0:
280,124,116174,2,0,L|376:124,1,93.75,0|0,0:0|0:0,0:0:0:0:
324,212,116526,1,8,0:0:0:0:
272,212,116643,1,0,0:0:0:0:
220,212,116760,1,2,0:0:0:0:
28,212,116995,6,0,L|128:212,1,93.75,2|2,0:0|0:0,0:0:0:0:
240,312,117463,2,0,L|144:312,1,93.75,8|2,0:0|0:0,0:0:0:0:
268,312,117932,1,2,0:0:0:0:
273,265,118049,1,0,0:0:0:0:
278,218,118166,1,2,0:0:0:0:
80,220,118401,2,0,L|72:120,1,93.75,8|2,0:0|0:0,0:0:0:0:
184,128,118870,5,2,0:0:0:0:
388,128,119104,2,0,L|488:128,2,93.75,0|8|0,0:0|0:0|0:0,0:0:0:0:
184,128,119807,2,0,L|176:28,1,93.75,2|0,0:0|0:0,0:0:0:0:
308,36,120276,1,8,0:0:0:0:
261,36,120393,1,0,0:0:0:0:
214,36,120510,1,0,0:0:0:0:
16,36,120745,6,0,L|8:136,1,93.75,4|2,0:0|0:0,0:0:0:0:
117,143,121213,2,0,L|152:232,1,93.75,2|2,0:0|0:0,0:0:0:0:
107,264,121565,1,0,0:0:0:0:
63,296,121682,2,0,L|176:296,1,93.75,8|0,0:0|0:0,0:0:0:0:
364,296,122151,2,0,L|388:252,2,46.875,2|2|2,0:0|0:0|0:0,0:0:0:0:
140,252,122620,6,0,L|52:252,1,75,4|0,0:0|0:0,0:0:0:0:
156,168,123088,2,0,L|236:168,1,75,8|0,0:0|0:0,0:0:0:0:
352,168,123557,2,0,L|244:168,1,75,2|0,0:0|0:0,0:0:0:0:
236,168,123909,1,2,0:0:0:0:
144,168,124143,2,0,L|140:128,1,37.5,0|2,0:0|0:0,0:0:0:0:
350,136,124495,6,0,L|458:180,2,112.5,2|2|0,0:0|0:0|0:0,0:0:0:0:
262,136,125432,1,2,0:0:0:0:
173,160,125666,2,0,L|64:192,1,112.5,8|0,0:0|0:0,0:0:0:0:
344,136,126370,6,0,L|448:136,1,75,2|2,0:0|0:0,0:0:0:0:
460,136,126721,1,2,0:0:0:0:
500,136,126838,2,0,L|416:136,1,75,8|0,0:0|0:0,0:0:0:0:
290,132,127307,2,0,L|406:132,1,112.5,2|0,0:0|0:0,0:0:0:0:
448,128,127893,1,0,0:0:0:0:
144,120,128245,6,0,P|108:160|116:176,1,75,2|0,0:0|0:0,0:0:0:0:
180,184,128596,2,0,P|216:224|208:240,1,75,2|0,0:0|0:0,0:0:0:0:
144,268,128948,1,2,0:0:0:0:
356,284,129416,2,0,L|460:284,2,75,8|2|0,0:0|0:0|0:0,0:0:0:0:
136,280,130120,6,0,L|240:280,1,75,4|0,0:0|0:0,0:0:0:0:
248,280,130471,1,0,0:0:0:0:
360,288,130823,1,0,0:0:0:0:
232,340,131057,6,0,L|213:253,1,75,2|0,0:0|0:0,0:0:0:0:
265,267,131409,1,2,0:0:0:0:
373,281,131643,2,0,L|378:223,1,37.5,2|8,0:0|0:0,0:0:0:0:
256,128,131995,6,0,L|184:168,1,75,2|0,0:0|0:0,0:0:0:0:
248,208,132346,2,0,P|284:248|276:264,1,75,2|2,0:0|0:0,0:0:0:0:
182,252,132815,2,0,L|138:252,1,37.5,0|8,0:0|0:0,0:0:0:0:
248,236,133166,2,0,P|312:196|300:140,1,112.5,8|0,0:0|0:0,0:0:0:0:
280,128,133635,1,2,0:0:0:0:
56,276,133870,6,0,L|136:208,1,75,2|0,0:0|0:0,0:0:0:0:
152,200,134221,1,2,0:0:0:0:
268,196,134573,1,2,0:0:0:0:
376,368,134807,6,0,L|348:288,1,75,8|0,0:0|0:0,0:0:0:0:
300,276,135159,1,2,0:0:0:0:
192,276,135393,1,2,0:0:0:0:
472,208,135745,6,0,L|484:144,1,37.5,4|0,0:0|0:0,0:0:0:0:
388,168,136096,2,0,L|280:168,1,75,2|0,0:0|0:0,0:0:0:0:
200,176,136565,2,0,L|164:224,1,37.5,2|8,0:0|0:0,0:0:0:0:
432,156,137034,2,0,L|437:303,1,112.5,8|8,0:0|0:0,0:0:0:0:
208,288,137620,6,0,L|120:288,1,75,4|0,0:0|0:0,0:0:0:0:
52,196,138088,2,0,L|132:196,1,75,8|0,0:0|0:0,0:0:0:0:
348,200,138557,2,0,L|368:112,1,75,2|0,0:0|0:0,0:0:0:0:
316,100,138909,1,0,0:0:0:0:
208,104,139143,2,0,L|200:144,1,37.5,0|2,0:0|0:0,0:0:0:0:
408,120,139495,6,0,P|444:160|436:176,1,75,2|2,0:0|0:0,0:0:0:0:
372,184,139846,2,0,P|336:224|344:240,1,75,2|0,0:0|0:0,0:0:0:0:
408,268,140198,2,0,L|460:356,1,75,2|2,0:0|0:0,0:0:0:0:
228,328,140666,2,0,L|360:328,1,112.5,8|0,0:0|0:0,0:0:0:0:
28,300,141370,6,0,L|16:196,1,75,2|2,0:0|0:0,0:0:0:0:
72,224,141721,1,0,0:0:0:0:
120,224,141838,2,0,L|204:224,1,75,8|0,0:0|0:0,0:0:0:0:
396,224,142307,2,0,L|300:224,1,75,2|2,0:0|0:0,0:0:0:0:
272,224,142659,2,0,L|200:272,1,75,2|0,0:0|0:0,0:0:0:0:
448,120,143245,6,0,P|484:160|476:176,1,75,2|2,0:0|0:0,0:0:0:0:
412,184,143596,2,0,P|376:224|384:240,1,75,2|0,0:0|0:0,0:0:0:0:
436,268,143948,1,2,0:0:0:0:
301,280,144416,2,0,L|197:280,1,75,2|8,0:0|0:0,0:0:0:0:
156,284,144885,1,2,0:0:0:0:
376,280,145120,6,0,L|272:280,1,75,2|0,0:0|0:0,0:0:0:0:
264,280,145471,1,2,0:0:0:0:
128,284,145823,1,2,0:0:0:0:
348,280,146057,6,0,L|244:280,1,75,2|2,0:0|0:0,0:0:0:0:
236,280,146409,1,2,0:0:0:0:
128,280,146643,2,0,L|112:220,1,37.5,0|2,0:0|0:0,0:0:0:0:
348,120,146995,6,0,P|384:160|376:176,1,75,2|2,0:0|0:0,0:0:0:0:
292,196,147346,2,0,P|256:236|264:252,1,75,2|2,0:0|0:0,0:0:0:0:
356,252,147815,2,0,L|400:252,1,37.5,0|8,0:0|0:0,0:0:0:0:
184,248,148166,2,0,P|160:196|188:140,1,112.5,8|0,0:0|0:0,0:0:0:0:
232,128,148635,1,2,0:0:0:0:
456,276,148870,6,0,L|376:208,1,75,2|0,0:0|0:0,0:0:0:0:
360,200,149221,1,0,0:0:0:0:
244,196,149573,1,0,0:0:0:0:
36,276,149807,6,0,L|140:276,1,75,2|0,0:0|0:0,0:0:0:0:
148,276,150159,1,0,0:0:0:0:
256,276,150393,2,0,L|272:216,1,37.5,0|0,0:0|0:0,0:0:0:0:
40,208,150745,6,0,L|28:104,1,75,4|0,1:2|0:0,0:0:0:0:
180,168,151213,2,0,L|72:168,1,75,2|0,0:0|0:0,0:0:0:0:
324,120,151682,2,0,L|216:120,1,75,2|2,0:0|0:0,0:0:0:0:
144,112,152151,2,0,L|128:32,1,75,8|2,0:0|0:0,0:0:0:0:
336,40,152620,5,4,0:0:0:0:
440,40,152854,2,0,L|344:40,2,93.75,0|8|0,0:0|0:0|0:0,0:0:0:0:
328,40,153557,2,0,L|412:80,1,93.75,2|2,0:0|0:0,0:0:0:0:
320,80,154026,2,0,L|236:120,1,93.75,8|2,0:0|0:0,0:0:0:0:
28,120,154495,6,0,L|24:224,1,93.75,2|0,0:0|0:0,0:0:0:0:
128,232,154963,2,0,L|36:212,1,93.75,8|2,0:0|0:0,0:0:0:0:
128,232,155432,2,0,L|220:212,1,93.75,2|2,0:0|0:0,0:0:0:0:
424,212,155901,2,0,L|416:116,1,93.75,8|2,0:0|0:0,0:0:0:0:
352,120,156252,1,2,0:0:0:0:
288,120,156370,5,2,0:0:0:0:
416,118,156604,1,2,0:0:0:0:
276,120,156838,2,0,L|176:120,1,93.75,8|2,0:0|0:0,0:0:0:0:
312,32,157307,2,0,L|216:32,2,93.75,2|2|8,0:0|0:0|0:0,0:0:0:0:
96,32,158010,2,0,P|48:168|100:184,1,225.000008583069,8|2,0:0|0:0,0:0:0:0:
232,184,158713,2,0,L|132:184,1,93.75,8|2,0:0|0:0,0:0:0:0:
344,184,159182,6,0,B|392:184|392:184|340:184,1,93.75,2|0,0:0|0:0,0:0:0:0:
288,184,159534,1,2,0:0:0:0:
232,184,159651,1,0,0:0:0:0:
348,272,159885,1,2,0:0:0:0:
288,272,160002,1,2,0:0:0:0:
228,272,160120,5,2,0:0:0:0:
116,272,160354,1,2,0:0:0:0:
248,272,160588,2,0,L|256:172,1,93.75,8|2,0:0|0:0,0:0:0:0:
124,176,161057,2,0,L|24:176,2,93.75,2|2|8,0:0|0:0|0:0,0:0:0:0:
236,176,161760,2,0,L|240:128,1,46.875,2|2,0:0|0:0,0:0:0:0:
164,128,161995,6,0,L|64:128,1,93.75,2|0,0:0|0:0,0:0:0:0:
212,128,162463,2,0,L|216:24,1,93.75,8|2,0:0|0:0,0:0:0:0:
328,36,162932,2,0,L|416:72,1,93.75,2|2,0:0|0:0,0:0:0:0:
215,34,163401,2,0,L|211:146,1,93.75,8|2,0:0|0:0,0:0:0:0:
324,128,163870,5,2,0:0:0:0:
184,128,164104,1,2,0:0:0:0:
92,212,164338,1,8,0:0:0:0:
184,292,164573,1,2,0:0:0:0:
392,292,164807,2,0,L|396:192,1,93.75,2|2,0:0|0:0,0:0:0:0:
272,192,165276,2,0,L|176:192,1,93.75,8|2,0:0|0:0,0:0:0:0:
395,198,165745,6,0,L|495:198,1,93.75,4|8,0:0|0:0,0:0:0:0:
356,196,166213,2,0,L|352:132,2,46.875,2|0|8,0:0|0:0|0:0,0:0:0:0:
236,148,166682,2,0,L|136:148,1,93.75,2|2,0:0|0:0,0:0:0:0:
96,148,167034,1,8,0:0:0:0:
384,148,167385,6,0,P|444:88|384:28,1,187.5,12|2,0:0|0:0,0:0:0:0:
252,28,168088,1,8,0:0:0:0:
364,28,168323,1,0,0:0:0:0:
152,28,168557,2,0,L|148:128,1,93.75,2|0,0:0|0:0,0:0:0:0:
260,120,169026,2,0,L|264:224,1,93.75,8|2,0:0|0:0,0:0:0:0:
152,212,169495,6,0,L|252:212,1,93.75,2|2,0:0|0:0,0:0:0:0:
132,212,169963,2,0,L|36:212,1,93.75,8|2,0:0|0:0,0:0:0:0:
152,212,170432,2,0,L|252:212,1,93.75,2|2,0:0|0:0,0:0:0:0:
456,212,170901,2,0,L|464:320,1,93.75,8|2,0:0|0:0,0:0:0:0:
408,308,171252,1,2,0:0:0:0:
352,308,171370,5,2,0:0:0:0:
240,308,171604,1,2,0:0:0:0:
376,224,171838,2,0,L|268:224,1,93.75,8|2,0:0|0:0,0:0:0:0:
76,224,172307,1,2,0:0:0:0:
12,136,172541,1,2,0:0:0:0:
104,80,172776,1,8,0:0:0:0:
316,80,173010,6,0,L|440:80,1,112.500004291535,8|0,0:0|0:0,0:0:0:0:
328,80,173479,1,0,0:0:0:0:
440,172,173713,2,0,L|340:172,1,93.75,8|2,0:0|0:0,0:0:0:0:
136,176,174182,2,0,B|88:176|88:176|140:176,1,93.75,2|0,0:0|0:0,0:0:0:0:
192,176,174534,1,2,0:0:0:0:
136,176,174651,1,0,0:0:0:0:
24,260,174885,1,2,0:0:0:0:
88,260,175002,1,2,0:0:0:0:
152,260,175120,5,2,0:0:0:0:
284,260,175354,1,2,0:0:0:0:
160,260,175588,2,0,L|156:364,1,93.75,8|0,0:0|0:0,0:0:0:0:
288,352,176057,2,0,L|180:352,2,93.75,2|2|8,0:0|0:0|0:0,0:0:0:0:
420,352,176760,2,0,L|472:352,1,46.875,2|2,0:0|0:0,0:0:0:0:
412,352,176995,6,0,L|312:352,1,93.75,2|2,0:0|0:0,0:0:0:0:
440,256,177463,2,0,L|340:256,1,93.75,8|0,0:0|0:0,0:0:0:0:
232,256,177932,2,0,L|328:256,1,93.75,2|2,0:0|0:0,0:0:0:0:
112,256,178401,2,0,L|108:160,1,93.75,8|2,0:0|0:0,0:0:0:0:
324,160,178870,6,0,L|424:160,1,93.75,2|0,0:0|0:0,0:0:0:0:
288,160,179338,2,0,L|188:160,1,93.75,8|2,0:0|0:0,0:0:0:0:
64,160,179807,2,0,L|60:64,1,93.75,2|0,0:0|0:0,0:0:0:0:
116,68,180159,2,0,L|216:68,1,93.75,0|0,0:0|0:0,0:0:0:0:
492,68,180745,6,0,L|496:144,1,75,4|0,0:0|0:0,0:0:0:0:
384,144,181213,2,0,L|380:224,1,75,2|2,0:0|0:0,0:0:0:0:
320,220,181565,1,0,0:0:0:0:
260,220,181682,2,0,L|188:192,1,75,8|2,0:0|0:0,0:0:0:0:
288,220,182151,2,0,L|357:247,1,75,8|2,0:0|0:0,0:0:0:0:
120,275,182620,6,0,L|108:176,1,93.75,4|0,0:0|0:0,0:0:0:0:
163,182,182971,1,0,0:0:0:0:
219,182,183088,2,0,L|312:184,1,93.75,8|0,0:0|0:0,0:0:0:0:
190,126,183557,2,0,L|285:126,1,93.75,2|0,0:0|0:0,0:0:0:0:
349,125,183909,1,0,0:0:0:0:
414,125,184026,2,0,L|304:126,1,93.75,8|2,0:0|0:0,0:0:0:0:
200,120,184495,6,0,L|296:120,1,93.75,2|0,0:0|0:0,0:0:0:0:
400,120,184963,2,0,L|304:120,1,93.75,8|2,0:0|0:0,0:0:0:0:
184,28,185432,1,2,0:0:0:0:
184,120,185666,1,2,0:0:0:0:
384,120,185901,1,8,0:0:0:0:
304,120,186135,1,2,0:0:0:0:
104,208,186370,6,0,L|200:208,1,93.75,2|2,0:0|0:0,0:0:0:0:
256,208,186721,1,0,0:0:0:0:
312,208,186838,2,0,L|408:208,1,93.75,8|2,0:0|0:0,0:0:0:0:
273,140,187307,2,0,L|176:140,1,93.75,2|0,0:0|0:0,0:0:0:0:
64,232,187776,2,0,L|160:232,1,93.75,8|2,0:0|0:0,0:0:0:0:
372,136,188245,6,0,L|277:136,1,93.75,2|2,0:0|0:0,0:0:0:0:
163,228,188713,2,0,L|261:228,1,93.75,8|2,0:0|0:0,0:0:0:0:
399,227,189182,2,0,L|304:228,1,93.75,2|2,0:0|0:0,0:0:0:0:
255,227,189534,1,2,0:0:0:0:
131,190,189768,2,0,L|124:136,1,46.875,2|2,0:0|0:0,0:0:0:0:
321,123,190120,6,0,L|336:220,1,93.75,2|2,0:0|0:0,0:0:0:0:
278,221,190471,1,0,0:0:0:0:
232,221,190588,2,0,L|217:125,1,93.75,8|0,0:0|0:0,0:0:0:0:
344,100,191057,2,0,L|250:100,1,93.75,2|2,0:0|0:0,0:0:0:0:
193,100,191409,1,0,0:0:0:0:
137,100,191526,2,0,L|40:100,1,93.75,8|2,0:0|0:0,0:0:0:0:
240,184,191995,6,0,L|248:280,1,93.75,2|0,0:0|0:0,0:0:0:0:
95,191,192463,2,0,L|84:88,1,93.75,8|0,0:0|0:0,0:0:0:0:
228,28,192932,1,2,0:0:0:0:
228,112,193166,1,2,0:0:0:0:
42,110,193401,1,8,0:0:0:0:
122,110,193635,1,2,0:0:0:0:
326,108,193870,6,0,L|344:204,1,93.75,2|0,0:0|0:0,0:0:0:0:
204,210,194338,2,0,L|204:308,1,93.75,8|2,0:0|0:0,0:0:0:0:
350,290,194807,2,0,L|260:256,2,93.75,2|2|8,0:0|0:0|0:0,0:0:0:0:
466,296,195510,1,2,0:0:0:0:
241,278,195745,6,0,L|224:160,1,93.75,6|2,0:0|0:0,0:0:0:0:
423,177,196213,2,0,L|424:80,1,93.75,8|2,0:0|0:0,0:0:0:0:
212,172,196682,1,2,0:0:0:0:
157,174,196799,1,0,0:0:0:0:
60,177,197034,1,8,0:0:0:0:
358,312,197385,1,6,0:0:0:0:
465,283,197854,5,2,0:0:0:0:
338,246,198088,2,0,L|340:144,1,93.75,8|0,0:0|0:0,0:0:0:0:
451,136,198557,2,0,L|356:136,1,93.75,2|2,0:0|0:0,0:0:0:0:
296,136,198909,1,0,0:0:0:0:
238,137,199026,2,0,L|216:236,1,93.75,8|2,0:0|0:0,0:0:0:0:
419,154,199495,6,0,L|312:152,1,93.75,2|0,0:0|0:0,0:0:0:0:
211,129,199963,2,0,L|104:128,1,93.75,8|2,0:0|0:0,0:0:0:0:
343,120,200432,1,2,0:0:0:0:
436,120,200666,1,0,0:0:0:0:
343,120,200901,1,8,0:0:0:0:
242,122,201135,1,2,0:0:0:0:
477,126,201370,6,0,L|468:232,1,93.75,2|0,0:0|0:0,0:0:0:0:
366,214,201838,2,0,L|240:212,1,93.75,8|2,0:0|0:0,0:0:0:0:
153,211,202307,2,0,L|248:212,1,93.75,2|0,0:0|0:0,0:0:0:0:
343,138,202776,2,0,L|236:136,1,93.75,8|2,0:0|0:0,0:0:0:0:
57,131,203245,6,0,L|48:232,1,93.75,2|2,0:0|0:0,0:0:0:0:
180,216,203713,2,0,L|172:320,1,93.75,8|2,0:0|0:0,0:0:0:0:
382,313,204182,2,0,L|472:280,1,93.75,2|2,0:0|0:0,0:0:0:0:
496,235,204534,1,2,0:0:0:0:
366,72,204768,2,0,L|304:100,1,46.875,2|2,0:0|0:0,0:0:0:0:
96,192,205120,6,0,L|188:208,1,93.75,2|2,0:0|0:0,0:0:0:0:
240,208,205471,1,0,0:0:0:0:
292,208,205588,2,0,L|308:308,1,93.75,8|0,0:0|0:0,0:0:0:0:
432,184,206057,2,0,L|328:184,1,93.75,2|2,0:0|0:0,0:0:0:0:
284,184,206409,1,0,0:0:0:0:
228,184,206526,2,0,L|128:184,1,93.75,8|2,0:0|0:0,0:0:0:0:
252,184,206995,6,0,L|360:184,1,93.75,2|2,0:0|0:0,0:0:0:0:
434,112,207463,2,0,L|324:112,1,93.75,8|2,0:0|0:0,0:0:0:0:
122,112,207932,1,2,0:0:0:0:
122,112,208166,1,2,0:0:0:0:
224,112,208401,1,8,0:0:0:0:
224,112,208635,1,2,0:0:0:0:
408,120,208870,5,2,0:0:0:0:
288,200,209104,2,0,L|184:200,2,93.75,0|8|0,0:0|0:0|0:0,0:0:0:0:
404,236,209807,2,0,L|476:316,1,93.75,2|0,0:0|0:0,0:0:0:0:
288,324,210276,2,0,L|188:296,1,93.75,8|2,0:0|0:0,0:0:0:0:
440,176,210745,6,0,L|452:80,1,93.75,6|2,0:0|0:0,0:0:0:0:
344,112,211213,2,0,L|328:216,1,93.75,8|2,0:0|0:0,0:0:0:0:
220,192,211682,2,0,L|204:296,1,93.75,8|0,0:0|0:0,0:0:0:0:
328,192,212151,2,0,L|344:88,1,93.75,8|2,0:0|0:0,0:0:0:0:
144,104,212620,1,4,0:0:0:0:
164,192,227620,5,8,0:0:0:0:
312,192,228088,1,8,0:0:0:0:
136,192,228557,2,0,L|132:116,1,75,8|2,0:0|0:0,0:0:0:0:
222,120,229026,2,0,L|230:44,1,75,8|2,0:0|0:0,0:0:0:0:
320,44,229495,5,8,0:0:0:0:
168,44,229963,1,8,0:0:0:0:
20,44,230432,2,0,L|100:44,1,75,8|2,0:0|0:0,0:0:0:0:
184,128,230901,2,0,L|104:128,1,75,8|2,0:0|0:0,0:0:0:0:
20,128,231370,5,8,0:0:0:0:
200,128,231838,1,8,0:0:0:0:
380,128,232307,2,0,L|300:128,1,75,8|2,0:0|0:0,0:0:0:0:
396,216,232776,2,0,L|480:216,1,75,8|2,0:0|0:0,0:0:0:0:
424,216,233127,1,0,0:0:0:0:
380,216,233245,5,8,0:0:0:0:
200,216,233713,1,8,0:0:0:0:
348,216,234182,2,0,L|272:216,1,75,8|2,0:0|0:0,0:0:0:0:
168,216,234651,2,0,L|92:216,1,75,8|2,0:0|0:0,0:0:0:0:
296,324,235120,6,0,L|376:324,1,75,8|8,0:0|0:0,0:0:0:0:
280,324,235588,2,0,L|200:324,1,75,8|8,0:0|0:0,0:0:0:0:
16,324,236057,2,0,L|28:248,1,75,8|8,0:0|0:0,0:0:0:0:
124,216,236526,2,0,L|136:136,1,75,8|8,0:0|0:0,0:0:0:0:
332,144,236995,6,0,L|408:144,1,75,8|8,0:0|0:0,0:0:0:0:
316,60,237463,2,0,L|400:60,1,75,8|8,0:0|0:0,0:0:0:0:
204,60,237932,2,0,L|200:136,1,75,8|8,0:0|0:0,0:0:0:0:
292,136,238401,2,0,L|296:212,1,75,8|8,0:0|0:0,0:0:0:0:
100,208,238870,5,8,0:0:0:0:
256,192,239338,12,2,242620,0:0:0:0:
180,220,243791,6,0,L|168:160,1,37.5,2|6,0:0|0:0,0:0:0:0:
320,184,244260,1,0,0:0:0:0:
104,188,244495,6,0,L|88:112,1,75,6|0,0:0|0:0,0:0:0:0:
208,112,244963,2,0,L|284:112,1,75,8|0,0:0|0:0,0:0:0:0:
328,164,245315,2,0,L|244:164,1,75,2|0,0:0|0:0,0:0:0:0:
212,164,245666,1,2,0:0:0:0:
128,168,245901,2,0,L|120:220,1,37.5,8|2,0:0|0:0,0:0:0:0:
338,172,246252,6,0,L|366:288,1,112.5,2|0,0:0|0:0,0:0:0:0:
274,288,246838,2,0,L|234:288,1,37.5,8|0,0:0|0:0,0:0:0:0:
40,224,247190,2,0,L|172:224,1,112.5,2|0,0:0|0:0,0:0:0:0:
344,228,247893,2,0,L|360:168,1,37.5,2|2,0:0|0:0,0:0:0:0:
316,172,248127,2,0,L|200:172,1,112.5,2|0,0:0|0:0,0:0:0:0:
344,288,248713,6,0,L|384:288,1,37.5,8|0,0:0|0:0,0:0:0:0:
164,232,249065,2,0,L|32:232,1,112.5,2|2,0:0|0:0,0:0:0:0:
148,232,249651,2,0,L|224:232,1,75,8|2,0:0|0:0,0:0:0:0:
440,236,250120,6,0,L|288:236,1,150,2|8,0:0|0:0,0:0:0:0:
176,236,250823,2,0,L|128:236,1,37.5
356,208,251526,2,0,L|394:166,1,37.5,8|2,0:0|0:0,0:0:0:0:
176,172,251877,6,0,L|97:170,1,75,2|0,0:0|0:0,0:0:0:0:
60,172,252229,1,2,0:0:0:0:
158,251,252463,2,0,L|239:250,1,75,8|2,0:0|0:0,0:0:0:0:
352,251,252932,2,0,L|363:213,1,37.5,2|2,0:0|0:0,0:0:0:0:
160,201,253284,6,0,L|121:119,1,75,2|0,0:0|0:0,0:0:0:0:
335,127,253752,2,0,L|458:125,1,112.5,2|0,0:0|0:0,0:0:0:0:
362,214,254338,2,0,L|322:214,1,37.5,8|2,0:0|0:0,0:0:0:0:
112,224,254690,6,0,L|91:351,1,112.5,2|2,0:0|0:0,0:0:0:0:
275,324,255393,2,0,L|313:325,1,37.5,2|2,0:0|0:0,0:0:0:0:
366,324,255627,2,0,L|386:196,1,112.5,2|8,0:0|0:0,0:0:0:0:
224,212,256448,6,0,L|179:212,1,37.5,8|8,0:0|0:0,0:0:0:0:
145,215,256682,1,2,0:0:0:0:
256,212,256916,1,8,0:0:0:0:
364,212,257151,2,0,L|444:211,1,75,2|6,0:0|0:0,0:0:0:0:
208,120,257620,6,0,L|364:124,1,150,0|8,0:0|0:0,0:0:0:0:
224,116,258323,2,0,L|208:68,1,37.5,0|2,0:0|0:0,0:0:0:0:
320,80,258791,1,2,0:0:0:0:
420,144,259026,2,0,L|432:196,1,37.5,8|0,0:0|0:0,0:0:0:0:
208,196,259377,6,0,L|76:196,1,112.5,2|0,0:0|0:0,0:0:0:0:
216,184,259963,2,0,L|232:104,1,75,8|2,0:0|0:0,0:0:0:0:
180,108,260315,2,0,L|104:108,1,75,2|2,0:0|0:0,0:0:0:0:
56,112,260666,1,2,0:0:0:0:
164,112,260901,2,0,L|204:112,1,37.5,8|0,0:0|0:0,0:0:0:0:
426,122,261252,6,0,L|447:249,1,112.5,2|2,0:0|0:0,0:0:0:0:
263,222,261955,2,0,L|225:223,1,37.5
172,222,262190,2,0,L|60:224,1,112.5,2|0,0:0|0:0,0:0:0:0:
240,124,262893,6,0,L|280:124,1,37.5,2|2,0:0|0:0,0:0:0:0:
336,236,263127,2,0,L|204:236,1,112.5,2|2,0:0|0:0,0:0:0:0:
96,208,263830,6,0,L|56:208,1,37.5,2|2,0:0|0:0,0:0:0:0:
12,156,264065,2,0,L|144:156,1,112.5,2|2,0:0|0:0,0:0:0:0:
240,160,264651,2,0,L|340:160,1,75,8|2,0:0|0:0,0:0:0:0:
80,248,265120,6,0,L|232:248,1,150,2|8,0:0|0:0,0:0:0:0:
340,224,265823,2,0,L|356:176,1,37.5,0|2,0:0|0:0,0:0:0:0:
144,252,266526,2,0,L|116:304,1,37.5,8|2,0:0|0:0,0:0:0:0:
352,272,266877,6,0,L|376:156,1,112.5,2|0,0:0|0:0,0:0:0:0:
288,176,267463,2,0,P|216:176|208:176,1,75,8|2,0:0|0:0,0:0:0:0:
424,140,267932,2,0,L|432:96,1,37.5,2|0,0:0|0:0,0:0:0:0:
304,100,268284,2,0,L|220:100,1,75,2|0,0:0|0:0,0:0:0:0:
444,100,268752,6,0,L|460:228,1,112.5,2|0,0:0|0:0,0:0:0:0:
272,124,269455,2,0,L|232:124,1,37.5
184,124,269690,2,0,L|104:228,1,112.5,0|0,0:0|0:0,0:0:0:0:
244,240,270393,6,0,L|228:188,1,37.5,0|0,0:0|0:0,0:0:0:0:
180,200,270627,2,0,L|48:200,1,112.5,0|2,0:0|0:0,0:0:0:0:
220,224,271448,1,0,0:0:0:0:
424,232,271682,2,0,L|440:156,1,75,8|0,0:0|0:0,0:0:0:0:
212,168,272151,2,0,L|128:168,1,75,8|2,0:0|0:0,0:0:0:0:
380,168,272620,6,0,P|452:104|380:24,1,225,6|8,0:0|0:0,0:0:0:0:
276,24,273323,2,0,L|228:24,1,37.5,0|0,0:0|0:0,0:0:0:0:
188,24,273557,2,0,L|184:116,1,75,2|2,0:0|0:0,0:0:0:0:
284,100,274026,2,0,L|368:100,1,75,8|2,0:0|0:0,0:0:0:0:
148,100,274495,6,0,L|60:100,1,75,2|0,0:0|0:0,0:0:0:0:
180,192,274963,2,0,L|256:192,1,75,8|2,0:0|0:0,0:0:0:0:
296,192,275315,2,0,L|212:192,1,75,2|2,0:0|0:0,0:0:0:0:
180,192,275666,1,2,0:0:0:0:
296,192,275901,2,0,L|300:240,1,37.5,8|2,0:0|0:0,0:0:0:0:
20,192,276370,6,0,L|16:280,1,75,2|0,0:0|0:0,0:0:0:0:
136,264,276838,2,0,L|140:216,1,37.5,8|2,0:0|0:0,0:0:0:0:
260,228,277190,1,2,0:0:0:0:
304,228,277307,2,0,L|384:228,1,75,0|2,0:0|0:0,0:0:0:0:
280,228,277776,2,0,L|276:272,2,37.5,8|2|2,0:0|0:0|0:0,0:0:0:0:
340,228,278127,6,0,P|384:176|340:136,1,140.625,2|0,0:0|0:0,0:0:0:0:
236,136,278713,2,0,L|176:136,1,37.5,8|2,0:0|0:0,0:0:0:0:
108,40,279065,1,2,0:0:0:0:
152,40,279182,2,0,L|236:40,1,75,2|2,0:0|0:0,0:0:0:0:
348,40,279651,2,0,L|260:40,1,75,8|2,0:0|0:0,0:0:0:0:
72,40,280120,6,0,L|68:144,1,75,2|0,0:0|0:0,0:0:0:0:
268,116,280588,2,0,L|352:116,1,75,8|0,0:0|0:0,0:0:0:0:
388,116,280940,1,0,0:0:0:0:
388,116,281057,1,2,0:0:0:0:
236,116,281526,1,8,0:0:0:0:
184,124,281643,1,2,0:0:0:0:
152,168,281760,1,2,0:0:0:0:
152,220,281877,6,0,P|176:264|236:284,1,112.5,2|2,0:0|0:0,0:0:0:0:
336,284,282463,2,0,L|424:284,1,75,8|0,0:0|0:0,0:0:0:0:
292,284,282932,2,0,L|288:332,2,37.5,2|2|2,0:0|0:0|0:0,0:0:0:0:
396,284,283401,2,0,L|312:284,1,75,8|0,0:0|0:0,0:0:0:0:
116,284,283870,6,0,L|20:284,1,75,2|0,0:0|0:0,0:0:0:0:
148,284,284338,2,0,L|152:236,1,37.5,8|2,0:0|0:0,0:0:0:0:
44,192,284690,1,2,0:0:0:0:
88,192,284807,2,0,L|172:192,1,75,0|0,0:0|0:0,0:0:0:0:
268,192,285276,1,8,0:0:0:0:
224,192,285393,1,2,0:0:0:0:
180,192,285510,1,2,0:0:0:0:
384,192,285745,6,0,L|460:192,1,75,6|8,0:0|0:0,0:0:0:0:
352,192,286213,1,2,0:0:0:0:
303,165,286330,1,8,0:0:0:0:
283,113,286448,1,8,0:0:0:0:
301,61,286565,1,8,0:0:0:0:
348,32,286682,2,0,L|428:32,1,75,2|8,0:0|0:0,0:0:0:0:
324,36,287151,1,2,0:0:0:0:
128,36,287385,1,6,0:0:0:0:
240,36,287620,6,0,P|340:56|336:160,1,225.000008583069,6|8,0:0|0:0,0:0:0:0:
240,160,288323,1,2,0:0:0:0:
352,160,288557,2,0,L|420:192,2,75,2|2|8,0:0|0:0|0:0,0:0:0:0:
248,160,289260,2,0,L|200:160,1,37.5,2|2,0:0|0:0,0:0:0:0:
160,160,289495,6,0,L|68:160,1,75,2|0,0:0|0:0,0:0:0:0:
196,244,289963,2,0,L|272:244,1,75,8|2,0:0|0:0,0:0:0:0:
232,244,290315,2,0,L|152:244,1,75,2|0,0:0|0:0,0:0:0:0:
120,244,290666,1,0,0:0:0:0:
16,244,290901,2,0,L|20:296,1,37.5,8|2,0:0|0:0,0:0:0:0:
300,340,291370,6,0,L|392:340,1,75,2|2,0:0|0:0,0:0:0:0:
268,340,291838,2,0,L|264:292,1,37.5,8|2,0:0|0:0,0:0:0:0:
384,192,292190,1,2,0:0:0:0:
340,192,292307,2,0,L|260:192,1,75,2|2,0:0|0:0,0:0:0:0:
152,192,292776,2,0,L|148:236,2,37.5,8|2|2,0:0|0:0|0:0,0:0:0:0:
216,192,293127,6,0,P|260:140|216:100,1,140.625,2|2,0:0|0:0,0:0:0:0:
88,100,293713,2,0,L|148:100,1,37.5,8|0,0:0|0:0,0:0:0:0:
216,192,294065,1,2,0:0:0:0:
172,192,294182,2,0,L|88:192,1,75,2|2,0:0|0:0,0:0:0:0:
216,192,294651,2,0,L|220:236,1,37.5,8|2,0:0|0:0,0:0:0:0:
156,264,294885,2,0,L|148:308,1,37.5,2|2,0:0|0:0,0:0:0:0:
84,340,295120,6,0,L|80:264,1,75,2|2,0:0|0:0,0:0:0:0:
284,192,295588,2,0,L|360:192,1,75,8|2,0:0|0:0,0:0:0:0:
404,192,295940,1,0,0:0:0:0:
404,192,296057,1,2,0:0:0:0:
224,192,296526,1,8,0:0:0:0:
220,154,296643,1,2,0:0:0:0:
217,117,296760,1,2,0:0:0:0:
420,116,296995,6,0,L|412:24,1,75,2|0,0:0|0:0,0:0:0:0:
316,40,297463,2,0,L|240:40,1,75,8|0,0:0|0:0,0:0:0:0:
352,40,297932,1,2,0:0:0:0:
348,100,298049,1,0,0:0:0:0:
312,152,298166,1,0,0:0:0:0:
260,180,298284,1,0,0:0:0:0:
200,192,298401,2,0,L|98:192,1,75,0|0,0:0|0:0,0:0:0:0:
332,192,298870,5,6,0:0:0:0:
184,280,299338,2,0,L|276:280,1,75,8|2,0:0|0:0,0:0:0:0:
168,280,299807,2,0,L|92:280,1,75,8|2,0:0|0:0,0:0:0:0:
212,280,300276,2,0,L|216:336,2,37.5,8|8|2,0:0|0:0|0:0,0:0:0:0:
420,280,300745,6,0,L|424:372,1,75,6|0,0:0|0:0,0:0:0:0:
224,280,301213,1,12,0:0:0:0:
328,280,301448,2,0,L|332:232,1,37.5,0|0,0:0|0:0,0:0:0:0:
268,192,301682,2,0,L|192:192,1,75,2|2,0:0|0:0,0:0:0:0:
304,192,302151,2,0,L|384:192,1,75,8|2,0:0|0:0,0:0:0:0:
148,276,302620,6,0,L|136:172,1,89.9999972534181,6|2,0:0|0:0,0:0:0:0:
191,183,302971,1,0,0:0:0:0:
247,183,303088,2,0,L|368:184,1,89.9999972534181,0|0,0:0|0:0,0:0:0:0:
464,184,303557,1,2,0:0:0:0:
471,140,303674,1,0,0:0:0:0:
456,98,303791,1,2,0:0:0:0:
421,70,303909,1,0,0:0:0:0:
368,68,304026,2,0,L|256:68,1,89.9999972534181,8|2,0:0|0:0,0:0:0:0:
60,76,304495,6,0,L|52:180,1,89.9999972534181,2|2,0:0|0:0,0:0:0:0:
260,232,304963,2,0,L|272:120,1,89.9999972534181,8|0,0:0|0:0,0:0:0:0:
60,76,305432,1,2,0:0:0:0:
168,80,305666,1,2,0:0:0:0:
32,76,305901,1,8,0:0:0:0:
140,80,306135,1,2,0:0:0:0:
364,276,306370,6,0,L|378:180,1,89.9999972534181,2|0,0:0|0:0,0:0:0:0:
321,183,306721,1,0,0:0:0:0:
265,183,306838,2,0,L|156:184,1,89.9999972534181,8|2,0:0|0:0,0:0:0:0:
48,184,307307,2,0,L|156:184,1,89.9999972534181,2|2,0:0|0:0,0:0:0:0:
265,183,307776,2,0,L|280:92,1,89.9999972534181,8|2,0:0|0:0,0:0:0:0:
73,149,308245,5,2,0:0:0:0:
66,105,308362,1,0,0:0:0:0:
81,63,308479,1,2,0:0:0:0:
198,36,308713,2,0,L|304:36,1,89.9999972534181,8|2,0:0|0:0,0:0:0:0:
463,120,309182,2,0,L|352:116,1,89.9999972534181,2|2,0:0|0:0,0:0:0:0:
316,188,309534,2,0,L|424:188,1,89.9999972534181,0|0,0:0|0:0,0:0:0:0:
476,192,309885,1,2,0:0:0:0:
264,224,310120,6,0,L|248:128,1,89.9999972534181,2|2,0:0|0:0,0:0:0:0:
304,136,310471,1,0,0:0:0:0:
364,136,310588,2,0,L|376:28,1,89.9999972534181,8|0,0:0|0:0,0:0:0:0:
192,148,311057,1,2,0:0:0:0:
185,192,311174,1,2,0:0:0:0:
200,234,311291,1,2,0:0:0:0:
235,262,311409,1,0,0:0:0:0:
288,264,311526,2,0,L|396:264,1,89.9999972534181,8|2,0:0|0:0,0:0:0:0:
204,184,311995,6,0,L|216:284,1,89.9999972534181,2|2,0:0|0:0,0:0:0:0:
384,172,312463,2,0,L|400:72,1,89.9999972534181,8|2,0:0|0:0,0:0:0:0:
184,140,312932,2,0,L|196:240,1,89.9999972534181,2|2,0:0|0:0,0:0:0:0:
376,128,313401,2,0,L|252:124,1,89.9999972534181,8|2,0:0|0:0,0:0:0:0:
464,128,313870,6,0,L|481:228,1,89.9999972534181,2|2,0:0|0:0,0:0:0:0:
376,240,314338,2,0,L|260:258,1,89.9999972534181,8|2,0:0|0:0,0:0:0:0:
172,224,314807,2,0,L|265:187,2,89.9999972534181,2|0|8,0:0|0:0|0:0,0:0:0:0:
56,230,315510,1,2,0:0:0:0:
271,278,315745,6,0,L|289:159,1,89.9999972534181,6|2,0:0|0:0,0:0:0:0:
89,177,316213,2,0,L|88:80,1,89.9999972534181,2|8,0:0|0:0,0:0:0:0:
300,172,316682,1,8,0:0:0:0:
355,174,316799,1,0,0:0:0:0:
452,177,317034,1,8,0:0:0:0:
154,312,317385,1,6,0:0:0:0:
48,224,317854,5,2,0:0:0:0:
160,224,318088,2,0,L|252:224,1,89.9999972534181,8|0,0:0|0:0,0:0:0:0:
451,136,318557,2,0,L|360:136,1,89.9999972534181,2|2,0:0|0:0,0:0:0:0:
296,136,318909,1,0,0:0:0:0:
238,137,319026,2,0,L|220:228,1,89.9999972534181,8|2,0:0|0:0,0:0:0:0:
419,154,319495,6,0,L|320:156,1,89.9999972534181,2|0,0:0|0:0,0:0:0:0:
211,129,319963,2,0,L|112:128,1,89.9999972534181,8|2,0:0|0:0,0:0:0:0:
343,120,320432,1,2,0:0:0:0:
242,122,320666,1,2,0:0:0:0:
56,120,320901,1,8,0:0:0:0:
157,122,321135,1,2,0:0:0:0:
331,120,321370,6,0,L|206:122,1,89.9999972534181,2|2,0:0|0:0,0:0:0:0:
136,124,321838,2,0,L|120:220,1,89.9999972534181,8|2,0:0|0:0,0:0:0:0:
224,212,322307,2,0,L|316:212,1,89.9999972534181,2|0,0:0|0:0,0:0:0:0:
414,139,322776,2,0,L|316:136,1,89.9999972534181,8|2,0:0|0:0,0:0:0:0:
112,132,323245,6,0,L|64:224,1,89.9999972534181,2|2,0:0|0:0,0:0:0:0:
168,248,323713,2,0,L|264:264,1,89.9999972534181,8|2,0:0|0:0,0:0:0:0:
480,272,324182,2,0,L|488:172,1,89.9999972534181,2|2,0:0|0:0,0:0:0:0:
488,132,324534,1,2,0:0:0:0:
340,88,324768,2,0,L|284:88,1,44.999998626709,2|2,0:0|0:0,0:0:0:0:
80,88,325120,6,0,L|172:88,1,89.9999972534181,2|2,0:0|0:0,0:0:0:0:
228,88,325471,1,0,0:0:0:0:
284,88,325588,2,0,L|388:88,1,89.9999972534181,8|0,0:0|0:0,0:0:0:0:
164,184,326057,2,0,L|256:184,1,89.9999972534181,2|2,0:0|0:0,0:0:0:0:
312,184,326409,1,0,0:0:0:0:
368,184,326526,2,0,L|460:184,1,89.9999972534181,8|2,0:0|0:0,0:0:0:0:
256,184,326995,6,0,L|156:184,1,89.9999972534181,2|2,0:0|0:0,0:0:0:0:
74,112,327463,2,0,L|176:112,1,89.9999972534181,8|2,0:0|0:0,0:0:0:0:
352,112,327932,1,2,0:0:0:0:
250,112,328166,1,2,0:0:0:0:
50,120,328401,1,8,0:0:0:0:
152,120,328635,1,2,0:0:0:0:
356,124,328870,5,2,0:0:0:0:
476,204,329104,2,0,L|380:204,2,89.9999972534181,0|8|0,0:0|0:0|0:0,0:0:0:0:
260,212,329807,2,0,L|256:312,1,89.9999972534181,2|0,0:0|0:0,0:0:0:0:
368,304,330276,1,8,0:0:0:0:
412,302,330393,1,0,0:0:0:0:
457,300,330510,1,0,0:0:0:0:
284,180,330745,6,0,L|276:88,1,75,6|2,0:0|0:0,0:0:0:0:
400,88,331213,2,0,L|504:76,1,75,8|2,0:0|0:0,0:0:0:0:
252,200,331682,2,0,L|268:292,1,75,8|0,0:0|0:0,0:0:0:0:
444,180,332151,2,0,L|428:88,1,75,8|2,0:0|0:0,0:0:0:0:
224,104,332620,5,6,0:0:0:0:
376,104,333088,2,0,L|380:208,1,75,2|0,0:0|0:0,0:0:0:0:
288,180,333557,2,0,L|208:180,1,75,2|0,0:0|0:0,0:0:0:0:
304,180,334026,1,2,0:0:0:0:
396,180,334260,1,2,0:0:0:0:
292,180,334495,6,0,L|288:340,1,150,2|2,0:0|0:0,0:0:0:0:
140,328,335432,1,2,0:0:0:0:
232,328,335666,1,2,0:0:0:0:
128,328,335901,2,0,L|124:260,1,37.5,2|0,0:0|0:0,0:0:0:0:
396,192,336370,5,2,0:0:0:0:
308,192,336604,2,0,L|228:192,2,75,0|2|0,0:0|0:0|0:0,0:0:0:0:
204,192,337307,2,0,L|200:96,1,75,2|0,0:0|0:0,0:0:0:0:
308,120,337776,2,0,L|312:32,1,75,2|2,0:0|0:0,0:0:0:0:
220,44,338245,6,0,L|56:44,1,150,2|2,0:0|0:0,0:0:0:0:
252,44,339182,2,0,L|136:44,2,112.5,2|2|2,0:0|0:0|0:0,0:0:0:0:
448,44,340120,5,2,0:0:0:0:
296,44,340588,2,0,L|292:152,1,75,2|0,0:0|0:0,0:0:0:0:
188,120,341057,2,0,L|268:120,1,75,2|2,0:0|0:0,0:0:0:0:
352,120,341526,2,0,L|264:120,1,75,2|0,0:0|0:0,0:0:0:0:
188,120,341995,5,2,0:0:0:0:
36,120,342463,1,2,0:0:0:0:
216,120,342932,2,0,L|296:120,1,75,2|2,0:0|0:0,0:0:0:0:
396,120,343401,2,0,L|400:176,1,37.5,2|0,0:0|0:0,0:0:0:0:
128,156,343870,5,2,0:0:0:0:
216,156,344104,1,0,0:0:0:0:
112,156,344338,2,0,L|24:156,1,75,2|0,0:0|0:0,0:0:0:0:
140,156,344807,2,0,L|144:236,1,75,2|0,0:0|0:0,0:0:0:0:
232,232,345276,2,0,L|236:148,1,75,2|2,0:0|0:0,0:0:0:0:
36,156,345745,6,0,L|32:332,1,150,6|2,0:0|0:0,0:0:0:0:
212,308,346682,2,0,L|216:252,1,37.5,8|8,0:0|0:0,0:0:0:0:
108,272,347034,2,0,B|60:272|60:272|112:272,1,75,8|8,0:0|0:0,0:0:0:0:
140,272,347385,1,2,0:0:0:0:
340,272,347620,6,0,L|468:192,1,150,6|2,0:0|0:0,0:0:0:0:
288,192,348557,2,0,L|284:112,2,75,8|0|2,0:0|0:0|0:0,0:0:0:0:
380,192,349260,1,0,0:0:0:0:
276,192,349495,6,0,P|232:136|280:92,1,150,2|2,0:0|0:0,0:0:0:0:
372,92,350198,2,0,L|376:12,1,75,2|0,0:0|0:0,0:0:0:0:
272,16,350666,2,0,L|156:16,2,112.5,8|2|2,0:0|0:0|0:0,0:0:0:0:
92,16,351838,6,0,L|88:108,1,75,2|0,0:0|0:0,0:0:0:0:
180,88,352307,2,0,L|104:88,1,75,8|0,0:0|0:0,0:0:0:0:
196,88,352776,2,0,L|200:168,1,75,2|0,0:0|0:0,0:0:0:0:
288,164,353245,5,2,0:0:0:0:
108,164,353713,2,0,L|104:260,1,75,2|0,0:0|0:0,0:0:0:0:
204,240,354182,2,0,L|316:240,2,112.5,2|2|0,0:0|0:0|0:0,0:0:0:0:
396,240,355120,5,2,0:0:0:0:
252,240,355588,1,2,0:0:0:0:
432,240,356057,1,8,0:0:0:0:
328,240,356291,1,0,0:0:0:0:
224,240,356526,1,2,0:0:0:0:
316,240,356760,1,0,0:0:0:0:
404,240,356995,6,0,B|480:240|480:240|480:164,1,150,2|2,0:0|0:0,0:0:0:0:
328,168,357932,2,0,L|416:168,1,75,2|2,0:0|0:0,0:0:0:0:
296,168,358401,1,0,0:0:0:0:
256,192,358870,12,2,362620,0:0:0:0:
