osu file format v14

[General]
AudioFilename: audio.mp3
AudioLeadIn: 0
PreviewTime: 152502
Countdown: 0
SampleSet: Soft
StackLeniency: 0.7
Mode: 2
LetterboxInBreaks: 0
WidescreenStoryboard: 0

[Editor]
Bookmarks: 745,30745,62620,92620,122620,152620,182620,212620,242620,272620,302620,332620,362620
DistanceSpacing: 1.4
BeatDivisor: 6
GridSize: 4
TimelineZoom: 3.399999

[Metadata]
Title:Monochrome in the Night (CYTOKINE remix)
TitleUnicode:モノクロ・インザナイト (CYTOKINE remix)
Artist:Shibayan feat. 3L
ArtistUnicode:Shibayan feat. 3L
Creator:JBHyperion
Version:Flawless Nirvana
Source:東方神霊廟 ~ Ten Desires.
Tags:東方Project Touhou Shinreibyou Divine Spirit Mausoleum 死霊の夜桜 Night Sakura of Dead Spirits Stage One Theme 西行寺幽々子 Yuyuko Saigyouji ZYTOKINE ShibayanRecords Linjin cittan* 黒岩サトシ Satoshi Kuroiwa 君の美術館 Your Museum Adrastea Sedecim Kouroumu 11 ZUN Magic Girl Sorcerer TomTheWizard ZiRoX JBH Hyperion japanese electronic video game
BeatmapID:2076452
BeatmapSetID:992928

[Difficulty]
HPDrainRate:6
CircleSize:3.8
OverallDifficulty:9.2
ApproachRate:9.2
SliderMultiplier:1.8
SliderTickRate:2

[Events]
//Background and Video events
0,0,"Yuyuko.jpg",0,0
//Break Periods
//Storyboard Layer 0 (Background)
//Storyboard Layer 1 (Fail)
//Storyboard Layer 2 (Pass)
//Storyboard Layer 3 (Foreground)
//Storyboard Layer 4 (Overlay)
//Storyboard Sound Samples

[TimingPoints]
745,468.75,4,2,1,100,1,0
979,-100,4,2,1,75,0,0
15745,-80,4,2,2,80,0,0
16214,-100,4,2,2,80,0,0
17386,-100,4,2,1,80,0,0
17620,-100,4,2,2,80,0,0
18323,-100,4,2,1,80,0,0
18557,-100,4,2,2,80,0,0
18791,-100,4,2,1,80,0,0
19026,-100,4,2,2,80,0,0
19261,-100,4,2,1,80,0,0
19495,-100,4,2,2,80,0,0
20667,-100,4,2,1,80,0,0
20901,-100,4,2,2,80,0,0
22542,-100,4,2,1,80,0,0
22776,-100,4,2,2,80,0,0
23011,-100,4,2,1,80,0,0
23245,-100,4,2,2,85,0,0
24417,-100,4,2,1,80,0,0
24651,-100,4,2,2,80,0,0
26292,-100,4,2,1,85,0,0
26526,-100,4,2,2,85,0,0
26995,-100,4,2,2,90,0,0
28636,-100,4,2,1,80,0,0
28870,-100,4,2,2,80,0,0
29339,-100,4,2,1,80,0,0
29573,-100,4,2,2,80,0,0
29807,-100,4,2,2,60,0,0
30745,-100,4,2,1,60,0,0
32034,-100,4,2,1,40,0,0
32386,-100,4,2,1,60,0,0
32620,-100,4,2,2,70,0,0
32854,-100,4,2,1,70,0,0
33088,-100,4,2,2,70,0,0
33909,-100,4,2,1,70,0,0
34261,-100,4,2,77,50,0,0
34495,-100,4,2,2,70,0,0
34846,-100,4,2,1,70,0,0
35198,-66.6666666666667,4,2,1,70,0,0
35432,-100,4,2,2,70,0,0
35667,-100,4,2,77,50,0,0
35901,-100,4,2,2,70,0,0
36018,-100,4,2,1,70,0,0
36370,-100,4,2,2,70,0,0
37659,-100,4,2,1,70,0,0
38245,-100,4,2,2,70,0,0
38596,-100,4,2,1,70,0,0
39182,-100,4,2,2,70,0,0
39417,-100,4,2,77,50,0,0
39651,-80,4,2,2,70,0,0
40120,-100,4,2,2,70,0,0
40471,-100,4,2,1,70,0,0
41057,-100,4,2,2,70,0,0
41409,-100,4,2,1,70,0,0
41761,-100,4,2,77,50,0,0
41995,-100,4,2,2,70,0,0
42346,-100,4,2,1,70,0,0
42815,-100,4,2,2,70,0,0
43167,-100,4,2,77,50,0,0
43401,-100,4,2,2,70,0,0
43518,-100,4,2,1,70,0,0
43870,-100,4,2,2,70,0,0
44221,-100,4,2,1,70,0,0
44807,-100,4,2,2,70,0,0
45159,-100,4,2,1,70,0,0
45745,-100,4,2,2,70,0,0
46096,-100,4,2,1,70,0,0
46682,-100,4,2,2,60,0,0
47268,-100,4,2,1,70,0,0
47386,-100,4,2,2,60,0,0
47620,-100,4,2,2,80,0,0
48792,-100,4,2,1,80,0,0
49026,-100,4,2,2,80,0,0
49261,-100,4,2,1,80,0,0
49495,-100,4,2,2,80,0,0
49846,-100,4,2,1,80,0,0
50080,-100,4,2,2,80,0,0
50667,-100,4,2,77,50,0,0
50901,-100,4,2,2,80,0,0
51018,-100,4,2,1,80,0,0
51252,-100,4,2,2,80,0,0
51604,-100,4,2,1,80,0,0
51838,-100,4,2,2,80,0,0
52659,-100,4,2,1,80,0,0
53245,-100,4,2,2,80,0,0
53596,-100,4,2,1,80,0,0
53830,-100,4,2,2,80,0,0
54417,-100,4,2,77,50,0,0
54651,-100,4,2,2,80,0,0
54886,-100,4,2,1,80,0,0
55120,-100,4,2,2,80,0,0
55354,-100,4,2,1,80,0,0
55588,-100,4,2,2,80,0,0
56292,-100,4,2,1,80,0,0
56526,-100,4,2,2,80,0,0
56761,-100,4,2,1,80,0,0
56995,-100,4,2,2,80,0,0
57346,-100,4,2,1,80,0,0
57580,-100,4,2,2,80,0,0
58167,-100,4,2,77,50,0,0
58401,-100,4,2,2,80,0,0
58518,-100,4,2,1,80,0,0
58752,-100,4,2,2,80,0,0
58987,-100,4,1,0,40,0,0
59339,-100,4,2,2,80,0,0
59456,-100,4,1,0,40,0,0
59807,-100,4,2,2,90,0,0
59925,-100,4,1,0,50,0,0
60276,-100,4,2,2,90,0,0
60393,-100,4,1,0,50,0,0
60745,-100,4,1,0,90,0,0
60979,-100,4,2,1,70,0,0
62034,-100,4,2,2,70,0,0
62386,-100,4,2,1,80,0,0
62620,-80,4,2,3,90,0,1
64261,-80,4,2,1,90,0,1
64495,-80,4,2,3,90,0,1
68010,-66.6666666666667,4,2,1,100,0,1
68245,-66.6666666666667,4,2,10,90,0,1
68479,-80,4,2,3,90,0,1
69534,-80,4,2,1,90,0,1
69886,-80,4,2,3,90,0,1
71761,-80,4,2,1,90,0,1
71995,-80,4,2,3,90,0,1
75979,-80,4,2,2,90,0,1
76682,-80,4,2,2,80,0,1
77034,-80,4,2,2,70,0,1
77386,-80,4,2,3,60,0,1
77502,-66.6666666666667,4,2,1,90,0,1
77854,-80,4,2,3,90,0,1
79261,-80,4,2,1,90,0,1
79495,-80,4,2,3,90,0,1
83010,-66.6666666666667,4,2,1,90,0,1
83245,-66.6666666666667,4,2,10,90,0,1
83479,-80,4,2,3,90,0,1
83948,-80,4,2,1,90,0,1
84182,-80,4,2,3,90,0,1
84534,-80,4,2,1,90,0,1
84886,-80,4,2,3,90,0,1
86761,-80,4,2,1,90,0,1
86995,-80,4,2,3,90,0,1
88870,-80,4,2,2,80,0,1
88987,-80,4,1,0,40,0,1
89339,-80,4,2,2,80,0,1
89456,-80,4,1,0,40,0,1
89807,-80,4,2,2,90,0,1
89925,-80,4,1,0,50,0,1
90276,-80,4,2,2,90,0,1
90393,-80,4,1,0,50,0,1
90745,-100,4,2,3,80,0,0
90979,-100,4,2,1,70,0,0
92151,-100,4,2,77,50,0,0
92386,-100,4,2,1,70,0,0
92620,-80,4,2,3,90,0,1
94261,-80,4,2,1,90,0,1
94495,-80,4,2,3,90,0,1
98011,-80,4,2,1,90,0,1
98245,-80,4,2,3,90,0,1
98479,-80,4,2,1,90,0,1
98713,-80,4,2,3,90,0,1
99417,-80,4,2,1,90,0,1
99651,-80,4,2,3,90,0,1
100354,-80,4,2,1,90,0,1
100588,-80,4,2,3,90,0,1
101761,-80,4,2,1,90,0,1
101995,-80,4,2,3,90,0,1
104573,-80,4,2,1,90,0,1
104807,-80,4,2,3,90,0,1
105979,-80,4,2,2,90,0,1
106682,-80,4,2,2,80,0,1
107034,-80,4,2,2,70,0,1
107385,-66.6666666666667,4,2,3,90,0,1
107854,-80,4,2,3,90,0,1
109261,-80,4,2,1,90,0,1
109495,-80,4,2,3,90,0,1
112073,-80,4,2,1,90,0,1
112307,-80,4,2,3,90,0,1
112893,-80,4,2,1,90,0,1
113127,-80,4,2,3,90,0,1
113479,-80,4,2,1,90,0,1
113713,-80,4,2,3,90,0,1
113831,-80,4,2,1,90,0,1
114065,-80,4,2,3,90,0,1
114886,-80,4,2,1,90,0,1
115120,-80,4,2,3,90,0,1
116761,-80,4,2,1,90,0,1
116995,-80,4,2,3,90,0,1
118167,-80,4,2,1,90,0,1
118401,-80,4,2,3,90,0,1
118636,-80,4,2,1,90,0,1
118870,-80,4,2,2,80,0,1
118987,-80,4,1,0,40,0,1
119339,-80,4,2,2,80,0,1
119456,-80,4,1,0,40,0,1
119807,-80,4,2,2,90,0,1
119925,-80,4,1,0,50,0,1
120276,-80,4,2,2,90,0,1
120393,-80,4,1,0,50,0,1
120745,-66.6666666666667,4,2,3,80,0,1
120979,-80,4,2,1,70,0,1
121682,-80,4,2,77,50,0,1
121917,-80,4,2,1,70,0,1
122386,-80,4,2,1,80,0,1
122620,-100,4,2,2,80,0,0
122854,-100,4,2,2,70,0,0
123909,-100,4,2,1,70,0,0
124495,-100,4,2,2,70,0,0
124729,-100,4,2,1,70,0,0
124964,-100,4,2,2,70,0,0
125667,-100,4,2,77,50,0,0
125901,-100,4,2,2,70,0,0
126136,-100,4,2,1,70,0,0
126371,-100,4,2,2,70,0,0
126604,-100,4,2,1,70,0,0
126839,-100,4,2,2,70,0,0
127307,-66.6666666666667,4,2,2,70,0,0
127542,-100,4,2,2,70,0,0
127659,-100,4,2,1,70,0,0
128245,-100,4,2,2,70,0,0
128596,-100,4,2,1,70,0,0
128831,-100,4,2,2,70,0,0
129417,-100,4,2,77,50,0,0
129651,-100,4,2,2,70,0,0
130120,-80,4,2,2,70,0,0
130471,-100,4,2,1,60,0,0
131057,-80,4,2,2,60,0,0
131409,-80,4,2,1,60,0,0
131761,-80,4,2,77,40,0,0
131995,-100,4,2,1,60,0,0
132346,-100,4,2,1,60,0,0
132580,-80,4,2,1,60,0,0
132815,-100,4,2,1,60,0,0
133167,-100,4,2,77,50,0,0
133401,-100,4,2,2,70,0,0
133518,-100,4,2,1,70,0,0
133870,-100,4,2,2,70,0,0
134221,-100,4,2,1,70,0,0
135159,-100,4,2,1,70,0,0
135745,-100,4,2,2,70,0,0
136096,-100,4,2,1,70,0,0
136682,-100,4,2,2,60,0,0
137268,-100,4,2,1,70,0,0
137386,-100,4,2,2,60,0,0
137620,-100,4,2,2,80,0,0
139261,-100,4,2,1,80,0,0
139495,-100,4,2,2,80,0,0
139729,-100,4,2,1,80,0,0
139964,-100,4,2,2,80,0,0
140198,-100,4,2,1,80,0,0
140432,-100,4,2,2,80,0,0
140667,-100,4,2,77,50,0,0
140901,-100,4,2,2,80,0,0
141018,-100,4,2,1,80,0,0
141252,-100,4,2,2,80,0,0
141604,-100,4,2,1,80,0,0
141838,-100,4,2,2,80,0,0
142542,-100,4,2,1,80,0,0
142776,-100,4,2,2,80,0,0
143011,-100,4,2,1,80,0,0
143245,-100,4,2,2,80,0,0
143479,-100,4,2,1,80,0,0
143714,-100,4,2,2,80,0,0
144417,-100,4,2,77,50,0,0
144651,-100,4,2,2,80,0,0
144886,-100,4,2,1,80,0,0
145120,-100,4,2,2,80,0,0
145354,-100,4,2,1,80,0,0
145588,-100,4,2,2,80,0,0
146292,-100,4,2,1,80,0,0
146526,-100,4,2,2,80,0,0
146761,-100,4,2,1,80,0,0
146995,-100,4,2,2,80,0,0
147229,-100,4,2,1,80,0,0
147464,-100,4,2,2,80,0,0
148167,-100,4,2,77,50,0,0
148401,-100,4,2,2,80,0,0
148518,-100,4,2,1,80,0,0
148752,-100,4,2,2,80,0,0
148987,-100,4,1,0,40,0,0
149339,-100,4,2,2,80,0,0
149456,-100,4,1,0,40,0,0
149807,-100,4,2,2,90,0,0
149925,-100,4,1,0,50,0,0
150276,-100,4,2,2,90,0,0
150393,-100,4,1,0,50,0,0
150745,-66.6666666666667,4,1,0,90,0,0
150979,-100,4,2,1,70,0,0
151213,-83.3333333333333,4,2,1,70,0,0
151682,-66.6666666666667,4,2,1,70,0,0
152034,-66.6666666666667,4,2,2,70,0,0
152386,-66.6666666666667,4,2,1,80,0,0
152620,-80,4,2,3,90,0,1
152854,-80,4,2,3,90,0,1
154261,-80,4,2,1,90,0,1
154495,-80,4,2,3,90,0,1
155667,-80,4,2,1,90,0,1
155901,-80,4,2,3,90,0,1
156136,-80,4,2,1,90,0,1
156370,-80,4,2,3,90,0,1
157073,-80,4,2,1,90,0,1
157307,-80,4,2,3,90,0,1
158010,-66.6666666666667,4,2,1,90,0,1
158245,-66.6666666666667,4,2,10,90,0,1
158479,-80,4,2,1,90,0,1
158714,-80,4,2,2,90,0,1
158948,-80,4,2,1,90,0,1
159182,-80,4,2,3,90,0,1
159534,-80,4,2,1,90,0,1
160120,-80,4,2,3,90,0,1
161057,-80,4,2,1,90,0,1
161526,-80,4,2,3,90,0,1
161761,-80,4,2,1,90,0,1
161995,-80,4,2,3,90,0,1
162932,-80,4,2,1,90,0,1
163401,-80,4,2,3,90,0,1
163636,-80,4,2,1,90,0,1
163870,-80,4,2,3,90,0,1
164573,-80,4,2,1,90,0,1
164807,-80,4,2,3,90,0,1
165511,-80,4,2,1,90,0,1
165745,-57.1428571428571,4,2,3,90,0,1
165979,-80,4,2,3,90,0,1
166682,-80,4,2,2,80,0,1
167034,-80,4,2,2,70,0,1
167386,-80,4,2,3,60,0,1
167502,-66.6666666666667,4,2,1,90,0,1
167854,-80,4,2,1,90,0,1
168089,-80,4,2,3,90,0,1
169261,-80,4,2,1,90,0,1
169496,-80,4,2,3,90,0,1
170198,-80,4,2,1,90,0,1
170433,-80,4,2,3,90,0,1
170550,-80,4,2,1,90,0,1
170785,-80,4,2,3,90,0,1
171136,-80,4,2,1,90,0,1
171371,-80,4,2,3,90,0,1
172073,-80,4,2,1,90,0,1
172308,-80,4,2,3,90,0,1
172893,-80,4,2,1,90,0,1
173010,-66.6666666666667,4,2,1,90,0,1
173245,-66.6666666666667,4,2,10,90,0,1
173479,-80,4,2,3,90,0,1
173948,-80,4,2,1,90,0,1
174183,-80,4,2,3,90,0,1
174534,-80,4,2,1,90,0,1
175120,-80,4,2,3,90,0,1
176292,-80,4,2,1,90,0,1
176527,-80,4,2,3,90,0,1
176761,-80,4,2,1,90,0,1
176996,-80,4,2,3,90,0,1
178636,-80,4,2,1,90,0,1
178870,-80,4,2,2,80,0,1
178987,-80,4,1,0,40,0,1
179339,-80,4,2,2,80,0,1
179456,-80,4,1,0,40,0,1
179807,-80,4,2,2,90,0,1
179925,-80,4,1,0,50,0,1
180276,-80,4,2,2,90,0,1
180393,-80,4,1,0,50,0,1
180745,-100,4,2,3,90,0,0
180979,-100,4,2,1,70,0,0
182151,-100,4,2,77,50,0,0
182386,-100,4,2,1,70,0,0
182620,-80,4,2,3,90,0,1
183557,-80,4,2,1,90,0,1
184026,-80,4,2,3,90,0,1
184261,-80,4,2,1,90,0,1
184495,-80,4,2,3,90,0,1
185198,-80,4,2,1,90,0,1
185432,-80,4,2,3,90,0,1
185667,-80,4,2,1,90,0,1
185901,-80,4,2,3,90,0,1
186136,-80,4,2,1,90,0,1
186370,-80,4,2,3,90,0,1
187073,-80,4,2,1,90,0,1
187307,-80,4,2,3,90,0,1
188011,-80,4,2,1,90,0,1
188245,-80,4,2,3,90,0,1
188362,-80,4,2,3,60,0,1
188714,-80,4,2,3,90,0,1
188948,-80,4,2,1,90,0,1
189182,-80,4,2,3,90,0,1
189886,-80,4,2,1,90,0,1
190120,-80,4,2,2,90,0,1
190354,-80,4,2,1,90,0,1
190588,-80,4,2,3,90,0,1
191057,-80,4,2,1,90,0,1
191526,-80,4,2,3,90,0,1
191643,-80,4,2,1,90,0,1
191995,-80,4,2,3,90,0,1
193167,-80,4,2,1,90,0,1
193401,-80,4,2,3,90,0,1
194104,-80,4,2,1,90,0,1
194338,-80,4,2,3,90,0,1
194573,-80,4,2,1,90,0,1
194807,-80,4,2,3,90,0,1
195393,-80,4,2,1,90,0,1
195627,-80,4,2,3,90,0,1
196682,-66.6666666666667,4,2,3,90,0,1
197034,-57.1428571428571,4,2,3,90,0,1
197385,-50,4,2,3,90,0,1
197854,-80,4,2,3,90,0,1
199261,-80,4,2,1,90,0,1
199495,-80,4,2,3,90,0,1
200550,-80,4,2,1,90,0,1
200901,-80,4,2,3,90,0,1
201136,-80,4,2,1,90,0,1
201370,-80,4,2,3,90,0,1
202073,-80,4,2,1,90,0,1
202307,-80,4,2,3,90,0,1
202893,-80,4,2,1,90,0,1
203127,-80,4,2,3,90,0,1
203479,-80,4,2,1,90,0,1
203713,-80,4,2,3,90,0,1
203831,-80,4,2,1,90,0,1
204065,-80,4,2,3,90,0,1
204886,-80,4,2,1,90,0,1
205120,-80,4,2,3,90,0,1
205354,-80,4,2,1,90,0,1
205589,-80,4,2,3,90,0,1
206292,-80,4,2,1,90,0,1
206526,-80,4,2,3,90,0,1
208050,-80,4,2,1,90,0,1
208401,-80,4,2,3,90,0,1
208636,-80,4,2,1,90,0,1
208870,-80,4,2,2,80,0,1
208987,-80,4,1,0,40,0,1
209338,-80,4,2,3,90,0,1
209339,-80,4,2,2,80,0,1
209456,-80,4,1,0,40,0,1
209807,-80,4,2,2,90,0,1
209924,-80,4,2,1,90,0,1
209925,-80,4,1,0,50,0,1
210276,-80,4,2,3,90,0,1
210393,-80,4,1,0,50,0,1
210510,-80,4,2,1,90,0,1
210744,-80,4,2,3,90,0,1
210745,-80,4,2,3,80,0,1
210979,-80,4,2,1,70,0,1
211682,-80,4,2,77,50,0,1
211917,-80,4,2,1,90,0,1
212151,-80,4,2,3,90,0,1
212386,-80,4,2,1,80,0,1
212620,-100,4,2,2,80,0,0
212854,-100,4,2,2,70,0,0
214261,-100,4,2,1,70,0,0
214495,-100,4,2,2,70,0,0
215198,-100,4,2,1,70,0,0
215432,-100,4,2,2,70,0,0
216136,-100,4,2,1,70,0,0
216370,-100,4,2,2,70,0,0
217073,-100,4,2,1,70,0,0
217307,-100,4,2,2,70,0,0
218011,-100,4,2,1,70,0,0
218245,-100,4,2,2,70,0,0
219886,-100,4,2,1,70,0,0
220120,-100,4,2,2,70,0,0
220354,-100,4,2,1,70,0,0
220588,-100,4,2,2,70,0,0
221292,-100,4,2,1,70,0,0
221526,-100,4,2,2,70,0,0
221761,-100,4,2,1,70,0,0
221995,-100,4,2,2,70,0,0
222698,-100,4,2,1,70,0,0
222932,-100,4,2,2,70,0,0
223636,-100,4,2,1,70,0,0
223870,-100,4,2,2,70,0,0
225511,-100,4,2,1,70,0,0
225745,-100,4,2,2,70,0,0
227151,-100,4,2,1,70,0,0
227268,-100,4,2,2,70,0,0
227620,-100,4,2,4,80,0,0
227854,-100,4,2,3,70,0,0
228792,-100,4,2,1,70,0,0
229026,-100,4,2,3,70,0,0
229261,-100,4,2,1,70,0,0
229495,-100,4,2,4,70,0,0
229729,-100,4,2,3,70,0,0
230667,-100,4,2,1,70,0,0
230901,-100,4,2,3,70,0,0
231136,-100,4,2,1,70,0,0
231370,-100,4,2,4,80,0,0
231604,-100,4,2,3,70,0,0
232542,-100,4,2,1,70,0,0
232776,-100,4,2,3,70,0,0
233011,-100,4,2,1,70,0,0
233245,-100,4,2,4,80,0,0
233479,-100,4,2,3,70,0,0
234417,-100,4,2,1,70,0,0
234651,-100,4,2,3,70,0,0
234886,-100,4,2,1,70,0,0
235120,-100,4,2,4,80,0,0
235354,-100,4,2,3,70,0,0
236057,-100,4,2,4,80,0,0
236291,-100,4,2,3,70,0,0
236995,-100,4,2,4,80,0,0
237229,-100,4,2,3,70,0,0
237932,-100,4,2,4,80,0,0
238166,-100,4,2,3,70,0,0
238870,-100,4,2,4,80,0,0
238987,-100,4,2,3,50,0,0
239339,-100,4,2,3,55,0,0
239807,-100,4,2,3,60,0,0
240276,-100,4,2,3,65,0,0
240745,-100,4,2,4,70,0,0
240774,-100,4,2,2,35,0,0
241214,-100,4,2,4,70,0,0
241243,-100,4,2,2,35,0,0
241682,-100,4,2,4,70,0,0
241721,-100,4,2,4,60,0,0
241761,-100,4,2,4,50,0,0
241800,-100,4,2,4,40,0,0
241858,-100,4,2,4,30,0,0
241916,-66.6666666666667,4,2,4,60,0,0
241995,-100,4,2,4,50,0,0
242151,-50,4,2,3,60,0,0
242620,-66.6666666666667,4,2,1,60,0,0
243792,-66.6666666666667,4,2,2,80,0,0
243909,-66.6666666666667,4,2,1,80,0,0
244495,-83.3333333333333,4,2,3,80,0,1
244612,-83.3333333333333,4,2,2,80,0,0
246018,-83.3333333333333,4,2,1,80,0,0
246370,-83.3333333333333,4,2,2,80,0,0
247893,-83.3333333333333,4,2,1,80,0,0
248245,-83.3333333333333,4,2,2,80,0,0
248948,-83.3333333333333,4,2,1,80,0,0
249183,-83.3333333333333,4,2,2,80,0,0
249886,-83.3333333333333,4,2,1,80,0,0
250121,-83.3333333333333,4,2,2,80,0,0
250354,-83.3333333333333,4,2,1,80,0,0
250589,-83.3333333333333,4,2,2,80,0,0
251643,-83.3333333333333,4,2,1,80,0,0
251995,-83.3333333333333,4,2,2,80,0,0
252229,-83.3333333333333,4,2,1,80,0,0
252464,-83.3333333333333,4,2,2,80,0,0
253167,-83.3333333333333,4,2,1,80,0,0
253401,-83.3333333333333,4,2,2,80,0,0
253518,-83.3333333333333,4,2,1,80,0,0
253870,-83.3333333333333,4,2,2,80,0,0
255042,-83.3333333333333,4,2,1,80,0,0
255277,-83.3333333333333,4,2,2,80,0,0
255393,-83.3333333333333,4,2,1,80,0,0
255745,-83.3333333333333,4,2,3,80,0,0
257386,-83.3333333333333,4,2,2,80,0,0
257620,-66.6666666666667,4,2,3,80,0,0
257854,-83.3333333333333,4,2,2,80,0,0
259143,-83.3333333333333,4,2,1,80,0,0
259495,-83.3333333333333,4,2,2,80,0,0
260198,-83.3333333333333,4,2,1,80,0,0
260433,-83.3333333333333,4,2,2,80,0,0
260550,-83.3333333333333,4,2,1,80,0,0
260785,-83.3333333333333,4,2,2,80,0,0
262659,-83.3333333333333,4,2,1,80,0,0
262776,-83.3333333333333,4,2,2,80,0,0
262893,-83.3333333333333,4,2,1,80,0,0
263245,-83.3333333333333,4,2,2,80,0,0
263479,-83.3333333333333,4,2,1,80,0,0
263714,-83.3333333333333,4,2,2,80,0,0
263831,-83.3333333333333,4,2,1,80,0,0
264182,-83.3333333333333,4,2,2,80,0,0
264768,-83.3333333333333,4,2,1,80,0,0
265120,-83.3333333333333,4,2,2,80,0,0
265354,-83.3333333333333,4,2,1,80,0,0
265589,-83.3333333333333,4,2,2,80,0,0
266292,-83.3333333333333,4,2,1,80,0,0
266527,-83.3333333333333,4,2,2,80,0,0
266643,-83.3333333333333,4,2,1,80,0,0
266995,-83.3333333333333,4,2,2,80,0,0
267698,-83.3333333333333,4,2,1,80,0,0
267933,-83.3333333333333,4,2,2,80,0,0
268284,-83.3333333333333,4,2,1,80,0,0
268401,-83.3333333333333,4,2,2,80,0,0
268518,-83.3333333333333,4,2,1,80,0,0
268870,-83.3333333333333,4,2,2,80,0,0
268987,-80,4,1,0,40,0,0
269338,-83.3333333333333,4,2,2,80,0,0
269456,-83.3333333333333,4,1,0,40,0,0
269807,-83.3333333333333,4,2,2,90,0,0
269925,-83.3333333333333,4,1,0,50,0,0
270276,-83.3333333333333,4,2,2,90,0,0
270393,-83.3333333333333,4,1,0,50,0,0
270745,-83.3333333333333,4,2,3,80,0,0
270979,-83.3333333333333,4,2,1,70,0,0
272151,-83.3333333333333,4,2,77,50,0,0
272386,-83.3333333333333,4,2,1,70,0,0
272620,-57.1428571428571,4,2,3,80,0,1
272854,-83.3333333333333,4,2,1,80,0,0
273089,-83.3333333333333,4,2,2,80,0,0
274261,-83.3333333333333,4,2,1,80,0,0
274496,-83.3333333333333,4,2,2,80,0,0
275198,-83.3333333333333,4,2,1,80,0,0
275433,-83.3333333333333,4,2,2,80,0,0
276018,-83.3333333333333,4,2,1,80,0,0
276370,-83.3333333333333,4,2,2,80,0,0
276956,-83.3333333333333,4,2,1,80,0,0
277307,-83.3333333333333,4,2,2,80,0,0
277893,-83.3333333333333,4,2,1,80,0,0
278245,-83.3333333333333,4,2,2,80,0,0
279417,-83.3333333333333,4,2,1,80,0,0
279652,-83.3333333333333,4,2,2,80,0,0
279768,-83.3333333333333,4,2,1,80,0,0
280120,-83.3333333333333,4,2,2,80,0,0
280354,-83.3333333333333,4,2,1,80,0,0
280589,-83.3333333333333,4,2,2,80,0,0
281175,-83.3333333333333,4,2,1,80,0,0
281526,-83.3333333333333,4,2,2,80,0,0
281643,-83.3333333333333,4,2,1,80,0,0
281995,-83.3333333333333,4,2,2,80,0,0
283050,-83.3333333333333,4,2,1,80,0,0
283402,-83.3333333333333,4,2,2,80,0,0
283518,-83.3333333333333,4,2,1,80,0,0
283870,-83.3333333333333,4,2,2,80,0,0
284456,-83.3333333333333,4,2,1,80,0,0
284808,-83.3333333333333,4,2,2,80,0,0
285393,-83.3333333333333,4,2,1,80,0,0
285628,-83.3333333333333,4,2,2,80,0,0
285745,-83.3333333333333,4,2,3,80,0,0
285862,-83.3333333333333,4,2,3,80,0,0
287386,-83.3333333333333,4,2,2,80,0,0
287620,-66.6666666666667,4,2,3,80,0,0
287854,-83.3333333333333,4,2,2,80,0,0
289143,-83.3333333333333,4,2,1,80,0,0
289495,-83.3333333333333,4,2,2,80,0,0
290667,-83.3333333333333,4,2,1,80,0,0
290901,-83.3333333333333,4,2,2,80,0,0
291018,-83.3333333333333,4,2,1,80,0,0
291370,-83.3333333333333,4,2,2,80,0,0
292893,-83.3333333333333,4,2,1,80,0,0
293245,-83.3333333333333,4,2,2,80,0,0
293479,-83.3333333333333,4,2,1,80,0,0
293714,-83.3333333333333,4,2,2,80,0,0
293948,-83.3333333333333,4,2,1,80,0,0
294182,-83.3333333333333,4,2,2,80,0,0
294886,-83.3333333333333,4,2,1,80,0,0
295120,-83.3333333333333,4,2,2,80,0,0
295354,-83.3333333333333,4,2,1,80,0,0
295589,-83.3333333333333,4,2,2,80,0,0
296175,-83.3333333333333,4,2,1,80,0,0
296527,-83.3333333333333,4,2,2,80,0,0
296643,-83.3333333333333,4,2,1,80,0,0
296995,-83.3333333333333,4,2,2,80,0,0
297112,-83.3333333333333,4,1,0,50,0,0
297464,-83.3333333333333,4,2,2,80,0,0
297581,-83.3333333333333,4,1,0,50,0,0
297932,-83.3333333333333,4,2,2,90,0,0
298050,-83.3333333333333,4,1,0,60,0,0
298401,-83.3333333333333,4,2,2,90,0,0
298518,-83.3333333333333,4,1,0,60,0,0
298870,-66.6666666666667,4,2,2,80,0,0
299104,-83.3333333333333,4,2,2,60,0,0
300276,-66.6666666666667,4,2,2,70,0,0
300511,-83.3333333333333,4,2,2,70,0,0
300745,-83.3333333333333,4,2,2,80,0,0
301214,-83.3333333333333,4,2,2,90,0,0
301448,-83.3333333333333,4,2,2,70,0,0
301682,-83.3333333333333,4,2,2,80,0,0
302386,-83.3333333333333,4,2,1,80,0,0
302620,-66.6666666666667,4,2,3,90,0,1
302854,-80,4,2,1,90,0,1
303089,-80,4,2,3,90,0,1
303792,-80,4,2,1,90,0,1
304027,-80,4,2,3,90,0,1
304143,-80,4,2,1,90,0,1
304495,-80,4,2,3,90,0,1
304729,-80,4,2,1,90,0,1
304964,-80,4,2,3,90,0,1
305550,-80,4,2,1,90,0,1
305901,-80,4,2,3,90,0,1
306136,-80,4,2,1,90,0,1
306371,-80,4,2,3,90,0,1
307073,-80,4,2,1,90,0,1
307308,-80,4,2,3,90,0,1
307542,-80,4,2,1,90,0,1
307777,-80,4,2,3,90,0,1
307893,-80,4,2,1,90,0,1
308245,-80,4,2,3,90,0,1
308362,-80,4,2,1,90,0,1
308597,-80,4,2,3,90,0,1
308831,-80,4,2,1,90,0,1
309182,-80,4,2,3,90,0,1
309768,-80,4,2,1,90,0,1
310120,-80,4,2,3,90,0,1
310354,-80,4,2,1,90,0,1
310589,-80,4,2,3,90,0,1
311175,-80,4,2,1,90,0,1
311526,-80,4,2,3,90,0,1
311643,-80,4,2,1,90,0,1
311878,-80,4,2,3,90,0,1
312698,-80,4,2,1,90,0,1
312933,-80,4,2,3,90,0,1
313050,-80,4,2,1,90,0,1
313285,-80,4,2,3,90,0,1
313636,-80,4,2,1,90,0,1
313871,-80,4,2,3,90,0,1
314573,-80,4,2,1,90,0,1
314808,-80,4,2,3,90,0,1
315393,-80,4,2,1,90,0,1
315745,-57.1428571428571,4,2,3,90,0,1
315979,-80,4,2,3,90,0,1
317385,-66.6666666666667,4,2,3,90,0,1
317854,-80,4,2,1,90,0,1
318089,-80,4,2,3,90,0,1
318792,-80,4,2,1,90,0,1
319027,-80,4,2,3,90,0,1
319143,-80,4,2,1,90,0,1
319495,-80,4,2,3,90,0,1
320198,-80,4,2,1,90,0,1
320433,-80,4,2,3,90,0,1
320550,-80,4,2,1,90,0,1
320901,-80,4,2,3,90,0,1
321018,-80,4,2,1,90,0,1
321253,-80,4,2,3,90,0,1
321604,-80,4,2,1,90,0,1
321839,-80,4,2,3,90,0,1
322073,-80,4,2,1,90,0,1
322308,-80,4,2,3,90,0,1
322893,-80,4,2,1,90,0,1
323245,-80,4,2,3,90,0,1
323362,-80,4,2,1,90,0,1
323597,-80,4,2,3,90,0,1
323831,-80,4,2,1,90,0,1
324066,-80,4,2,3,90,0,1
324417,-80,4,2,1,90,0,1
324652,-80,4,2,3,90,0,1
324768,-80,4,2,1,90,0,1
325120,-80,4,2,3,90,0,1
325354,-80,4,2,1,90,0,1
325589,-80,4,2,3,90,0,1
326175,-80,4,2,1,90,0,1
326410,-80,4,2,3,90,0,1
326643,-80,4,2,1,90,0,1
326995,-80,4,2,3,90,0,1
328167,-80,4,2,1,90,0,1
328402,-80,4,2,3,90,0,1
328636,-80,4,2,1,90,0,1
328870,-80,4,2,2,80,0,1
328987,-80,4,1,0,40,0,1
329339,-80,4,2,2,80,0,1
329456,-80,4,1,0,40,0,1
329807,-66.6666666666667,4,2,2,90,0,1
329925,-66.6666666666667,4,1,0,50,0,1
330276,-66.6666666666667,4,2,2,90,0,1
330393,-66.6666666666667,4,1,0,50,0,1
330745,-80,4,2,3,80,0,1
330979,-80,4,2,1,70,0,1
331682,-80,4,2,77,50,0,1
331917,-80,4,2,1,70,0,1
332151,-80,4,2,3,70,0,1
332386,-80,4,2,1,80,0,1
332620,-100,4,2,2,80,0,0
334261,-100,4,2,1,80,0,0
334495,-100,4,2,2,80,0,0
335667,-100,4,2,1,80,0,0
335901,-100,4,2,2,80,0,0
336135,-100,4,2,1,80,0,0
336370,-100,4,2,2,80,0,0
338011,-100,4,2,1,80,0,0
338245,-100,4,2,2,80,0,0
339534,-80,4,2,1,80,0,0
339885,-100,4,2,1,80,0,0
340120,-100,4,2,2,80,0,0
341292,-100,4,2,1,80,0,0
341526,-100,4,2,2,80,0,0
343167,-100,4,2,1,80,0,0
343401,-100,4,2,2,80,0,0
343518,-100,4,2,1,80,0,0
343752,-100,4,2,2,80,0,0
344729,-100,4,2,1,80,0,0
344807,-100,4,2,2,80,0,0
345393,-100,4,2,1,80,0,0
345745,-100,4,2,2,80,0,0
346214,-100,4,2,1,80,0,0
346448,-100,4,2,2,80,0,0
346682,-100,4,2,2,60,0,0
347620,-100,4,2,2,70,0,0
347854,-100,4,2,1,70,0,0
350198,-66.6666666666667,4,2,1,70,0,0
350432,-100,4,2,1,70,0,0
362620,-100,4,2,0,60,0,0

[Colours]
Combo1 : 255,170,255
Combo2 : 160,160,255
Combo3 : 125,125,200
Combo4 : 80,55,115
Combo5 : 175,125,175
Combo6 : 225,125,225

[HitObjects]
312,192,745,5,4,0:0:0:0:
196,192,979,1,0,0:0:0:0:
404,192,1213,2,0,L|484:148,1,90,2|0,0:0|0:0,0:0:0:0:
176,112,1682,2,0,L|80:112,1,90,2|0,0:0|0:0,0:0:0:0:
212,28,2151,1,0,0:0:0:0:
60,28,2385,1,2,0:0:0:0:
292,28,2620,6,0,L|384:28,1,90,8|0,0:0|0:0,0:0:0:0:
256,100,3088,1,2,0:0:0:0:
436,100,3323,2,0,P|496:152|436:208,1,180,2|2,0:0|0:0,0:0:0:0:
132,208,4026,2,0,L|42:208,1,90,8|0,0:0|0:0,0:0:0:0:
240,208,4495,5,8,0:0:0:0:
80,128,4729,1,0,0:0:0:0:
280,128,4963,2,0,L|372:128,1,90,2|0,0:0|0:0,0:0:0:0:
64,128,5432,1,2,0:0:0:0:
228,128,5666,1,0,0:0:0:0:
120,128,5901,1,2,0:0:0:0:
212,128,6135,1,0,0:0:0:0:
24,128,6370,6,0,L|16:32,1,90,8|0,0:0|0:0,0:0:0:0:
196,36,6838,1,2,0:0:0:0:
320,36,7073,1,0,0:0:0:0:
140,36,7307,1,2,0:0:0:0:
320,36,7541,2,0,L|252:36,1,45,2|2,0:0|0:0,0:0:0:0:
16,36,7776,2,0,L|116:36,1,90,8|0,0:0|0:0,0:0:0:0:
288,36,8245,5,8,0:0:0:0:
88,124,8479,2,0,L|172:160,2,90,0|2|0,0:0|0:0|0:0,0:0:0:0:
396,156,9182,1,2,0:0:0:0:
232,156,9416,1,0,0:0:0:0:
340,156,9651,2,0,L|244:156,1,90,2|0,0:0|0:0,0:0:0:0:
68,156,10120,6,0,L|120:76,1,90,8|0,0:0|0:0,0:0:0:0:
280,232,10588,2,0,L|228:152,1,90,2|0,0:0|0:0,0:0:0:0:
68,156,11057,1,2,0:0:0:0:
177,157,11291,1,2,0:0:0:0:
480,156,11526,2,0,L|384:156,1,90,8|0,0:0|0:0,0:0:0:0:
208,156,11995,5,8,0:0:0:0:
352,156,12229,1,0,0:0:0:0:
188,156,12463,2,0,L|104:192,1,90,2|0,0:0|0:0,0:0:0:0:
412,232,12932,2,0,L|328:268,1,90,2|0,0:0|0:0,0:0:0:0:
220,228,13401,2,0,L|302:192,1,90,2|0,0:0|0:0,0:0:0:0:
484,192,13870,6,0,L|388:192,1,90,8|0,0:0|0:0,0:0:0:0:
212,192,14338,1,2,0:0:0:0:
336,192,14573,1,0,0:0:0:0:
128,192,14807,2,0,L|116:100,1,90,2|2,0:0|0:0,0:0:0:0:
180,104,15159,1,2,0:0:0:0:
424,104,15276,2,0,L|504:56,1,90,8|0,0:0|0:0,0:0:0:0:
180,56,15745,6,0,P|116:112|196:192,1,225,6|2,0:0|0:0,0:0:0:0:
324,192,16448,1,0,0:0:0:0:
16,192,16682,2,0,L|120:192,1,90,2|0,0:0|0:0,0:0:0:0:
288,192,17151,1,2,0:0:0:0:
160,192,17385,1,2,0:0:0:0:
356,192,17620,6,0,L|268:156,2,90,2|0|2,0:0|0:0|0:0,0:0:0:0:
140,192,18323,2,0,L|232:192,1,90,2|2,0:0|0:0,0:0:0:0:
32,192,18791,1,2,0:0:0:0:
336,308,19026,2,0,L|440:308,1,90,2|2,0:0|0:0,0:0:0:0:
236,308,19495,5,2,0:0:0:0:
416,224,19729,1,0,0:0:0:0:
216,220,19963,2,0,L|128:192,1,90,2|0,0:0|0:0,0:0:0:0:
436,128,20432,1,2,0:0:0:0:
256,128,20666,1,2,0:0:0:0:
380,128,20901,1,2,0:0:0:0:
272,128,21135,1,0,0:0:0:0:
468,128,21370,6,0,L|408:52,1,90,2|0,0:0|0:0,0:0:0:0:
240,52,21838,1,2,0:0:0:0:
140,52,22073,1,0,0:0:0:0:
340,52,22307,2,0,L|352:144,1,90,2|2,0:0|0:0,0:0:0:0:
288,140,22659,1,2,0:0:0:0:
44,192,22776,2,0,L|136:216,1,90,2|2,0:0|0:0,0:0:0:0:
312,216,23245,5,2,0:0:0:0:
188,216,23479,1,0,0:0:0:0:
388,216,23713,2,0,L|476:192,1,90,2|0,0:0|0:0,0:0:0:0:
168,144,24182,1,2,0:0:0:0:
332,144,24416,1,2,0:0:0:0:
224,144,24651,1,2,0:0:0:0:
316,144,24885,1,0,0:0:0:0:
120,144,25120,6,0,L|108:48,1,90,2|0,0:0|0:0,0:0:0:0:
308,56,25588,2,0,L|212:56,1,90,2|0,0:0|0:0,0:0:0:0:
36,56,26057,1,2,0:0:0:0:
144,56,26291,1,2,0:0:0:0:
448,56,26526,2,0,L|344:56,1,90,2|0,0:0|0:0,0:0:0:0:
196,144,26995,5,2,0:0:0:0:
396,144,27229,1,0,0:0:0:0:
232,144,27463,2,0,L|156:192,1,90,2|0,0:0|0:0,0:0:0:0:
464,192,27932,1,2,0:0:0:0:
300,192,28166,1,0,0:0:0:0:
428,192,28401,1,2,0:0:0:0:
320,192,28635,1,2,0:0:0:0:
12,192,28870,6,0,L|104:192,1,90,6|0,0:0|0:0,0:0:0:0:
284,192,29338,1,2,0:0:0:0:
160,192,29573,1,0,0:0:0:0:
468,192,29807,2,0,L|472:140,1,45,8|8,0:0|0:0,0:0:0:0:
284,192,30159,1,8,0:0:0:0:
380,192,30276,2,0,L|320:192,1,45,2|8,0:0|0:0,0:0:0:0:
444,192,30510,2,0,L|448:144,1,45,2|8,0:0|0:0,0:0:0:0:
228,192,30745,6,0,L|136:192,2,90,2|0|0,0:0|0:0|0:0,0:0:0:0:
444,192,31682,1,0,0:0:0:0:
268,192,32034,1,2,0:0:0:0:
404,192,32385,1,0,0:0:0:0:
96,192,32620,6,0,L|12:160,1,90,6|2,0:0|0:0,0:0:0:0:
44,116,32971,1,2,0:0:0:0:
108,116,33088,2,0,L|204:116,1,90,2|0,0:0|0:0,0:0:0:0:
376,192,33557,2,0,L|272:192,1,90,2|0,0:0|0:0,0:0:0:0:
360,268,33909,2,0,L|460:268,1,90,2|0,0:0|0:0,0:0:0:0:
384,344,34260,2,0,L|336:344,1,45,8|0,0:0|0:0,0:0:0:0:
136,340,34495,6,0,L|84:249,1,90,2|0,0:0|0:0,0:0:0:0:
272,192,34846,2,0,L|324:101,1,90,2|0,0:0|0:0,0:0:0:0:
92,112,35198,2,0,L|232:112,1,135.000005149842,2|2,0:0|0:0,0:0:0:0:
428,112,35666,1,8,0:0:0:0:
280,112,35901,2,0,L|328:112,1,45,2|2,0:0|0:0,0:0:0:0:
440,32,36135,2,0,L|384:32,1,45,2|0,0:0|0:0,0:0:0:0:
204,32,36370,5,2,0:0:0:0:
312,32,36604,1,0,0:0:0:0:
260,32,36721,1,0,0:0:0:0:
132,32,36838,2,0,L|52:77,1,90,2|0,0:0|0:0,0:0:0:0:
252,128,37307,2,0,L|364:128,1,90,2|0,0:0|0:0,0:0:0:0:
272,200,37659,2,0,L|384:200,1,90,2|0,0:0|0:0,0:0:0:0:
424,128,38010,2,0,L|364:128,1,45,2|0,0:0|0:0,0:0:0:0:
176,128,38245,6,0,L|80:128,1,90,2|0,0:0|0:0,0:0:0:0:
268,44,38596,2,0,L|364:44,1,90,2|0,0:0|0:0,0:0:0:0:
132,44,38948,1,2,0:0:0:0:
196,44,39065,1,2,0:0:0:0:
400,44,39182,1,2,0:0:0:0:
220,120,39416,1,8,0:0:0:0:
432,120,39651,2,0,L|316:120,1,112.5,2|0,0:0|0:0,0:0:0:0:
16,120,40120,6,0,L|112:120,1,90,2|0,0:0|0:0,0:0:0:0:
288,120,40471,1,2,0:0:0:0:
124,192,40823,1,0,0:0:0:0:
428,192,41057,2,0,L|332:192,1,90,8|0,0:0|0:0,0:0:0:0:
156,192,41409,1,2,0:0:0:0:
264,192,41643,1,2,0:0:0:0:
172,272,41760,2,0,L|120:272,1,45,8|0,0:0|0:0,0:0:0:0:
320,272,41995,6,0,L|412:272,1,90,2|0,0:0|0:0,0:0:0:0:
216,348,42346,1,2,0:0:0:0:
51,268,42580,2,0,L|120:332,1,90,0|2,0:0|0:0,0:0:0:0:
312,344,42932,1,8,0:0:0:0:
168,248,43166,1,8,0:0:0:0:
308,252,43401,2,0,L|312:200,1,45,2|2,0:0|0:0,0:0:0:0:
172,192,43635,2,0,L|236:192,1,45,2|0,0:0|0:0,0:0:0:0:
408,192,43870,6,0,L|500:192,1,90,2|0,0:0|0:0,0:0:0:0:
316,192,44221,2,0,L|212:192,1,90,2|0,0:0|0:0,0:0:0:0:
308,120,44573,2,0,L|352:120,1,45,2|2,0:0|0:0,0:0:0:0:
148,120,44807,2,0,L|244:120,1,90,8|0,0:0|0:0,0:0:0:0:
420,120,45159,1,2,0:0:0:0:
312,120,45393,1,0,0:0:0:0:
404,40,45510,2,0,L|348:40,1,45,2|2,0:0|0:0,0:0:0:0:
156,40,45745,6,0,L|56:40,1,90,6|0,0:0|0:0,0:0:0:0:
248,120,46096,1,2,0:0:0:0:
86,120,46330,1,0,0:0:0:0:
149,120,46448,1,2,0:0:0:0:
212,120,46565,1,2,0:0:0:0:
392,120,46682,2,0,L|448:120,2,45,8|8|2,0:0|0:0|0:0,0:0:0:0:
296,192,47034,1,8,0:0:0:0:
420,192,47268,1,2,0:0:0:0:
216,192,47385,2,0,L|152:192,1,45,8|2,0:0|0:0,0:0:0:0:
404,192,47620,5,6,0:0:0:0:
280,192,47854,1,0,0:0:0:0:
496,268,48088,2,0,L|392:268,1,90,8|0,0:0|0:0,0:0:0:0:
104,264,48557,2,0,L|48:192,1,90,2|2,0:0|0:0,0:0:0:0:
116,192,48909,1,2,0:0:0:0:
228,192,49026,2,0,L|288:192,1,45,8|0,0:0|0:0,0:0:0:0:
180,116,49260,2,0,L|136:116,1,45,2|2,0:0|0:0,0:0:0:0:
316,116,49495,6,0,L|408:116,1,90,2|0,0:0|0:0,0:0:0:0:
292,28,49846,2,0,L|216:88,1,90,2|0,0:0|0:0,0:0:0:0:
424,28,50198,2,0,L|356:28,1,45,0|2,0:0|0:0,0:0:0:0:
264,28,50432,1,2,0:0:0:0:
416,28,50666,1,8,0:0:0:0:
196,84,50901,2,0,L|151:84,2,45,8|2|2,0:0|0:0|0:0,0:0:0:0:
248,84,51252,1,0,0:0:0:0:
432,160,51370,5,2,0:0:0:0:
324,160,51604,1,2,0:0:0:0:
260,160,51721,1,2,0:0:0:0:
76,148,51838,2,0,L|156:192,1,90,8|0,0:0|0:0,0:0:0:0:
460,248,52307,2,0,L|360:248,1,90,2|0,0:0|0:0,0:0:0:0:
444,324,52659,2,0,L|344:324,1,90,2|0,0:0|0:0,0:0:0:0:
276,248,53010,2,0,L|332:248,1,45,2|2,0:0|0:0,0:0:0:0:
144,248,53245,6,0,L|92:157,1,90,2|0,0:0|0:0,0:0:0:0:
216,172,53596,2,0,L|306:119,1,90,2|0,0:0|0:0,0:0:0:0:
112,80,53948,2,0,L|157:80,1,45,2|2,0:0|0:0,0:0:0:0:
340,52,54182,1,2,0:0:0:0:
192,52,54416,1,8,0:0:0:0:
496,52,54651,2,0,L|396:52,1,90,8|2,0:0|0:0,0:0:0:0:
352,52,55002,1,2,0:0:0:0:
172,160,55120,6,0,L|82:160,1,90,2|2,0:0|0:0,0:0:0:0:
284,160,55471,2,0,L|288:212,1,45,2|8,0:0|0:0,0:0:0:0:
148,248,55823,1,2,0:0:0:0:
452,248,56057,2,0,L|360:248,1,90,2|2,0:0|0:0,0:0:0:0:
420,328,56409,1,2,0:0:0:0:
236,328,56526,1,8,0:0:0:0:
312,328,56643,1,0,0:0:0:0:
412,200,56760,2,0,L|408:248,1,45,0|2,0:0|0:0,0:0:0:0:
228,248,56995,6,0,L|132:248,1,90,2|0,0:0|0:0,0:0:0:0:
72,248,57346,1,2,0:0:0:0:
252,176,57580,1,0,0:0:0:0:
324,140,57698,1,2,0:0:0:0:
336,60,57815,1,2,0:0:0:0:
228,60,57932,2,0,L|132:60,1,90,2|8,0:0|0:0,0:0:0:0:
324,140,58401,2,0,L|280:140,1,45,8|2,0:0|0:0,0:0:0:0:
164,192,58635,2,0,L|212:192,1,45,2|0,0:0|0:0,0:0:0:0:
392,224,58870,6,0,L|448:224,1,45,2|0,0:0|0:0,0:0:0:0:
496,296,59104,2,0,L|440:296,1,45
204,296,59338,2,0,L|260:296,1,45,8|0,0:0|0:0,0:0:0:0:
348,296,59573,2,0,L|392:296,1,45
164,192,59807,6,0,L|116:192,1,45,2|0,0:0|0:0,0:0:0:0:
188,116,60041,2,0,L|124:116,1,45
348,112,60276,2,0,L|300:112,1,45,8|0,0:0|0:0,0:0:0:0:
240,40,60510,2,0,L|288:40,1,45
476,204,60745,6,0,L|484:296,1,90,4|0,2:1|0:0,0:0:0:0:
296,132,61213,2,0,L|288:40,1,90,2|0,0:0|0:0,0:0:0:0:
100,40,61682,1,2,0:0:0:0:
328,132,61799,2,0,L|376:132,2,45,2|2|2,0:0|0:0|0:0,0:0:0:0:
80,128,62151,2,0,P|44:152|32:200,1,90,8|2,0:0|0:0,0:0:0:0:
76,228,62502,1,2,0:0:0:0:
392,228,62620,5,6,0:0:0:0:
196,228,62854,1,2,0:0:0:0:
400,144,63088,2,0,L|504:92,1,112.5,8|0,0:0|0:0,0:0:0:0:
208,92,63557,1,2,0:0:0:0:
368,92,63791,1,0,0:0:0:0:
144,92,64026,1,8,0:0:0:0:
280,92,64260,2,0,L|220:92,1,56.25,2|2,0:0|0:0,0:0:0:0:
468,192,64495,6,0,P|448:243|398:264,1,112.5,2|0,0:0|0:0,0:0:0:0:
104,268,64963,2,0,L|220:268,1,112.5,8|0,0:0|0:0,0:0:0:0:
396,192,65432,1,2,0:0:0:0:
192,192,65666,1,2,0:0:0:0:
496,112,65901,2,0,L|356:112,1,112.5,8|0,0:0|0:0,0:0:0:0:
204,112,66370,5,2,0:0:0:0:
408,112,66604,1,0,0:0:0:0:
180,112,66838,2,0,P|132:92|112:32,1,112.5,8|0,0:0|0:0,0:0:0:0:
404,44,67307,2,0,L|312:112,2,112.5,2|2|8,0:0|0:0|0:0,0:0:0:0:
76,48,68010,6,0,P|32:92|136:224,1,270.000010299683,8|0,0:0|0:0,0:0:0:0:
428,228,68713,2,0,L|320:192,1,112.5,8|0,0:0|0:0,0:0:0:0:
96,192,69182,2,0,L|208:192,1,112.5,2|0,0:0|0:0,0:0:0:0:
336,272,69534,2,0,L|220:272,1,112.5,2|0,0:0|0:0,0:0:0:0:
352,352,69885,2,0,L|288:352,1,56.25,2|2,0:0|0:0,0:0:0:0:
64,352,70120,5,2,0:0:0:0:
220,352,70354,1,0,0:0:0:0:
448,348,70588,2,0,P|496:316|496:256,1,112.5,8|0,0:0|0:0,0:0:0:0:
276,264,71057,1,2,0:0:0:0:
432,264,71291,1,0,0:0:0:0:
220,264,71526,1,8,0:0:0:0:
400,192,71760,1,2,0:0:0:0:
320,192,71877,1,2,0:0:0:0:
136,192,71995,6,0,L|48:264,1,112.5,2|0,0:0|0:0,0:0:0:0:
269,264,72463,1,8,0:0:0:0:
89,264,72698,1,0,0:0:0:0:
313,264,72932,2,0,L|328:148,1,112.5,2|2,0:0|0:0,0:0:0:0:
32,152,73401,1,8,0:0:0:0:
214,152,73635,2,0,L|354:152,1,112.5,0|2,0:0|0:0,0:0:0:0:
144,80,74104,5,0,0:0:0:0:
368,80,74338,1,8,0:0:0:0:
232,80,74573,1,0,0:0:0:0:
456,80,74807,2,2,L|364:144,2,112.5,2|2|8,0:0|0:0|0:0,0:0:0:0:
160,80,75510,1,0,0:0:0:0:
476,80,75745,6,0,L|500:192,1,112.5,6|8,0:0|0:0,0:0:0:0:
184,192,76213,2,0,L|248:192,1,56.25,2|8,0:0|0:0,0:0:0:0:
316,264,76448,2,0,L|256:264,1,56.25,8|8,0:0|0:0,0:0:0:0:
68,264,76682,1,2,0:0:0:0:
119,289,76799,1,2,0:0:0:0:
169,314,76916,1,2,0:0:0:0:
416,214,77034,1,8,0:0:0:0:
366,239,77151,1,2,0:0:0:0:
316,264,77268,1,2,0:0:0:0:
116,192,77385,1,12,0:0:0:0:
420,192,77502,6,0,P|472:136|416:40,1,202.500007724762,2|0,0:0|0:0,0:0:0:0:
212,40,78088,2,0,L|324:40,1,112.5,8|0,0:0|0:0,0:0:0:0:
28,192,78557,1,2,0:0:0:0:
208,192,78791,1,0,0:0:0:0:
52,192,79026,1,8,0:0:0:0:
188,192,79260,2,0,L|244:192,1,56.25,2|2,0:0|0:0,0:0:0:0:
448,192,79495,6,0,L|356:256,1,112.5,2|0,0:0|0:0,0:0:0:0:
152,192,79963,2,0,L|244:256,1,112.5,8|0,0:0|0:0,0:0:0:0:
28,344,80432,1,2,0:0:0:0:
188,344,80666,1,2,0:0:0:0:
484,344,80901,2,0,L|368:344,1,112.5,8|0,0:0|0:0,0:0:0:0:
168,344,81370,5,2,0:0:0:0:
392,256,81604,1,0,0:0:0:0:
256,256,81838,1,8,0:0:0:0:
120,256,82073,1,0,0:0:0:0:
416,192,82307,2,0,L|304:144,2,112.5,2|2|8,0:0|0:0|0:0,0:0:0:0:
116,192,83010,6,0,P|48:256|148:364,1,270.000010299683,8|0,0:0|0:0,0:0:0:0:
440,364,83713,2,0,L|380:364,1,56.25,8|0,0:0|0:0,0:0:0:0:
316,364,83948,2,0,L|256:364,1,56.25,2|2,0:0|0:0,0:0:0:0:
384,280,84182,2,0,P|432:260|452:200,1,112.5,2|0,0:0|0:0,0:0:0:0:
224,192,84534,1,2,0:0:0:0:
324,192,84768,1,0,0:0:0:0:
196,192,84885,2,0,L|164:140,1,56.25,2|2,0:0|0:0,0:0:0:0:
392,108,85120,5,2,0:0:0:0:
256,108,85354,1,0,0:0:0:0:
460,108,85588,2,0,L|348:144,1,112.5,8|0,0:0|0:0,0:0:0:0:
60,192,86057,1,2,0:0:0:0:
196,192,86291,1,0,0:0:0:0:
420,192,86526,1,8,0:0:0:0:
284,192,86760,2,0,L|344:192,1,56.25,2|2,0:0|0:0,0:0:0:0:
132,96,86995,6,0,P|96:140|108:192,1,112.5,2|0,0:0|0:0,0:0:0:0:
312,96,87463,2,0,P|268:60|216:72,1,112.5,8|0,0:0|0:0,0:0:0:0:
420,192,87932,1,2,0:0:0:0:
308,192,88166,1,2,0:0:0:0:
80,192,88401,1,8,0:0:0:0:
376,80,88635,1,2,0:0:0:0:
60,80,88870,6,0,L|108:108,1,56.25,2|0,0:0|0:0,0:0:0:0:
188,80,89104,2,0,L|139:108,1,56.25
404,192,89338,2,0,L|340:192,1,56.25,8|0,0:0|0:0,0:0:0:0:
252,192,89573,2,0,L|188:192,1,56.25
424,280,89807,1,2,0:0:0:0:
360,280,89924,1,0,0:0:0:0:
300,280,90041,1,0,0:0:0:0:
75,192,90159,1,0,0:0:0:0:
139,192,90276,1,8,0:0:0:0:
380,104,90393,1,0,0:0:0:0:
324,104,90510,2,0,L|264:104,1,56.25
472,268,90745,6,0,L|460:176,1,90,4|0,0:0|0:0,0:0:0:0:
260,176,91213,2,0,L|204:104,1,90,2|0,0:0|0:0,0:0:0:0:
404,104,91682,2,0,B|452:104|452:104|400:104,1,90,2|0,0:0|0:0,0:0:0:0:
176,104,92151,1,8,0:0:0:0:
336,104,92385,1,2,0:0:0:0:
40,104,92620,5,4,0:0:0:0:
236,104,92854,2,0,L|224:164,1,56.25,2|2,0:0|0:0,0:0:0:0:
20,192,93088,2,0,L|124:244,1,112.5,8|0,0:0|0:0,0:0:0:0:
416,244,93557,1,2,0:0:0:0:
252,244,93791,1,2,0:0:0:0:
476,244,94026,1,8,0:0:0:0:
340,244,94260,2,0,L|284:244,1,56.25,2|2,0:0|0:0,0:0:0:0:
56,160,94495,6,0,P|76:109|126:88,1,112.5,2|0,0:0|0:0,0:0:0:0:
420,84,94963,2,0,L|304:84,1,112.5,8|0,0:0|0:0,0:0:0:0:
488,156,95432,1,2,0:0:0:0:
340,156,95666,1,2,0:0:0:0:
16,156,95901,2,0,L|124:192,1,112.5,8|0,0:0|0:0,0:0:0:0:
292,192,96370,5,2,0:0:0:0:
68,192,96604,1,0,0:0:0:0:
292,192,96838,2,0,L|180:192,1,112.5,8|2,0:0|0:0,0:0:0:0:
236,192,97190,1,2,0:0:0:0:
472,192,97307,2,0,L|380:260,2,112.5,2|0|8,0:0|0:0|0:0,0:0:0:0:
336,260,98010,2,0,L|272:260,1,56.25,2|2,0:0|0:0,0:0:0:0:
76,256,98245,6,0,L|27:228,1,56.25,2|0,0:0|0:0,0:0:0:0:
112,256,98479,2,0,L|63:228,1,56.25,2|2,0:0|0:0,0:0:0:0:
279,260,98713,2,0,L|327:232,1,56.25,8|0,0:0|0:0,0:0:0:0:
244,232,98948,2,0,L|195:204,1,56.25,2|2,0:0|0:0,0:0:0:0:
420,208,99182,1,2,0:0:0:0:
308,336,99416,2,0,L|252:336,1,56.25,2|2,0:0|0:0,0:0:0:0:
48,336,99651,2,0,L|112:336,1,56.25,8|0,0:0|0:0,0:0:0:0:
176,260,99885,2,0,L|112:260,1,56.25,2|2,0:0|0:0,0:0:0:0:
356,260,100120,5,2,0:0:0:0:
188,260,100354,2,0,L|252:260,1,56.25,2|2,0:0|0:0,0:0:0:0:
484,260,100588,2,0,P|464:212|408:192,1,112.5,8|0,0:0|0:0,0:0:0:0:
116,192,101057,1,2,0:0:0:0:
272,192,101291,1,2,0:0:0:0:
60,192,101526,1,8,0:0:0:0:
240,120,101760,2,0,L|184:120,1,56.25,2|2,0:0|0:0,0:0:0:0:
388,120,101995,6,0,L|280:80,1,112.5,2|2,0:0|0:0,0:0:0:0:
488,80,102463,1,8,0:0:0:0:
364,80,102698,1,2,0:0:0:0:
152,80,102932,2,0,L|136:192,1,112.5,2|0,0:0|0:0,0:0:0:0:
432,192,103401,2,0,L|320:192,1,112.5,8|0,0:0|0:0,0:0:0:0:
136,192,103870,5,2,0:0:0:0:
360,276,104104,1,0,0:0:0:0:
224,276,104338,1,8,0:0:0:0:
88,276,104573,2,0,L|144:276,1,56.25,2|2,0:0|0:0,0:0:0:0:
384,192,104807,2,0,L|292:128,1,112.5,2|0,0:0|0:0,0:0:0:0:
88,276,105276,2,0,L|180:212,1,112.5,8|0,0:0|0:0,0:0:0:0:
476,216,105745,5,6,0:0:0:0:
461,143,105862,1,0,0:0:0:0:
405,96,105979,1,8,0:0:0:0:
331,94,106096,1,0,0:0:0:0:
136,92,106213,2,0,L|76:92,1,56.25,2|2,0:0|0:0,0:0:0:0:
180,168,106448,2,0,L|232:192,1,56.25,8|8,0:0|0:0,0:0:0:0:
36,290,106682,1,2,0:0:0:0:
50,217,106799,1,2,0:0:0:0:
106,170,106916,1,2,0:0:0:0:
180,168,107034,1,8,0:0:0:0:
384,168,107151,2,0,L|444:168,1,56.25,2|2,0:0|0:0,0:0:0:0:
106,170,107385,6,0,P|20:112|120:32,1,270.000010299683,6|2,0:0|0:0,0:0:0:0:
196,32,107971,1,2,0:0:0:0:
320,32,108088,2,0,L|432:32,1,112.5,8|0,0:0|0:0,0:0:0:0:
136,120,108557,1,2,0:0:0:0:
316,120,108791,1,0,0:0:0:0:
160,120,109026,2,0,L|216:120,1,56.25,8|0,0:0|0:0,0:0:0:0:
308,192,109260,2,0,L|252:192,1,56.25,2|2,0:0|0:0,0:0:0:0:
56,192,109495,6,0,P|76:243|126:264,1,112.5,2|2,0:0|0:0,0:0:0:0:
420,268,109963,2,0,L|304:268,1,112.5,8|0,0:0|0:0,0:0:0:0:
128,192,110432,1,2,0:0:0:0:
332,192,110666,1,2,0:0:0:0:
28,112,110901,2,0,L|168:112,1,112.5,8|2,0:0|0:0,0:0:0:0:
312,112,111370,5,2,0:0:0:0:
88,112,111604,1,0,0:0:0:0:
312,112,111838,2,0,P|360:136|376:192,1,112.5,8|2,0:0|0:0,0:0:0:0:
296,192,112190,1,2,0:0:0:0:
40,112,112307,2,0,L|132:180,2,112.5,2|2|8,0:0|0:0|0:0,0:0:0:0:
144,112,112893,2,0,L|208:112,2,56.25,2|2|0,0:0|0:0|0:0,0:0:0:0:
348,176,113245,6,0,L|299:148,1,56.25,2|0,0:0|0:0,0:0:0:0:
216,236,113479,2,0,L|265:208,1,56.25,2|2,0:0|0:0,0:0:0:0:
460,176,113713,2,0,L|412:148,1,56.25,8|2,0:0|0:0,0:0:0:0:
496,176,113948,2,0,L|447:148,1,56.25,2|2,0:0|0:0,0:0:0:0:
220,148,114182,1,2,0:0:0:0:
412,148,114416,1,2,0:0:0:0:
96,148,114651,2,0,L|36:148,1,56.25,8|0,0:0|0:0,0:0:0:0:
124,224,114885,2,0,L|68:224,1,56.25,2|2,0:0|0:0,0:0:0:0:
304,224,115120,5,2,0:0:0:0:
148,224,115354,2,0,L|208:224,1,56.25,2|2,0:0|0:0,0:0:0:0:
20,224,115588,2,0,P|40:176|96:156,1,112.5,8|0,0:0|0:0,0:0:0:0:
388,156,116057,1,2,0:0:0:0:
232,156,116291,1,2,0:0:0:0:
444,156,116526,1,8,0:0:0:0:
264,84,116760,2,0,L|208:84,1,56.25,2|2,0:0|0:0,0:0:0:0:
400,84,116995,6,0,L|292:44,1,112.5,2|2,0:0|0:0,0:0:0:0:
68,44,117463,1,8,0:0:0:0:
216,44,117698,1,2,0:0:0:0:
440,44,117932,2,0,L|424:156,1,112.5,2|2,0:0|0:0,0:0:0:0:
352,192,118284,1,2,0:0:0:0:
116,192,118401,2,0,L|228:192,1,112.5,8|2,0:0|0:0,0:0:0:0:
296,192,118752,1,2,0:0:0:0:
104,192,118870,6,0,L|40:192,1,56.25,2|0,0:0|0:0,0:0:0:0:
300,104,119104,2,0,L|240:104,1,56.25
128,104,119338,2,0,L|180:84,1,56.25,8|0,0:0|0:0,0:0:0:0:
260,76,119573,2,0,L|216:39,1,56.25
24,28,119807,6,0,L|80:28,1,56.25,2|0,0:0|0:0,0:0:0:0:
176,76,120041,2,0,L|108:76,1,56.25
300,152,120276,2,0,L|244:152,1,56.25,8|0,0:0|0:0,0:0:0:0:
348,228,120510,2,0,L|388:268,1,56.25
140,264,120745,6,0,P|96:220|128:164,1,135.000005149842,4|2,0:0|0:0,0:0:0:0:
208,152,121096,1,2,0:0:0:0:
404,156,121213,1,2,0:0:0:0:
441,194,121330,1,0,0:0:0:0:
430,247,121448,1,2,0:0:0:0:
380,268,121565,1,2,0:0:0:0:
160,268,121682,6,0,L|268:228,1,112.5,8|0,0:0|0:0,0:0:0:0:
324,228,122034,1,0,0:0:0:0:
100,228,122151,2,0,L|44:227,1,56.25,2|2,0:0|0:0,0:0:0:0:
244,156,122385,1,2,0:0:0:0:
176,156,122502,1,2,0:0:0:0:
396,156,122620,5,4,0:0:0:0:
268,156,122854,2,0,L|260:108,1,45
352,48,123088,2,0,L|456:48,1,90,8|0,0:0|0:0,0:0:0:0:
236,140,123557,2,0,L|144:140,1,90,2|0,0:0|0:0,0:0:0:0:
264,232,123909,2,0,L|272:140,1,90,2|0,0:0|0:0,0:0:0:0:
160,192,124260,2,0,L|108:192,1,45,2|2,0:0|0:0,0:0:0:0:
296,192,124495,6,0,L|392:192,1,90,2|2,0:0|0:0,0:0:0:0:
324,192,124846,1,2,0:0:0:0:
136,228,124963,2,0,L|132:328,1,90,8|0,0:0|0:0,0:0:0:0:
312,320,125432,1,2,0:0:0:0:
96,320,125666,1,8,0:0:0:0:
404,320,125901,2,0,L|352:320,1,45,8|0,0:0|0:0,0:0:0:0:
440,244,126135,2,0,L|492:244,1,45,2|2,0:0|0:0,0:0:0:0:
296,244,126370,6,0,L|204:244,1,90,2|2,0:0|0:0,0:0:0:0:
268,244,126721,1,2,0:0:0:0:
178,244,126838,2,0,L|72:244,1,90,8|0,0:0|0:0,0:0:0:0:
396,244,127307,2,0,P|448:224|480:156,1,135.000005149842,2|0,0:0|0:0,0:0:0:0:
392,156,127659,2,0,L|308:192,1,90,2|0,0:0|0:0,0:0:0:0:
400,72,128010,2,0,L|358:90,1,45,2|2,0:0|0:0,0:0:0:0:
176,92,128245,6,0,L|84:92,1,90,2|0,0:0|0:0,0:0:0:0:
309,191,128596,2,0,L|401:191,1,90,2|0,0:0|0:0,0:0:0:0:
300,272,128948,2,0,L|356:272,1,45,2|2,0:0|0:0,0:0:0:0:
136,272,129182,1,2,0:0:0:0:
444,272,129416,2,0,L|448:220,1,45,8|0,0:0|0:0,0:0:0:0:
256,192,129651,2,0,L|156:192,1,90,2|0,0:0|0:0,0:0:0:0:
484,228,130120,6,0,P|508:180|476:132,1,112.5,4|0,0:0|0:0,0:0:0:0:
400,136,130471,1,2,0:0:0:0:
196,136,130823,1,0,0:0:0:0:
420,56,131057,2,0,L|300:56,1,112.5,2|0,0:0|0:0,0:0:0:0:
196,136,131409,2,0,L|260:136,1,56.25,2|2,0:0|0:0,0:0:0:0:
168,136,131643,1,2,0:0:0:0:
252,136,131760,1,8,0:0:0:0:
336,136,131877,1,0,0:0:0:0:
228,216,131995,6,0,L|128:216,1,90,2|0,0:0|0:0,0:0:0:0:
228,288,132346,1,2,0:0:0:0:
296,288,132463,1,2,0:0:0:0:
364,288,132580,2,0,P|400:252|364:216,1,112.5,2|2,0:0|0:0,0:0:0:0:
300,216,132932,1,8,0:0:0:0:
448,216,133166,1,8,0:0:0:0:
252,148,133401,2,0,L|248:96,1,45,2|0,0:0|0:0,0:0:0:0:
348,148,133635,2,0,L|396:148,1,45,2|2,0:0|0:0,0:0:0:0:
204,148,133870,6,0,L|104:148,1,90,2|0,0:0|0:0,0:0:0:0:
220,76,134221,2,0,L|80:76,1,135,2|2,0:0|0:0,0:0:0:0:
148,76,134690,1,2,0:0:0:0:
328,76,134807,2,0,L|424:76,1,90,8|0,0:0|0:0,0:0:0:0:
316,152,135159,2,0,L|264:152,1,45,2|2,0:0|0:0,0:0:0:0:
364,152,135393,2,0,L|372:200,1,45,0|2,0:0|0:0,0:0:0:0:
312,252,135627,1,2,0:0:0:0:
112,252,135745,6,0,L|108:304,1,45,4|0,0:0|0:0,0:0:0:0:
416,296,136096,1,2,0:0:0:0:
236,296,136330,1,0,0:0:0:0:
316,296,136448,2,0,L|328:240,1,45,2|2,0:0|0:0,0:0:0:0:
136,248,136682,2,0,L|84:248,2,45,8|8|2,0:0|0:0|0:0,0:0:0:0:
340,192,137034,2,0,L|436:192,1,90,8|2,0:0|0:0,0:0:0:0:
328,120,137385,2,0,L|280:120,1,45,8|2,0:0|0:0,0:0:0:0:
80,120,137620,5,4,0:0:0:0:
204,120,137854,2,0,L|208:72,1,45
100,76,138088,2,0,L|196:76,1,90,8|0,0:0|0:0,0:0:0:0:
492,76,138557,2,0,L|400:76,1,90,2|0,0:0|0:0,0:0:0:0:
296,76,138909,1,0,0:0:0:0:
190,76,139026,2,0,L|186:136,1,45,8|0,0:0|0:0,0:0:0:0:
296,160,139260,2,0,L|244:160,1,45,2|2,0:0|0:0,0:0:0:0:
48,160,139495,6,0,L|44:264,1,90,2|2,0:0|0:0,0:0:0:0:
160,252,139846,1,2,0:0:0:0:
276,252,139963,2,0,L|280:308,1,45,8|0,0:0|0:0,0:0:0:0:
76,252,140198,2,0,L|84:200,1,45,2|2,0:0|0:0,0:0:0:0:
196,252,140432,2,0,L|200:360,1,90,2|8,0:0|0:0,0:0:0:0:
396,344,140901,2,0,L|344:344,1,45,8|0,0:0|0:0,0:0:0:0:
240,252,141135,2,0,L|292:252,1,45,2|2,0:0|0:0,0:0:0:0:
484,252,141370,5,2,0:0:0:0:
360,252,141604,2,0,L|312:252,1,45,2|2,0:0|0:0,0:0:0:0:
204,252,141838,2,0,L|196:148,1,90,8|0,0:0|0:0,0:0:0:0:
260,164,142190,1,0,0:0:0:0:
148,164,142307,2,0,L|100:164,1,45,2|0,0:0|0:0,0:0:0:0:
176,88,142541,1,2,0:0:0:0:
280,88,142659,1,2,0:0:0:0:
384,88,142776,2,0,L|388:144,1,45,8|0,0:0|0:0,0:0:0:0:
304,164,143010,2,0,L|260:164,1,45,2|2,0:0|0:0,0:0:0:0:
460,164,143245,6,0,B|508:164|508:164|452:164,1,90,2|2,0:0|0:0,0:0:0:0:
259,164,143596,2,0,L|215:164,2,45,2|8|0,0:0|0:0|0:0,0:0:0:0:
456,248,143948,1,2,0:0:0:0:
372,248,144065,1,2,0:0:0:0:
288,248,144182,1,2,0:0:0:0:
488,248,144416,2,0,L|492:292,1,45,2|2,0:0|0:0,0:0:0:0:
256,344,144651,2,0,L|204:344,1,45,8|0,0:0|0:0,0:0:0:0:
156,248,144885,2,0,L|204:248,1,45,2|2,0:0|0:0,0:0:0:0:
404,248,145120,6,0,L|408:156,1,90,2|2,0:0|0:0,0:0:0:0:
316,160,145471,1,2,0:0:0:0:
112,160,145588,1,8,0:0:0:0:
236,160,145823,2,0,L|288:160,1,45,2|0,0:0|0:0,0:0:0:0:
172,160,146057,2,0,L|168:68,1,90,2|2,0:0|0:0,0:0:0:0:
260,72,146409,1,2,0:0:0:0:
464,72,146526,1,8,0:0:0:0:
384,72,146643,1,2,0:0:0:0:
496,72,146760,2,0,L|500:116,1,45,2|2,0:0|0:0,0:0:0:0:
300,156,146995,6,0,L|208:156,1,90,2|2,0:0|0:0,0:0:0:0:
272,156,147346,1,2,0:0:0:0:
160,156,147463,1,8,0:0:0:0:
24,212,147698,2,0,L|68:212,1,45,2|2,0:0|0:0,0:0:0:0:
176,156,147932,2,0,L|180:248,1,90,2|8,0:0|0:0,0:0:0:0:
112,244,148284,1,0,0:0:0:0:
220,244,148401,2,0,L|264:244,1,45,8|2,0:0|0:0,0:0:0:0:
148,244,148635,2,0,L|144:300,1,45,2|2,0:0|0:0,0:0:0:0:
348,244,148870,5,2,0:0:0:0:
400,296,148987,1,0,0:0:0:0:
348,352,149104,1,0,0:0:0:0:
240,352,149221,1,0,0:0:0:0:
444,352,149338,2,0,L|448:300,1,45,8|0,0:0|0:0,0:0:0:0:
340,244,149573,2,0,L|292:244,1,45
92,244,149807,2,0,L|44:244,2,45,2|0|0,0:0|0:0|0:0,0:0:0:0:
200,244,150159,1,0,0:0:0:0:
400,244,150276,1,8,0:0:0:0:
308,244,150393,1,0,0:0:0:0:
400,244,150510,1,0,0:0:0:0:
492,244,150627,1,0,0:0:0:0:
236,168,150745,6,0,L|96:168,1,135.000005149842,4|0,1:2|0:0,0:0:0:0:
336,168,151213,2,0,L|444:168,1,107.999996704102,2|0,0:0|0:0,0:0:0:0:
444,168,151565,1,0,0:0:0:0:
232,80,151682,2,0,L|300:80,1,67.5000025749208,2|2,0:0|0:0,0:0:0:0:
164,80,151916,2,0,L|96:80,1,67.5000025749208,2|2,0:0|0:0,0:0:0:0:
340,80,152151,1,8,0:0:0:0:
408,92,152268,1,0,0:0:0:0:
452,140,152385,1,2,0:0:0:0:
460,204,152502,1,2,0:0:0:0:
112,192,152620,6,0,L|108:80,1,112.5,4|0,0:0|0:0,0:0:0:0:
176,80,152971,1,0,0:0:0:0:
372,80,153088,2,0,L|492:80,1,112.5,8|0,0:0|0:0,0:0:0:0:
192,80,153557,2,0,P|180:136|208:192,1,112.5,2|2,0:0|0:0,0:0:0:0:
268,184,153909,1,2,0:0:0:0:
140,184,154026,2,0,L|136:248,1,56.25,8|0,0:0|0:0,0:0:0:0:
224,280,154260,2,0,L|280:280,1,56.25,2|2,0:0|0:0,0:0:0:0:
472,280,154495,6,0,L|352:280,1,112.5,2|0,0:0|0:0,0:0:0:0:
156,192,154963,2,0,L|272:192,1,112.5,8|2,0:0|0:0,0:0:0:0:
132,192,155432,1,2,0:0:0:0:
126,118,155549,1,0,0:0:0:0:
167,57,155666,1,2,0:0:0:0:
237,35,155784,1,2,0:0:0:0:
424,36,155901,2,0,B|484:36|484:36|428:36,1,112.5,8|2,0:0|0:0,0:0:0:0:
334,36,156252,1,2,0:0:0:0:
237,35,156370,5,2,0:0:0:0:
452,120,156604,1,2,0:0:0:0:
156,120,156838,2,0,L|152:232,1,112.5,8|2,0:0|0:0,0:0:0:0:
219,232,157190,1,2,0:0:0:0:
28,232,157307,2,0,L|152:232,1,112.5,2|2,0:0|0:0,0:0:0:0:
352,232,157776,2,0,L|356:172,1,56.25,8|2,0:0|0:0,0:0:0:0:
152,176,158010,6,0,P|64:116|152:20,1,270.000010299683,8|2,0:0|0:0,0:0:0:0:
219,16,158596,1,2,0:0:0:0:
412,16,158713,2,0,L|296:16,1,112.5,8|2,0:0|0:0,0:0:0:0:
368,16,159065,1,2,0:0:0:0:
176,108,159182,2,0,L|64:108,1,112.5,2|0,0:0|0:0,0:0:0:0:
272,108,159534,2,0,B|328:108|328:108|264:108,1,112.5,2|0,0:0|0:0,0:0:0:0:
180,192,159885,2,0,L|240:192,1,56.25,2|2,0:0|0:0,0:0:0:0:
352,192,160120,5,2,0:0:0:0:
216,192,160354,2,0,L|208:252,1,56.25,2|2,0:0|0:0,0:0:0:0:
400,244,160588,1,8,0:0:0:0:
188,248,160823,1,2,0:0:0:0:
492,244,161057,2,0,L|500:300,1,56.25,2|2,0:0|0:0,0:0:0:0:
420,300,161291,2,0,L|412:244,1,56.25,2|2,0:0|0:0,0:0:0:0:
220,248,161526,2,0,L|104:248,1,112.5,8|2,0:0|0:0,0:0:0:0:
176,248,161877,1,2,0:0:0:0:
64,172,161995,6,0,L|176:172,1,112.5,2|0,0:0|0:0,0:0:0:0:
472,172,162463,1,8,0:0:0:0:
336,172,162698,2,0,L|328:116,1,56.25,2|2,0:0|0:0,0:0:0:0:
440,120,162932,1,2,0:0:0:0:
485,90,163049,1,2,0:0:0:0:
484,36,163166,1,2,0:0:0:0:
439,7,163284,1,2,0:0:0:0:
244,8,163401,2,0,L|132:8,1,112.5,8|2,0:0|0:0,0:0:0:0:
228,8,163752,1,2,0:0:0:0:
324,8,163870,5,2,0:0:0:0:
24,8,164104,1,2,0:0:0:0:
352,8,164338,2,0,L|356:120,1,112.5,8|2,0:0|0:0,0:0:0:0:
288,120,164690,1,2,0:0:0:0:
76,120,164807,2,0,L|188:120,1,112.5,2|2,0:0|0:0,0:0:0:0:
392,120,165276,1,8,0:0:0:0:
92,120,165510,2,0,L|88:176,1,56.25,2|2,0:0|0:0,0:0:0:0:
340,176,165745,6,0,B|420:176|420:176|420:256,1,157.500001502037,4|8,0:0|0:0,0:0:0:0:
328,252,166096,1,0,0:0:0:0:
236,252,166213,2,0,L|364:252,1,112.5,2|8,0:0|0:0,0:0:0:0:
280,252,166565,1,8,0:0:0:0:
92,252,166682,6,0,L|36:252,2,56.25,2|2|2,0:0|0:0|0:0,0:0:0:0:
280,152,167034,1,8,0:0:0:0:
220,152,167151,1,2,0:0:0:0:
160,152,167268,1,2,0:0:0:0:
364,152,167385,1,12,0:0:0:0:
72,152,167502,6,0,P|4:112|72:40,1,202.500007724762,2|2,0:0|0:0,0:0:0:0:
132,40,167971,1,2,0:0:0:0:
324,40,168088,2,0,L|436:40,1,112.5,8|0,0:0|0:0,0:0:0:0:
140,40,168557,2,0,L|136:156,1,112.5,2|0,0:0|0:0,0:0:0:0:
226,156,168909,1,0,0:0:0:0:
316,152,169026,2,0,L|320:212,1,56.25,8|0,0:0|0:0,0:0:0:0:
216,232,169260,2,0,L|208:300,1,56.25,2|2,0:0|0:0,0:0:0:0:
408,288,169495,5,2,0:0:0:0:
467,247,169612,1,0,0:0:0:0:
467,175,169729,1,2,0:0:0:0:
407,135,169846,1,0,0:0:0:0:
220,136,169963,2,0,L|108:136,1,112.5,8|2,0:0|0:0,0:0:0:0:
176,136,170315,1,2,0:0:0:0:
64,136,170432,2,0,L|56:72,1,56.25,2|2,0:0|0:0,0:0:0:0:
168,64,170666,2,0,L|184:4,1,56.25,2|0,0:0|0:0,0:0:0:0:
368,8,170901,2,0,L|480:8,1,112.5,8|2,0:0|0:0,0:0:0:0:
388,8,171252,1,2,0:0:0:0:
296,8,171370,5,2,0:0:0:0:
500,80,171604,1,2,0:0:0:0:
200,80,171838,2,0,L|76:80,1,112.5,8|2,0:0|0:0,0:0:0:0:
156,80,172190,1,2,0:0:0:0:
352,80,172307,2,0,L|224:80,1,112.5,2|2,0:0|0:0,0:0:0:0:
308,80,172659,1,0,0:0:0:0:
376,80,172776,2,0,L|380:144,1,56.25,8|2,0:0|0:0,0:0:0:0:
108,136,173010,6,0,P|12:208|104:280,1,270.000010299683,8|0,0:0|0:0,0:0:0:0:
168,280,173596,1,0,0:0:0:0:
376,280,173713,2,0,L|320:280,1,56.25,8|0,0:0|0:0,0:0:0:0:
240,280,173948,2,0,L|180:280,1,56.25,2|2,0:0|0:0,0:0:0:0:
376,192,174182,2,0,B|440:192|440:192|364:192,1,112.5,2|0,0:0|0:0,0:0:0:0:
196,192,174534,2,0,L|312:192,1,112.5,2|0,0:0|0:0,0:0:0:0:
240,192,174885,2,0,L|296:192,1,56.25,2|2,0:0|0:0,0:0:0:0:
72,192,175120,5,2,0:0:0:0:
228,76,175354,1,2,0:0:0:0:
152,76,175471,1,2,0:0:0:0:
336,76,175588,2,0,L|344:192,1,112.5,8|0,0:0|0:0,0:0:0:0:
48,188,176057,2,0,L|160:188,1,112.5,2|2,0:0|0:0,0:0:0:0:
92,188,176409,1,2,0:0:0:0:
204,188,176526,2,0,L|212:132,1,56.25,8|0,0:0|0:0,0:0:0:0:
396,132,176760,2,0,L|452:132,1,56.25,2|2,0:0|0:0,0:0:0:0:
264,192,176995,6,0,L|380:192,1,112.5,2|2,0:0|0:0,0:0:0:0:
152,192,177463,2,0,L|40:192,1,112.5,8|0,0:0|0:0,0:0:0:0:
264,192,177932,2,0,L|272:304,1,112.5,2|2,0:0|0:0,0:0:0:0:
204,304,178284,1,2,0:0:0:0:
388,304,178401,2,0,L|392:248,1,56.25,8|0,0:0|0:0,0:0:0:0:
192,192,178635,2,0,L|132:192,1,56.25,2|2,0:0|0:0,0:0:0:0:
372,192,178870,6,0,B|432:192|432:192|364:192,1,112.5,2|0,0:0|0:0,0:0:0:0:
276,192,179221,1,0,0:0:0:0:
80,192,179338,2,0,L|20:192,2,56.25,8|0|0,0:0|0:0|0:0,0:0:0:0:
168,192,179690,1,0,0:0:0:0:
364,192,179807,2,0,L|304:192,1,56.25,2|0,0:0|0:0,0:0:0:0:
196,128,180041,2,0,L|252:128,1,56.25
20,80,180276,1,8,0:0:0:0:
24,156,180393,1,0,0:0:0:0:
72,216,180510,1,0,0:0:0:0:
144,232,180627,1,0,0:0:0:0:
328,232,180745,6,0,L|424:232,1,90,4|0,0:0|0:0,0:0:0:0:
208,232,181213,2,0,L|204:184,1,45,2|0,0:0|0:0,0:0:0:0:
312,140,181448,2,0,L|364:140,1,45,2|2,0:0|0:0,0:0:0:0:
212,60,181682,6,0,L|304:60,1,90,8|2,0:0|0:0,0:0:0:0:
244,60,182034,1,2,0:0:0:0:
424,60,182151,2,0,L|468:60,1,45,8|0,0:0|0:0,0:0:0:0:
368,144,182385,2,0,L|312:144,1,45,2|2,0:0|0:0,0:0:0:0:
128,144,182620,6,0,L|16:144,1,112.5,4|2,0:0|0:0,0:0:0:0:
84,144,182971,1,2,0:0:0:0:
268,144,183088,1,8,0:0:0:0:
100,144,183323,1,0,0:0:0:0:
396,144,183557,2,0,L|400:204,1,56.25,2|2,0:0|0:0,0:0:0:0:
276,192,183791,2,0,L|280:252,1,56.25,0|2,0:0|0:0,0:0:0:0:
400,200,184026,2,0,L|344:200,1,56.25,8|0,0:0|0:0,0:0:0:0:
223,248,184260,2,0,L|279:248,1,56.25,2|2,0:0|0:0,0:0:0:0:
96,248,184495,6,0,B|40:248|40:248|40:188,1,112.5,2|0,0:0|0:0,0:0:0:0:
264,152,184963,2,0,L|144:152,1,112.5,8|2,0:0|0:0,0:0:0:0:
212,152,185315,1,0,0:0:0:0:
340,152,185432,2,0,L|392:120,2,56.25,2|2|2,0:0|0:0|0:0,0:0:0:0:
276,152,185784,1,2,0:0:0:0:
52,72,185901,2,0,B|92:32|92:32|148:32,1,112.5,8|2,0:0|0:0,0:0:0:0:
212,32,186252,1,2,0:0:0:0:
396,72,186370,5,2,0:0:0:0:
192,72,186604,1,2,0:0:0:0:
488,72,186838,2,0,L|492:184,1,112.5,8|2,0:0|0:0,0:0:0:0:
436,184,187190,1,2,0:0:0:0:
240,184,187307,2,0,L|128:192,1,112.5,2|0,0:0|0:0,0:0:0:0:
424,256,187776,2,0,L|364:256,1,56.25,8|2,0:0|0:0,0:0:0:0:
492,256,188010,2,0,L|496:312,1,56.25,2|2,0:0|0:0,0:0:0:0:
288,344,188245,6,0,L|224:344,1,56.25,2|2,0:0|0:0,0:0:0:0:
356,344,188479,2,0,L|364:280,1,56.25,2|2,0:0|0:0,0:0:0:0:
172,268,188713,1,8,0:0:0:0:
111,228,188830,1,2,0:0:0:0:
111,156,188948,1,2,0:0:0:0:
170,116,189065,1,2,0:0:0:0:
352,116,189182,2,0,L|356:4,1,112.5,2|2,0:0|0:0,0:0:0:0:
292,0,189534,1,2,0:0:0:0:
112,0,189651,2,0,L|108:60,1,56.25,8|0,0:0|0:0,0:0:0:0:
200,56,189885,2,0,L|212:112,1,56.25,2|2,0:0|0:0,0:0:0:0:
392,108,190120,6,0,B|448:108|448:108|448:180,1,112.5,2|2,0:0|0:0,0:0:0:0:
392,192,190471,1,2,0:0:0:0:
200,192,190588,2,0,L|316:192,1,112.5,8|0,0:0|0:0,0:0:0:0:
16,192,191057,2,0,L|24:132,1,56.25,2|2,0:0|0:0,0:0:0:0:
104,192,191291,2,0,L|112:132,1,56.25,2|2,0:0|0:0,0:0:0:0:
308,88,191526,2,0,L|368:88,1,56.25,8|2,0:0|0:0,0:0:0:0:
240,88,191760,2,0,L|236:24,1,56.25,2|0,0:0|0:0,0:0:0:0:
432,32,191995,6,0,L|316:32,1,112.5,2|2,0:0|0:0,0:0:0:0:
20,88,192463,2,0,L|136:88,1,112.5,8|2,0:0|0:0,0:0:0:0:
356,128,192932,2,0,L|296:128,1,56.25,2|0,0:0|0:0,0:0:0:0:
376,200,193166,2,0,L|440:200,1,56.25,2|2,0:0|0:0,0:0:0:0:
208,200,193401,1,8,0:0:0:0:
400,200,193635,1,2,0:0:0:0:
104,200,193870,5,2,0:0:0:0:
300,200,194104,2,0,L|304:256,1,56.25,2|2,0:0|0:0,0:0:0:0:
80,256,194338,2,0,L|192:256,1,112.5,8|2,0:0|0:0,0:0:0:0:
132,256,194690,1,2,0:0:0:0:
328,256,194807,1,2,0:0:0:0:
144,256,195041,1,2,0:0:0:0:
444,256,195276,2,0,L|448:312,1,56.25,8|2,0:0|0:0,0:0:0:0:
368,312,195510,2,0,L|428:312,1,56.25,2|0,0:0|0:0,0:0:0:0:
200,312,195745,6,0,L|80:312,1,112.5,6|2,0:0|0:0,0:0:0:0:
160,312,196096,1,0,0:0:0:0:
344,312,196213,1,8,0:0:0:0:
408,280,196330,1,8,0:0:0:0:
414,209,196448,1,2,0:0:0:0:
355,167,196565,1,8,0:0:0:0:
176,168,196682,2,0,B|112:168|112:168|184:168,1,135.000005149842,2|0,0:0|0:0,0:0:0:0:
392,52,197034,2,0,B|488:52|488:52|424:52,1,157.500001502037,8|0,0:0|0:0,0:0:0:0:
144,48,197385,6,0,B|4:48|4:48|8:48|8:48|4:48|4:48|8:48|8:48|4:48|4:48|8:48|8:48|4:48|4:48|8:48|8:48|4:48|4:48|8:48|8:48|4:48|4:48|4:228,1,360,6|2,0:0|0:0,0:0:0:0:
80,228,197971,1,2,0:0:0:0:
280,216,198088,2,0,L|156:216,1,112.5,8|0,0:0|0:0,0:0:0:0:
464,216,198557,2,0,L|468:152,1,56.25,2|0,0:0|0:0,0:0:0:0:
352,160,198791,2,0,L|292:160,1,56.25,2|2,0:0|0:0,0:0:0:0:
412,160,199026,2,0,L|400:96,1,56.25,8|0,0:0|0:0,0:0:0:0:
212,104,199260,2,0,L|144:104,1,56.25,2|2,0:0|0:0,0:0:0:0:
360,28,199495,6,0,L|472:28,1,112.5,2|0,0:0|0:0,0:0:0:0:
164,28,199963,2,0,L|48:28,1,112.5,8|2,0:0|0:0,0:0:0:0:
284,88,200432,2,0,L|276:148,1,56.25,2|2,0:0|0:0,0:0:0:0:
156,148,200666,2,0,L|164:208,1,56.25,0|2,0:0|0:0,0:0:0:0:
372,204,200901,1,8,0:0:0:0:
180,204,201135,1,2,0:0:0:0:
328,204,201370,5,2,0:0:0:0:
104,204,201604,1,0,0:0:0:0:
416,204,201838,2,0,L|428:320,1,112.5,8|2,0:0|0:0,0:0:0:0:
356,316,202190,1,2,0:0:0:0:
172,316,202307,1,2,0:0:0:0:
376,316,202541,1,0,0:0:0:0:
80,316,202776,2,0,L|24:316,1,56.25,8|2,0:0|0:0,0:0:0:0:
24,240,203010,2,0,L|80:240,1,56.25,2|0,0:0|0:0,0:0:0:0:
276,240,203245,6,0,L|336:240,1,56.25,2|0,0:0|0:0,0:0:0:0:
220,160,203479,2,0,L|276:160,1,56.25,2|2,0:0|0:0,0:0:0:0:
92,160,203713,2,0,L|16:160,1,56.25,8|2,0:0|0:0,0:0:0:0:
148,72,203948,2,0,L|220:72,1,56.25,2|0,0:0|0:0,0:0:0:0:
388,72,204182,2,0,L|500:72,1,112.5,2|2,0:0|0:0,0:0:0:0:
428,72,204534,1,2,0:0:0:0:
204,72,204651,2,0,L|200:136,1,56.25,8|0,0:0|0:0,0:0:0:0:
320,180,204885,2,0,L|264:180,1,56.25,2|2,0:0|0:0,0:0:0:0:
80,180,205120,6,0,L|72:292,1,112.5,2|2,0:0|0:0,0:0:0:0:
144,292,205471,1,2,0:0:0:0:
328,292,205588,2,0,L|444:292,1,112.5,8|0,0:0|0:0,0:0:0:0:
132,292,206057,2,0,L|128:232,1,56.25,2|0,0:0|0:0,0:0:0:0:
248,292,206291,2,0,L|252:352,1,56.25,2|2,0:0|0:0,0:0:0:0:
73,235,206526,2,0,L|129:235,1,56.25,8|0,0:0|0:0,0:0:0:0:
308,348,206760,2,0,L|244:348,1,56.25,2|2,0:0|0:0,0:0:0:0:
56,348,206995,6,0,L|56:288,1,56.25,2|0,0:0|0:0,0:0:0:0:
251,348,207229,2,0,L|251:288,1,56.25,2|0,0:0|0:0,0:0:0:0:
446,348,207463,2,0,L|446:288,1,56.25,8|0,0:0|0:0,0:0:0:0:
251,348,207698,2,0,L|308:348,1,56.25,2|2,0:0|0:0,0:0:0:0:
124,348,207932,1,2,0:0:0:0:
64,306,208049,1,2,0:0:0:0:
63,234,208166,1,2,0:0:0:0:
122,192,208284,1,2,0:0:0:0:
324,192,208401,2,0,L|384:192,1,56.25,8|0,0:0|0:0,0:0:0:0:
140,112,208635,2,0,L|80:112,1,56.25,2|2,0:0|0:0,0:0:0:0:
300,112,208870,5,2,0:0:0:0:
348,89,208987,1,0,0:0:0:0:
349,36,209104,1,0,0:0:0:0:
302,11,209221,1,0,0:0:0:0:
116,12,209338,2,0,L|60:12,1,56.25,8|0,0:0|0:0,0:0:0:0:
140,112,209573,2,0,L|196:112,1,56.25
400,112,209807,2,0,L|332:112,1,56.25,2|0,0:0|0:0,0:0:0:0:
264,192,210041,2,0,L|324:192,1,56.25
136,192,210276,2,0,L|132:252,1,56.25,8|0,0:0|0:0,0:0:0:0:
264,280,210510,2,0,L|324:280,1,56.25,2|2,0:0|0:0,0:0:0:0:
96,352,210745,6,0,L|92:292,1,56.25,6|0,0:0|0:0,0:0:0:0:
160,192,210979,2,0,L|224:192,1,56.25,2|2,0:0|0:0,0:0:0:0:
360,192,211213,2,0,L|300:192,1,56.25,8|0,0:0|0:0,0:0:0:0:
304,120,211448,2,0,L|364:120,1,56.25,2|2,0:0|0:0,0:0:0:0:
228,120,211682,2,0,L|116:120,1,112.5,8|0,0:0|0:0,0:0:0:0:
48,120,212034,1,2,0:0:0:0:
248,120,212151,2,0,L|304:120,1,56.25,8|2,0:0|0:0,0:0:0:0:
164,64,212385,2,0,L|160:124,1,56.25,2|2,0:0|0:0,0:0:0:0:
450,32,212620,5,4,0:0:0:0:
314,32,212854,1,0,0:0:0:0:
118,32,213088,2,0,L|110:124,1,90,8|0,0:0|0:0,0:0:0:0:
414,124,213557,2,0,L|322:124,1,90,0|2,0:0|0:0,0:0:0:0:
126,120,214026,1,8,0:0:0:0:
246,120,214260,2,0,L|254:184,1,45,2|2,0:0|0:0,0:0:0:0:
142,192,214495,6,0,L|42:192,1,90,2|0,0:0|0:0,0:0:0:0:
242,280,214963,2,0,L|146:280,1,90,8|2,0:0|0:0,0:0:0:0:
206,280,215315,1,2,0:0:0:0:
258,280,215432,1,2,0:0:0:0:
70,280,215666,2,0,L|66:224,1,45,2|2,0:0|0:0,0:0:0:0:
258,192,215901,2,0,L|350:192,1,90,8|2,0:0|0:0,0:0:0:0:
274,192,216252,1,2,0:0:0:0:
348,192,216370,5,0,0:0:0:0:
150,192,216604,1,0,0:0:0:0:
454,108,216838,2,0,L|346:108,1,90,8|2,0:0|0:0,0:0:0:0:
302,108,217190,1,2,0:0:0:0:
122,108,217307,2,0,L|222:108,1,90,2|0,0:0|0:0,0:0:0:0:
30,108,217776,2,0,L|18:200,1,90,8|2,0:0|0:0,0:0:0:0:
102,196,218127,1,2,0:0:0:0:
186,196,218245,6,0,L|278:196,1,90,2|0,0:0|0:0,0:0:0:0:
86,284,218713,2,0,L|178:284,1,90,8|0,0:0|0:0,0:0:0:0:
370,284,219182,2,0,L|270:284,1,90,2|2,0:0|0:0,0:0:0:0:
338,284,219534,1,2,0:0:0:0:
158,284,219651,2,0,L|150:176,1,90,8|2,0:0|0:0,0:0:0:0:
242,192,220002,1,2,0:0:0:0:
332,192,220120,5,2,0:0:0:0:
130,192,220354,2,0,L|126:136,1,45,2|2,0:0|0:0,0:0:0:0:
310,104,220588,1,8,0:0:0:0:
166,104,220823,1,0,0:0:0:0:
466,108,221057,2,0,L|454:16,1,90,2|2,0:0|0:0,0:0:0:0:
390,20,221409,1,2,0:0:0:0:
210,20,221526,1,8,0:0:0:0:
374,108,221760,2,0,L|318:108,1,45,2|2,0:0|0:0,0:0:0:0:
218,108,221995,6,0,L|114:108,1,90,2|0,0:0|0:0,0:0:0:0:
322,192,222463,2,0,L|226:192,1,90,8|2,0:0|0:0,0:0:0:0:
174,192,222815,1,2,0:0:0:0:
232,192,222932,2,0,L|322:192,1,90,2|2,0:0|0:0,0:0:0:0:
262,192,223284,1,2,0:0:0:0:
442,192,223401,1,8,0:0:0:0:
298,324,223635,2,0,L|278:284,1,45,2|2,0:0|0:0,0:0:0:0:
170,284,223870,5,2,0:0:0:0:
358,284,224104,1,0,0:0:0:0:
58,284,224338,2,0,L|54:176,1,90,8|0,0:0|0:0,0:0:0:0:
354,192,224807,2,0,L|446:192,1,90,2|2,0:0|0:0,0:0:0:0:
242,192,225276,2,0,P|226:140|242:100,1,90,8|2,0:0|0:0,0:0:0:0:
290,88,225627,1,2,0:0:0:0:
66,108,225745,6,0,L|166:108,1,90,6|0,0:0|0:0,0:0:0:0:
282,228,226213,2,0,L|186:228,1,90,8|2,0:0|0:0,0:0:0:0:
250,228,226565,1,2,0:0:0:0:
150,228,226682,1,8,0:0:0:0:
103,194,226799,1,8,0:0:0:0:
106,136,226916,1,2,0:0:0:0:
156,108,227034,1,2,0:0:0:0:
238,108,227151,2,0,L|182:108,1,45,2|2,0:0|0:0,0:0:0:0:
286,108,227385,2,0,L|330:108,1,45,8|2,0:0|0:0,0:0:0:0:
128,108,227620,5,8,0:0:0:0:
236,108,227854,1,0,0:0:0:0:
48,108,228088,2,0,L|44:220,1,90,8|0,0:0|0:0,0:0:0:0:
244,200,228557,2,0,L|340:200,1,90,8|2,0:0|0:0,0:0:0:0:
134,197,229026,2,0,L|44:197,1,90,8|2,0:0|0:0,0:0:0:0:
368,196,229495,5,8,0:0:0:0:
224,196,229729,1,0,0:0:0:0:
428,196,229963,2,0,L|416:104,1,90,8|0,0:0|0:0,0:0:0:0:
216,108,230432,2,0,L|312:108,1,90,8|2,0:0|0:0,0:0:0:0:
500,32,230901,2,0,L|396:32,1,90,8|2,0:0|0:0,0:0:0:0:
108,32,231370,5,8,0:0:0:0:
244,32,231604,1,0,0:0:0:0:
56,32,231838,2,0,L|148:32,1,90,8|0,0:0|0:0,0:0:0:0:
344,128,232307,2,0,L|236:128,1,90,8|2,0:0|0:0,0:0:0:0:
452,128,232776,2,0,L|362:128,1,90,8|2,0:0|0:0,0:0:0:0:
60,128,233245,5,8,0:0:0:0:
204,128,233479,1,0,0:0:0:0:
8,128,233713,2,0,L|20:220,1,90,8|0,0:0|0:0,0:0:0:0:
212,216,234182,2,0,L|308:216,1,90,8|2,0:0|0:0,0:0:0:0:
100,216,234651,2,0,L|204:216,1,90,8|2,0:0|0:0,0:0:0:0:
488,216,235120,5,8,0:0:0:0:
318,216,235354,1,8,0:0:0:0:
148,216,235588,1,8,0:0:0:0:
318,216,235823,1,8,0:0:0:0:
20,216,236057,1,8,0:0:0:0:
190,216,236291,1,8,0:0:0:0:
360,216,236526,1,8,0:0:0:0:
190,216,236760,1,8,0:0:0:0:
492,124,236995,6,0,L|392:124,1,90,8|8,0:0|0:0,0:0:0:0:
204,124,237463,1,8,0:0:0:0:
384,124,237698,1,8,0:0:0:0:
84,32,237932,2,0,L|184:32,1,90,8|8,0:0|0:0,0:0:0:0:
372,32,238401,1,8,0:0:0:0:
192,32,238635,1,8,0:0:0:0:
492,32,238870,6,0,L|496:84,1,45,8|8,0:0|0:0,0:0:0:0:
424,120,239104,2,0,L|372:120,1,45,8|8,0:0|0:0,0:0:0:0:
196,120,239338,2,0,L|192:172,1,45,8|8,0:0|0:0,0:0:0:0:
264,208,239573,2,0,L|316:208,1,45,8|8,0:0|0:0,0:0:0:0:
120,208,239807,6,0,L|64:208,1,45,8|8,0:0|0:0,0:0:0:0:
192,312,240041,2,0,L|196:264,1,45,8|8,0:0|0:0,0:0:0:0:
16,312,240276,2,0,L|80:312,1,45,8|8,0:0|0:0,0:0:0:0:
244,192,240510,2,0,L|300:192,1,45,8|8,0:0|0:0,0:0:0:0:
472,192,240745,5,4,0:0:0:0:
487,186,240774,1,8,0:0:0:0:
497,172,240803,1,8,0:0:0:0:
501,155,240832,1,8,0:0:0:0:
503,138,240862,1,8,0:0:0:0:
502,121,240891,1,8,0:0:0:0:
498,104,240920,1,8,0:0:0:0:
491,89,240950,1,8,0:0:0:0:
481,75,240979,1,8,0:0:0:0:
468,63,241008,1,8,0:0:0:0:
454,54,241037,1,8,0:0:0:0:
438,48,241067,1,8,0:0:0:0:
421,44,241096,1,8,0:0:0:0:
404,41,241125,1,8,0:0:0:0:
387,40,241155,1,8,0:0:0:0:
220,40,241213,5,4,0:0:0:0:
197,48,241243,1,8,0:0:0:0:
180,65,241272,1,8,0:0:0:0:
170,86,241301,1,8,0:0:0:0:
170,110,241330,1,8,0:0:0:0:
179,132,241360,1,8,0:0:0:0:
196,149,241389,1,8,0:0:0:0:
218,158,241418,1,8,0:0:0:0:
242,158,241448,1,8,0:0:0:0:
263,149,241477,1,8,0:0:0:0:
280,132,241506,1,8,0:0:0:0:
289,110,241536,1,8,0:0:0:0:
288,86,241565,1,8,0:0:0:0:
279,64,241594,1,8,0:0:0:0:
262,48,241623,1,8,0:0:0:0:
104,36,241682,5,4,0:0:0:0:
85,36,241721,1,4,0:0:0:0:
72,36,241760,1,4,0:0:0:0:
64,36,241799,1,4,0:0:0:0:
64,36,241858,1,4,0:0:0:0:
117,120,241916,2,0,L|171:120,1,45.0000017166138,4|4,0:0|0:0,0:0:0:0:
392,120,242151,6,0,P|484:224|404:272,1,270,6|0,0:0|0:0,0:0:0:0:
200,272,242620,2,0,B|100:272|100:272|100:168,1,202.500007724762,2|0,0:0|0:0,0:0:0:0:
324,168,243088,2,0,L|460:168,1,135.000005149842,2|0,0:0|0:0,0:0:0:0:
392,168,243440,1,2,0:0:0:0:
68,168,243791,5,2,0:0:0:0:
272,168,243909,2,0,P|340:112|272:48,1,202.500007724762,6|0,0:0|0:0,0:0:0:0:
200,48,244377,1,0,0:0:0:0:
380,48,244495,6,0,L|488:48,1,107.999996704102,6|0,0:0|0:0,0:0:0:0:
160,48,244963,2,0,L|52:48,1,107.999996704102,8|0,0:0|0:0,0:0:0:0:
116,48,245315,1,2,0:0:0:0:
296,48,245432,2,0,L|300:104,1,53.9999983520508,2|0,0:0|0:0,0:0:0:0:
192,100,245666,2,0,L|248:100,1,53.9999983520508,2|0,0:0|0:0,0:0:0:0:
424,104,245901,1,8,0:0:0:0:
488,134,246018,1,2,0:0:0:0:
491,205,246135,1,2,0:0:0:0:
428,240,246252,1,2,0:0:0:0:
224,240,246370,6,0,L|112:240,1,107.999996704102,2|0,0:0|0:0,0:0:0:0:
428,240,246838,2,0,L|488:264,2,53.9999983520508,8|2|0,0:0|0:0|0:0,0:0:0:0:
352,240,247190,1,2,0:0:0:0:
220,240,247307,2,0,P|180:212|220:184,1,107.999996704102,2|0,0:0|0:0,0:0:0:0:
284,184,247659,1,0,0:0:0:0:
404,184,247776,1,8,0:0:0:0:
160,184,247893,2,0,L|104:184,1,53.9999983520508,2|2,0:0|0:0,0:0:0:0:
284,184,248127,1,2,0:0:0:0:
472,184,248245,6,0,L|476:72,1,107.999996704102,2|0,0:0|0:0,0:0:0:0:
172,76,248713,2,0,L|168:132,1,53.9999983520508,8|0,0:0|0:0,0:0:0:0:
288,128,248948,2,0,L|224:128,1,53.9999983520508,2|2,0:0|0:0,0:0:0:0:
48,128,249182,2,0,L|156:128,1,107.999996704102,2|2,0:0|0:0,0:0:0:0:
220,128,249534,1,2,0:0:0:0:
408,132,249651,2,0,L|412:192,1,53.9999983520508,8|0,0:0|0:0,0:0:0:0:
192,216,249885,2,0,L|248:216,1,53.9999983520508,2|2,0:0|0:0,0:0:0:0:
488,188,250120,6,0,B|488:244|488:244|432:244,1,107.999996704102,2|2,0:0|0:0,0:0:0:0:
364,244,250471,1,2,0:0:0:0:
144,296,250588,2,0,L|256:296,1,107.999996704102,8|0,0:0|0:0,0:0:0:0:
16,296,251057,1,2,0:0:0:0:
16,232,251174,1,2,0:0:0:0:
64,192,251291,1,2,0:0:0:0:
128,192,251409,1,0,0:0:0:0:
316,192,251526,2,0,L|384:192,2,53.9999983520508,8|2|2,0:0|0:0|0:0,0:0:0:0:
112,192,251877,1,2,0:0:0:0:
348,192,251995,6,0,L|406:192,1,53.9999983520508,2|0,0:0|0:0,0:0:0:0:
278,192,252229,2,0,L|270:136,1,53.9999983520508,2|2,0:0|0:0,0:0:0:0:
474,192,252463,2,0,L|478:76,1,107.999996704102,8|0,0:0|0:0,0:0:0:0:
174,84,252932,1,2,0:0:0:0:
108,84,253049,1,2,0:0:0:0:
44,84,253166,1,2,0:0:0:0:
240,84,253284,2,0,L|296:84,1,53.9999983520508,0|8,0:0|0:0,0:0:0:0:
172,84,253518,2,0,L|168:156,1,53.9999983520508,2|2,0:0|0:0,0:0:0:0:
294,84,253752,1,2,0:0:0:0:
61,137,253870,6,0,B|60:192|60:192|112:192,1,107.999996704102,2|0,0:0|0:0,0:0:0:0:
416,192,254338,1,8,0:0:0:0:
416,268,254455,1,2,0:0:0:0:
360,320,254573,1,0,0:0:0:0:
284,320,254690,1,2,0:0:0:0:
416,320,254807,2,0,L|420:212,1,107.999996704102,2|2,0:0|0:0,0:0:0:0:
348,192,255159,1,2,0:0:0:0:
216,192,255276,1,8,0:0:0:0:
460,192,255393,2,0,L|464:128,1,53.9999983520508,2|2,0:0|0:0,0:0:0:0:
248,192,255627,1,2,0:0:0:0:
36,192,255745,6,0,L|32:136,1,53.9999983520508,6|0,0:0|0:0,0:0:0:0:
248,104,255979,2,0,L|304:104,1,53.9999983520508,8|0,0:0|0:0,0:0:0:0:
172,104,256213,1,2,0:0:0:0:
148,132,256272,1,0,0:0:0:0:
148,172,256330,1,8,0:0:0:0:
172,200,256389,1,8,0:0:0:0:
308,200,256448,2,0,L|368:200,1,53.9999983520508,8|8,0:0|0:0,0:0:0:0:
136,200,256682,2,0,L|132:264,1,53.9999983520508,2|2,0:0|0:0,0:0:0:0:
264,284,256916,2,0,L|208:284,1,53.9999983520508,8|8,0:0|0:0,0:0:0:0:
80,252,257151,2,0,L|84:196,1,53.9999983520508,2|2,0:0|0:0,0:0:0:0:
328,200,257385,2,0,L|392:200,1,53.9999983520508,6|0,0:0|0:0,0:0:0:0:
112,200,257620,6,0,P|72:160|112:104,1,135.000005149842,6|0,0:0|0:0,0:0:0:0:
184,104,257971,1,0,0:0:0:0:
364,104,258088,2,0,L|472:104,1,107.999996704102,8|0,0:0|0:0,0:0:0:0:
256,32,258557,2,0,L|368:32,1,107.999996704102,2|2,0:0|0:0,0:0:0:0:
428,32,258909,1,0,0:0:0:0:
296,32,259026,2,0,L|364:32,2,53.9999983520508,8|2|2,0:0|0:0|0:0,0:0:0:0:
108,32,259377,1,2,0:0:0:0:
308,104,259495,6,0,L|420:104,1,107.999996704102,2|0,0:0|0:0,0:0:0:0:
112,104,259963,2,0,B|112:160|112:160|168:160,1,107.999996704102,8|2,0:0|0:0,0:0:0:0:
348,160,260315,2,0,L|404:160,2,53.9999983520508,2|2|2,0:0|0:0|0:0,0:0:0:0:
216,160,260666,2,0,L|212:220,1,53.9999983520508,2|0,0:0|0:0,0:0:0:0:
396,236,260901,1,8,0:0:0:0:
472,236,261018,2,0,L|476:304,1,53.9999983520508,2|0,0:0|0:0,0:0:0:0:
400,292,261252,1,2,0:0:0:0:
204,292,261370,6,0,L|76:292,1,107.999996704102,2|0,0:0|0:0,0:0:0:0:
400,292,261838,2,0,L|448:264,2,53.9999983520508,8|2|0,0:0|0:0|0:0,0:0:0:0:
324,292,262190,1,2,0:0:0:0:
196,292,262307,2,0,L|140:292,1,53.9999983520508,2|0,0:0|0:0,0:0:0:0:
220,216,262541,2,0,L|164:216,1,53.9999983520508,0|2,0:0|0:0,0:0:0:0:
38,216,262776,1,8,0:0:0:0:
282,216,262893,2,0,L|338:216,1,53.9999983520508,2|2,0:0|0:0,0:0:0:0:
144,216,263127,1,2,0:0:0:0:
360,216,263245,6,0,L|468:216,1,107.999996704102,2|2,0:0|0:0,0:0:0:0:
392,216,263596,1,2,0:0:0:0:
208,216,263713,1,8,0:0:0:0:
208,152,263830,1,2,0:0:0:0:
272,152,263948,1,2,0:0:0:0:
196,152,264065,1,2,0:0:0:0:
384,152,264182,2,0,L|492:152,1,107.999996704102,2|2,0:0|0:0,0:0:0:0:
416,152,264534,1,2,0:0:0:0:
196,152,264651,2,0,L|192:92,1,53.9999983520508,8|2,0:0|0:0,0:0:0:0:
424,60,264885,2,0,L|360:60,1,53.9999983520508,2|2,0:0|0:0,0:0:0:0:
144,60,265120,6,0,L|36:60,1,107.999996704102,2|2,0:0|0:0,0:0:0:0:
112,60,265471,1,2,0:0:0:0:
320,60,265588,2,0,L|324:184,1,107.999996704102,8|0,0:0|0:0,0:0:0:0:
96,168,266057,2,0,L|156:168,1,53.9999983520508,2|0,0:0|0:0,0:0:0:0:
228,168,266291,2,0,L|284:168,1,53.9999983520508,2|2,0:0|0:0,0:0:0:0:
88,168,266526,2,0,L|32:168,2,53.9999983520508,8|2|2,0:0|0:0|0:0,0:0:0:0:
282,168,266877,1,2,0:0:0:0:
476,168,266995,6,0,L|480:276,1,107.999996704102,2|0,0:0|0:0,0:0:0:0:
176,276,267463,2,0,L|284:276,1,107.999996704102,8|2,0:0|0:0,0:0:0:0:
208,276,267815,1,2,0:0:0:0:
404,276,267932,1,2,0:0:0:0:
480,276,268049,2,0,L|420:276,1,53.9999983520508,2|0,0:0|0:0,0:0:0:0:
232,276,268284,2,0,L|224:220,1,53.9999983520508,2|8,0:0|0:0,0:0:0:0:
348,160,268518,2,0,L|288:160,2,53.9999983520508,2|2|2,0:0|0:0|0:0,0:0:0:0:
136,160,268870,6,0,L|28:160,1,107.999996704102,2|0,0:0|0:0,0:0:0:0:
244,160,269338,2,0,L|248:104,1,53.9999983520508,8|0,0:0|0:0,0:0:0:0:
128,108,269573,2,0,L|132:48,1,53.9999983520508
328,56,269807,2,0,L|384:56,1,53.9999983520508,2|0,0:0|0:0,0:0:0:0:
382,56,270041,2,0,L|326:56,1,53.9999983520508
196,56,270276,1,8,0:0:0:0:
436,56,270393,1,0,0:0:0:0:
348,56,270510,1,0,0:0:0:0:
260,56,270627,1,0,0:0:0:0:
32,56,270745,6,0,P|8:96|28:152,1,107.999996704102,6|0,0:0|0:0,0:0:0:0:
188,152,271213,2,0,L|244:152,2,53.9999983520508,2|2|2,0:0|0:0|0:0,0:0:0:0:
68,152,271565,1,2,0:0:0:0:
200,152,271682,2,0,L|256:152,1,53.9999983520508,8|0,0:0|0:0,0:0:0:0:
152,152,271916,2,0,L|148:212,1,53.9999983520508
376,200,272151,2,0,L|316:200,1,53.9999983520508,8|0,0:0|0:0,0:0:0:0:
104,204,272385,1,2,0:0:0:0:
328,200,272502,1,2,0:0:0:0:
72,204,272620,6,0,P|20:248|72:296,1,157.500001502037,6|2,0:0|0:0,0:0:0:0:
148,296,272971,1,2,0:0:0:0:
344,296,273088,2,0,L|452:296,1,107.999996704102,8|0,0:0|0:0,0:0:0:0:
224,192,273557,1,2,0:0:0:0:
304,192,273674,1,0,0:0:0:0:
304,112,273791,1,2,0:0:0:0:
224,112,273909,1,2,0:0:0:0:
420,112,274026,2,0,L|480:112,1,53.9999983520508,8|0,0:0|0:0,0:0:0:0:
224,112,274260,2,0,L|164:112,1,53.9999983520508,2|2,0:0|0:0,0:0:0:0:
440,112,274495,6,0,L|328:112,1,107.999996704102,2|0,0:0|0:0,0:0:0:0:
28,112,274963,2,0,L|136:112,1,107.999996704102,8|2,0:0|0:0,0:0:0:0:
332,112,275315,2,0,L|272:112,2,53.9999983520508,2|2|2,0:0|0:0|0:0,0:0:0:0:
204,108,275666,2,0,L|200:164,1,53.9999983520508,2|0,0:0|0:0,0:0:0:0:
400,160,275901,2,0,L|456:160,2,53.9999983520508,8|2|2,0:0|0:0|0:0,0:0:0:0:
76,164,276370,6,0,L|192:164,1,107.999996704102,2|0,0:0|0:0,0:0:0:0:
488,232,276838,1,8,0:0:0:0:
424,232,276955,1,2,0:0:0:0:
360,232,277073,1,2,0:0:0:0:
424,232,277190,1,2,0:0:0:0:
292,232,277307,2,0,L|400:232,1,107.999996704102,2|2,0:0|0:0,0:0:0:0:
336,232,277659,1,0,0:0:0:0:
152,312,277776,1,8,0:0:0:0:
396,312,277893,2,0,L|452:312,1,53.9999983520508,2|2,0:0|0:0,0:0:0:0:
232,312,278127,1,2,0:0:0:0:
16,312,278245,6,0,L|12:200,1,107.999996704102,2|0,0:0|0:0,0:0:0:0:
316,204,278713,2,0,L|376:204,1,53.9999983520508,8|2,0:0|0:0,0:0:0:0:
240,132,278948,2,0,L|304:132,1,53.9999983520508,0|2,0:0|0:0,0:0:0:0:
480,132,279182,2,0,L|372:132,1,107.999996704102,2|2,0:0|0:0,0:0:0:0:
308,132,279534,1,2,0:0:0:0:
112,128,279651,2,0,L|56:128,1,53.9999983520508,8|2,0:0|0:0,0:0:0:0:
260,44,279885,1,2,0:0:0:0:
160,44,280002,1,2,0:0:0:0:
392,44,280120,6,0,B|448:44|448:44|448:100,1,107.999996704102,2|0,0:0|0:0,0:0:0:0:
372,96,280471,1,0,0:0:0:0:
152,148,280588,2,0,L|264:148,1,107.999996704102,8|0,0:0|0:0,0:0:0:0:
336,148,280940,1,0,0:0:0:0:
204,148,281057,1,2,0:0:0:0:
128,148,281174,1,2,0:0:0:0:
128,72,281291,1,0,0:0:0:0:
204,72,281409,1,2,0:0:0:0:
16,72,281526,1,8,0:0:0:0:
16,148,281643,1,2,0:0:0:0:
92,148,281760,1,2,0:0:0:0:
320,148,281877,1,2,0:0:0:0:
60,148,281995,6,0,L|54:204,1,53.9999983520508,2|0,0:0|0:0,0:0:0:0:
240,236,282229,2,0,L|304:236,1,53.9999983520508,2|0,0:0|0:0,0:0:0:0:
480,236,282463,2,0,L|488:344,1,107.999996704102,8|0,0:0|0:0,0:0:0:0:
176,344,282932,1,2,0:0:0:0:
252,344,283049,1,2,0:0:0:0:
328,344,283166,1,2,0:0:0:0:
132,344,283284,2,0,L|76:344,1,53.9999983520508,2|8,0:0|0:0,0:0:0:0:
264,344,283518,2,0,L|268:272,1,53.9999983520508,2|0,0:0|0:0,0:0:0:0:
140,288,283752,1,2,0:0:0:0:
356,292,283870,6,0,B|408:292|408:292|352:292,1,107.999996704102,2|0,0:0|0:0,0:0:0:0:
48,288,284338,1,8,0:0:0:0:
48,212,284455,1,2,0:0:0:0:
104,160,284573,1,2,0:0:0:0:
180,160,284690,1,2,0:0:0:0:
312,160,284807,2,0,L|420:160,1,107.999996704102,2|0,0:0|0:0,0:0:0:0:
220,160,285276,1,8,0:0:0:0:
344,160,285393,2,0,L|348:224,1,53.9999983520508,2|2,0:0|0:0,0:0:0:0:
148,160,285627,1,2,0:0:0:0:
476,160,285745,6,0,L|480:104,1,53.9999983520508,6|0,0:0|0:0,0:0:0:0:
264,72,285979,2,0,L|260:16,1,53.9999983520508,8|0,0:0|0:0,0:0:0:0:
388,72,286213,1,2,0:0:0:0:
416,140,286330,1,8,0:0:0:0:
388,168,286389,1,8,0:0:0:0:
252,160,286448,2,0,L|192:160,1,53.9999983520508,8|8,0:0|0:0,0:0:0:0:
16,168,286682,2,0,L|20:232,1,53.9999983520508,2|2,0:0|0:0,0:0:0:0:
228,256,286916,2,0,L|164:256,1,53.9999983520508,8|8,0:0|0:0,0:0:0:0:
380,256,287151,2,0,L|384:200,1,53.9999983520508,2|2,0:0|0:0,0:0:0:0:
156,256,287385,2,0,L|220:256,1,53.9999983520508,6|0,0:0|0:0,0:0:0:0:
460,256,287620,6,0,P|500:216|460:160,1,135.000005149842,6|0,0:0|0:0,0:0:0:0:
388,160,287971,1,0,0:0:0:0:
208,160,288088,2,0,L|316:160,1,107.999996704102,8|2,0:0|0:0,0:0:0:0:
240,160,288440,1,0,0:0:0:0:
372,160,288557,2,0,L|380:96,1,53.9999983520508,2|0,0:0|0:0,0:0:0:0:
252,88,288791,2,0,L|248:24,1,53.9999983520508,2|2,0:0|0:0,0:0:0:0:
444,36,289026,1,8,0:0:0:0:
228,32,289143,2,0,L|160:32,2,53.9999983520508,2|2|2,0:0|0:0|0:0,0:0:0:0:
456,36,289495,6,0,L|344:36,1,107.999996704102,2|0,0:0|0:0,0:0:0:0:
24,36,289963,1,8,0:0:0:0:
78,36,290080,1,0,0:0:0:0:
132,36,290198,1,2,0:0:0:0:
316,36,290315,2,0,L|372:36,2,53.9999983520508,2|2|0,0:0|0:0|0:0,0:0:0:0:
184,36,290666,2,0,L|180:96,1,53.9999983520508
364,112,290901,1,8,0:0:0:0:
148,112,291018,2,0,L|92:112,1,53.9999983520508,2|2,0:0|0:0,0:0:0:0:
172,112,291252,1,2,0:0:0:0:
376,192,291370,6,0,L|504:192,1,107.999996704102,2|2,0:0|0:0,0:0:0:0:
180,192,291838,2,0,L|132:220,2,53.9999983520508,8|2|0,0:0|0:0|0:0,0:0:0:0:
256,192,292190,1,2,0:0:0:0:
133,219,292307,2,0,L|189:219,1,53.9999983520508,2|0,0:0|0:0,0:0:0:0:
312,296,292541,2,0,L|256:296,1,53.9999983520508,2|2,0:0|0:0,0:0:0:0:
64,296,292776,1,8,0:0:0:0:
272,368,292893,2,0,L|212:368,2,53.9999983520508,2|2|2,0:0|0:0|0:0,0:0:0:0:
472,368,293245,6,0,P|496:320|480:268,1,107.999996704102,2|2,0:0|0:0,0:0:0:0:
408,272,293596,1,2,0:0:0:0:
224,272,293713,1,8,0:0:0:0:
148,272,293830,1,0,0:0:0:0:
148,196,293948,1,2,0:0:0:0:
224,196,294065,1,2,0:0:0:0:
92,120,294182,2,0,L|200:120,1,107.999996704102,2|2,0:0|0:0,0:0:0:0:
124,120,294534,1,2,0:0:0:0:
336,120,294651,2,0,L|280:120,1,53.9999983520508,8|2,0:0|0:0,0:0:0:0:
496,120,294885,2,0,L|432:120,1,53.9999983520508,2|2,0:0|0:0,0:0:0:0:
200,120,295120,6,0,L|92:120,1,107.999996704102,2|2,0:0|0:0,0:0:0:0:
168,120,295471,1,2,0:0:0:0:
376,120,295588,2,0,L|252:120,1,107.999996704102,8|2,0:0|0:0,0:0:0:0:
204,120,295940,1,0,0:0:0:0:
472,192,296057,2,0,L|412:192,1,53.9999983520508,2|2,0:0|0:0,0:0:0:0:
340,272,296291,2,0,L|396:272,1,53.9999983520508,2|0,0:0|0:0,0:0:0:0:
200,272,296526,2,0,L|144:272,2,53.9999983520508,8|2|2,0:0|0:0|0:0,0:0:0:0:
394,272,296877,1,2,0:0:0:0:
146,272,296995,6,0,L|92:272,1,53.9999983520508,2|0,0:0|0:0,0:0:0:0:
220,192,297229,2,0,L|276:192,1,53.9999983520508
56,192,297463,2,0,L|52:136,1,53.9999983520508,8|0,0:0|0:0,0:0:0:0:
228,80,297698,2,0,L|176:64,1,53.9999983520508
392,32,297932,2,0,L|452:32,2,53.9999983520508,2|0|0,0:0|0:0|0:0,0:0:0:0:
187,34,298284,2,0,L|184:88,1,53.9999983520508,0|8,0:0|0:0,0:0:0:0:
380,88,298518,1,0,0:0:0:0:
280,88,298635,1,0,0:0:0:0:
476,88,298752,1,0,0:0:0:0:
184,88,298870,6,0,L|48:88,1,135.000005149842,6|0,0:0|0:0,0:0:0:0:
260,88,299338,2,0,L|264:152,1,53.9999983520508,8|0,0:0|0:0,0:0:0:0:
68,168,299573,2,0,L|64:228,1,53.9999983520508,2|8,0:0|0:0,0:0:0:0:
256,224,299807,2,0,L|316:224,1,53.9999983520508,8|8,0:0|0:0,0:0:0:0:
188,304,300041,2,0,L|128:304,1,53.9999983520508,2|2,0:0|0:0,0:0:0:0:
356,304,300276,2,0,L|280:304,2,67.5000025749208,8|8|2,0:0|0:0|0:0,0:0:0:0:
148,304,300627,1,2,0:0:0:0:
420,304,300745,6,0,L|424:192,1,107.999996704102,6|0,0:0|0:0,0:0:0:0:
76,192,301213,2,0,L|72:80,1,107.999996704102,12|0,0:0|0:0,0:0:0:0:
148,84,301565,1,0,0:0:0:0:
420,84,301682,2,0,L|476:84,1,53.9999983520508,2|0,0:0|0:0,0:0:0:0:
228,84,301916,2,0,L|224:140,1,53.9999983520508,2|2,0:0|0:0,0:0:0:0:
468,192,302151,2,0,L|460:132,1,53.9999983520508,8|8,0:0|0:0,0:0:0:0:
284,140,302385,1,2,0:0:0:0:
472,140,302502,1,2,0:0:0:0:
192,140,302620,6,0,L|56:140,1,135.000005149842,6|2,0:0|0:0,0:0:0:0:
136,140,302971,1,2,0:0:0:0:
332,140,303088,2,0,L|452:140,1,112.5
152,140,303557,2,0,P|140:196|168:252,1,112.5,2|2,0:0|0:0,0:0:0:0:
240,248,303909,1,2,0:0:0:0:
32,248,304026,2,0,L|28:312,1,56.25,8|2,0:0|0:0,0:0:0:0:
220,344,304260,2,0,L|276:344,1,56.25,2|2,0:0|0:0,0:0:0:0:
484,280,304495,6,0,L|424:280,1,56.25,2|0,0:0|0:0,0:0:0:0:
296,248,304729,2,0,L|236:248,1,56.25,2|2,0:0|0:0,0:0:0:0:
440,192,304963,2,0,P|472:156|440:108,1,112.5,8|0,0:0|0:0,0:0:0:0:
364,108,305315,1,0,0:0:0:0:
224,108,305432,2,0,L|280:108,1,56.25,2|2,0:0|0:0,0:0:0:0:
420,36,305666,2,0,L|360:36,1,56.25,2|2,0:0|0:0,0:0:0:0:
140,36,305901,2,0,L|24:36,1,112.5,8|2,0:0|0:0,0:0:0:0:
108,36,306252,1,2,0:0:0:0:
344,36,306370,5,2,0:0:0:0:
120,36,306604,2,0,L|116:92,1,56.25
332,120,306838,2,0,L|444:120,1,112.5,8|2,0:0|0:0,0:0:0:0:
364,120,307190,1,2,0:0:0:0:
140,98,307307,2,0,L|264:98,1,112.5,2|2,0:0|0:0,0:0:0:0:
320,96,307659,1,2,0:0:0:0:
68,96,307776,2,0,L|64:152,1,56.25,8|2,0:0|0:0,0:0:0:0:
196,192,308010,2,0,L|124:192,1,56.25,2|2,0:0|0:0,0:0:0:0:
376,192,308245,6,0,L|436:192,1,56.25,2|2,0:0|0:0,0:0:0:0:
304,272,308479,2,0,L|360:272,1,56.25,2|0,0:0|0:0,0:0:0:0:
144,272,308713,2,0,L|80:272,1,56.25,8|2,0:0|0:0,0:0:0:0:
216,192,308948,2,0,L|272:192,1,56.25,2|2,0:0|0:0,0:0:0:0:
52,192,309182,2,0,P|12:156|52:128,1,112.5,2|2,0:0|0:0,0:0:0:0:
128,128,309534,1,2,0:0:0:0:
344,128,309651,2,0,L|416:128,1,56.25,8|2,0:0|0:0,0:0:0:0:
196,128,309885,2,0,L|192:68,1,56.25,2|2,0:0|0:0,0:0:0:0:
448,72,310120,5,2,0:0:0:0:
292,72,310354,2,0,L|360:72,1,56.25,2|2,0:0|0:0,0:0:0:0:
144,72,310588,1,8,0:0:0:0:
368,72,310823,2,0,L|304:72,1,56.25
52,72,311057,2,0,L|44:16,1,56.25,2|2,0:0|0:0,0:0:0:0:
260,16,311291,2,0,L|268:72,1,56.25,2|2,0:0|0:0,0:0:0:0:
52,72,311526,1,8,0:0:0:0:
164,72,311643,1,2,0:0:0:0:
60,72,311760,1,2,0:0:0:0:
464,72,311995,6,0,L|408:72,1,56.25,2|0,0:0|0:0,0:0:0:0:
276,148,312229,2,0,L|332:148,1,56.25,2|0,0:0|0:0,0:0:0:0:
120,148,312463,2,0,L|116:88,1,56.25,8|0,0:0|0:0,0:0:0:0:
252,148,312698,2,0,L|260:204,1,56.25,2|2,0:0|0:0,0:0:0:0:
56,204,312932,1,2,0:0:0:0:
11,234,313049,1,2,0:0:0:0:
12,288,313166,1,2,0:0:0:0:
57,317,313284,1,0,0:0:0:0:
280,316,313401,2,0,L|392:316,1,112.5,8|2,0:0|0:0,0:0:0:0:
312,316,313752,1,2,0:0:0:0:
160,316,313870,5,2,0:0:0:0:
496,315,314104,2,0,L|500:256,1,56.25,2|0,0:0|0:0,0:0:0:0:
272,224,314338,2,0,L|156:224,1,112.5,8|2,0:0|0:0,0:0:0:0:
240,224,314690,1,2,0:0:0:0:
24,224,314807,2,0,L|20:109,1,112.5,2|0,0:0|0:0,0:0:0:0:
360,112,315276,1,8,0:0:0:0:
428,112,315393,1,2,0:0:0:0:
496,112,315510,1,2,0:0:0:0:
140,112,315745,6,0,B|60:112|60:112|60:192,1,157.500001502037,6|2,0:0|0:0,0:0:0:0:
152,188,316096,1,0,0:0:0:0:
356,188,316213,1,2,0:0:0:0:
444,188,316330,2,0,L|480:188,2,28.125,8|8|8,0:0|0:0|0:0,0:0:0:0:
220,188,316565,1,2,0:0:0:0:
356,188,316682,2,0,L|360:252,1,56.25,8|2,0:0|0:0,0:0:0:0:
288,272,316916,1,2,0:0:0:0:
64,272,317034,1,8,0:0:0:0:
300,272,317151,2,0,L|360:272,1,56.25,2|2,0:0|0:0,0:0:0:0:
92,272,317385,6,0,P|24:184|132:112,1,270.000010299683,6|2,0:0|0:0,0:0:0:0:
40,112,317971,1,2,0:0:0:0:
268,112,318088,2,0,L|380:112,1,112.5,8|0,0:0|0:0,0:0:0:0:
44,28,318557,2,0,L|104:28,1,56.25,2|0,0:0|0:0,0:0:0:0:
20,112,318791,2,0,L|80:112,1,56.25,2|2,0:0|0:0,0:0:0:0:
288,112,319026,2,0,L|228:112,1,56.25,8|2,0:0|0:0,0:0:0:0:
444,112,319260,2,0,L|500:112,1,56.25,2|2,0:0|0:0,0:0:0:0:
276,192,319495,6,0,L|164:192,1,112.5,2|0,0:0|0:0,0:0:0:0:
480,192,319963,2,0,L|368:192,1,112.5,8|2,0:0|0:0,0:0:0:0:
436,192,320315,1,2,0:0:0:0:
300,192,320432,2,0,L|292:128,1,56.25,2|2,0:0|0:0,0:0:0:0:
428,120,320666,2,0,L|444:60,1,56.25,0|2,0:0|0:0,0:0:0:0:
216,136,320901,2,0,L|160:136,1,56.25,8|2,0:0|0:0,0:0:0:0:
92,136,321135,1,2,0:0:0:0:
408,136,321370,5,2,0:0:0:0:
200,136,321604,2,0,L|196:196,1,56.25,2|2,0:0|0:0,0:0:0:0:
424,192,321838,2,0,L|312:192,1,112.5,8|2,0:0|0:0,0:0:0:0:
244,192,322190,1,2,0:0:0:0:
20,192,322307,2,0,L|148:192,1,112.5,2|0,0:0|0:0,0:0:0:0:
452,192,322776,2,0,L|448:256,1,56.25,8|2,0:0|0:0,0:0:0:0:
312,248,323010,2,0,L|376:248,1,56.25,2|2,0:0|0:0,0:0:0:0:
144,248,323245,6,0,L|84:248,1,56.25,2|2,0:0|0:0,0:0:0:0:
212,176,323479,2,0,L|152:176,1,56.25,2|0,0:0|0:0,0:0:0:0:
380,176,323713,2,0,L|436:176,2,56.25,8|2|2,0:0|0:0|0:0,0:0:0:0:
252,176,324065,1,2,0:0:0:0:
476,176,324182,2,0,B|348:176,1,112.5,2|2,0:0|0:0,0:0:0:0:
444,176,324534,1,2,0:0:0:0:
204,272,324651,2,0,L|280:272,1,56.25,8|2,0:0|0:0,0:0:0:0:
472,328,324885,2,0,L|408:328,1,56.25,2|2,0:0|0:0,0:0:0:0:
204,272,325120,6,0,L|92:272,1,112.5,2|2,0:0|0:0,0:0:0:0:
164,272,325471,1,2,0:0:0:0:
392,272,325588,2,0,L|448:272,2,56.25,8|0|0,0:0|0:0|0:0,0:0:0:0:
84,272,326057,2,0,L|80:332,1,56.25,2|2,0:0|0:0,0:0:0:0:
284,272,326291,2,0,L|220:268,1,56.25,2|0,0:0|0:0,0:0:0:0:
488,272,326526,2,0,L|484:216,1,56.25,8|2,0:0|0:0,0:0:0:0:
256,192,326760,2,0,L|313:197,1,56.25,2|2,0:0|0:0,0:0:0:0:
132,176,326995,5,2,0:0:0:0:
328,176,327229,1,2,0:0:0:0:
16,192,327463,2,0,L|12:128,1,56.25,8|0,0:0|0:0,0:0:0:0:
124,136,327698,2,0,L|200:136,1,56.25,2|0,0:0|0:0,0:0:0:0:
376,132,327932,2,0,L|316:132,1,56.25,2|2,0:0|0:0,0:0:0:0:
448,56,328166,2,0,L|392:56,1,56.25,2|2,0:0|0:0,0:0:0:0:
168,56,328401,2,0,L|56:56,1,112.5,8|2,0:0|0:0,0:0:0:0:
136,57,328752,1,2,0:0:0:0:
360,56,328870,6,0,L|372:112,1,56.25,2|0,0:0|0:0,0:0:0:0:
272,112,329104,2,0,L|284:168,1,56.25
180,168,329338,2,0,L|192:224,1,56.25,8|0,0:0|0:0,0:0:0:0:
92,224,329573,2,0,L|104:280,1,56.25
324,208,329807,6,0,L|382:174,1,67.5000025749208,2|0,0:0|0:0,0:0:0:0:
260,168,330041,2,0,L|318:134,1,67.5000025749208
196,276,330276,2,0,L|254:242,1,67.5000025749208,8|0,0:0|0:0,0:0:0:0:
132,224,330510,2,0,L|194:188,1,67.5000025749208
404,192,330745,5,6,0:0:0:0:
476,192,330862,1,0,0:0:0:0:
476,264,330979,1,2,0:0:0:0:
404,264,331096,1,0,0:0:0:0:
179,260,331213,1,8,0:0:0:0:
179,188,331330,1,0,0:0:0:0:
227,136,331448,1,2,0:0:0:0:
299,136,331565,1,0,0:0:0:0:
88,136,331682,2,0,B|32:136|32:136|32:76,1,112.5,8|0,0:0|0:0,0:0:0:0:
288,52,332034,2,0,L|352:52,2,56.25,2|8|2,0:0|0:0|0:0,0:0:0:0:
76,52,332385,1,2,0:0:0:0:
272,52,332502,1,2,0:0:0:0:
32,79,332620,5,6,0:0:0:0:
156,80,332854,1,0,0:0:0:0:
392,52,333088,2,0,L|396:148,1,90,2|0,0:0|0:0,0:0:0:0:
160,144,333557,2,0,L|252:144,1,90,2|0,0:0|0:0,0:0:0:0:
476,144,334026,1,2,0:0:0:0:
332,144,334260,1,2,0:0:0:0:
24,144,334495,6,0,L|20:240,1,90,2|0,0:0|0:0,0:0:0:0:
256,232,334963,2,0,L|160:232,1,90,2|0,0:0|0:0,0:0:0:0:
292,232,335432,1,2,0:0:0:0:
136,232,335666,1,2,0:0:0:0:
472,232,335901,1,2,0:0:0:0:
473,276,336018,1,0,0:0:0:0:
475,321,336135,1,2,0:0:0:0:
168,324,336370,5,2,0:0:0:0:
366,324,336604,1,0,0:0:0:0:
132,324,336838,2,0,L|128:224,1,90,2|0,0:0|0:0,0:0:0:0:
352,236,337307,2,0,L|252:236,1,90,2|0,0:0|0:0,0:0:0:0:
496,240,337776,2,0,L|488:144,1,90,2|2,0:0|0:0,0:0:0:0:
176,148,338245,6,0,L|268:148,1,90,2|0,0:0|0:0,0:0:0:0:
488,150,338713,2,0,L|396:150,1,90,2|0,0:0|0:0,0:0:0:0:
180,240,339182,2,0,B|136:240|136:240|184:240,1,90,2|0,0:0|0:0,0:0:0:0:
380,240,339534,2,0,B|436:240|436:240|376:240,1,112.5,2|0,0:0|0:0,0:0:0:0:
252,312,339885,2,0,L|200:312,1,45,2|0,0:0|0:0,0:0:0:0:
432,312,340120,5,2,0:0:0:0:
252,240,340354,2,0,L|344:240,2,90,0|2|0,0:0|0:0|0:0,0:0:0:0:
488,240,341057,1,2,0:0:0:0:
280,240,341291,1,2,0:0:0:0:
416,240,341526,2,0,L|432:196,2,45,2|0|0,0:0|0:0|0:0,0:0:0:0:
208,240,341995,6,0,L|104:240,1,90,2|0,0:0|0:0,0:0:0:0:
328,140,342463,2,0,L|420:140,1,90,2|0,0:0|0:0,0:0:0:0:
220,140,342932,1,2,0:0:0:0:
440,140,343166,1,2,0:0:0:0:
128,140,343401,1,2,0:0:0:0:
83,140,343518,1,2,0:0:0:0:
38,140,343635,1,2,0:0:0:0:
340,140,343870,5,2,0:0:0:0:
140,140,344104,1,0,0:0:0:0:
452,144,344338,2,0,L|456:252,1,90,2|0,0:0|0:0,0:0:0:0:
240,232,344729,1,2,0:0:0:0:
188,232,344807,2,0,L|184:344,1,90,2|0,0:0|0:0,0:0:0:0:
400,324,345276,1,2,0:0:0:0:
403,279,345393,1,2,0:0:0:0:
406,234,345510,1,2,0:0:0:0:
57,321,345745,6,0,L|157:321,1,90,6|0,0:0|0:0,0:0:0:0:
336,232,346213,2,0,L|240:232,1,90,2|0,0:0|0:0,0:0:0:0:
448,232,346682,2,0,L|452:176,1,45,8|8,0:0|0:0,0:0:0:0:
336,184,347034,1,8,0:0:0:0:
216,184,347151,2,0,L|272:184,1,45,2|8,0:0|0:0,0:0:0:0:
380,104,347385,2,0,L|336:104,1,45,2|8,0:0|0:0,0:0:0:0:
144,104,347620,5,6,0:0:0:0:
268,104,347854,1,0,0:0:0:0:
52,104,348088,2,0,L|48:208,1,90,2|0,0:0|0:0,0:0:0:0:
264,196,348557,2,0,L|360:196,1,90,8|0,0:0|0:0,0:0:0:0:
156,196,349026,2,0,L|152:292,1,90,2|0,0:0|0:0,0:0:0:0:
368,288,349495,6,0,L|460:288,2,90,2|0|0,0:0|0:0|0:0,0:0:0:0:
160,288,350198,2,0,P|116:248|160:204,1,135,2|0,0:0|0:0,0:0:0:0:
468,204,350666,1,8,0:0:0:0:
340,204,350901,1,2,0:0:0:0:
288,204,351018,1,2,0:0:0:0:
232,204,351135,1,0,0:0:0:0:
432,204,351370,5,2,0:0:0:0:
436,96,351604,1,0,0:0:0:0:
236,96,351838,2,0,L|144:96,1,90,2|0,0:0|0:0,0:0:0:0:
344,16,352307,1,8,0:0:0:0:
164,16,352541,1,0,0:0:0:0:
324,16,352776,1,2,0:0:0:0:
180,16,353010,1,0,0:0:0:0:
404,16,353245,6,0,L|412:112,1,90,2|0,0:0|0:0,0:0:0:0:
212,104,353713,2,0,L|208:196,1,90
408,196,354182,2,0,L|312:196,1,90,2|2,0:0|0:0,0:0:0:0:
116,192,354534,1,2,0:0:0:0:
40,192,354651,2,0,L|36:296,1,90,8|0,0:0|0:0,0:0:0:0:
252,368,355120,5,2,0:0:0:0:
124,368,355354,2,0,L|208:332,2,90,0|2|0,0:0|0:0|0:0,0:0:0:0:
328,368,356057,1,8,0:0:0:0:
148,368,356291,1,0,0:0:0:0:
312,368,356526,1,2,0:0:0:0:
313,323,356643,1,0,0:0:0:0:
315,278,356760,1,0,0:0:0:0:
120,280,356995,6,0,L|212:280,1,90,2|0,0:0|0:0,0:0:0:0:
16,192,357463,2,0,L|112:192,1,90,2|0,0:0|0:0,0:0:0:0:
212,192,357932,1,2,0:0:0:0:
12,192,358166,1,2,0:0:0:0:
328,192,358401,2,0,L|384:192,2,45,8|2|2,0:0|0:0|0:0,0:0:0:0:
124,192,358870,5,2,0:0:0:0:
304,192,359104,1,0,0:0:0:0:
88,192,359338,2,0,L|84:96,1,90
264,104,359807,1,8,0:0:0:0:
60,104,360041,1,0,0:0:0:0:
219,104,360276,2,0,L|271:104,2,45,2|2|2,0:0|0:0|0:0,0:0:0:0:
76,24,360745,6,0,L|172:24,1,90,2|0,0:0|0:0,0:0:0:0:
312,24,361213,1,2,0:0:0:0:
184,24,361448,1,0,0:0:0:0:
400,24,361682,2,0,L|412:116,1,90,2|2,0:0|0:0,0:0:0:0:
340,112,362034,1,2,0:0:0:0:
136,112,362151,2,0,L|132:208,1,90,8|2,0:0|0:0,0:0:0:0:
476,204,362620,5,2,0:0:0:0:
