osu file format v14

[General]
AudioFilename: audio.mp3
AudioLeadIn: 0
PreviewTime: 152502
Countdown: 0
SampleSet: Soft
StackLeniency: 0.7
Mode: 2
LetterboxInBreaks: 0
WidescreenStoryboard: 1

[Editor]
Bookmarks: 745,32620,62620,92620,122620,152620,182620,212620,242620,272620,302620,332620,362620
DistanceSpacing: 1.2
BeatDivisor: 4
GridSize: 4
TimelineZoom: 2.2

[Metadata]
Title:Monochrome in the Night (CYTOKINE remix)
TitleUnicode:モノクロ・インザナイト (CYTOKINE remix)
Artist:Shibayan feat. 3L
ArtistUnicode:Shibayan feat. 3L
Creator:JBHyperion
Version:Ethereal Platter
Source:東方神霊廟 ~ Ten Desires.
Tags:東方Project Touhou Shinreibyou Divine Spirit Mausoleum 死霊の夜桜 Night Sakura of Dead Spirits Stage One Theme 西行寺幽々子 Yuyuko Saigyouji ZYTOKINE ShibayanRecords Linjin cittan* 黒岩サトシ Satoshi Kuroiwa 君の美術館 Your Museum Adrastea Sedecim Kouroumu 11 ZUN Magic Girl Sorcerer TomTheWizard ZiRoX JBH Hyperion japanese electronic video game
BeatmapID:2076451
BeatmapSetID:992928

[Difficulty]
HPDrainRate:5
CircleSize:3.2
OverallDifficulty:8
ApproachRate:8
SliderMultiplier:1.6
SliderTickRate:2

[Events]
//Background and Video events
0,0,"Yuyuko.jpg",0,0
//Break Periods
//Storyboard Layer 0 (Background)
//Storyboard Layer 1 (Fail)
//Storyboard Layer 2 (Pass)
//Storyboard Layer 3 (Foreground)
//Storyboard Layer 4 (Overlay)
//Storyboard Sound Samples

[TimingPoints]
745,468.75,4,2,1,100,1,0
979,-100,4,2,1,75,0,0
4026,-100,4,2,1,75,0,0
4495,-100,4,2,1,75,0,0
7307,-90.9090909090909,4,2,1,75,0,0
8010,-100,4,2,1,75,0,0
15745,-80,4,2,2,80,0,0
16214,-100,4,2,2,80,0,0
17386,-100,4,2,1,80,0,0
17620,-100,4,2,2,80,0,0
18088,-100,4,2,2,80,0,0
18323,-100,4,2,1,80,0,0
18557,-100,4,2,2,80,0,0
18791,-100,4,2,1,80,0,0
19026,-100,4,2,2,80,0,0
19261,-100,4,2,1,80,0,0
19495,-100,4,2,2,80,0,0
20667,-100,4,2,1,80,0,0
20901,-100,4,2,2,80,0,0
22542,-100,4,2,1,80,0,0
22776,-100,4,2,2,80,0,0
23011,-100,4,2,1,80,0,0
23245,-100,4,2,2,85,0,0
24417,-100,4,2,1,80,0,0
24651,-100,4,2,2,80,0,0
26292,-100,4,2,1,85,0,0
26526,-100,4,2,2,85,0,0
26995,-100,4,2,2,90,0,0
28636,-100,4,2,1,80,0,0
28870,-100,4,2,2,80,0,0
29104,-100,4,2,1,30,0,0
29339,-100,4,2,1,32,0,0
29573,-100,4,2,1,34,0,0
29807,-100,4,2,2,60,0,0
30042,-100,4,2,1,38,0,0
30276,-100,4,2,1,40,0,0
30511,-100,4,2,1,42,0,0
30745,-100,4,2,1,60,0,0
32386,-100,4,2,1,60,0,0
32620,-100,4,2,2,70,0,0
32854,-100,4,2,1,70,0,0
33088,-100,4,2,2,70,0,0
33909,-100,4,2,1,70,0,0
34261,-100,4,2,77,50,0,0
34495,-100,4,2,2,70,0,0
34846,-100,4,2,1,70,0,0
35198,-100,4,2,1,70,0,0
35432,-100,4,2,2,70,0,0
35667,-100,4,2,77,50,0,0
35901,-100,4,2,2,70,0,0
36018,-100,4,2,1,70,0,0
36370,-100,4,2,2,70,0,0
37659,-100,4,2,1,70,0,0
38245,-100,4,2,2,70,0,0
38596,-100,4,2,1,70,0,0
38948,-100,4,2,1,100,0,0
39182,-100,4,2,2,70,0,0
39417,-100,4,2,77,50,0,0
39651,-100,4,2,2,70,0,0
40471,-100,4,2,1,70,0,0
41057,-100,4,2,2,70,0,0
41409,-100,4,2,1,70,0,0
41761,-100,4,2,77,50,0,0
41995,-100,4,2,2,70,0,0
42346,-100,4,2,1,70,0,0
42815,-100,4,2,2,70,0,0
43167,-100,4,2,77,50,0,0
43401,-100,4,2,2,70,0,0
43518,-100,4,2,1,70,0,0
43870,-100,4,2,2,70,0,0
44221,-100,4,2,1,70,0,0
44807,-100,4,2,2,70,0,0
45159,-100,4,2,1,70,0,0
45745,-100,4,2,2,70,0,0
46096,-100,4,2,1,70,0,0
46682,-100,4,2,2,60,0,0
47268,-100,4,2,1,70,0,0
47386,-100,4,2,2,60,0,0
47620,-100,4,2,2,80,0,0
48557,-80,4,2,1,100,0,0
48792,-100,4,2,1,80,0,0
48909,-100,4,2,1,100,0,0
49026,-100,4,2,2,80,0,0
49261,-100,4,2,1,80,0,0
49495,-100,4,2,2,80,0,0
49846,-100,4,2,1,80,0,0
50080,-100,4,2,2,80,0,0
50667,-100,4,2,77,50,0,0
50901,-100,4,2,2,80,0,0
51018,-100,4,2,1,80,0,0
51252,-100,4,2,2,80,0,0
51604,-100,4,2,1,80,0,0
51838,-100,4,2,2,80,0,0
52659,-100,4,2,1,80,0,0
53245,-100,4,2,2,80,0,0
53596,-100,4,2,1,80,0,0
53830,-100,4,2,2,80,0,0
53948,-100,4,2,1,100,0,0
54417,-100,4,2,77,50,0,0
54651,-100,4,2,2,80,0,0
54886,-100,4,2,1,80,0,0
55120,-100,4,2,2,80,0,0
55354,-100,4,2,1,80,0,0
55588,-100,4,2,2,80,0,0
56292,-100,4,2,1,80,0,0
56526,-100,4,2,2,80,0,0
56761,-100,4,2,1,80,0,0
56995,-100,4,2,2,80,0,0
57346,-100,4,2,1,80,0,0
57463,-100,4,2,2,80,0,0
58167,-100,4,2,77,50,0,0
58401,-100,4,2,2,80,0,0
58518,-100,4,2,1,80,0,0
58752,-100,4,2,2,80,0,0
58987,-100,4,1,0,40,0,0
59339,-100,4,2,2,80,0,0
59456,-100,4,1,0,40,0,0
59807,-100,4,2,2,90,0,0
59925,-100,4,1,0,50,0,0
60276,-100,4,2,2,90,0,0
60393,-100,4,1,0,50,0,0
60745,-100,4,1,0,90,0,0
60979,-100,4,2,1,70,0,0
62034,-100,4,2,2,70,0,0
62386,-100,4,2,1,80,0,0
62620,-80,4,2,3,90,0,1
64261,-100,4,2,1,90,0,1
64495,-80,4,2,3,90,0,1
68010,-66.6666666666667,4,2,1,100,0,1
68245,-100,4,2,10,90,0,1
68479,-80,4,2,3,90,0,1
69534,-80,4,2,1,90,0,1
69651,-80,4,2,3,90,0,1
71761,-80,4,2,1,90,0,1
71995,-80,4,2,3,90,0,1
75510,-80,4,2,1,90,0,1
75979,-80,4,2,2,90,0,1
76682,-80,4,2,2,80,0,1
77034,-80,4,2,2,70,0,1
77386,-80,4,2,3,60,0,1
77502,-66.6666666666667,4,2,1,90,0,1
77854,-80,4,2,3,90,0,1
79261,-80,4,2,1,90,0,1
79495,-80,4,2,3,90,0,1
83010,-66.6666666666667,4,2,1,90,0,1
83245,-80,4,2,10,90,0,1
83479,-80,4,2,3,90,0,1
83948,-80,4,2,1,90,0,1
84182,-80,4,2,3,90,0,1
84534,-80,4,2,1,90,0,1
84651,-80,4,2,3,90,0,1
86761,-80,4,2,1,90,0,1
86995,-80,4,2,3,90,0,1
88870,-80,4,2,2,80,0,1
88987,-80,4,1,0,40,0,1
89339,-80,4,2,2,80,0,1
89456,-80,4,1,0,40,0,1
89807,-80,4,2,2,90,0,1
89925,-80,4,1,0,50,0,1
90276,-80,4,2,2,90,0,1
90393,-80,4,1,0,50,0,1
90745,-100,4,2,3,80,0,0
90979,-100,4,2,1,70,0,0
92151,-100,4,2,77,50,0,0
92386,-100,4,2,1,70,0,0
92620,-80,4,2,3,90,0,1
94261,-80,4,2,1,90,0,1
94495,-80,4,2,3,90,0,1
98011,-80,4,2,1,90,0,1
98245,-80,4,2,3,90,0,1
98479,-80,4,2,1,90,0,1
98713,-80,4,2,3,90,0,1
99417,-80,4,2,1,90,0,1
99651,-80,4,2,3,90,0,1
100354,-80,4,2,1,90,0,1
100588,-80,4,2,3,90,0,1
101761,-80,4,2,1,90,0,1
101995,-80,4,2,3,90,0,1
104573,-80,4,2,1,90,0,1
104807,-80,4,2,3,90,0,1
105979,-80,4,2,2,90,0,1
106682,-80,4,2,2,80,0,1
107034,-80,4,2,2,70,0,1
107385,-66.6666666666667,4,2,3,90,0,1
107854,-80,4,2,3,90,0,1
109261,-80,4,2,1,90,0,1
109495,-80,4,2,3,90,0,1
112073,-80,4,2,1,90,0,1
112307,-80,4,2,3,90,0,1
112893,-80,4,2,1,90,0,1
113127,-80,4,2,3,90,0,1
113479,-80,4,2,1,90,0,1
113713,-80,4,2,3,90,0,1
113831,-80,4,2,1,90,0,1
114065,-80,4,2,3,90,0,1
114886,-80,4,2,1,90,0,1
115120,-80,4,2,3,90,0,1
116761,-80,4,2,1,90,0,1
116995,-80,4,2,3,90,0,1
118167,-80,4,2,1,90,0,1
118401,-80,4,2,3,90,0,1
118636,-80,4,2,1,90,0,1
118870,-80,4,2,2,80,0,1
118987,-80,4,1,0,40,0,1
119339,-80,4,2,2,80,0,1
119456,-80,4,1,0,40,0,1
119807,-80,4,2,2,90,0,1
119925,-80,4,1,0,50,0,1
120276,-80,4,2,2,90,0,1
120393,-80,4,1,0,50,0,1
120745,-80,4,2,3,80,0,1
120979,-80,4,2,1,70,0,1
121682,-80,4,2,77,50,0,1
121917,-80,4,2,1,70,0,1
122386,-80,4,2,1,80,0,1
122620,-100,4,2,2,80,0,0
122854,-100,4,2,2,70,0,0
123909,-100,4,2,1,70,0,0
124495,-100,4,2,2,70,0,0
124729,-100,4,2,1,70,0,0
124964,-100,4,2,2,70,0,0
125667,-100,4,2,77,50,0,0
125901,-100,4,2,2,70,0,0
126136,-100,4,2,1,70,0,0
126371,-100,4,2,2,70,0,0
126604,-100,4,2,1,70,0,0
126839,-100,4,2,2,70,0,0
128596,-100,4,2,1,70,0,0
128831,-100,4,2,2,70,0,0
129417,-100,4,2,77,50,0,0
129651,-100,4,2,2,70,0,0
130120,-100,4,2,2,70,0,0
131409,-100,4,2,1,60,0,0
131761,-100,4,2,77,40,0,0
131995,-100,4,2,1,60,0,0
132346,-100,4,2,1,60,0,0
132581,-100,4,2,1,60,0,0
132815,-100,4,2,1,60,0,0
133167,-100,4,2,77,50,0,0
133401,-100,4,2,2,70,0,0
133518,-100,4,2,1,70,0,0
133870,-100,4,2,2,70,0,0
134221,-100,4,2,1,70,0,0
135745,-100,4,2,2,70,0,0
136096,-100,4,2,1,70,0,0
136682,-100,4,2,2,60,0,0
137268,-100,4,2,1,70,0,0
137386,-100,4,2,2,60,0,0
137620,-100,4,2,2,80,0,0
139261,-100,4,2,1,80,0,0
139495,-100,4,2,2,80,0,0
139729,-100,4,2,1,80,0,0
139964,-100,4,2,2,80,0,0
140198,-100,4,2,1,80,0,0
140432,-100,4,2,2,80,0,0
140667,-100,4,2,77,50,0,0
140901,-100,4,2,2,80,0,0
141018,-100,4,2,1,80,0,0
141252,-100,4,2,2,80,0,0
141604,-100,4,2,1,80,0,0
141838,-100,4,2,2,80,0,0
142542,-100,4,2,1,80,0,0
142776,-100,4,2,2,80,0,0
143011,-100,4,2,1,80,0,0
143245,-100,4,2,2,80,0,0
143479,-100,4,2,1,80,0,0
143714,-100,4,2,2,80,0,0
144417,-100,4,2,77,50,0,0
144651,-100,4,2,2,80,0,0
144886,-100,4,2,1,80,0,0
145120,-100,4,2,2,80,0,0
145354,-100,4,2,1,80,0,0
145588,-100,4,2,2,80,0,0
146292,-100,4,2,1,80,0,0
146526,-100,4,2,2,80,0,0
146761,-100,4,2,1,80,0,0
146995,-100,4,2,2,80,0,0
147229,-100,4,2,1,80,0,0
147464,-100,4,2,2,80,0,0
148050,-100,4,2,1,5,0,0
148167,-100,4,2,77,50,0,0
148401,-100,4,2,2,80,0,0
148518,-100,4,2,1,80,0,0
148752,-100,4,2,2,80,0,0
148987,-100,4,1,0,40,0,0
149339,-100,4,2,2,80,0,0
149456,-100,4,1,0,40,0,0
149807,-100,4,2,2,90,0,0
149925,-100,4,1,0,50,0,0
150276,-100,4,2,2,90,0,0
150393,-100,4,1,0,50,0,0
150745,-100,4,1,0,90,0,0
150979,-100,4,2,1,70,0,0
151682,-100,4,2,1,70,0,0
152034,-100,4,2,2,70,0,0
152386,-100,4,2,1,80,0,0
152620,-80,4,2,3,90,0,1
152854,-80,4,2,3,90,0,1
154261,-80,4,2,1,90,0,1
154495,-80,4,2,3,90,0,1
155667,-80,4,2,1,90,0,1
155901,-80,4,2,3,90,0,1
156136,-80,4,2,1,90,0,1
156370,-80,4,2,3,90,0,1
157073,-80,4,2,1,90,0,1
157307,-80,4,2,3,90,0,1
158010,-66.6666666666667,4,2,1,90,0,1
158245,-80,4,2,10,90,0,1
158479,-80,4,2,1,90,0,1
158714,-80,4,2,2,90,0,1
158948,-80,4,2,1,90,0,1
159182,-80,4,2,3,90,0,1
159534,-80,4,2,1,90,0,1
160120,-80,4,2,3,90,0,1
161057,-80,4,2,1,90,0,1
161526,-80,4,2,3,90,0,1
161761,-80,4,2,1,90,0,1
161995,-80,4,2,3,90,0,1
162932,-80,4,2,1,90,0,1
163401,-80,4,2,3,90,0,1
163636,-80,4,2,1,90,0,1
163870,-80,4,2,3,90,0,1
164573,-80,4,2,1,90,0,1
164807,-80,4,2,3,90,0,1
165511,-80,4,2,1,90,0,1
165745,-80,4,2,3,90,0,1
165979,-80,4,2,3,90,0,1
166213,-66.6666666666667,4,2,1,100,0,1
166448,-80,4,2,3,100,0,1
166682,-80,4,2,2,80,0,1
167034,-80,4,2,2,70,0,1
167386,-80,4,2,3,60,0,1
167502,-66.6666666666667,4,2,1,90,0,1
167854,-80,4,2,1,90,0,1
168089,-80,4,2,3,90,0,1
169261,-80,4,2,1,90,0,1
169496,-80,4,2,3,90,0,1
170198,-80,4,2,1,90,0,1
170433,-80,4,2,3,90,0,1
170550,-80,4,2,1,90,0,1
170785,-80,4,2,3,90,0,1
171136,-80,4,2,1,90,0,1
171371,-80,4,2,3,90,0,1
172073,-80,4,2,1,90,0,1
172308,-80,4,2,3,90,0,1
173010,-66.6666666666667,4,2,1,90,0,1
173245,-80,4,2,10,90,0,1
173479,-80,4,2,3,90,0,1
173948,-80,4,2,1,90,0,1
174183,-80,4,2,3,90,0,1
174534,-80,4,2,1,90,0,1
175120,-80,4,2,3,90,0,1
176292,-80,4,2,1,90,0,1
176527,-80,4,2,3,90,0,1
176761,-80,4,2,1,90,0,1
176996,-80,4,2,3,90,0,1
178635,-66.6666666666667,4,2,1,90,0,1
178870,-80,4,2,2,80,0,1
178987,-80,4,1,0,40,0,1
179338,-66.6666666666667,4,2,2,80,0,1
179456,-66.6666666666667,4,1,0,40,0,1
179573,-66.6666666666667,4,2,1,100,0,1
179807,-80,4,2,2,90,0,1
179925,-80,4,1,0,50,0,1
180276,-80,4,2,2,90,0,1
180393,-80,4,1,0,50,0,1
180745,-100,4,2,3,90,0,0
180979,-100,4,2,1,70,0,0
182151,-100,4,2,77,50,0,0
182386,-100,4,2,1,70,0,0
182620,-100,4,2,3,90,0,1
183557,-100,4,2,1,90,0,1
184026,-100,4,2,3,90,0,1
184261,-100,4,2,1,90,0,1
184495,-100,4,2,3,90,0,1
185198,-100,4,2,1,90,0,1
185432,-100,4,2,3,90,0,1
185667,-100,4,2,1,90,0,1
185901,-100,4,2,3,90,0,1
186136,-100,4,2,1,90,0,1
186370,-100,4,2,3,90,0,1
187073,-100,4,2,1,90,0,1
187307,-100,4,2,3,90,0,1
188011,-100,4,2,1,90,0,1
188245,-100,4,2,3,90,0,1
188362,-100,4,2,3,60,0,1
188714,-100,4,2,3,90,0,1
188948,-100,4,2,1,90,0,1
189182,-100,4,2,3,90,0,1
189886,-100,4,2,1,90,0,1
190120,-100,4,2,2,90,0,1
190354,-100,4,2,1,90,0,1
190588,-100,4,2,3,90,0,1
191057,-100,4,2,1,90,0,1
191526,-100,4,2,3,90,0,1
191643,-100,4,2,1,90,0,1
191995,-100,4,2,3,90,0,1
193167,-100,4,2,1,90,0,1
193401,-100,4,2,3,90,0,1
194104,-100,4,2,1,90,0,1
194338,-100,4,2,3,90,0,1
194573,-100,4,2,1,90,0,1
194807,-100,4,2,3,90,0,1
195393,-100,4,2,1,90,0,1
195627,-100,4,2,3,90,0,1
196682,-100,4,2,3,90,0,1
197034,-100,4,2,3,90,0,1
197385,-66.6666666666667,4,2,3,90,0,1
197854,-100,4,2,3,90,0,1
199261,-100,4,2,1,90,0,1
199495,-100,4,2,3,90,0,1
200550,-100,4,2,1,90,0,1
200901,-100,4,2,3,90,0,1
201136,-100,4,2,1,90,0,1
201370,-100,4,2,3,90,0,1
202073,-100,4,2,1,90,0,1
202307,-100,4,2,3,90,0,1
202893,-100,4,2,1,90,0,1
203127,-100,4,2,3,90,0,1
203479,-100,4,2,1,90,0,1
203713,-100,4,2,3,90,0,1
203831,-100,4,2,1,90,0,1
204065,-100,4,2,3,90,0,1
204886,-100,4,2,1,90,0,1
205120,-100,4,2,3,90,0,1
205354,-100,4,2,1,90,0,1
205589,-100,4,2,3,90,0,1
206292,-100,4,2,1,90,0,1
206526,-100,4,2,3,90,0,1
208050,-100,4,2,1,90,0,1
208401,-100,4,2,3,90,0,1
208636,-100,4,2,1,90,0,1
208870,-100,4,2,2,80,0,1
208987,-100,4,1,0,40,0,1
209338,-100,4,2,3,90,0,1
209339,-100,4,2,2,80,0,1
209456,-100,4,1,0,40,0,1
209807,-100,4,2,2,90,0,1
209924,-100,4,2,1,90,0,1
209925,-100,4,1,0,50,0,1
210276,-100,4,2,3,90,0,1
210393,-100,4,1,0,50,0,1
210510,-100,4,2,1,90,0,1
210744,-100,4,2,3,90,0,1
210745,-100,4,2,3,80,0,1
210979,-100,4,2,1,70,0,1
211682,-100,4,2,77,50,0,1
211917,-100,4,2,1,90,0,1
212151,-100,4,2,3,90,0,1
212386,-100,4,2,1,80,0,1
212620,-100,4,2,2,80,0,0
212854,-100,4,2,2,70,0,0
214261,-100,4,2,1,70,0,0
214495,-100,4,2,2,70,0,0
215198,-100,4,2,1,70,0,0
215432,-100,4,2,2,70,0,0
216136,-100,4,2,1,70,0,0
216370,-100,4,2,2,70,0,0
217073,-100,4,2,1,70,0,0
217307,-100,4,2,2,70,0,0
218011,-100,4,2,1,70,0,0
218245,-100,4,2,2,70,0,0
219886,-100,4,2,1,70,0,0
220120,-100,4,2,2,70,0,0
220354,-100,4,2,1,70,0,0
220588,-100,4,2,2,70,0,0
221292,-100,4,2,1,70,0,0
221526,-100,4,2,2,70,0,0
221761,-100,4,2,1,70,0,0
221995,-100,4,2,2,70,0,0
222698,-100,4,2,1,70,0,0
222932,-100,4,2,2,70,0,0
223636,-100,4,2,1,70,0,0
223870,-100,4,2,2,70,0,0
225511,-100,4,2,1,70,0,0
225745,-100,4,2,2,70,0,0
227151,-100,4,2,1,70,0,0
227268,-100,4,2,2,70,0,0
227620,-100,4,2,4,80,0,0
227854,-100,4,2,3,70,0,0
228792,-100,4,2,1,70,0,0
229026,-100,4,2,3,70,0,0
229261,-100,4,2,1,70,0,0
229495,-100,4,2,4,70,0,0
229963,-100,4,2,3,70,0,0
230667,-100,4,2,1,70,0,0
230901,-100,4,2,3,70,0,0
231136,-100,4,2,1,70,0,0
231370,-100,4,2,4,80,0,0
231604,-100,4,2,3,70,0,0
232542,-100,4,2,1,70,0,0
232776,-100,4,2,3,70,0,0
233011,-100,4,2,1,70,0,0
233245,-100,4,2,4,80,0,0
233479,-100,4,2,3,70,0,0
234417,-100,4,2,1,70,0,0
234651,-100,4,2,3,70,0,0
234886,-100,4,2,1,70,0,0
235120,-100,4,2,4,80,0,0
235354,-100,4,2,3,70,0,0
236057,-100,4,2,4,80,0,0
236291,-100,4,2,3,70,0,0
236995,-100,4,2,4,80,0,0
237229,-100,4,2,3,70,0,0
237932,-100,4,2,4,80,0,0
238166,-100,4,2,3,70,0,0
238870,-100,4,2,4,80,0,0
238987,-100,4,2,3,50,0,0
239339,-100,4,2,3,55,0,0
239807,-100,4,2,3,60,0,0
240276,-100,4,2,3,65,0,0
240745,-100,4,2,4,70,0,0
240774,-100,4,2,2,50,0,0
241214,-100,4,2,4,70,0,0
241243,-100,4,2,2,50,0,0
241682,-100,4,2,4,70,0,0
241917,-100,4,2,2,60,0,0
242151,-100,4,2,3,60,0,0
242620,-100,4,2,1,60,0,0
243792,-100,4,2,2,80,0,0
243909,-100,4,2,1,100,0,1
244495,-80,4,2,3,80,0,0
244612,-80,4,2,2,80,0,0
246018,-80,4,2,1,80,0,0
246370,-80,4,2,2,80,0,0
247893,-80,4,2,1,80,0,0
248245,-80,4,2,2,80,0,0
248948,-80,4,2,1,80,0,0
249183,-80,4,2,2,80,0,0
249886,-80,4,2,1,80,0,0
250121,-80,4,2,2,80,0,0
250354,-80,4,2,1,80,0,0
250589,-80,4,2,2,80,0,0
251643,-80,4,2,1,80,0,0
251995,-80,4,2,2,80,0,0
252229,-80,4,2,1,80,0,0
252464,-80,4,2,2,80,0,0
253167,-80,4,2,1,80,0,0
253401,-80,4,2,2,80,0,0
253518,-80,4,2,1,80,0,0
253870,-80,4,2,2,80,0,0
255042,-80,4,2,1,80,0,0
255277,-80,4,2,2,80,0,0
255393,-80,4,2,1,80,0,0
255745,-80,4,2,3,80,0,0
257386,-80,4,2,2,80,0,0
257620,-80,4,2,3,80,0,1
257854,-80,4,2,2,80,0,1
258088,-80,4,2,2,80,0,0
259495,-80,4,2,2,80,0,0
260198,-80,4,2,1,80,0,0
260433,-80,4,2,2,80,0,0
260550,-80,4,2,1,80,0,0
260785,-80,4,2,2,80,0,0
262659,-80,4,2,1,80,0,0
262776,-80,4,2,2,80,0,0
262893,-80,4,2,1,80,0,0
263245,-80,4,2,2,80,0,0
263479,-80,4,2,1,80,0,0
263714,-80,4,2,2,80,0,0
263831,-80,4,2,1,80,0,0
264182,-80,4,2,2,80,0,0
264768,-80,4,2,1,80,0,0
265120,-80,4,2,2,80,0,0
265354,-80,4,2,1,80,0,0
265589,-80,4,2,2,80,0,0
266292,-80,4,2,1,80,0,0
266527,-80,4,2,2,80,0,0
266643,-80,4,2,1,80,0,0
266995,-80,4,2,2,80,0,0
267698,-80,4,2,1,80,0,0
267933,-80,4,2,2,80,0,0
268284,-80,4,2,1,80,0,0
268401,-80,4,2,2,80,0,0
268518,-80,4,2,1,80,0,0
268870,-80,4,2,2,80,0,0
268987,-80,4,1,0,40,0,0
269339,-80,4,2,2,80,0,0
269456,-80,4,1,0,40,0,0
269807,-80,4,2,2,90,0,0
269925,-80,4,1,0,50,0,0
270276,-80,4,2,2,90,0,0
270393,-80,4,1,0,50,0,0
270745,-80,4,2,3,80,0,0
270979,-80,4,2,1,70,0,0
272151,-80,4,2,77,50,0,0
272386,-80,4,2,1,70,0,0
272620,-100,4,2,3,80,0,1
272854,-100,4,2,1,80,0,1
273088,-100,4,2,2,80,0,0
274261,-100,4,2,1,80,0,0
274496,-100,4,2,2,80,0,0
275198,-100,4,2,1,80,0,0
275315,-100,4,2,1,80,0,0
275550,-100,4,2,1,80,0,0
275901,-100,4,2,2,80,0,0
276018,-100,4,2,1,80,0,0
276370,-100,4,2,2,80,0,0
276956,-100,4,2,1,80,0,0
277307,-100,4,2,2,80,0,0
277893,-100,4,2,1,80,0,0
278245,-100,4,2,2,80,0,0
279417,-100,4,2,1,80,0,0
279652,-100,4,2,2,80,0,0
279768,-100,4,2,1,80,0,0
280120,-66.6666666666667,4,2,2,80,0,0
280354,-100,4,2,1,80,0,0
280589,-100,4,2,2,80,0,0
281175,-100,4,2,1,80,0,0
281526,-100,4,2,2,80,0,0
281643,-100,4,2,1,80,0,0
281877,-66.6666666666667,4,2,1,100,0,0
281995,-100,4,2,2,80,0,0
282229,-100,4,2,1,100,0,0
282463,-100,4,2,2,80,0,0
283050,-100,4,2,1,80,0,0
283402,-100,4,2,2,80,0,0
283518,-100,4,2,1,80,0,0
283870,-100,4,2,2,80,0,0
284456,-100,4,2,1,80,0,0
284808,-100,4,2,2,80,0,0
285393,-100,4,2,1,80,0,0
285628,-100,4,2,2,80,0,0
285745,-100,4,2,3,80,0,0
285979,-100,4,2,3,80,0,0
287386,-100,4,2,2,80,0,0
287620,-66.6666666666667,4,2,3,80,0,1
287854,-100,4,2,2,80,0,1
288088,-100,4,2,2,80,0,0
289143,-80,4,2,1,80,0,0
289495,-100,4,2,2,80,0,0
289729,-100,4,2,1,100,0,0
289963,-100,4,2,2,80,0,0
290315,-100,4,2,2,80,0,0
290550,-100,4,2,2,80,0,0
290901,-100,4,2,2,80,0,0
291018,-100,4,2,1,80,0,0
291370,-100,4,2,2,80,0,0
292893,-100,4,2,1,80,0,0
293245,-100,4,2,2,80,0,0
293479,-100,4,2,1,80,0,0
293714,-100,4,2,2,80,0,0
293948,-100,4,2,1,80,0,0
294182,-100,4,2,2,80,0,0
294886,-100,4,2,1,80,0,0
295120,-66.6666666666667,4,2,2,80,0,0
295354,-100,4,2,1,80,0,0
295589,-100,4,2,2,80,0,0
296175,-100,4,2,1,80,0,0
296527,-100,4,2,2,80,0,0
296643,-100,4,2,1,80,0,0
296877,-80,4,2,1,100,0,0
296995,-100,4,2,2,80,0,0
297112,-100,4,1,0,50,0,0
297229,-100,4,2,1,100,0,0
297464,-100,4,2,2,80,0,0
297581,-100,4,1,0,50,0,0
297932,-100,4,2,2,90,0,0
298050,-100,4,1,0,60,0,0
298401,-100,4,2,2,90,0,0
298518,-100,4,1,0,60,0,0
298870,-100,4,2,2,80,0,0
299104,-100,4,2,2,60,0,0
300276,-100,4,2,2,70,0,0
300511,-100,4,2,2,70,0,0
300745,-100,4,2,2,80,0,0
301214,-100,4,2,2,90,0,0
301448,-100,4,2,2,70,0,0
301682,-100,4,2,2,80,0,0
302386,-100,4,2,1,80,0,0
302620,-100,4,2,3,90,0,1
302854,-100,4,2,1,90,0,1
303089,-100,4,2,3,90,0,1
303792,-100,4,2,1,90,0,1
304027,-100,4,2,3,90,0,1
304143,-100,4,2,1,90,0,1
304495,-100,4,2,3,90,0,1
304729,-100,4,2,1,90,0,1
304964,-100,4,2,3,90,0,1
305550,-100,4,2,1,90,0,1
305901,-100,4,2,3,90,0,1
306136,-100,4,2,1,90,0,1
306371,-100,4,2,3,90,0,1
307073,-100,4,2,1,90,0,1
307308,-100,4,2,3,90,0,1
307542,-100,4,2,1,90,0,1
307777,-100,4,2,3,90,0,1
307893,-100,4,2,1,90,0,1
308245,-100,4,2,3,90,0,1
308362,-100,4,2,1,90,0,1
308597,-100,4,2,3,90,0,1
308831,-100,4,2,1,90,0,1
309182,-100,4,2,3,90,0,1
309768,-100,4,2,1,90,0,1
310120,-100,4,2,3,90,0,1
310354,-100,4,2,1,90,0,1
310589,-100,4,2,3,90,0,1
311175,-100,4,2,1,90,0,1
311526,-100,4,2,3,90,0,1
311643,-100,4,2,1,90,0,1
311878,-100,4,2,3,90,0,1
312698,-100,4,2,1,90,0,1
312933,-100,4,2,3,90,0,1
313050,-100,4,2,1,90,0,1
313285,-100,4,2,3,90,0,1
313871,-100,4,2,3,90,0,1
314573,-100,4,2,1,90,0,1
314808,-100,4,2,3,90,0,1
315393,-100,4,2,1,90,0,1
315745,-100,4,2,3,90,0,1
315979,-100,4,2,3,90,0,1
317385,-66.6666666666667,4,2,3,90,0,1
317854,-100,4,2,1,90,0,1
318089,-100,4,2,3,90,0,1
318792,-100,4,2,1,90,0,1
319027,-100,4,2,3,90,0,1
319143,-100,4,2,1,90,0,1
319495,-100,4,2,3,90,0,1
320198,-100,4,2,1,90,0,1
320433,-100,4,2,3,90,0,1
320550,-100,4,2,1,90,0,1
320901,-100,4,2,3,90,0,1
321018,-100,4,2,1,90,0,1
321253,-100,4,2,3,90,0,1
321604,-100,4,2,1,90,0,1
321839,-100,4,2,3,90,0,1
322073,-100,4,2,1,90,0,1
322308,-100,4,2,3,90,0,1
322893,-100,4,2,1,90,0,1
323245,-100,4,2,3,90,0,1
323362,-100,4,2,1,90,0,1
323597,-100,4,2,3,90,0,1
323831,-100,4,2,1,90,0,1
324066,-100,4,2,3,90,0,1
324417,-100,4,2,1,90,0,1
324652,-100,4,2,3,90,0,1
324768,-100,4,2,1,90,0,1
325120,-100,4,2,3,90,0,1
325354,-100,4,2,1,90,0,1
325589,-100,4,2,3,90,0,1
326175,-100,4,2,1,90,0,1
326410,-100,4,2,3,90,0,1
326643,-100,4,2,1,90,0,1
326995,-100,4,2,3,90,0,1
328167,-100,4,2,1,90,0,1
328402,-100,4,2,3,90,0,1
328636,-100,4,2,1,90,0,1
328870,-100,4,2,2,80,0,1
328987,-100,4,1,0,40,0,1
329339,-100,4,2,2,80,0,1
329456,-100,4,1,0,40,0,1
329807,-100,4,2,2,90,0,1
329925,-100,4,1,0,50,0,1
330276,-100,4,2,2,90,0,1
330393,-100,4,1,0,50,0,1
330745,-100,4,2,3,80,0,0
330979,-100,4,2,1,70,0,0
331682,-100,4,2,77,50,0,0
331917,-100,4,2,1,70,0,0
332151,-100,4,2,3,70,0,0
332386,-100,4,2,1,80,0,0
332620,-100,4,2,2,80,0,0
334261,-100,4,2,1,80,0,0
334495,-100,4,2,2,80,0,0
335667,-100,4,2,1,80,0,0
335901,-100,4,2,2,80,0,0
338011,-100,4,2,1,80,0,0
338245,-100,4,2,2,80,0,0
339534,-100,4,2,1,80,0,0
339886,-100,4,2,1,80,0,0
340120,-100,4,2,2,80,0,0
341292,-100,4,2,1,80,0,0
341526,-100,4,2,2,80,0,0
343167,-100,4,2,1,80,0,0
343401,-100,4,2,2,80,0,0
343518,-100,4,2,1,80,0,0
343752,-100,4,2,2,80,0,0
345393,-100,4,2,1,80,0,0
345745,-100,4,2,2,80,0,0
346214,-100,4,2,1,80,0,0
346448,-100,4,2,2,80,0,0
346682,-100,4,2,2,60,0,0
347620,-100,4,2,2,70,0,0
347854,-100,4,2,1,70,0,0
350198,-100,4,2,1,70,0,0
350432,-100,4,2,1,70,0,0
354534,-100,4,2,1,70,0,0
354886,-100,4,2,1,70,0,0
358870,-100,4,2,1,70,0,0
359104,-100,4,2,1,20,0,0
359339,-100,4,2,1,24,0,0
359807,-100,4,2,1,28,0,0
360276,-100,4,2,1,32,0,0
360745,-100,4,2,1,36,0,0
361214,-100,4,2,1,40,0,0
361682,-100,4,2,1,44,0,0
362151,-100,4,2,1,48,0,0
362620,-100,4,2,0,60,0,0

[Colours]
Combo1 : 255,170,255
Combo2 : 160,160,255
Combo3 : 125,125,200
Combo4 : 80,55,115
Combo5 : 175,125,175
Combo6 : 225,125,225

[HitObjects]
232,200,745,5,4,0:0:0:0:
112,168,979,2,0,L|16:168,2,80,0|2|0,0:0|0:0|0:0,0:0:0:0:
332,200,1682,2,0,L|316:104,1,80,2|0,0:0|0:0,0:0:0:0:
196,124,2151,1,0,0:0:0:0:
416,128,2385,1,2,0:0:0:0:
196,176,2620,6,0,L|112:176,1,80,8|0,0:0|0:0,0:0:0:0:
240,244,3088,2,0,L|344:244,2,80,2|2|0,0:0|0:0|0:0,0:0:0:0:
460,160,3791,1,2,0:0:0:0:
236,164,4026,2,0,L|180:164,1,40,8|0,0:0|0:0,0:0:0:0:
476,180,4495,6,0,L|468:292,1,80,8|0,0:0|0:0,0:0:0:0:
340,288,4963,1,2,0:0:0:0:
256,236,5198,1,0,0:0:0:0:
272,148,5432,1,2,0:0:0:0:
356,124,5666,1,0,0:0:0:0:
236,84,5901,2,0,L|148:84,1,80,2|0,0:0|0:0,0:0:0:0:
380,216,6370,6,0,L|388:128,1,80,8|0,0:0|0:0,0:0:0:0:
264,112,6838,2,0,L|184:112,1,80,2|0,0:0|0:0,0:0:0:0:
396,168,7307,2,0,L|256:168,2,132.00000402832,2|2|0,0:0|0:0|0:0,0:0:0:0:
168,96,8245,6,0,L|180:4,1,80,8|0,0:0|0:0,0:0:0:0:
304,24,8713,2,0,L|396:24,2,80,2|0|2,0:0|0:0|0:0,0:0:0:0:
76,104,9416,1,0,0:0:0:0:
304,112,9651,2,0,L|348:112,1,40,2|0,0:0|0:0,0:0:0:0:
60,264,10120,6,0,L|52:176,1,80,8|0,0:0|0:0,0:0:0:0:
176,152,10588,2,0,L|284:152,2,80,2|0|2,0:0|0:0|0:0,0:0:0:0:
408,120,11291,1,2,0:0:0:0:
184,124,11526,2,0,L|180:168,1,40,8|0,0:0|0:0,0:0:0:0:
456,192,11995,6,0,L|380:252,1,80,8|0,0:0|0:0,0:0:0:0:
264,260,12463,1,2,0:0:0:0:
184,184,12698,1,0,0:0:0:0:
264,120,12932,1,2,0:0:0:0:
480,120,13166,1,0,0:0:0:0:
256,104,13401,2,0,L|216:104,1,40,2|0,0:0|0:0,0:0:0:0:
456,164,13870,6,0,L|472:260,1,80,8|0,0:0|0:0,0:0:0:0:
360,268,14338,1,2,0:0:0:0:
476,332,14573,1,0,0:0:0:0:
248,332,14807,2,0,P|212:276|256:240,1,120,2|2,0:0|0:0,0:0:0:0:
420,224,15510,1,2,0:0:0:0:
108,148,15745,6,0,L|4:148,1,100,6|0,0:0|0:0,0:0:0:0:
232,224,16213,1,2,0:0:0:0:
320,256,16448,1,0,0:0:0:0:
296,336,16682,1,2,0:0:0:0:
188,352,16916,1,0,0:0:0:0:
84,312,17151,1,2,0:0:0:0:
312,304,17385,1,2,0:0:0:0:
84,120,17620,6,0,L|24:208,1,80,2|0,0:0|0:0,0:0:0:0:
164,220,18088,2,0,L|76:220,1,80,2|2,0:0|0:0,0:0:0:0:
164,288,18557,1,2,0:0:0:0:
388,292,18791,1,2,0:0:0:0:
160,240,19026,2,0,L|116:240,1,40,2|0,0:0|0:0,0:0:0:0:
396,136,19495,6,0,L|484:136,1,80,2|0,0:0|0:0,0:0:0:0:
368,208,19963,2,0,L|456:208,1,80,2|0,0:0|0:0,0:0:0:0:
220,248,20432,2,0,L|120:248,1,80,2|2,0:0|0:0,0:0:0:0:
28,168,20901,2,0,L|124:168,1,80,2|0,0:0|0:0,0:0:0:0:
336,232,21370,6,0,L|344:124,1,80,2|0,0:0|0:0,0:0:0:0:
220,148,21838,2,0,L|112:148,1,80,2|0,0:0|0:0,0:0:0:0:
364,128,22307,1,2,0:0:0:0:
104,84,22659,1,2,0:0:0:0:
400,80,23010,1,2,0:0:0:0:
180,152,23245,6,0,L|96:152,1,80,2|0,0:0|0:0,0:0:0:0:
208,208,23713,2,0,L|116:208,1,80,2|0,0:0|0:0,0:0:0:0:
12,208,24182,1,2,0:0:0:0:
236,248,24416,1,2,0:0:0:0:
12,280,24651,2,0,L|8:236,1,40,2|0,0:0|0:0,0:0:0:0:
304,288,25120,6,0,L|400:288,1,80,2|0,0:0|0:0,0:0:0:0:
488,216,25588,2,0,L|400:216,1,80,2|0,0:0|0:0,0:0:0:0:
184,224,26057,1,2,0:0:0:0:
408,172,26291,1,2,0:0:0:0:
184,160,26526,2,0,L|132:160,1,40,2|0,0:0|0:0,0:0:0:0:
424,296,26995,6,0,L|432:188,1,80,2|0,0:0|0:0,0:0:0:0:
304,216,27463,2,0,L|216:216,1,80,2|0,0:0|0:0,0:0:0:0:
440,180,27932,1,2,0:0:0:0:
232,144,28166,1,0,0:0:0:0:
460,128,28401,2,0,L|492:80,2,40,2|0|0,0:0|0:0|0:0,0:0:0:0:
124,136,28870,5,6,0:0:0:0:
256,192,29104,12,0,30745,0:0:0:0:
76,192,32385,5,0,0:0:0:0:
380,192,32620,2,0,P|456:168|480:84,1,160,6|2,0:0|0:0,0:0:0:0:
368,100,33323,1,0,0:0:0:0:
160,96,33557,2,0,L|80:96,1,80,2|0,0:0|0:0,0:0:0:0:
12,172,33909,2,0,L|136:172,1,120,2|8,0:0|0:0,0:0:0:0:
356,172,34495,6,0,L|460:172,1,80,2|0,0:0|0:0,0:0:0:0:
356,252,34846,2,0,L|252:252,1,80,2|0,0:0|0:0,0:0:0:0:
212,252,35198,1,2,0:0:0:0:
320,344,35432,2,0,L|236:344,1,80,2|8,0:0|0:0,0:0:0:0:
456,344,35901,1,2,0:0:0:0:
504,302,36018,1,2,0:0:0:0:
493,239,36135,1,2,0:0:0:0:
440,204,36252,1,0,0:0:0:0:
384,204,36370,5,2,0:0:0:0:
272,204,36604,1,0,0:0:0:0:
56,120,36838,2,0,L|144:120,1,80,2|0,0:0|0:0,0:0:0:0:
360,120,37307,2,0,L|276:96,1,80,2|0,0:0|0:0,0:0:0:0:
360,120,37659,2,0,B|420:120|420:120|420:44,1,120,2|2,0:0|0:0,0:0:0:0:
203,98,38245,6,0,L|307:98,1,80,2|0,0:0|0:0,0:0:0:0:
363,174,38596,2,0,L|259:174,1,80,2|0,0:0|0:0,0:0:0:0:
220,172,38948,1,2,0:0:0:0:
164,204,39065,1,2,0:0:0:0:
156,268,39182,1,2,0:0:0:0:
388,268,39416,2,0,L|468:248,2,80,8|2|0,0:0|0:0|0:0,0:0:0:0:
85,262,40120,6,0,P|53:310|77:370,1,120,2|2,0:0|0:0,0:0:0:0:
264,368,40823,1,0,0:0:0:0:
56,264,41057,2,0,L|148:264,1,80,8|0,0:0|0:0,0:0:0:0:
208,180,41409,2,0,L|112:180,1,80,2|2,0:0|0:0,0:0:0:0:
72,180,41760,1,8,0:0:0:0:
280,180,41995,6,0,L|400:180,1,120,2|2,0:0|0:0,0:0:0:0:
280,180,42580,1,0,0:0:0:0:
376,180,42815,1,0,0:0:0:0:
304,96,42932,2,0,L|220:96,1,80,8|8,0:0|0:0,0:0:0:0:
112,180,43401,2,0,L|196:180,1,80,2|2,0:0|0:0,0:0:0:0:
416,180,43870,6,0,L|296:180,1,120,2|2,0:0|0:0,0:0:0:0:
488,264,44573,1,2,0:0:0:0:
280,348,44807,2,0,L|200:348,1,80,8|0,0:0|0:0,0:0:0:0:
268,264,45159,2,0,L|364:264,1,80,2|0,0:0|0:0,0:0:0:0:
404,264,45510,1,2,0:0:0:0:
104,264,45745,6,0,L|20:264,1,80,6|0,0:0|0:0,0:0:0:0:
112,184,46096,2,0,L|154:111,1,80,2|0,0:0|0:0,0:0:0:0:
376,116,46565,1,2,0:0:0:0:
432,116,46682,2,0,L|304:116,1,120,8|8,0:0|0:0,0:0:0:0:
432,32,47268,2,0,L|488:32,1,40,2|8,0:0|0:0,0:0:0:0:
172,32,47620,6,0,L|80:32,1,80,6|0,0:0|0:0,0:0:0:0:
300,120,48088,2,0,L|400:120,1,80,8|0,0:0|0:0,0:0:0:0:
236,204,48557,2,0,L|392:204,1,150,2|2,0:0|0:0,0:0:0:0:
436,220,49026,1,8,0:0:0:0:
465,271,49143,1,0,0:0:0:0:
450,328,49260,1,2,0:0:0:0:
401,359,49377,1,2,0:0:0:0:
312,360,49495,6,0,L|224:360,1,80,2|0,0:0|0:0,0:0:0:0:
164,280,49846,2,0,L|260:280,1,80,2|0,0:0|0:0,0:0:0:0:
300,280,50198,1,0,0:0:0:0:
92,192,50432,1,2,0:0:0:0:
204,192,50666,1,8,0:0:0:0:
424,192,50901,1,8,0:0:0:0:
416,142,51018,1,2,0:0:0:0:
390,100,51135,1,2,0:0:0:0:
349,72,51252,1,0,0:0:0:0:
300,64,51370,6,0,L|216:64,1,80,2|2,0:0|0:0,0:0:0:0:
440,192,51838,2,0,L|356:240,1,80,8|0,0:0|0:0,0:0:0:0:
244,232,52307,2,0,L|376:232,1,120,2|2,0:0|0:0,0:0:0:0:
492,236,52893,2,0,L|488:292,1,40,0|2,0:0|0:0,0:0:0:0:
280,276,53245,6,0,L|152:276,2,120,2|2|2,0:0|0:0|0:0,0:0:0:0:
392,276,54182,1,2,0:0:0:0:
184,276,54416,1,8,0:0:0:0:
400,192,54651,2,0,L|376:112,1,80,8|2,0:0|0:0,0:0:0:0:
68,132,55120,6,0,B|80:192|80:192|140:192,1,120,2|2,0:0|0:0,0:0:0:0:
196,192,55588,1,8,0:0:0:0:
332,192,55823,1,2,0:0:0:0:
124,272,56057,2,0,L|44:272,1,80,2|2,0:0|0:0,0:0:0:0:
124,352,56409,2,0,L|28:352,1,80,2|0,0:0|0:0,0:0:0:0:
100,352,56760,1,0,0:0:0:0:
300,352,56995,6,0,P|363:342|416:264,1,160,2|8,0:0|0:0,0:0:0:0:
292,268,57698,1,2,0:0:0:0:
236,268,57815,1,0,0:0:0:0:
180,268,57932,2,0,L|96:268,1,80,2|8,0:0|0:0,0:0:0:0:
308,188,58401,2,0,L|392:188,1,80,8|2,0:0|0:0,0:0:0:0:
164,188,58870,6,0,L|44:188,1,120,2|0,0:0|0:0,0:0:0:0:
236,264,59573,1,0,0:0:0:0:
28,348,59807,2,0,L|108:348,1,80,2|0,0:0|0:0,0:0:0:0:
176,264,60159,2,0,L|96:264,1,80,0|0,0:0|0:0,0:0:0:0:
48,264,60510,1,0,0:0:0:0:
352,264,60745,6,0,L|356:184,1,80,4|0,2:1|0:0,0:0:0:0:
228,200,61213,2,0,L|224:120,1,80,2|0,0:0|0:0,0:0:0:0:
336,80,61682,2,0,L|376:80,2,40,2|2|2,0:0|0:0|0:0,0:0:0:0:
284,80,62034,1,2,0:0:0:0:
192,80,62151,2,0,L|92:80,1,80,8|2,0:0|0:0,0:0:0:0:
412,80,62620,6,0,L|496:152,1,100,6|2,0:0|0:0,0:0:0:0:
348,112,63088,2,0,L|432:184,1,100,8|0,0:0|0:0,0:0:0:0:
192,168,63557,2,0,L|52:168,2,100,2|0|8,0:0|0:0|0:0,0:0:0:0:
308,168,64260,1,2,0:0:0:0:
88,168,64495,6,0,L|32:264,1,100,2|0,0:0|0:0,0:0:0:0:
160,264,64963,2,0,L|280:264,1,100,8|0,0:0|0:0,0:0:0:0:
388,268,65432,2,0,L|408:152,1,100,2|2,0:0|0:0,0:0:0:0:
184,184,65901,2,0,L|80:184,1,100,8|0,0:0|0:0,0:0:0:0:
308,116,66370,5,2,0:0:0:0:
188,116,66604,2,0,L|76:116,2,100,0|8|0,0:0|0:0|0:0,0:0:0:0:
412,96,67307,2,0,L|312:96,1,100,2|2,0:0|0:0,0:0:0:0:
412,184,67776,1,8,0:0:0:0:
112,184,68010,6,0,P|44:208|116:320,1,240.000009155274,8|0,0:0|0:0,0:0:0:0:
248,324,68713,2,0,L|364:324,1,100,8|0,0:0|0:0,0:0:0:0:
140,288,69182,2,0,L|164:172,1,100,2|0,0:0|0:0,0:0:0:0:
244,160,69534,2,0,L|364:160,1,100,2|0,0:0|0:0,0:0:0:0:
272,116,69885,1,2,0:0:0:0:
44,168,70120,6,0,L|24:60,1,100,2|0,0:0|0:0,0:0:0:0:
276,124,70588,1,8,0:0:0:0:
376,156,70823,2,0,L|268:156,2,100,0|2|0,0:0|0:0|0:0,0:0:0:0:
164,192,71526,2,0,L|56:192,1,100,8|2,0:0|0:0,0:0:0:0:
28,220,71877,1,2,0:0:0:0:
60,240,71995,6,0,L|172:240,1,100,2|0,0:0|0:0,0:0:0:0:
372,200,72463,2,0,L|252:200,1,100,8|0,0:0|0:0,0:0:0:0:
396,152,72932,2,0,L|268:152,1,100,2|2,0:0|0:0,0:0:0:0:
84,152,73401,1,8,0:0:0:0:
296,152,73635,1,0,0:0:0:0:
408,228,73870,6,0,L|368:124,1,100,2|0,0:0|0:0,0:0:0:0:
256,240,74338,2,0,L|364:240,1,100,8|0,0:0|0:0,0:0:0:0:
136,164,74807,2,0,L|24:164,2,100,2|2|8,0:0|0:0|0:0,0:0:0:0:
436,104,75510,6,0,P|484:148|416:264,1,200,8|8,0:0|0:0,0:0:0:0:
240,264,76213,2,0,L|212:164,1,100,2|8,0:0|0:0,0:0:0:0:
92,160,76682,2,0,L|208:160,1,100,2|2,0:0|0:0,0:0:0:0:
252,128,77034,2,0,L|140:128,1,100,8|2,0:0|0:0,0:0:0:0:
292,88,77385,5,12,0:0:0:0:
336,88,77502,2,0,P|376:136|332:256,1,180.000006866455,2|0,0:0|0:0,0:0:0:0:
148,276,78088,2,0,L|48:276,1,100,8|0,0:0|0:0,0:0:0:0:
180,216,78557,2,0,L|76:216,1,100,2|0,0:0|0:0,0:0:0:0:
296,240,79026,2,0,L|304:140,1,100,8|2,0:0|0:0,0:0:0:0:
168,152,79495,6,0,L|156:36,1,100,2|0,0:0|0:0,0:0:0:0:
368,196,79963,2,0,L|488:196,1,100,8|0,0:0|0:0,0:0:0:0:
336,136,80432,2,0,L|464:136,1,100,2|2,0:0|0:0,0:0:0:0:
212,224,80901,2,0,L|108:224,1,100,8|0,0:0|0:0,0:0:0:0:
336,272,81370,5,2,0:0:0:0:
436,220,81604,2,0,L|324:220,2,100,0|8|0,0:0|0:0|0:0,0:0:0:0:
212,204,82307,2,0,L|316:204,1,100,2|2,0:0|0:0,0:0:0:0:
440,96,82776,1,8,0:0:0:0:
84,264,83010,6,0,P|16:176|124:96,1,240.000009155274,8|0,0:0|0:0,0:0:0:0:
292,108,83713,2,0,L|176:108,1,100,8|2,0:0|0:0,0:0:0:0:
388,88,84182,2,0,L|488:88,1,100,2|0,0:0|0:0,0:0:0:0:
400,40,84534,2,0,L|280:40,1,100,2|0,0:0|0:0,0:0:0:0:
268,8,84885,1,2,0:0:0:0:
492,56,85120,6,0,L|484:168,1,100,2|0,0:0|0:0,0:0:0:0:
272,176,85588,2,0,L|156:176,1,100,8|0,0:0|0:0,0:0:0:0:
60,184,86057,2,0,L|96:284,1,100,2|0,0:0|0:0,0:0:0:0:
320,208,86526,2,0,L|428:208,1,100,8|2,0:0|0:0,0:0:0:0:
456,236,86877,1,2,0:0:0:0:
424,256,86995,6,0,L|312:256,1,100,2|0,0:0|0:0,0:0:0:0:
124,280,87463,2,0,L|244:280,1,100,8|0,0:0|0:0,0:0:0:0:
92,216,87932,2,0,L|192:216,1,100,2|2,0:0|0:0,0:0:0:0:
412,212,88401,1,8,0:0:0:0:
184,212,88635,1,2,0:0:0:0:
388,184,88870,6,0,L|432:148,2,50,0|0|0,0:0|0:0|0:0,0:0:0:0:
164,216,89338,2,0,L|56:216,1,100,8|0,0:0|0:0,0:0:0:0:
300,300,89807,2,0,L|404:300,1,100,2|0,0:0|0:0,0:0:0:0:
448,264,90159,2,0,L|344:264,1,100,0|0,0:0|0:0,0:0:0:0:
48,284,90627,6,0,P|12:232|84:156,1,150,0|0,0:0|0:0,0:0:0:0:
160,148,91213,2,0,L|176:48,1,80,2|0,0:0|0:0,0:0:0:0:
280,136,91682,2,0,L|268:32,1,80,2|0,0:0|0:0,0:0:0:0:
80,48,92151,2,0,L|184:48,1,80,8|2,0:0|0:0,0:0:0:0:
460,48,92620,5,4,0:0:0:0:
340,48,92854,2,0,L|236:48,2,100,2|8|0,0:0|0:0|0:0,0:0:0:0:
120,48,93557,2,0,L|208:104,1,100,2|2,0:0|0:0,0:0:0:0:
324,100,94026,2,0,L|236:156,1,100,8|2,0:0|0:0,0:0:0:0:
180,152,94377,1,2,0:0:0:0:
120,152,94495,6,0,L|28:192,1,100,2|0,0:0|0:0,0:0:0:0:
239,153,94963,2,0,L|147:193,1,100,8|0,0:0|0:0,0:0:0:0:
268,192,95432,2,0,L|318:105,1,100,2|2,0:0|0:0,0:0:0:0:
16,104,95901,2,0,L|66:190,1,100,8|0,0:0|0:0,0:0:0:0:
268,192,96370,5,2,0:0:0:0:
48,192,96604,2,0,L|148:192,2,100,0|8|2,0:0|0:0|0:0,0:0:0:0:
268,192,97307,1,2,0:0:0:0:
388,192,97541,1,0,0:0:0:0:
228,192,97776,1,8,0:0:0:0:
348,192,98010,1,2,0:0:0:0:
128,196,98245,5,2,0:0:0:0:
80,239,98362,1,0,0:0:0:0:
87,303,98479,1,2,0:0:0:0:
143,335,98596,1,2,0:0:0:0:
224,336,98713,2,0,L|280:336,2,50,8|0|2,0:0|0:0|0:0,0:0:0:0:
24,336,99182,2,0,L|76:248,1,100,2|2,0:0|0:0,0:0:0:0:
300,248,99651,2,0,L|400:248,1,100,8|2,0:0|0:0,0:0:0:0:
96,248,100120,6,0,P|52:224|38:175,1,100,2|2,0:0|0:0,0:0:0:0:
64,128,100471,1,2,0:0:0:0:
120,128,100588,2,0,L|220:128,1,100,8|0,0:0|0:0,0:0:0:0:
440,128,101057,2,0,L|360:192,1,100,2|2,0:0|0:0,0:0:0:0:
504,128,101526,2,0,L|424:192,1,100,8|2,0:0|0:0,0:0:0:0:
224,192,101995,6,0,L|124:192,1,100,2|2,0:0|0:0,0:0:0:0:
344,192,102463,2,0,L|420:128,1,100,8|2,0:0|0:0,0:0:0:0:
280,192,102932,2,0,L|180:192,1,100,2|0,0:0|0:0,0:0:0:0:
480,192,103401,2,0,L|468:92,1,100,8|0,0:0|0:0,0:0:0:0:
268,92,103870,5,2,0:0:0:0:
488,92,104104,2,0,L|388:92,2,100,0|8|2,0:0|0:0|0:0,0:0:0:0:
268,92,104807,1,2,0:0:0:0:
388,92,105041,1,0,0:0:0:0:
228,92,105276,1,8,0:0:0:0:
105,92,105510,1,0,0:0:0:0:
424,92,105745,6,0,L|496:160,1,100,6|8,0:0|0:0,0:0:0:0:
296,160,106213,1,2,0:0:0:0:
416,160,106448,2,0,L|448:204,1,50,8|8,0:0|0:0,0:0:0:0:
364,200,106682,1,2,0:0:0:0:
352,132,106799,1,0,0:0:0:0:
404,88,106916,1,2,0:0:0:0:
456,132,107034,1,8,0:0:0:0:
445,200,107151,1,2,0:0:0:0:
132,152,107385,6,0,P|56:172|32:316,1,240.000009155274,6|2,0:0|0:0,0:0:0:0:
92,316,107971,1,2,0:0:0:0:
152,316,108088,2,0,L|252:316,1,100,8|0,0:0|0:0,0:0:0:0:
472,316,108557,2,0,L|392:256,1,100,2|0,0:0|0:0,0:0:0:0:
192,256,109026,2,0,L|140:256,1,50,8|0,0:0|0:0,0:0:0:0:
80,192,109260,2,0,L|132:192,1,50,2|2,0:0|0:0,0:0:0:0:
200,192,109495,6,0,L|288:136,1,100,2|2,0:0|0:0,0:0:0:0:
80,192,109963,2,0,L|168:136,1,100,8|0,0:0|0:0,0:0:0:0:
284,138,110432,2,0,L|168:138,1,100,2|2,0:0|0:0,0:0:0:0:
484,140,110901,2,0,L|492:40,1,100,8|2,0:0|0:0,0:0:0:0:
432,40,111252,1,0,0:0:0:0:
372,40,111370,5,2,0:0:0:0:
491,40,111604,1,0,0:0:0:0:
271,40,111838,2,0,L|171:40,1,100,8|2,0:0|0:0,0:0:0:0:
392,144,112307,2,0,L|292:144,1,100,2|2,0:0|0:0,0:0:0:0:
172,144,112776,2,0,L|260:192,1,100,8|2,0:0|0:0,0:0:0:0:
460,192,113245,6,0,L|356:192,1,100,2|2,0:0|0:0,0:0:0:0:
160,192,113713,1,8,0:0:0:0:
280,192,113948,1,2,0:0:0:0:
80,192,114182,2,0,L|24:108,1,100,2|2,0:0|0:0,0:0:0:0:
244,112,114651,1,8,0:0:0:0:
308,112,114768,1,0,0:0:0:0:
372,112,114885,1,2,0:0:0:0:
72,112,115120,6,0,P|44:160|68:196,1,100,2|2,0:0|0:0,0:0:0:0:
120,228,115471,1,0,0:0:0:0:
184,228,115588,2,0,L|280:192,1,100,8|0,0:0|0:0,0:0:0:0:
64,193,116057,2,0,L|160:157,1,100,2|2,0:0|0:0,0:0:0:0:
360,160,116526,2,0,L|416:160,2,50,8|0|2,0:0|0:0|0:0,0:0:0:0:
140,156,116995,6,0,L|232:112,1,100,2|2,0:0|0:0,0:0:0:0:
432,116,117463,2,0,L|340:72,1,100,8|2,0:0|0:0,0:0:0:0:
476,116,117932,1,2,0:0:0:0:
356,116,118166,1,2,0:0:0:0:
56,116,118401,2,0,P|72:168|108:192,1,100,8|2,0:0|0:0,0:0:0:0:
332,192,118870,6,0,L|436:192,2,100,2|0|8,0:0|0:0|0:0,0:0:0:0:
444,276,119573,2,0,L|388:276,1,50,0|0,0:0|0:0,0:0:0:0:
320,276,119807,5,2,0:0:0:0:
264,243,119924,1,0,0:0:0:0:
248,180,120041,1,0,0:0:0:0:
283,125,120159,1,0,0:0:0:0:
356,116,120276,2,0,L|416:116,2,50,8|0|0,0:0|0:0|0:0,0:0:0:0:
56,124,120745,6,0,L|36:236,1,100,4|2,0:0|0:0,0:0:0:0:
68,276,121096,1,2,0:0:0:0:
128,276,121213,2,0,L|244:276,1,100,2|2,0:0|0:0,0:0:0:0:
448,280,121682,2,0,L|380:352,1,100,8|0,0:0|0:0,0:0:0:0:
176,352,122151,1,2,0:0:0:0:
248,352,122268,1,0,0:0:0:0:
316,352,122385,1,2,0:0:0:0:
16,348,122620,6,0,L|44:248,1,80,4|0,0:0|0:0,0:0:0:0:
240,248,123088,2,0,L|136:248,1,80,8|0,0:0|0:0,0:0:0:0:
352,244,123557,2,0,L|440:184,1,80,2|0,0:0|0:0,0:0:0:0:
384,160,123909,1,2,0:0:0:0:
208,136,124143,1,0,0:0:0:0:
164,96,124260,1,2,0:0:0:0:
208,56,124377,1,2,0:0:0:0:
328,52,124495,6,0,L|432:52,1,80,2|2,0:0|0:0,0:0:0:0:
476,104,124846,2,0,L|388:104,1,80,2|0,0:0|0:0,0:0:0:0:
328,144,125198,2,0,L|424:144,1,80,0|2,0:0|0:0,0:0:0:0:
208,148,125666,5,8,0:0:0:0:
168,176,125784,1,0,0:0:0:0:
168,216,125901,1,8,0:0:0:0:
208,248,126018,1,0,0:0:0:0:
296,248,126135,2,0,L|336:304,1,40,2|2,0:0|0:0,0:0:0:0:
192,304,126370,6,0,L|88:304,1,80,2|2,0:0|0:0,0:0:0:0:
152,260,126721,1,2,0:0:0:0:
264,256,126838,2,0,L|360:256,1,80,8|0,0:0|0:0,0:0:0:0:
152,212,127307,2,0,L|12:212,1,120,2|0,0:0|0:0,0:0:0:0:
112,156,127893,2,0,L|72:112,2,40,0|2|2,0:0|0:0|0:0,0:0:0:0:
220,156,128245,6,0,L|308:156,1,80,2|0,0:0|0:0,0:0:0:0:
372,104,128596,2,0,L|272:104,1,80,2|0,0:0|0:0,0:0:0:0:
216,72,128948,2,0,L|312:72,1,80,2|2,0:0|0:0,0:0:0:0:
96,184,129416,2,0,L|-12:184,2,80,8|2|0,0:0|0:0|0:0,0:0:0:0:
404,192,130120,6,0,P|448:124|428:60,1,120,4|0,0:0|0:0,0:0:0:0:
256,92,130823,2,0,L|156:92,1,80,0|2,0:0|0:0,0:0:0:0:
344,92,131291,2,0,L|328:148,1,40,0|2,0:0|0:0,0:0:0:0:
192,156,131643,6,0,L|152:188,2,40,2|8|0,0:0|0:0|0:0,0:0:0:0:
308,152,131995,2,0,L|412:152,1,80,2|0,0:0|0:0,0:0:0:0:
348,192,132346,1,2,0:0:0:0:
132,204,132580,2,0,P|80:172|68:116,1,120,2|8,0:0|0:0,0:0:0:0:
137,75,133166,2,0,L|220:75,1,80,8|0,0:0|0:0,0:0:0:0:
147,108,133635,5,2,0:0:0:0:
220,109,133752,1,2,0:0:0:0:
292,116,133870,2,0,L|348:188,1,80,2|0,0:0|0:0,0:0:0:0:
236,192,134221,2,0,P|148:232|136:280,1,120,2|2,0:0|0:0,0:0:0:0:
340,268,134807,6,0,L|432:268,1,80,8|0,0:0|0:0,0:0:0:0:
460,268,135159,1,2,0:0:0:0:
496,220,135393,1,0,0:0:0:0:
72,212,135745,6,0,L|56:172,1,40,4|0,0:0|0:0,0:0:0:0:
200,136,136096,2,0,L|312:136,2,80,2|0|0,0:0|0:0|0:0,0:0:0:0:
256,100,136682,5,8,0:0:0:0:
296,120,136799,1,8,0:0:0:0:
300,160,136916,1,0,0:0:0:0:
268,200,137034,1,8,0:0:0:0:
80,200,137268,2,0,L|68:160,1,40,2|8,0:0|0:0,0:0:0:0:
376,200,137620,6,0,L|460:200,1,80,4|0,0:0|0:0,0:0:0:0:
272,152,138088,2,0,L|376:152,1,80,8|0,0:0|0:0,0:0:0:0:
160,216,138557,2,0,L|308:216,1,120,2|0,0:0|0:0,0:0:0:0:
72,216,139143,1,0,0:0:0:0:
32,176,139260,1,2,0:0:0:0:
72,136,139377,1,2,0:0:0:0:
176,136,139495,6,0,L|280:136,1,80,2|2,0:0|0:0,0:0:0:0:
324,100,139846,2,0,L|236:100,1,80,2|0,0:0|0:0,0:0:0:0:
176,64,140198,2,0,L|272:64,1,80,2|2,0:0|0:0,0:0:0:0:
388,64,140666,5,8,0:0:0:0:
428,92,140784,1,0,0:0:0:0:
428,132,140901,1,8,0:0:0:0:
388,164,141018,1,0,0:0:0:0:
300,164,141135,2,0,L|260:220,1,40,2|2,0:0|0:0,0:0:0:0:
404,220,141370,6,0,L|508:220,1,80,2|2,0:0|0:0,0:0:0:0:
248,212,141838,2,0,L|152:212,1,80,8|0,0:0|0:0,0:0:0:0:
360,212,142307,2,0,L|472:212,1,80,2|2,0:0|0:0,0:0:0:0:
336,160,142659,2,0,L|236:160,2,80,2|0|0,0:0|0:0|0:0,0:0:0:0:
232,192,143245,6,0,L|144:192,1,80,2|2,0:0|0:0,0:0:0:0:
80,140,143596,2,0,L|180:140,1,80,2|0,0:0|0:0,0:0:0:0:
236,108,143948,2,0,L|140:108,1,80,2|2,0:0|0:0,0:0:0:0:
416,184,144416,2,0,L|524:184,2,80,2|8|2,0:0|0:0|0:0,0:0:0:0:
108,192,145120,6,0,P|64:124|84:60,1,120,2|0,0:0|0:0,0:0:0:0:
256,92,145823,2,0,L|356:92,1,80,2|2,0:0|0:0,0:0:0:0:
168,92,146291,2,0,L|184:148,1,40,2|2,0:0|0:0,0:0:0:0:
320,156,146643,6,0,L|360:188,2,40,0|2|2,0:0|0:0|0:0,0:0:0:0:
204,152,146995,2,0,L|100:152,1,80,2|2,0:0|0:0,0:0:0:0:
164,192,147346,1,0,0:0:0:0:
288,212,147463,2,0,L|404:212,1,80,0|0,0:0|0:0,0:0:0:0:
404,208,147815,2,0,L|416:156,1,40,0|8,0:0|0:0,0:0:0:0:
196,172,148166,2,0,L|113:172,1,80,8|0,0:0|0:0,0:0:0:0:
233,106,148518,5,0,0:0:0:0:
273,108,148635,1,2,0:0:0:0:
312,108,148752,1,0,0:0:0:0:
220,116,148870,2,0,L|164:188,1,80,2|0,0:0|0:0,0:0:0:0:
276,192,149221,2,0,L|416:192,1,120,0|0,0:0|0:0,0:0:0:0:
184,268,149807,6,0,L|92:268,1,80,2|0,0:0|0:0,0:0:0:0:
138,218,150159,1,0,0:0:0:0:
151,181,150276,1,0,0:0:0:0:
136,145,150393,1,0,0:0:0:0:
100,130,150510,1,0,0:0:0:0:
404,176,150745,6,0,L|512:176,1,80,4|0,1:2|0:0,0:0:0:0:
312,196,151213,2,0,L|300:108,1,80,2|0,0:0|0:0,0:0:0:0:
160,120,151682,5,2,0:0:0:0:
116,140,151799,1,2,0:0:0:0:
116,180,151916,1,2,0:0:0:0:
164,216,152034,1,2,0:0:0:0:
88,220,152151,2,0,L|12:284,1,80,8|2,0:0|0:0,0:0:0:0:
348,272,152620,5,4,0:0:0:0:
468,192,152854,2,0,L|364:192,2,100,0|8|0,0:0|0:0|0:0,0:0:0:0:
248,192,153557,2,0,L|160:136,1,100,2|2,0:0|0:0,0:0:0:0:
44,140,154026,2,0,L|132:84,1,100,8|2,0:0|0:0,0:0:0:0:
188,88,154377,1,2,0:0:0:0:
247,88,154495,6,0,L|339:128,1,100,2|0,0:0|0:0,0:0:0:0:
108,88,154963,2,0,L|200:128,1,100,8|2,0:0|0:0,0:0:0:0:
338,127,155432,2,0,P|362:179|338:223,1,100,2|2,0:0|0:0,0:0:0:0:
104,216,155901,2,0,L|214:217,1,100,8|2,0:0|0:0,0:0:0:0:
264,216,156252,1,2,0:0:0:0:
324,216,156370,5,2,0:0:0:0:
104,216,156604,2,0,L|205:195,2,100,2|8|2,0:0|0:0|0:0,0:0:0:0:
324,216,157307,1,2,0:0:0:0:
436,216,157541,1,2,0:0:0:0:
488,140,157776,1,8,0:0:0:0:
180,140,158010,6,0,P|120:180|188:300,1,240.000009155274,8|2,0:0|0:0,0:0:0:0:
408,300,158713,2,0,L|512:264,1,100,8|2,0:0|0:0,0:0:0:0:
300,300,159182,2,0,L|350:213,1,100,2|0,0:0|0:0,0:0:0:0:
440,212,159534,2,0,L|389:125,1,100,2|0,0:0|0:0,0:0:0:0:
320,128,159885,1,2,0:0:0:0:
389,125,160002,1,2,0:0:0:0:
320,128,160120,6,0,P|276:152|262:201,1,100,2|2,0:0|0:0,0:0:0:0:
290,249,160471,1,2,0:0:0:0:
350,249,160588,2,0,L|450:249,1,100,8|2,0:0|0:0,0:0:0:0:
224,248,161057,2,0,L|120:248,2,100,2|2|8,0:0|0:0|0:0,0:0:0:0:
364,248,161760,2,0,L|308:248,1,50,2|2,0:0|0:0,0:0:0:0:
364,248,161995,6,0,L|464:248,1,100,2|0,0:0|0:0,0:0:0:0:
237,183,162463,2,0,L|313:247,1,100,8|2,0:0|0:0,0:0:0:0:
444,184,162932,2,0,L|344:184,1,100,2|2,0:0|0:0,0:0:0:0:
144,184,163401,1,8,0:0:0:0:
324,184,163635,1,2,0:0:0:0:
196,184,163870,5,2,0:0:0:0:
428,136,164104,2,0,L|336:184,2,100,2|8|2,0:0|0:0|0:0,0:0:0:0:
210,134,164807,1,2,0:0:0:0:
140,136,165041,1,2,0:0:0:0:
260,136,165276,1,8,0:0:0:0:
410,138,165510,1,2,0:0:0:0:
108,56,165745,6,0,L|4:56,1,100,4|8,0:0|0:0,0:0:0:0:
220,56,166213,2,0,P|260:92|220:132,1,120.000004577637,2|8,0:0|0:0,0:0:0:0:
172,132,166565,1,8,0:0:0:0:
112,132,166682,2,0,L|60:132,2,50,2|2|2,0:0|0:0|0:0,0:0:0:0:
172,132,167034,2,0,L|272:132,1,100,8|2,0:0|0:0,0:0:0:0:
140,208,167385,1,12,0:0:0:0:
68,208,167502,6,0,P|12:248|68:320,1,180.000006866455,2|2,0:0|0:0,0:0:0:0:
128,320,167971,1,2,0:0:0:0:
188,320,168088,2,0,L|288:320,1,100,8|0,0:0|0:0,0:0:0:0:
68,208,168557,2,0,L|156:152,1,100,2|0,0:0|0:0,0:0:0:0:
272,156,169026,2,0,L|184:100,1,100,8|2,0:0|0:0,0:0:0:0:
128,104,169377,1,2,0:0:0:0:
187,102,169495,6,0,L|287:102,1,100,2|2,0:0|0:0,0:0:0:0:
504,192,169963,2,0,L|396:192,1,100,8|2,0:0|0:0,0:0:0:0:
272,192,170432,2,0,P|288:240|340:264,1,100,2|2,0:0|0:0,0:0:0:0:
104,260,170901,2,0,L|16:208,1,100,8|2,0:0|0:0,0:0:0:0:
80,212,171252,1,2,0:0:0:0:
140,212,171370,5,2,0:0:0:0:
360,212,171604,2,0,L|461:191,2,100,2|8|2,0:0|0:0|0:0,0:0:0:0:
124,212,172307,1,2,0:0:0:0:
44,140,172541,1,2,0:0:0:0:
144,80,172776,1,8,0:0:0:0:
452,80,173010,6,0,P|500:132|392:212,1,240.000009155274,8|0,0:0|0:0,0:0:0:0:
160,216,173713,2,0,L|60:216,1,100,8|2,0:0|0:0,0:0:0:0:
280,300,174182,2,0,L|330:213,1,100,2|0,0:0|0:0,0:0:0:0:
240,210,174534,2,0,L|292:120,1,100,2|0,0:0|0:0,0:0:0:0:
352,124,174885,1,2,0:0:0:0:
412,124,175002,1,2,0:0:0:0:
352,124,175120,5,2,0:0:0:0:
212,124,175354,1,2,0:0:0:0:
452,32,175588,2,0,L|352:32,1,100,8|0,0:0|0:0,0:0:0:0:
132,32,176057,2,0,L|236:32,2,100,2|2|8,0:0|0:0|0:0,0:0:0:0:
268,128,176760,2,0,L|324:128,1,50,2|2,0:0|0:0,0:0:0:0:
268,128,176995,6,0,L|168:128,1,100,2|2,0:0|0:0,0:0:0:0:
395,193,177463,2,0,L|319:129,1,100,8|0,0:0|0:0,0:0:0:0:
444,192,177932,2,0,L|368:128,1,100,2|2,0:0|0:0,0:0:0:0:
490,192,178401,1,8,0:0:0:0:
168,272,178635,6,0,P|124:244|188:108,1,240.000009155274,8|0,0:0|0:0,0:0:0:0:
436,108,179338,2,0,P|416:160|360:184,1,120.000004577637,8|2,0:0|0:0,0:0:0:0:
290,184,179690,1,2,0:0:0:0:
212,184,179807,2,0,L|312:184,1,100,2|0,0:0|0:0,0:0:0:0:
232,264,180159,2,0,L|132:264,1,100,0|0,0:0|0:0,0:0:0:0:
464,264,180627,1,0,0:0:0:0:
484,212,180745,6,0,P|480:172|448:144,1,80,4|0,0:0|0:0,0:0:0:0:
324,144,181213,2,0,L|288:48,1,80,2|2,0:0|0:0,0:0:0:0:
496,68,181682,2,0,L|404:68,1,80,8|2,0:0|0:0,0:0:0:0:
184,68,182151,2,0,L|93:67,1,80,8|2,0:0|0:0,0:0:0:0:
412,64,182620,5,4,0:0:0:0:
280,64,182854,2,0,L|172:64,2,80,2|8|0,0:0|0:0|0:0,0:0:0:0:
64,100,183557,2,0,L|56:196,1,80,2|0,0:0|0:0,0:0:0:0:
172,188,184026,2,0,L|72:188,1,80,8|2,0:0|0:0,0:0:0:0:
400,204,184495,6,0,L|416:112,1,80,2|0,0:0|0:0,0:0:0:0:
204,140,184963,2,0,L|188:48,1,80,8|2,0:0|0:0,0:0:0:0:
320,64,185432,2,0,L|416:64,1,80,2|2,0:0|0:0,0:0:0:0:
76,60,185901,2,0,L|64:160,1,80,8|2,0:0|0:0,0:0:0:0:
276,164,186370,5,2,0:0:0:0:
404,164,186604,2,0,L|496:164,2,80,2|8|2,0:0|0:0|0:0,0:0:0:0:
192,160,187307,2,0,L|296:160,1,80,2|0,0:0|0:0,0:0:0:0:
152,64,187776,2,0,L|44:64,1,80,8|2,0:0|0:0,0:0:0:0:
384,128,188245,6,0,L|496:128,1,80,2|2,0:0|0:0,0:0:0:0:
256,184,188713,2,0,L|164:184,1,80,8|2,0:0|0:0,0:0:0:0:
308,200,189182,2,0,L|392:200,1,80,2|2,0:0|0:0,0:0:0:0:
80,96,189651,2,0,L|64:196,1,80,8|2,0:0|0:0,0:0:0:0:
268,200,190120,5,2,0:0:0:0:
128,192,190354,2,0,L|32:192,2,80,2|8|0,0:0|0:0|0:0,0:0:0:0:
328,256,191057,2,0,L|318:176,1,80,2|2,0:0|0:0,0:0:0:0:
184,132,191526,2,0,L|80:132,1,80,8|2,0:0|0:0,0:0:0:0:
408,140,191995,6,0,L|512:140,1,80,2|2,0:0|0:0,0:0:0:0:
272,100,192463,2,0,L|192:100,1,80,8|2,0:0|0:0,0:0:0:0:
58,144,192932,2,0,L|48:224,1,80,2|2,0:0|0:0,0:0:0:0:
376,80,193401,2,0,L|476:80,1,80,8|2,0:0|0:0,0:0:0:0:
252,200,193870,5,2,0:0:0:0:
392,192,194104,2,0,L|488:192,2,80,2|8|2,0:0|0:0|0:0,0:0:0:0:
192,256,194807,2,0,L|202:176,1,80,2|2,0:0|0:0,0:0:0:0:
336,132,195276,2,0,L|440:132,1,80,8|2,0:0|0:0,0:0:0:0:
112,128,195745,5,6,0:0:0:0:
72,128,195862,1,0,0:0:0:0:
112,128,195979,1,2,0:0:0:0:
336,132,196213,2,0,L|424:132,1,80,8|2,0:0|0:0,0:0:0:0:
456,112,196565,1,8,0:0:0:0:
416,76,196682,1,2,0:0:0:0:
188,156,196916,1,0,0:0:0:0:
140,160,197034,1,8,0:0:0:0:
92,160,197151,1,0,0:0:0:0:
420,216,197385,6,0,P|484:152|384:40,1,240.000009155274,6|2,0:0|0:0,0:0:0:0:
308,48,198088,2,0,L|424:48,1,80,8|0,0:0|0:0,0:0:0:0:
184,96,198557,2,0,L|288:96,1,80,2|2,0:0|0:0,0:0:0:0:
392,100,199026,2,0,L|408:216,1,80,8|2,0:0|0:0,0:0:0:0:
96,200,199495,6,0,L|8:200,1,80,2|0,0:0|0:0,0:0:0:0:
236,144,199963,2,0,L|256:44,1,80,8|2,0:0|0:0,0:0:0:0:
136,76,200432,2,0,L|36:76,1,80,2|0,0:0|0:0,0:0:0:0:
364,88,200901,2,0,L|456:88,1,80,8|2,0:0|0:0,0:0:0:0:
240,164,201370,5,2,0:0:0:0:
372,160,201604,2,0,L|468:160,2,80,0|8|2,0:0|0:0|0:0,0:0:0:0:
172,224,202307,2,0,L|284:224,1,80,2|0,0:0|0:0,0:0:0:0:
384,176,202776,2,0,L|368:254,1,80,8|2,0:0|0:0,0:0:0:0:
68,244,203245,6,0,L|56:152,1,80,2|2,0:0|0:0,0:0:0:0:
268,152,203713,2,0,L|164:152,1,80,8|2,0:0|0:0,0:0:0:0:
320,92,204182,2,0,L|412:92,1,80,2|2,0:0|0:0,0:0:0:0:
80,96,204651,2,0,L|64:196,1,80,8|2,0:0|0:0,0:0:0:0:
268,200,205120,5,2,0:0:0:0:
128,192,205354,2,0,L|32:192,2,80,2|8|0,0:0|0:0|0:0,0:0:0:0:
328,256,206057,2,0,L|318:176,1,80,2|2,0:0|0:0,0:0:0:0:
184,132,206526,2,0,L|80:132,1,80,8|2,0:0|0:0,0:0:0:0:
408,140,206995,6,0,L|512:140,1,80,2|2,0:0|0:0,0:0:0:0:
284,100,207463,2,0,L|204:100,1,80,8|2,0:0|0:0,0:0:0:0:
332,60,207932,2,0,L|428:60,1,80,2|2,0:0|0:0,0:0:0:0:
108,80,208401,2,0,L|8:80,1,80,8|2,0:0|0:0,0:0:0:0:
244,192,208870,6,0,L|312:192,1,40,2|0,0:0|0:0,0:0:0:0:
328,160,209104,2,0,L|284:160,1,40,0|0,0:0|0:0,0:0:0:0:
196,168,209338,2,0,L|189:109,1,40,8|0,0:0|0:0,0:0:0:0:
245,113,209573,2,0,L|252:54,1,40,0|0,0:0|0:0,0:0:0:0:
164,128,209807,5,2,0:0:0:0:
148,92,209924,1,0,0:0:0:0:
163,56,210041,1,0,0:0:0:0:
199,43,210159,1,0,0:0:0:0:
109,131,210276,2,0,L|61:131,2,40,8|0|2,0:0|0:0|0:0,0:0:0:0:
408,204,210745,6,0,L|500:204,2,80,6|2|8,0:0|0:0|0:0,0:0:0:0:
308,204,211448,1,2,0:0:0:0:
92,200,211682,2,0,L|144:100,1,80,8|0,0:0|0:0,0:0:0:0:
340,116,212151,2,0,L|440:116,1,80,8|2,0:0|0:0,0:0:0:0:
112,108,212620,5,4,0:0:0:0:
24,192,212854,1,0,0:0:0:0:
224,192,213088,2,0,L|312:192,1,80,8|0,0:0|0:0,0:0:0:0:
108,276,213557,2,0,L|20:276,2,80,0|2|8,0:0|0:0|0:0,0:0:0:0:
216,276,214260,2,0,L|248:240,1,40,2|2,0:0|0:0,0:0:0:0:
180,240,214495,6,0,L|112:192,1,80,2|0,0:0|0:0,0:0:0:0:
308,148,214963,2,0,L|220:148,1,80,8|2,0:0|0:0,0:0:0:0:
340,148,215432,2,0,L|356:52,1,80,2|2,0:0|0:0,0:0:0:0:
144,72,215901,2,0,L|224:72,1,80,8|2,0:0|0:0,0:0:0:0:
272,108,216252,1,2,0:0:0:0:
276,168,216370,5,0,0:0:0:0:
164,168,216604,1,0,0:0:0:0:
368,168,216838,2,0,L|428:112,1,80,8|2,0:0|0:0,0:0:0:0:
220,84,217307,2,0,L|208:172,1,80,2|0,0:0|0:0,0:0:0:0:
336,168,217776,2,0,L|348:256,1,80,8|2,0:0|0:0,0:0:0:0:
288,252,218127,1,2,0:0:0:0:
228,252,218245,6,0,L|136:252,1,80,2|0,0:0|0:0,0:0:0:0:
346,247,218713,2,0,L|432:247,1,80,8|0,0:0|0:0,0:0:0:0:
420,188,219065,1,0,0:0:0:0:
376,156,219182,2,0,L|296:156,1,80,2|2,0:0|0:0,0:0:0:0:
96,156,219651,2,0,L|180:156,1,80,8|2,0:0|0:0,0:0:0:0:
224,116,220002,1,2,0:0:0:0:
184,76,220120,5,2,0:0:0:0:
72,76,220354,2,0,L|132:76,1,40,2|2,0:0|0:0,0:0:0:0:
184,76,220588,2,0,L|264:76,1,80,8|0,0:0|0:0,0:0:0:0:
464,128,221057,2,0,L|384:100,2,80,2|2|8,0:0|0:0|0:0,0:0:0:0:
336,128,221760,2,0,L|292:128,1,40,2|2,0:0|0:0,0:0:0:0:
236,128,221995,6,0,L|229:213,1,80,2|0,0:0|0:0,0:0:0:0:
441,212,222463,2,0,L|448:297,1,80,8|2,0:0|0:0,0:0:0:0:
392,292,222815,1,2,0:0:0:0:
448,292,222932,2,0,L|368:292,1,80,2|2,0:0|0:0,0:0:0:0:
160,292,223401,2,0,L|64:292,1,80,8|2,0:0|0:0,0:0:0:0:
40,252,223752,1,2,0:0:0:0:
76,204,223870,5,2,0:0:0:0:
280,204,224104,1,0,0:0:0:0:
136,204,224338,1,8,0:0:0:0:
248,204,224573,1,0,0:0:0:0:
40,204,224807,2,0,L|36:116,1,80,2|2,0:0|0:0,0:0:0:0:
156,120,225276,2,0,L|240:120,1,80,8|2,0:0|0:0,0:0:0:0:
292,120,225627,1,2,0:0:0:0:
156,120,225745,6,0,L|69:120,1,80,6|0,0:0|0:0,0:0:0:0:
276,120,226213,2,0,L|284:40,1,80,8|2,0:0|0:0,0:0:0:0:
220,44,226565,1,2,0:0:0:0:
156,44,226682,2,0,P|180:84|216:100,1,80,8|2,0:0|0:0,0:0:0:0:
408,120,227151,2,0,L|504:120,1,80,2|8,0:0|0:0,0:0:0:0:
168,192,227620,5,8,0:0:0:0:
332,192,228088,1,8,0:0:0:0:
88,192,228557,2,0,L|72:276,1,80,8|2,0:0|0:0,0:0:0:0:
184,192,229026,2,0,L|196:276,1,80,8|2,0:0|0:0,0:0:0:0:
396,272,229495,5,8,0:0:0:0:
204,272,229963,2,0,L|284:272,1,80,8|0,0:0|0:0,0:0:0:0:
476,192,230432,2,0,L|492:108,1,80,8|2,0:0|0:0,0:0:0:0:
380,192,230901,2,0,L|368:108,1,80,8|2,0:0|0:0,0:0:0:0:
168,116,231370,5,8,0:0:0:0:
280,116,231604,1,0,0:0:0:0:
84,116,231838,2,0,L|72:196,1,80,8|0,0:0|0:0,0:0:0:0:
272,192,232307,2,0,L|328:248,1,80,8|2,0:0|0:0,0:0:0:0:
130,140,232776,2,0,L|70:196,1,80,8|2,0:0|0:0,0:0:0:0:
284,248,233245,5,8,0:0:0:0:
171,248,233479,2,0,L|127:248,1,40,0|0,0:0|0:0,0:0:0:0:
75,248,233713,2,0,L|175:248,1,80,8|0,0:0|0:0,0:0:0:0:
356,192,234182,2,0,L|308:256,1,80,8|2,0:0|0:0,0:0:0:0:
108,192,234651,2,0,L|120:280,1,80,8|2,0:0|0:0,0:0:0:0:
464,192,235120,6,0,L|468:108,1,80,8|8,0:0|0:0,0:0:0:0:
384,108,235588,2,0,L|380:24,1,80,8|8,0:0|0:0,0:0:0:0:
180,276,236057,2,0,L|176:192,1,80,8|8,0:0|0:0,0:0:0:0:
280,192,236526,2,0,L|284:108,1,80,8|8,0:0|0:0,0:0:0:0:
84,112,236995,5,8,0:0:0:0:
12,176,237229,1,8,0:0:0:0:
12,272,237463,1,8,0:0:0:0:
92,324,237698,1,8,0:0:0:0:
292,324,237932,1,8,0:0:0:0:
312,228,238166,1,8,0:0:0:0:
240,164,238401,1,8,0:0:0:0:
144,164,238635,1,8,0:0:0:0:
476,232,238870,5,8,0:0:0:0:
487,199,238987,1,8,0:0:0:0:
491,165,239104,1,8,0:0:0:0:
488,131,239221,1,8,0:0:0:0:
477,99,239338,1,8,0:0:0:0:
459,70,239455,1,8,0:0:0:0:
434,46,239573,1,8,0:0:0:0:
405,28,239690,1,8,0:0:0:0:
272,28,239807,5,8,0:0:0:0:
242,71,239924,1,8,0:0:0:0:
243,123,240041,1,8,0:0:0:0:
274,165,240159,1,8,0:0:0:0:
408,168,240276,2,0,L|452:168,2,40,8|8|8,0:0|0:0|0:0,0:0:0:0:
64,172,240745,6,0,P|48:208|64:260,1,80,4|8,0:0|0:0,0:0:0:0:
248,248,241213,2,0,L|328:248,1,80,4|8,0:0|0:0,0:0:0:0:
216,248,241682,2,0,L|200:156,1,80,4|2,0:0|0:0,0:0:0:0:
252,164,242034,1,2,0:0:0:0:
308,164,242151,2,0,L|388:164,1,80,6|0,0:0|0:0,0:0:0:0:
84,164,242620,1,2,0:0:0:0:
136,212,243791,5,2,0:0:0:0:
44,196,243909,2,0,P|12:164|52:104,1,120,6|0,0:0|0:0,0:0:0:0:
344,104,244495,6,0,L|472:104,1,100,6|0,0:0|0:0,0:0:0:0:
312,68,244963,2,0,L|420:68,1,100,8|0,0:0|0:0,0:0:0:0:
204,68,245432,2,0,L|160:96,2,50,2|0|2,0:0|0:0|0:0,0:0:0:0:
364,64,245901,1,8,0:0:0:0:
416,88,246018,1,0,0:0:0:0:
436,128,246135,1,2,0:0:0:0:
400,168,246252,1,2,0:0:0:0:
336,176,246370,6,0,L|456:176,1,100,2|0,0:0|0:0,0:0:0:0:
236,176,246838,1,8,0:0:0:0:
193,201,246955,1,0,0:0:0:0:
167,243,247073,1,0,0:0:0:0:
162,292,247190,1,2,0:0:0:0:
181,338,247307,2,0,L|304:336,1,100,2|0,0:0|0:0,0:0:0:0:
80,76,247776,1,8,0:0:0:0:
123,101,247893,1,2,0:0:0:0:
149,143,248010,1,2,0:0:0:0:
154,192,248127,1,2,0:0:0:0:
135,238,248245,6,0,L|12:236,1,100,2|0,0:0|0:0,0:0:0:0:
236,236,248713,2,0,L|336:236,1,100,8|2,0:0|0:0,0:0:0:0:
140,240,249182,2,0,L|128:120,1,100,2|2,0:0|0:0,0:0:0:0:
328,140,249651,2,0,L|444:140,1,100,8|2,0:0|0:0,0:0:0:0:
104,144,250120,6,0,P|60:188|100:264,1,150,2|0,0:0|0:0,0:0:0:0:
152,260,250588,2,0,L|36:260,1,100,8|0,0:0|0:0,0:0:0:0:
256,260,251057,2,0,L|368:260,1,100,0|2,0:0|0:0,0:0:0:0:
148,276,251526,2,0,L|96:240,2,50,8|2|2,0:0|0:0|0:0,0:0:0:0:
464,276,251995,6,0,L|478:175,1,100,2|2,0:0|0:0,0:0:0:0:
280,220,252463,2,0,L|266:119,1,100,8|0,0:0|0:0,0:0:0:0:
464,132,252932,1,2,0:0:0:0:
444,86,253049,1,2,0:0:0:0:
409,51,253166,1,2,0:0:0:0:
363,31,253284,1,0,0:0:0:0:
316,32,253401,2,0,L|438:33,1,100,8|2,0:0|0:0,0:0:0:0:
104,36,253870,6,0,L|4:36,1,100,2|0,0:0|0:0,0:0:0:0:
204,40,254338,1,8,0:0:0:0:
248,63,254455,1,2,0:0:0:0:
264,109,254573,1,0,0:0:0:0:
246,154,254690,1,2,0:0:0:0:
202,171,254807,2,0,L|92:172,1,100,2|2,0:0|0:0,0:0:0:0:
308,180,255276,1,8,0:0:0:0:
348,180,255393,1,2,0:0:0:0:
388,180,255510,1,2,0:0:0:0:
76,196,255745,6,0,L|84:68,1,100,6|8,0:0|0:0,0:0:0:0:
268,148,256213,1,2,0:0:0:0:
252,112,256330,1,8,0:0:0:0:
220,80,256448,1,8,0:0:0:0:
180,64,256565,1,8,0:0:0:0:
128,64,256682,2,0,L|244:64,2,100,2|8|2,0:0|0:0|0:0,0:0:0:0:
436,68,257385,6,0,P|488:112|420:212,1,200,6|0,0:0|0:0,0:0:0:0:
232,184,258088,2,0,L|120:184,1,100,8|0,0:0|0:0,0:0:0:0:
96,152,258440,1,0,0:0:0:0:
132,184,258557,2,0,L|232:184,1,100,2|2,0:0|0:0,0:0:0:0:
436,184,259026,2,0,L|420:72,1,100,8|2,0:0|0:0,0:0:0:0:
124,72,259495,6,0,L|24:72,1,100,2|0,0:0|0:0,0:0:0:0:
232,76,259963,2,0,L|336:76,1,100,8|2,0:0|0:0,0:0:0:0:
132,92,260432,2,0,L|76:124,2,50,2|2|2,0:0|0:0|0:0,0:0:0:0:
336,284,260901,1,8,0:0:0:0:
382,267,261018,1,0,0:0:0:0:
399,222,261135,1,0,0:0:0:0:
375,180,261252,1,2,0:0:0:0:
328,156,261370,6,0,L|450:156,1,100,2|0,0:0|0:0,0:0:0:0:
228,204,261838,1,8,0:0:0:0:
183,187,261955,1,0,0:0:0:0:
166,142,262073,1,0,0:0:0:0:
190,100,262190,1,2,0:0:0:0:
236,84,262307,2,0,L|357:84,1,100,2|0,0:0|0:0,0:0:0:0:
136,200,262776,1,8,0:0:0:0:
91,183,262893,1,2,0:0:0:0:
74,138,263010,1,2,0:0:0:0:
98,96,263127,1,2,0:0:0:0:
144,72,263245,6,0,L|23:72,1,100,2|2,0:0|0:0,0:0:0:0:
240,68,263713,2,0,L|256:200,1,100,8|2,0:0|0:0,0:0:0:0:
56,172,264182,2,0,L|40:304,1,100,2|2,0:0|0:0,0:0:0:0:
240,268,264651,2,0,L|116:268,1,100,8|2,0:0|0:0,0:0:0:0:
444,272,265120,6,0,P|472:224|432:136,1,150,2|0,0:0|0:0,0:0:0:0:
376,140,265588,2,0,L|492:140,1,100,8|0,0:0|0:0,0:0:0:0:
280,140,266057,2,0,L|176:140,1,100,2|2,0:0|0:0,0:0:0:0:
384,144,266526,2,0,L|436:168,2,50,8|0|2,0:0|0:0|0:0,0:0:0:0:
80,160,266995,6,0,L|92:268,1,100,2|0,0:0|0:0,0:0:0:0:
284,256,267463,2,0,L|168:256,1,100,8|2,0:0|0:0,0:0:0:0:
380,256,267932,1,2,0:0:0:0:
340,226,268049,1,0,0:0:0:0:
325,179,268166,1,0,0:0:0:0:
341,133,268284,1,0,0:0:0:0:
380,104,268401,2,0,L|488:104,1,100,8|2,0:0|0:0,0:0:0:0:
136,104,268870,6,0,L|24:104,1,100,2|0,0:0|0:0,0:0:0:0:
240,100,269338,1,8,0:0:0:0:
203,132,269455,1,0,0:0:0:0:
194,181,269573,1,0,0:0:0:0:
216,225,269690,1,0,0:0:0:0:
260,247,269807,2,0,L|380:248,1,100,2|0,0:0|0:0,0:0:0:0:
140,248,270276,2,0,L|76:216,2,50,8|0|0,0:0|0:0|0:0,0:0:0:0:
448,248,270745,6,0,P|476:180|420:32,1,200,6|0,0:0|0:0,0:0:0:0:
244,188,271682,2,0,L|120:184,1,100,8|0,0:0|0:0,0:0:0:0:
364,180,272151,2,0,L|496:180,1,100,8|2,0:0|0:0,0:0:0:0:
144,184,272620,6,0,L|32:184,1,80,6|2,0:0|0:0,0:0:0:0:
288,188,273088,2,0,L|368:188,1,80,8|0,0:0|0:0,0:0:0:0:
312,188,273440,1,0,0:0:0:0:
368,188,273557,1,2,0:0:0:0:
424,188,273674,1,0,0:0:0:0:
368,188,273791,1,2,0:0:0:0:
152,192,274026,1,8,0:0:0:0:
92,192,274143,1,0,0:0:0:0:
32,192,274260,1,2,0:0:0:0:
340,192,274495,6,0,L|448:192,1,80,2|0,0:0|0:0,0:0:0:0:
196,88,274963,2,0,L|108:88,1,80,8|2,0:0|0:0,0:0:0:0:
180,88,275315,1,2,0:0:0:0:
240,124,275432,1,0,0:0:0:0:
240,192,275549,1,2,0:0:0:0:
180,224,275666,1,2,0:0:0:0:
420,224,275901,2,0,L|424:156,1,40,8|2,0:0|0:0,0:0:0:0:
116,224,276252,5,0,0:0:0:0:
56,192,276370,2,0,L|136:192,1,80,2|0,0:0|0:0,0:0:0:0:
272,192,276838,2,0,L|328:192,2,40,8|2|2,0:0|0:0|0:0,0:0:0:0:
204,192,277190,2,0,L|336:192,1,120,2|2,0:0|0:0,0:0:0:0:
92,192,277776,2,0,L|40:192,2,40,8|2|2,0:0|0:0|0:0,0:0:0:0:
232,192,278127,6,0,L|360:192,1,120,2|0,0:0|0:0,0:0:0:0:
112,192,278713,2,0,L|104:140,1,40,8|2,0:0|0:0,0:0:0:0:
204,152,278948,2,0,L|212:100,1,40,0|2,0:0|0:0,0:0:0:0:
112,76,279182,2,0,L|16:76,1,80,2|2,0:0|0:0,0:0:0:0:
252,24,279651,2,0,L|156:24,1,80,8|2,0:0|0:0,0:0:0:0:
472,24,280120,6,0,P|512:64|472:96,1,120.000004577637,2|0,0:0|0:0,0:0:0:0:
248,92,280588,2,0,L|160:92,1,80,8|0,0:0|0:0,0:0:0:0:
232,92,280940,1,0,0:0:0:0:
368,92,281057,2,0,L|372:148,1,40,2|2,0:0|0:0,0:0:0:0:
260,132,281409,1,2,0:0:0:0:
332,132,281526,1,8,0:0:0:0:
396,132,281643,1,2,0:0:0:0:
332,132,281760,1,2,0:0:0:0:
192,132,281877,6,0,P|128:156|96:200,1,120.000004577637,2|0,0:0|0:0,0:0:0:0:
88,260,282229,1,2,0:0:0:0:
312,260,282463,2,0,L|416:260,1,80,8|0,0:0|0:0,0:0:0:0:
168,260,282932,1,2,0:0:0:0:
104,248,283049,1,2,0:0:0:0:
64,196,283166,1,2,0:0:0:0:
64,132,283284,2,0,L|156:132,1,80,2|0,0:0|0:0,0:0:0:0:
448,132,283752,5,2,0:0:0:0:
504,56,283870,2,0,L|392:56,1,80,2|0,0:0|0:0,0:0:0:0:
296,56,284338,2,0,L|228:56,1,40,8|2,0:0|0:0,0:0:0:0:
472,148,284690,2,0,L|368:148,1,80,2|0,0:0|0:0,0:0:0:0:
264,148,285159,1,0,0:0:0:0:
328,148,285276,1,8,0:0:0:0:
392,148,285393,1,2,0:0:0:0:
328,148,285510,1,2,0:0:0:0:
24,144,285745,6,0,L|20:232,1,80,6|8,0:0|0:0,0:0:0:0:
180,228,286213,1,2,0:0:0:0:
232,190,286330,1,8,0:0:0:0:
232,126,286448,1,8,0:0:0:0:
180,88,286565,1,8,0:0:0:0:
44,88,286682,2,0,L|108:88,1,40,2|2,0:0|0:0,0:0:0:0:
164,88,286916,2,0,L|224:88,1,40,8|8,0:0|0:0,0:0:0:0:
284,88,287151,1,2,0:0:0:0:
388,88,287385,5,6,0:0:0:0:
84,88,287620,2,0,P|0:148|84:212,1,240.000009155274,6|8,0:0|0:0,0:0:0:0:
208,212,288323,1,2,0:0:0:0:
408,212,288557,2,0,L|328:192,1,80,2|2,0:0|0:0,0:0:0:0:
460,192,289026,1,8,0:0:0:0:
392,192,289143,2,0,L|336:192,1,50,2|2,0:0|0:0,0:0:0:0:
416,192,289377,6,0,P|468:160|416:116,1,150,2|0,0:0|0:0,0:0:0:0:
196,108,289963,2,0,L|288:108,1,80,8|2,0:0|0:0,0:0:0:0:
292,192,290315,2,0,L|200:192,1,80,2|0,0:0|0:0,0:0:0:0:
144,192,290666,1,0,0:0:0:0:
368,192,290901,2,0,L|412:192,1,40,8|2,0:0|0:0,0:0:0:0:
104,192,291252,5,2,0:0:0:0:
64,268,291370,2,0,L|144:268,1,80,2|2,0:0|0:0,0:0:0:0:
360,268,291838,2,0,L|400:268,1,40,8|2,0:0|0:0,0:0:0:0:
272,268,292190,1,2,0:0:0:0:
224,268,292307,2,0,L|140:268,1,80,2|2,0:0|0:0,0:0:0:0:
368,192,292776,2,0,L|420:192,2,40,8|2|2,0:0|0:0|0:0,0:0:0:0:
228,192,293127,6,0,L|356:192,1,120,2|2,0:0|0:0,0:0:0:0:
220,192,293713,2,0,L|212:140,1,40,8|0,0:0|0:0,0:0:0:0:
336,80,294065,1,2,0:0:0:0:
264,80,294182,2,0,L|168:80,1,80,2|2,0:0|0:0,0:0:0:0:
404,80,294651,2,0,L|412:140,1,40,8|2,0:0|0:0,0:0:0:0:
472,176,294885,2,0,L|464:236,1,40,2|2,0:0|0:0,0:0:0:0:
348,216,295120,6,0,L|228:216,1,120.000004577637,2|2,0:0|0:0,0:0:0:0:
184,272,295471,1,2,0:0:0:0:
316,304,295588,2,0,L|404:304,1,80,8|2,0:0|0:0,0:0:0:0:
260,304,296057,2,0,L|248:360,2,40,2|2|2,0:0|0:0|0:0,0:0:0:0:
476,192,296526,1,8,0:0:0:0:
412,192,296643,1,2,0:0:0:0:
348,192,296760,1,2,0:0:0:0:
212,192,296877,6,0,P|164:144|212:96,1,150,2|0,0:0|0:0,0:0:0:0:
432,96,297463,2,0,L|328:96,1,80,8|0,0:0|0:0,0:0:0:0:
140,96,297932,1,2,0:0:0:0:
75,137,298049,1,0,0:0:0:0:
72,216,298166,1,0,0:0:0:0:
136,264,298284,2,0,L|44:264,1,80,0|0,0:0|0:0,0:0:0:0:
120,264,298635,1,0,0:0:0:0:
424,268,298870,6,0,L|504:268,1,80,6|0,0:0|0:0,0:0:0:0:
368,192,299338,2,0,L|324:192,1,40,8|0,0:0|0:0,0:0:0:0:
248,192,299573,2,0,L|292:192,1,40,2|8,0:0|0:0,0:0:0:0:
368,192,299807,1,8,0:0:0:0:
392,136,299924,1,8,0:0:0:0:
364,84,300041,1,2,0:0:0:0:
308,60,300159,1,2,0:0:0:0:
176,60,300276,1,8,0:0:0:0:
240,60,300393,1,8,0:0:0:0:
303,60,300510,1,2,0:0:0:0:
240,60,300627,1,2,0:0:0:0:
104,60,300745,6,0,L|-8:60,1,80,6|0,0:0|0:0,0:0:0:0:
244,168,301213,2,0,L|356:168,1,80,12|0,0:0|0:0,0:0:0:0:
20,167,301682,2,0,L|16:259,1,80,2|2,0:0|0:0,0:0:0:0:
240,247,302151,1,8,0:0:0:0:
108,248,302385,1,2,0:0:0:0:
412,64,302620,5,6,0:0:0:0:
280,64,302854,2,0,L|172:64,2,80,2|0|0,0:0|0:0|0:0,0:0:0:0:
484,116,303557,2,0,L|492:212,1,80,2|2,0:0|0:0,0:0:0:0:
360,208,304026,2,0,L|460:208,1,80,8|2,0:0|0:0,0:0:0:0:
128,204,304495,6,0,L|112:112,1,80,2|2,0:0|0:0,0:0:0:0:
320,140,304963,2,0,L|336:48,1,80,8|0,0:0|0:0,0:0:0:0:
204,64,305432,2,0,L|108:64,1,80,2|2,0:0|0:0,0:0:0:0:
436,60,305901,2,0,L|448:160,1,80,8|2,0:0|0:0,0:0:0:0:
236,164,306370,5,2,0:0:0:0:
108,164,306604,2,0,L|16:164,2,80,0|8|2,0:0|0:0|0:0,0:0:0:0:
320,160,307307,2,0,L|216:160,1,80,2|2,0:0|0:0,0:0:0:0:
360,64,307776,2,0,L|468:64,1,80,8|2,0:0|0:0,0:0:0:0:
128,128,308245,6,0,L|16:128,1,80,2|2,0:0|0:0,0:0:0:0:
256,184,308713,2,0,L|348:184,1,80,8|2,0:0|0:0,0:0:0:0:
204,200,309182,2,0,L|120:200,1,80,2|2,0:0|0:0,0:0:0:0:
432,96,309651,2,0,L|448:196,1,80,8|2,0:0|0:0,0:0:0:0:
244,200,310120,5,2,0:0:0:0:
384,192,310354,2,0,L|480:192,2,80,2|8|0,0:0|0:0|0:0,0:0:0:0:
184,256,311057,2,0,L|194:176,1,80,2|2,0:0|0:0,0:0:0:0:
328,132,311526,2,0,L|432:132,1,80,8|2,0:0|0:0,0:0:0:0:
104,140,311995,6,0,L|0:140,1,80,2|2,0:0|0:0,0:0:0:0:
240,100,312463,2,0,L|320:100,1,80,8|2,0:0|0:0,0:0:0:0:
454,144,312932,2,0,L|464:224,1,80,2|2,0:0|0:0,0:0:0:0:
136,80,313401,2,0,L|36:80,1,80,8|2,0:0|0:0,0:0:0:0:
260,200,313870,5,2,0:0:0:0:
120,192,314104,2,0,L|24:192,2,80,2|8|2,0:0|0:0|0:0,0:0:0:0:
320,256,314807,2,0,L|310:176,1,80,2|0,0:0|0:0,0:0:0:0:
176,132,315276,2,0,L|72:132,1,80,8|2,0:0|0:0,0:0:0:0:
400,128,315745,5,6,0:0:0:0:
440,128,315862,1,0,0:0:0:0:
400,128,315979,1,2,0:0:0:0:
176,132,316213,2,0,L|88:132,1,80,2|8,0:0|0:0,0:0:0:0:
56,96,316565,1,2,0:0:0:0:
120,104,316682,2,0,L|136:176,1,40,8|0,0:0|0:0,0:0:0:0:
60,160,316916,2,0,L|44:232,1,40,2|8,0:0|0:0,0:0:0:0:
120,204,317151,1,2,0:0:0:0:
420,216,317385,6,0,P|484:152|384:40,1,240.000009155274,6|2,0:0|0:0,0:0:0:0:
204,48,318088,2,0,L|88:48,1,80,8|0,0:0|0:0,0:0:0:0:
328,96,318557,2,0,L|224:96,1,80,2|2,0:0|0:0,0:0:0:0:
120,100,319026,2,0,L|104:216,1,80,8|2,0:0|0:0,0:0:0:0:
416,200,319495,6,0,L|504:200,1,80,2|0,0:0|0:0,0:0:0:0:
276,144,319963,2,0,L|256:44,1,80,8|2,0:0|0:0,0:0:0:0:
376,76,320432,2,0,L|476:76,1,80,2|0,0:0|0:0,0:0:0:0:
148,88,320901,2,0,L|56:88,1,80,8|2,0:0|0:0,0:0:0:0:
272,164,321370,5,2,0:0:0:0:
140,160,321604,2,0,L|44:160,2,80,2|8|2,0:0|0:0|0:0,0:0:0:0:
340,224,322307,2,0,L|228:224,1,80,2|0,0:0|0:0,0:0:0:0:
128,176,322776,2,0,L|144:254,1,80,8|2,0:0|0:0,0:0:0:0:
444,244,323245,6,0,L|456:152,1,80,2|2,0:0|0:0,0:0:0:0:
244,152,323713,2,0,L|348:152,1,80,8|2,0:0|0:0,0:0:0:0:
192,92,324182,2,0,L|100:92,1,80,2|2,0:0|0:0,0:0:0:0:
432,96,324651,2,0,L|448:196,1,80,8|2,0:0|0:0,0:0:0:0:
244,200,325120,5,2,0:0:0:0:
384,192,325354,2,0,L|480:192,2,80,2|8|0,0:0|0:0|0:0,0:0:0:0:
184,256,326057,2,0,L|194:176,1,80,2|2,0:0|0:0,0:0:0:0:
328,132,326526,2,0,L|432:132,1,80,8|2,0:0|0:0,0:0:0:0:
104,140,326995,6,0,L|0:140,1,80,2|2,0:0|0:0,0:0:0:0:
228,100,327463,2,0,L|308:100,1,80,8|2,0:0|0:0,0:0:0:0:
436,224,327932,2,0,L|426:144,1,80,2|2,0:0|0:0,0:0:0:0:
120,80,328401,2,0,L|20:80,1,80,8|2,0:0|0:0,0:0:0:0:
244,192,328870,6,0,L|312:192,1,40,2|0,0:0|0:0,0:0:0:0:
244,156,329104,2,0,L|200:156,1,40,0|0,0:0|0:0,0:0:0:0:
292,144,329338,1,8,0:0:0:0:
308,108,329455,1,0,0:0:0:0:
293,72,329573,1,0,0:0:0:0:
257,59,329690,1,0,0:0:0:0:
167,57,329807,6,0,L|160:116,1,40,2|0,0:0|0:0,0:0:0:0:
216,112,330041,2,0,L|223:171,1,40,0|0,0:0|0:0,0:0:0:0:
132,136,330276,2,0,L|84:136,2,40,8|0|0,0:0|0:0|0:0,0:0:0:0:
432,132,330745,6,0,L|524:132,2,80,6|2|8,0:0|0:0|0:0,0:0:0:0:
332,132,331448,1,2,0:0:0:0:
116,128,331682,2,0,L|104:20,1,80,8|0,0:0|0:0,0:0:0:0:
324,48,332151,2,0,L|424:48,1,80,8|2,0:0|0:0,0:0:0:0:
76,48,332620,5,6,0:0:0:0:
188,48,332854,2,0,L|276:48,2,80,0|2|0,0:0|0:0|0:0,0:0:0:0:
396,48,333557,2,0,L|404:132,1,80,2|0,0:0|0:0,0:0:0:0:
276,128,334026,1,2,0:0:0:0:
484,128,334260,1,2,0:0:0:0:
292,128,334495,6,0,L|192:128,1,80,2|0,0:0|0:0,0:0:0:0:
100,208,334963,2,0,L|188:208,1,80,2|0,0:0|0:0,0:0:0:0:
60,208,335432,1,2,0:0:0:0:
252,208,335666,1,2,0:0:0:0:
44,208,335901,2,0,L|36:268,1,40,2|0,0:0|0:0,0:0:0:0:
296,208,336370,5,2,0:0:0:0:
404,208,336604,2,0,L|492:208,2,80,0|2|0,0:0|0:0|0:0,0:0:0:0:
196,212,337307,2,0,L|116:258,1,80,2|0,0:0|0:0,0:0:0:0:
336,268,337776,2,0,L|381:347,1,80,2|2,0:0|0:0,0:0:0:0:
148,340,338245,6,0,L|232:340,1,80,2|0,0:0|0:0,0:0:0:0:
420,340,338713,1,2,0:0:0:0:
300,268,338948,1,0,0:0:0:0:
92,268,339182,2,0,B|212:268,2,120,2|0|2,0:0|0:0|0:0,0:0:0:0:
316,344,340120,5,2,0:0:0:0:
204,344,340354,2,0,L|116:344,2,80,0|2|0,0:0|0:0|0:0,0:0:0:0:
12,344,341057,1,2,0:0:0:0:
212,264,341291,2,0,L|292:264,1,80,2|2,0:0|0:0,0:0:0:0:
172,264,341760,1,0,0:0:0:0:
380,264,341995,6,0,L|280:264,1,80,2|0,0:0|0:0,0:0:0:0:
116,188,342463,2,0,L|204:188,1,80,2|0,0:0|0:0,0:0:0:0:
324,188,342932,1,2,0:0:0:0:
140,188,343166,1,2,0:0:0:0:
360,188,343401,2,0,L|364:124,1,40,2|0,0:0|0:0,0:0:0:0:
48,188,343870,5,2,0:0:0:0:
160,188,344104,2,0,L|72:188,2,80,0|2|0,0:0|0:0|0:0,0:0:0:0:
368,184,344807,2,0,L|448:138,1,80,2|0,0:0|0:0,0:0:0:0:
244,128,345276,2,0,L|160:128,1,80,2|2,0:0|0:0,0:0:0:0:
464,144,345745,6,0,L|476:240,1,80,6|0,0:0|0:0,0:0:0:0:
312,224,346213,1,2,0:0:0:0:
440,224,346448,1,0,0:0:0:0:
220,220,346682,2,0,L|172:220,1,40,8|8,0:0|0:0,0:0:0:0:
292,224,347034,1,8,0:0:0:0:
284,160,347151,1,2,0:0:0:0:
244,108,347268,1,8,0:0:0:0:
180,100,347385,1,2,0:0:0:0:
480,100,347620,5,6,0:0:0:0:
368,100,347854,1,0,0:0:0:0:
184,40,348088,2,0,L|272:40,1,80,2|0,0:0|0:0,0:0:0:0:
472,40,348557,2,0,L|480:124,1,80,8|0,0:0|0:0,0:0:0:0:
368,120,349026,1,2,0:0:0:0:
176,120,349260,1,0,0:0:0:0:
296,120,349495,6,0,L|304:208,1,80,2|0,0:0|0:0,0:0:0:0:
108,200,349963,2,0,L|204:200,1,80,0|2,0:0|0:0,0:0:0:0:
284,200,350432,1,0,0:0:0:0:
100,200,350666,1,8,0:0:0:0:
340,200,351018,1,2,0:0:0:0:
52,200,351370,5,2,0:0:0:0:
164,200,351604,1,0,0:0:0:0:
348,200,351838,2,0,L|260:200,1,80,2|0,0:0|0:0,0:0:0:0:
68,296,352307,2,0,L|168:296,2,80,8|0|2,0:0|0:0|0:0,0:0:0:0:
180,296,353010,1,0,0:0:0:0:
308,296,353245,6,0,L|276:216,1,80,2|0,0:0|0:0,0:0:0:0:
148,220,353713,2,0,L|236:220,1,80,0|0,0:0|0:0,0:0:0:0:
436,220,354182,1,2,0:0:0:0:
172,220,354534,1,2,0:0:0:0:
472,220,354885,1,0,0:0:0:0:
272,220,355120,5,2,0:0:0:0:
164,192,355354,2,0,L|68:192,2,80,0|2|0,0:0|0:0|0:0,0:0:0:0:
284,192,356057,1,8,0:0:0:0:
476,192,356291,1,0,0:0:0:0:
348,192,356526,1,2,0:0:0:0:
444,192,356760,1,0,0:0:0:0:
236,192,356995,6,0,L|228:104,1,80,2|0,0:0|0:0,0:0:0:0:
424,112,357463,2,0,L|328:112,1,80,2|0,0:0|0:0,0:0:0:0:
248,112,357932,1,2,0:0:0:0:
440,112,358166,1,2,0:0:0:0:
168,112,358518,1,2,0:0:0:0:
480,112,358870,5,2,0:0:0:0:
256,192,359104,12,2,362620,0:0:0:0:
