osu file format v14

[General]
AudioFilename: audio.mp3
AudioLeadIn: 0
PreviewTime: 60785
Countdown: 0
SampleSet: Soft
StackLeniency: 0.3
Mode: 0
LetterboxInBreaks: 0
WidescreenStoryboard: 1

[Editor]
Bookmarks: 90775,120775,150775,180775,210775,225775,240775,255775,270775,285775,300775,315775,330775
DistanceSpacing: 0.3
BeatDivisor: 4
GridSize: 4
TimelineZoom: 1.8

[Metadata]
Title:Getsurei 11.3 no Candle Magic
TitleUnicode:月齢11.3のキャンドルマジック
Artist:Shibayan feat. 3L
ArtistUnicode:Shibayan feat. 3L
Creator:RLC
Version:Extra Stage
Source:東方紅魔郷 ~ the Embodiment of Scarlet Devil.
Tags:C79 ココロバイブレーション Heart Vibration ShibayanRecords やまざきさやか Yamazaki Sayaka ラクトガール 少女密室 Locked Girl Secret Room パチュリー ノーレッジ Patchouli Knowledge electronic japanese ~ kokoro baibureeshon rakuto gaaru shoujo misshitsu comiket 安保 あんぽ さゆり Sayuri Anpo 東方Project touhou project house 6 th6 koumakyou
BeatmapID:1669949
BeatmapSetID:795140

[Difficulty]
HPDrainRate:7
CircleSize:4.5
OverallDifficulty:8
ApproachRate:9
SliderMultiplier:1.9
SliderTickRate:2

[Events]
//Background and Video events
0,0,"Konachan.com - 87360 book flowers mage patchouli_knowledge petals polychromatic tan_(carbon) touhou.jpg",0,0
//Break Periods
2,150985,164716
//Storyboard Layer 0 (Background)
//Storyboard Layer 1 (Fail)
//Storyboard Layer 2 (Pass)
//Storyboard Layer 3 (Foreground)
//Storyboard Layer 4 (Overlay)
//Storyboard Sound Samples

[TimingPoints]
785,468.75,4,2,1,60,1,0
15785,-100,4,2,1,60,0,0
30785,-133.333333333333,4,2,1,60,0,0
45785,-117.647058823529,4,2,1,60,0,0
58910,-117.647058823529,4,2,1,45,0,0
60316,-117.647058823529,4,2,2,60,0,0
60667,-83.3333333333333,4,2,1,60,0,0
89144,-83.3333333333333,4,2,2,60,0,0
89613,-83.3333333333333,4,2,1,60,0,0
90785,-100,4,2,1,60,0,0
120785,-83.3333333333333,4,2,1,60,0,0
140003,-200,4,2,1,60,0,0
141175,-83.3333333333333,4,2,1,60,0,0
165316,-117.647058823529,4,2,1,60,0,0
180785,-100,4,2,1,60,0,0
239144,-100,4,1,1,60,0,0
240785,-83.3333333333333,4,1,1,60,0,0
255785,-71.4285714285714,4,1,1,60,0,0
300785,-66.6666666666667,4,1,1,60,0,0
320824,-200,4,1,1,60,0,0
321175,-62.5,4,1,1,60,0,0

[Colours]
Combo1 : 255,141,113
Combo2 : 163,163,209
Combo3 : 255,157,255
Combo4 : 207,158,158

[HitObjects]
402,68,15785,6,0,L|415:170,1,95,0|0,3:0|0:0,0:0:0:0:
416,181,16136,1,0,0:0:0:0:
420,199,16253,2,0,B|462:241|462:241|440:350,2,142.5,0|0|0,3:0|0:0|0:0,0:0:0:0:
344,356,17191,1,0,3:0:0:0:
274,199,17425,1,0,0:0:0:0:
198,356,17660,5,0,3:0:0:0:
151,270,17894,1,0,0:0:0:0:
151,270,18011,1,0,0:0:0:0:
151,270,18128,2,0,L|7:258,1,142.5,0|0,3:0|0:0,0:0:0:0:
202,154,18714,1,0,0:0:0:0:
202,154,18831,2,0,L|213:220,1,47.5
193,64,19066,2,0,L|307:80,1,95,0|0,3:0|0:0,0:0:0:0:
115,162,19535,5,0,3:0:0:0:
244,263,19769,2,0,L|299:255,1,47.5
330,181,20003,2,0,B|385:187|385:187|416:213|416:213|475:223,2,142.5,0|0|0,3:0|0:0|0:0,0:0:0:0:
264,121,20941,1,0,3:0:0:0:
448,85,21175,1,0,0:0:0:0:
392,11,21410,5,0,3:0:0:0:
347,99,21644,1,0,0:0:0:0:
347,99,21761,1,0,0:0:0:0:
347,99,21878,2,0,B|331:196|331:196|376:254,1,142.5,0|0,3:0|0:0,0:0:0:0:
428,334,22464,1,0,0:0:0:0:
437,317,22581,2,0,L|487:309,1,47.5
361,235,22816,1,0,3:0:0:0:
323,240,22933,1,0,0:0:0:0:
285,245,23050,1,0,0:0:0:0:
247,250,23167,1,0,0:0:0:0:
209,256,23285,5,0,3:0:0:0:
195,351,23519,1,0,0:0:0:0:
140,136,23753,5,0,3:0:0:0:
112,322,23988,1,0,0:0:0:0:
112,322,24105,2,0,L|105:269,1,47.5,0|0,0:0|3:0,0:0:0:0:
241,166,24339,1,0,0:0:0:0:
241,166,24456,2,0,L|233:222,1,47.5
137,119,24691,2,0,L|124:66,1,47.5,0|0,3:0|0:0,0:0:0:0:
206,239,24925,2,0,L|198:295,1,47.5
91,195,25160,5,0,3:0:0:0:
216,88,25394,1,0,0:0:0:0:
177,174,25628,5,0,3:0:0:0:
385,204,25863,1,0,0:0:0:0:
395,211,25980,2,0,L|445:203,1,47.5,0|0,0:0|3:0,0:0:0:0:
363,320,26214,1,0,0:0:0:0:
353,313,26331,2,0,L|303:321,1,47.5
465,187,26566,2,0,L|521:195,1,47.5,0|0,3:0|0:0,0:0:0:0:
289,333,26800,2,0,L|233:325,1,47.5
148,288,27035,5,0,3:0:0:0:
146,294,27269,1,0,0:0:0:0:
310,157,27503,5,0,3:0:0:0:
316,158,27737,1,0,0:0:0:0:
257,268,27972,5,0,3:0:0:0:
261,274,28206,1,0,0:0:0:0:
64,202,28441,5,0,3:0:0:0:
58,205,28675,1,0,0:0:0:0:
218,31,28910,5,0,3:0:0:0:
256,192,29027,12,8,30316,0:0:0:0:
243,29,30785,6,0,B|236:54|219:61|219:61|208:108|248:144,1,106.875004076958,4|0,3:1|0:0,0:0:0:0:
278,185,31253,1,0,1:0:0:0:
67,202,31488,5,0,0:0:0:0:
57,197,31605,1,0,0:0:0:0:
47,191,31722,2,0,B|105:185|105:185|137:194|137:194|203:188,1,142.500005435944,0|0,3:0|1:0,0:0:0:0:
230,124,32308,2,0,L|240:71,1,35.625001358986
320,338,32660,5,0,3:0:0:0:
476,295,32894,2,0,L|470:343,1,35.625001358986
320,338,33128,2,0,P|313:288|333:259,1,71.2500027179719,0|0,1:0|0:0,0:0:0:0:
352,153,33597,5,0,3:0:0:0:
293,113,33714,1,0,0:0:0:0:
308,43,33831,1,0,0:0:0:0:
219,273,34066,1,0,1:0:0:0:
204,342,34183,1,0,0:0:0:0:
132,342,34300,2,0,L|91:343,3,23.7500009059906,0|0|0|0,0:0|0:0|0:0|3:0,0:0:0:0:
219,273,34652,6,0,B|237:233|237:233|214:151,1,106.875004076958,0|0,0:0|1:0,0:0:0:0:
401,61,35238,1,0,0:0:0:0:
402,52,35355,1,0,0:0:0:0:
339,17,35472,2,0,P|299:79|345:131,1,142.500005435944,0|0,3:0|1:0,0:0:0:0:
407,161,36058,2,0,L|449:148,1,35.625001358986
219,172,36410,5,0,3:0:0:0:
60,107,36644,2,0,P|78:107|95:113,1,35.625001358986
219,172,36878,2,0,B|236:136|236:136|223:68,1,106.875004076958,0|0,1:0|0:0,0:0:0:0:
285,27,37347,5,0,3:0:0:0:
291,28,37464,1,0,0:0:0:0:
297,29,37581,1,0,0:0:0:0:
303,30,37699,1,0,0:0:0:0:
341,117,37816,5,0,1:0:0:0:
339,124,37933,1,0,0:0:0:0:
337,131,38050,2,0,L|328:191,1,35.625001358986,0|0,0:0|3:0,0:0:0:0:
251,193,38285,6,0,B|217:205|217:205|119:188,1,106.875004076958,0|0,3:0|0:0,0:0:0:0:
68,184,38753,1,0,1:0:0:0:
68,184,38988,2,0,L|82:242,1,35.625001358986
290,258,39222,2,0,P|324:219|420:235,1,142.500005435944,0|0,3:0|1:0,0:0:0:0:
461,285,39808,1,0,0:0:0:0:
461,285,39925,1,0,0:0:0:0:
208,265,40160,5,0,3:0:0:0:
325,288,40394,2,0,L|388:299,1,35.625001358986
208,265,40628,5,0,1:0:0:0:
389,218,40863,2,0,L|448:202,1,35.625001358986
208,265,41097,1,0,3:0:0:0:
193,195,41214,1,0,0:0:0:0:
128,164,41331,1,0,0:0:0:0:
206,25,41566,1,0,1:0:0:0:
221,95,41683,1,0,0:0:0:0:
286,126,41800,2,0,L|323:118,3,23.7500009059906,0|0|0|0,0:0|0:0|0:0|3:0,0:0:0:0:
128,164,42152,6,0,B|200:151|200:151|236:187,1,106.875004076958,0|0,0:0|1:0,0:0:0:0:
223,174,42738,2,0,L|217:222,1,35.625001358986
434,201,42972,2,0,B|370:205|370:205|359:214|359:214|289:219,1,142.500005435944,0|0,3:0|1:0,0:0:0:0:
223,174,43558,1,0,0:0:0:0:
221,163,43675,1,0,0:0:0:0:
434,201,43910,5,0,3:0:0:0:
347,37,44144,2,0,L|291:33,1,35.625001358986
239,76,44378,5,0,1:0:0:0:
434,201,44613,2,0,L|490:205,2,35.625001358986,0|0|0,0:0|0:0|3:0,0:0:0:0:
420,213,44964,1,0,0:0:0:0:
347,150,45081,6,0,L|356:209,1,35.625001358986,0|0,1:0|0:0,0:0:0:0:
312,241,45316,1,0,1:0:0:0:
317,267,45433,1,0,0:0:0:0:
272,320,45550,1,0,1:0:0:0:
277,346,45667,1,0,1:0:0:0:
230,260,45785,6,0,L|171:254,2,40.375000770092,4|0|0,3:1|0:0|0:0,0:0:0:0:
121,359,46253,2,0,L|25:348,1,80.750001540184,0|0,1:0|0:0,0:0:0:0:
109,283,46605,1,0,0:0:0:0:
86,213,46722,2,0,L|60:114,1,80.750001540184,0|0,3:0|0:0,0:0:0:0:
360,31,47191,6,0,L|370:82,1,40.375000770092,0|0,1:0|0:0,0:0:0:0:
368,71,47425,1,0,0:0:0:0:
267,126,47660,2,0,L|229:220,1,80.750001540184,0|0,3:0|0:0,0:0:0:0:
323,187,48011,1,0,0:0:0:0:
356,252,48128,2,0,L|396:343,1,80.750001540184,0|0,1:0|0:0,0:0:0:0:
388,325,48480,6,0,L|446:325,1,40.375000770092,0|0,0:0|3:0,0:0:0:0:
485,267,48714,1,0,0:0:0:0:
485,267,48831,1,0,0:0:0:0:
275,261,49066,1,0,1:0:0:0:
275,261,49183,1,0,0:0:0:0:
251,335,49300,2,0,L|244:378,3,26.9166671800613,0|0|0|0,0:0|0:0|0:0|3:0,0:0:0:0:
254,180,49652,6,0,L|243:129,1,40.375000770092
59,128,50003,2,0,B|99:137|99:137|140:114,1,80.750001540184,0|0,1:0|0:0,0:0:0:0:
140,103,50355,1,0,0:0:0:0:
213,121,50472,2,0,L|319:139,1,80.750001540184,0|0,3:0|0:0,0:0:0:0:
475,91,50941,5,0,1:0:0:0:
426,36,51058,2,0,L|364:43,1,40.375000770092
252,176,51410,2,0,L|260:82,1,80.750001540184,0|0,3:0|0:0,0:0:0:0:
253,81,51761,1,0,0:0:0:0:
308,10,51878,2,0,B|361:45|361:45|332:106,1,121.125002310276,0|0,1:0|0:0,0:0:0:0:
252,176,52347,5,0,3:0:0:0:
244,173,52464,1,0,0:0:0:0:
236,170,52581,1,0,0:0:0:0:
228,167,52699,1,0,0:0:0:0:
173,214,52816,5,0,1:0:0:0:
141,148,52933,1,0,0:0:0:0:
77,183,53050,2,0,L|85:233,1,40.375000770092,0|0,0:0|3:0,0:0:0:0:
12,331,53285,6,0,L|155:331,1,121.125002310276,0|0,3:0|0:0,0:0:0:0:
350,291,53753,2,0,L|267:291,1,80.750001540184,0|0,1:0|0:0,0:0:0:0:
200,310,54105,1,0,0:0:0:0:
270,324,54222,5,0,3:0:0:0:
358,251,54456,2,0,L|351:203,1,40.375000770092
420,355,54808,2,0,L|434:310,1,40.375000770092
346,177,55160,5,0,3:0:0:0:
427,38,55394,1,0,0:0:0:0:
480,86,55511,1,0,0:0:0:0:
411,108,55628,1,0,1:0:0:0:
303,47,55863,6,0,L|255:53,1,40.375000770092
240,168,56214,2,0,L|192:174,1,40.375000770092
199,173,56449,1,0,0:0:0:0:
194,100,56566,1,0,1:0:0:0:
186,27,56683,1,0,0:0:0:0:
118,74,56800,2,0,L|84:70,3,26.9166671800613,0|0|0|0,0:0|0:0|0:0|3:0,0:0:0:0:
194,100,57152,6,0,L|285:113,1,80.750001540184
333,68,57503,2,0,B|377:102|377:102|353:183,1,121.125002310276,0|0,1:0|0:0,0:0:0:0:
374,236,57972,5,0,3:0:0:0:
256,192,58206,1,0,0:0:0:0:
138,148,58441,1,0,1:0:0:0:
138,148,58558,1,0,0:0:0:0:
138,148,58675,1,0,0:0:0:0:
138,148,58792,1,0,0:0:0:0:
74,194,58910,5,8,1:3:0:0:
94,233,59027,1,8,1:3:0:0:
75,273,59144,1,8,1:3:0:0:
58,314,59261,1,8,1:3:0:0:
145,300,59378,5,4,1:3:0:0:
182,277,59495,1,4,1:3:0:0:
222,294,59613,1,4,1:3:0:0:
260,272,59730,1,4,1:3:0:0:
300,208,59847,5,4,1:3:0:0:
337,231,59964,1,4,1:3:0:0:
374,254,60081,1,4,1:3:0:0:
418,248,60199,1,4,1:3:0:0:
455,183,60316,5,8,1:1:0:0:
430,43,60550,2,0,L|435:86,1,40.375000770092,8|0,1:1|3:0,0:0:0:0:
473,253,60785,2,0,P|432:256|388:248,1,75.9999976806641,4|0,3:1|0:2,0:0:0:0:
376,235,61019,2,0,P|368:285|394:368,1,113.999996520996,2|0,0:2|1:2,0:0:0:0:
381,346,61488,6,0,L|299:339,1,75.9999976806641,0|2,0:0|0:2,0:0:0:0:
295,345,61722,1,0,3:0:0:0:
282,181,61878,1,0,0:0:0:0:
274,189,61956,2,0,L|152:179,1,113.999996520996,2|0,0:2|1:0,0:0:0:0:
60,347,62425,2,2,L|21:360,2,37.9999988403321,2|2|2,0:2|0:2|0:2,0:2:0:0:
79,342,62660,6,0,P|91:299|74:223,1,113.999996520996,0|0,3:0|0:0,0:0:0:0:
18,93,63128,1,0,1:0:0:0:
18,93,63363,2,0,L|106:76,1,75.9999976806641,0|2,0:0|0:2,0:0:0:0:
158,106,63597,2,0,L|246:89,1,75.9999976806641,0|0,3:0|0:0,0:0:0:0:
301,120,63831,2,2,L|345:111,2,37.9999988403321,2|2|2,0:2|0:2|0:2,0:2:0:0:
292,123,64066,6,0,B|289:170|289:170|300:194|300:194|294:263,1,113.999996520996,0|2,1:0|0:2,0:0:0:0:
183,333,64417,1,0,3:0:0:0:
183,333,64535,6,0,P|171:292|177:251,1,75.9999976806641,0|0,3:0|0:0,0:0:0:0:
182,242,64769,2,0,L|317:231,1,113.999996520996,2|0,0:2|1:0,0:0:0:0:
122,124,65238,6,0,L|220:115,1,75.9999976806641,0|2,0:0|0:2,0:0:0:0:
206,110,65472,1,0,3:0:0:0:
293,222,65628,1,0,0:0:0:0:
296,233,65706,2,0,B|338:257|338:257|428:239,1,113.999996520996,2|0,0:2|1:0,0:0:0:0:
354,109,66175,2,2,L|365:60,2,37.9999988403321,2|2|2,0:2|0:2|0:2,0:2:0:0:
361,121,66410,6,0,L|230:116,1,113.999996520996,0|2,3:0|0:2,0:0:0:0:
148,25,66800,1,0,0:0:0:0:
157,36,66878,2,0,L|300:42,1,113.999996520996,0|0,1:0|0:0,0:0:0:0:
248,117,67269,2,0,L|238:165,1,37.9999988403321,2|0,0:2|3:0,0:0:0:0:
189,218,67503,1,0,0:2:0:0:
181,222,67581,2,0,P|221:247|257:247,1,75.9999976806641,2|0,0:2|0:0,0:0:0:0:
264,240,67816,2,0,B|289:275|289:275|268:367,1,113.999996520996,0|2,1:0|0:2,0:0:0:0:
456,273,68167,1,0,3:0:0:0:
456,273,68285,6,0,B|419:262|419:262|377:273,1,75.9999976806641,0|0,3:0|0:0,0:0:0:0:
371,282,68519,2,0,L|386:158,1,113.999996520996,2|0,0:2|1:0,0:0:0:0:
207,345,68988,6,0,L|217:260,1,75.9999976806641,0|2,0:0|0:2,0:0:0:0:
225,263,69222,1,0,3:0:0:0:
114,102,69456,2,0,L|124:187,1,75.9999976806641,2|0,0:2|0:0,0:0:0:0:
132,187,69691,1,0,1:0:0:0:
73,275,69925,2,2,L|31:282,2,37.9999988403321,2|2|2,0:2|0:2|0:2,0:2:0:0:
85,285,70160,5,0,3:0:0:0:
201,144,70394,2,0,B|247:129|247:129|338:156,1,113.999996520996,2|0,0:2|1:0,0:0:0:0:
309,147,70863,2,0,L|401:137,1,75.9999976806641,0|2,0:0|0:2,0:0:0:0:
395,138,71097,1,0,3:0:0:0:
459,180,71253,1,0,0:0:0:0:
469,183,71331,2,0,B|502:147|502:147|485:50,2,113.999996520996,2|0|2,0:2|1:0|0:2,0:0:0:0:
379,55,71917,1,0,3:0:0:0:
379,55,72035,6,0,L|292:45,1,75.9999976806641,0|0,3:0|0:0,0:0:0:0:
283,32,72269,2,0,P|268:80|282:155,1,113.999996520996,2|0,0:2|1:0,0:0:0:0:
154,220,72738,2,0,L|231:207,1,75.9999976806641,0|2,0:0|0:2,0:0:0:0:
247,216,72972,2,0,P|262:168|248:93,1,113.999996520996,0|2,3:0|0:2,0:0:0:0:
253,105,73441,1,0,1:0:0:0:
182,64,73597,1,0,0:0:0:0:
173,71,73675,2,0,B|139:83|139:83|90:75,1,75.9999976806641,2|2,0:2|0:2,0:0:0:0:
69,90,73910,6,0,L|54:172,1,75.9999976806641,0|0,3:0|0:0,0:0:0:0:
61,255,74144,2,0,L|76:173,1,75.9999976806641,2|0,0:2|0:0,0:0:0:0:
161,162,74378,2,0,L|146:244,1,75.9999976806641,0|0,1:0|0:0,0:0:0:0:
153,327,74612,2,0,L|168:245,1,75.9999976806641,0|2,0:0|0:2,0:0:0:0:
327,212,74847,6,0,L|346:345,1,113.999996520996,0|0,1:0|0:0,0:0:0:0:
392,118,75199,2,0,L|411:251,1,113.999996520996,0|0,1:0|0:0,0:0:0:0:
484,199,75550,2,0,L|494:268,1,56.9999982604981,0|0,1:0|3:0,0:0:0:0:
428,314,75785,5,4,3:1:0:0:
325,268,76019,2,0,L|244:262,1,75.9999976806641,2|0,0:2|0:0,0:0:0:0:
233,251,76253,2,0,B|186:256|186:256|166:276|166:276|111:282,1,113.999996520996,0|0,1:0|0:0,0:0:0:0:
68,231,76644,1,2,0:2:0:0:
63,225,76722,2,0,P|57:186|81:144,1,75.9999976806641,0|0,3:0|0:0,0:0:0:0:
141,139,76956,1,2,0:2:0:0:
283,147,77191,5,0,1:0:0:0:
283,147,77308,2,0,L|414:151,1,113.999996520996,0|2,0:0|0:2,0:0:0:0:
473,164,77660,2,0,L|484:85,1,75.9999976806641,0|0,3:0|0:0,0:0:0:0:
484,77,77894,1,2,0:2:0:0:
283,147,78128,5,0,1:0:0:0:
283,147,78245,2,0,L|152:143,1,113.999996520996,0|2,0:0|0:2,0:0:0:0:
90,181,78597,2,0,P|62:142|84:75,1,113.999996520996,0|2,3:0|0:2,0:0:0:0:
283,147,79066,6,0,L|352:148,1,56.9999982604981,0|0,1:0|0:0,0:0:0:0:
418,151,79300,2,0,L|487:152,1,56.9999982604981,2|0,0:2|3:0,0:0:0:0:
402,66,79535,6,0,L|416:148,1,75.9999976806641,0|0,3:0|0:0,0:0:0:0:
396,150,79769,2,0,L|384:241,1,75.9999976806641,2|0,0:2|0:0,0:0:0:0:
398,241,80003,2,0,B|405:281|405:281|395:312|395:312|402:371,1,113.999996520996,0|0,1:0|0:0,0:0:0:0:
240,286,80394,1,2,0:2:0:0:
234,276,80472,2,0,L|317:267,1,75.9999976806641,0|0,3:0|0:0,0:0:0:0:
331,266,80706,1,2,0:2:0:0:
152,249,80941,5,0,1:0:0:0:
152,249,81058,2,0,B|125:286|125:286|149:382,1,113.999996520996,0|2,0:0|0:2,0:0:0:0:
141,352,81410,2,0,L|60:364,1,75.9999976806641,0|0,3:0|0:0,0:0:0:0:
55,366,81644,1,2,0:2:0:0:
93,197,81878,5,0,1:0:0:0:
93,197,81995,2,0,B|120:160|120:160|96:64,1,113.999996520996,0|2,0:0|0:2,0:0:0:0:
128,19,82347,2,0,P|189:17|221:57,1,113.999996520996,0|2,3:0|0:2,0:0:0:0:
152,249,82816,6,0,L|162:311,1,56.9999982604981,0|2,1:0|0:2,0:0:0:0:
242,278,83050,2,0,L|252:340,1,56.9999982604981,0|2,0:0|3:2,0:0:0:0:
305,196,83285,5,0,3:0:0:0:
407,45,83519,2,0,P|410:101|382:149,1,113.999996520996,2|0,0:2|1:0,0:0:0:0:
382,149,83988,2,0,L|471:154,1,75.9999976806641,0|2,0:0|0:2,0:0:0:0:
328,253,84222,2,0,L|243:251,1,75.9999976806641,0|0,3:0|0:0,0:0:0:0:
237,268,84456,2,0,B|211:231|211:231|225:149,2,113.999996520996,2|0|2,0:2|1:0|0:2,0:0:0:0:
149,285,85042,2,0,L|124:344,1,56.9999982604981,2|0,0:2|3:0,0:0:0:0:
240,96,85394,6,0,L|354:96,1,113.999996520996,2|0,0:2|1:0,0:0:0:0:
404,146,85745,1,0,0:0:0:0:
453,98,85863,1,0,0:0:0:0:
404,49,85980,1,2,0:2:0:0:
354,96,86097,2,0,L|293:96,1,56.9999982604981,0|0,3:0|0:0,0:0:0:0:
233,54,86331,2,0,L|172:54,1,56.9999982604981,2|0,0:2|0:0,0:0:0:0:
187,207,86566,2,0,L|126:207,1,56.9999982604981,0|0,1:0|0:0,0:0:0:0:
60,156,86800,2,0,L|3:156,1,56.9999982604981,2|0,0:2|3:0,0:0:0:0:
3,156,87035,5,0,3:0:0:0:
118,75,87269,2,0,L|218:82,1,75.9999976806641,2|0,0:2|0:0,0:0:0:0:
204,82,87503,1,0,1:0:0:0:
264,264,87738,2,0,P|274:217|261:177,1,75.9999976806641,0|2,0:0|0:2,0:0:0:0:
284,174,87972,2,0,L|151:161,2,113.999996520996,0|2|0,3:0|0:2|1:0,0:0:0:0:
284,174,88675,5,2,0:2:0:0:
284,174,88910,1,0,3:0:0:0:
367,195,89066,1,0,0:0:0:0:
370,205,89145,1,8,1:0:0:0:
457,215,89300,1,0,0:0:0:0:
461,224,89378,2,0,B|476:144|476:144|452:110,1,113.999996520996,8|0,1:0|0:0,0:0:0:0:
240,38,89847,5,0,1:0:0:0:
306,97,89964,1,0,1:0:0:0:
244,151,90081,1,0,1:3:0:0:
281,217,90199,1,0,1:3:0:0:
260,284,90316,5,0,1:0:0:0:
260,289,90433,1,0,1:0:0:0:
259,294,90550,1,0,1:0:0:0:
258,299,90667,1,0,1:0:0:0:
211,223,90785,5,4,3:1:0:0:
211,223,90902,2,0,L|333:235,1,95,0|0,0:1|0:1,0:1:0:0:
401,241,91253,2,0,L|523:253,1,95,2|0,1:3|0:0,0:0:0:0:
495,250,91605,1,0,0:0:0:0:
401,241,91722,2,0,L|306:231,1,95,4|0,3:2|0:0,0:0:0:0:
211,223,92074,2,0,L|116:213,1,95,2|0,0:2|0:0,0:0:0:0:
33,206,92425,1,4,0:2:0:0:
33,206,92660,1,0,3:0:0:0:
118,316,92894,5,0,0:0:0:0:
189,82,93128,2,0,L|294:68,1,95,2|0,1:3|0:1,0:1:0:0:
283,69,93480,1,0,0:0:0:0:
377,56,93597,2,0,L|482:42,1,95,4|0,3:2|0:0,0:0:0:0:
377,56,93949,2,0,L|272:70,1,95,2|2,0:2|0:2,0:0:0:0:
189,82,94300,1,2,0:2:0:0:
189,82,94417,1,2,0:2:0:0:
139,208,94535,6,0,L|73:221,2,47.5,0|0|0,3:0|0:1|0:0,0:0:0:0:
139,208,95003,2,0,L|122:311,1,95,2|0,1:3|0:1,0:1:0:0:
123,301,95355,1,0,0:0:0:0:
45,158,95472,2,0,P|98:130|144:132,1,95,4|0,3:2|0:0,0:0:0:0:
189,350,95824,2,0,P|136:378|90:376,1,95,2|0,0:2|0:0,0:0:0:0:
131,129,96175,6,0,L|187:117,1,47.5,4|0,0:2|0:0,0:0:0:0:
324,117,96410,2,0,L|371:127,1,47.5,0|0,3:0|0:0,0:0:0:0:
255,89,96644,1,0,0:0:0:0:
394,136,96878,6,0,B|387:204|387:204|356:230,1,95,2|0,1:3|0:0,0:0:0:0:
366,221,97230,1,0,0:0:0:0:
475,98,97347,2,0,P|429:65|374:64,1,95,4|0,3:2|0:0,0:0:0:0:
304,270,97699,2,0,P|350:303|405:304,1,95,2|2,0:2|0:2,0:0:0:0:
421,221,98050,1,0,0:2:0:0:
421,221,98167,1,2,0:2:0:0:
343,134,98285,6,0,L|285:116,1,47.5,0|0,3:0|0:1,0:0:0:0:
212,119,98519,2,0,L|167:134,1,47.5,0|0,0:1|0:1,0:1:0:0:
101,188,98753,6,0,L|85:300,1,95,2|0,1:3|0:0,0:0:0:0:
114,93,99105,1,0,0:0:0:0:
114,93,99222,2,0,L|101:188,1,95,4|0,3:2|0:0,0:0:0:0:
73,376,99573,2,0,L|87:282,1,95,2|0,0:2|0:0,0:0:0:0:
101,188,99925,1,4,0:2:0:0:
73,376,100160,1,0,3:0:0:0:
265,19,100394,6,0,L|319:27,1,47.5
424,56,100628,2,0,L|370:64,1,47.5,2|0,1:3|0:0,0:0:0:0:
260,94,100863,2,0,L|314:102,1,47.5
375,135,101097,2,0,L|386:236,1,95,4|0,3:2|0:0,0:0:0:0:
459,251,101449,2,0,L|470:352,1,95,2|2,0:2|0:2,0:0:0:0:
393,364,101800,1,2,0:2:0:0:
393,364,101917,1,2,0:2:0:0:
285,272,102035,6,0,L|229:271,2,47.5,0|0|0,3:0|0:0|0:0,0:0:0:0:
285,272,102503,2,0,L|295:172,1,95,2|0,1:3|0:0,0:0:0:0:
294,177,102855,1,0,0:0:0:0:
257,115,102972,2,0,P|217:92|163:92,1,95,4|0,3:2|0:0,0:0:0:0:
66,257,103324,2,0,P|106:280|160:280,1,95,2|0,0:2|0:0,0:0:0:0:
198,169,103675,6,0,L|208:229,1,47.5,4|0,0:2|0:0,0:0:0:0:
302,325,103910,2,0,L|312:385,1,47.5,0|0,3:0|0:0,0:0:0:0:
202,361,104144,1,0,0:0:0:0:
305,224,104378,6,0,L|319:124,1,95,2|0,1:3|0:0,0:0:0:0:
198,169,104730,1,0,0:0:0:0:
198,169,104847,2,0,L|184:69,1,95,4|0,3:2|1:0,0:0:0:0:
161,56,105199,6,0,L|221:64,1,47.5,0|0,0:0|1:0,0:0:0:0:
256,120,105433,1,0,0:0:0:0:
351,56,105550,2,0,L|291:64,1,47.5,0|0,1:0|1:0,0:0:0:0:
64,208,105785,5,4,3:1:0:0:
64,208,105902,2,0,L|167:197,1,95
346,178,106253,2,0,L|243:189,1,95,2|0,1:3|0:0,0:0:0:0:
251,188,106605,1,0,0:0:0:0:
346,178,106722,2,0,L|440:167,1,95,4|0,3:2|0:0,0:0:0:0:
157,199,107074,2,0,L|62:209,1,95,2|0,0:2|0:0,0:0:0:0:
62,209,107425,1,4,0:2:0:0:
440,167,107660,1,0,3:0:0:0:
224,4,107894,5,0,0:0:0:0:
224,4,108128,2,0,L|244:116,1,95,2|0,1:3|0:0,0:0:0:0:
240,97,108480,1,0,0:0:0:0:
256,190,108597,2,0,L|272:283,1,95,4|0,3:2|0:0,0:0:0:0:
289,377,108949,2,0,L|272:283,1,95,2|2,0:2|0:2,0:0:0:0:
256,190,109300,1,2,0:2:0:0:
256,190,109417,1,2,0:2:0:0:
335,98,109535,6,0,L|400:106,1,47.5,0|0,3:0|0:0,0:0:0:0:
461,193,109769,2,0,L|396:185,1,47.5
335,98,110003,1,2,1:3:0:0:
406,274,110238,1,0,0:0:0:0:
406,274,110355,1,0,0:0:0:0:
332,280,110472,2,0,B|316:329|316:329|333:383,2,95,4|2|2,3:2|0:2|1:2,0:0:0:0:
342,265,111058,2,0,L|242:254,1,95,2|2,0:2|0:2,0:0:0:0:
177,286,111410,6,0,L|112:278,1,47.5,0|0,3:0|0:0,0:0:0:0:
51,191,111644,2,0,L|116:199,1,47.5
177,286,111878,1,2,1:3:0:0:
233,235,111995,1,0,0:0:0:0:
234,158,112113,1,0,0:0:0:0:
181,102,112230,1,0,0:0:0:0:
105,91,112347,5,4,3:2:0:0:
105,91,112464,2,0,P|58:114|12:108,1,95,0|2,0:0|0:2,0:0:0:0:
16,109,112816,2,0,L|31:161,1,47.5,0|2,1:0|0:2,0:0:0:0:
22,269,113050,2,0,L|51:229,1,47.5,2|2,0:2|0:2,0:0:0:0:
150,189,113285,6,0,L|102:177,2,47.5,0|0|0,3:0|0:0|0:0,0:0:0:0:
369,303,113753,2,0,L|381:189,1,95,2|0,1:3|0:0,0:0:0:0:
386,130,114105,1,0,0:0:0:0:
294,230,114222,2,0,L|282:344,1,95,4|0,3:2|0:0,0:0:0:0:
386,130,114574,2,0,L|398:16,1,95,2|0,0:2|0:0,0:0:0:0:
395,35,114925,1,4,0:2:0:0:
284,324,115160,1,0,3:0:0:0:
48,133,115394,6,0,L|58:201,1,47.5
122,233,115628,2,0,L|128:280,1,47.5,2|0,1:3|0:0,0:0:0:0:
143,46,115863,2,0,L|150:94,1,47.5
125,359,116097,6,0,L|111:255,1,95,4|0,3:2|0:0,0:0:0:0:
171,120,116449,2,0,L|157:16,1,95,2|2,0:2|0:2,0:0:0:0:
137,194,116800,1,2,0:2:0:0:
137,194,116917,1,2,0:2:0:0:
195,256,117035,6,0,L|185:319,1,47.5,0|0,3:0|0:0,0:0:0:0:
315,311,117269,2,0,L|325:374,1,47.5
182,329,117503,1,2,1:3:0:0:
314,232,117738,1,0,0:0:0:0:
382,199,117855,1,0,0:0:0:0:
317,159,117972,1,4,3:2:0:0:
436,260,118206,2,0,L|491:274,1,47.5,0|2,0:0|0:2,0:0:0:0:
438,135,118558,2,0,L|493:121,1,47.5,0|4,0:0|0:2,0:0:0:0:
195,128,118910,6,0,L|185:65,1,47.5,0|0,3:0|0:0,0:0:0:0:
315,73,119144,2,0,L|325:10,1,47.5,0|0,1:0|0:0,0:0:0:0:
182,55,119378,5,0,1:3:0:0:
249,90,119495,1,0,0:0:0:0:
324,99,119613,1,0,3:0:0:0:
395,73,119730,1,0,0:0:0:0:
455,27,119847,5,0,1:0:0:0:
458,31,119965,1,0,1:0:0:0:
461,35,120082,1,0,1:0:0:0:
464,39,120199,1,0,1:0:0:0:
511,118,120316,5,0,1:0:0:0:
508,122,120434,1,0,1:0:0:0:
505,126,120551,1,0,1:0:0:0:
502,130,120668,1,0,1:0:0:0:
425,173,120785,5,4,3:1:0:0:
395,379,121019,1,2,0:0:0:0:
450,281,121253,6,0,L|361:268,1,75.9999976806641,0|2,1:0|0:0,0:0:0:0:
310,230,121487,2,0,L|221:217,1,75.9999976806641,0|2,0:0|0:0,0:0:0:0:
175,181,121722,2,0,B|141:203|141:203|132:248|177:274,1,113.999996520996,0|2,3:0|0:0,0:0:0:0:
38,233,122191,6,0,L|127:220,1,75.9999976806641,0|2,1:0|0:0,0:0:0:0:
175,181,122425,2,0,L|264:168,1,75.9999976806641,0|2,0:0|0:0,0:0:0:0:
308,129,122660,2,0,B|310:112|331:102|331:102|343:53|275:23,1,113.999996520996,0|2,3:0|0:0,0:0:0:0:
301,37,123128,1,0,1:0:0:0:
246,338,123363,1,0,0:0:0:0:
149,223,123597,5,0,3:0:0:0:
395,133,123831,1,2,0:0:0:0:
344,198,124066,5,0,1:0:0:0:
195,162,124300,1,0,0:0:0:0:
269,180,124417,1,2,3:2:0:0:
282,256,124535,1,0,3:0:0:0:
184,24,124769,5,2,0:0:0:0:
184,24,125003,2,0,L|177:109,1,75.9999976806641,0|2,1:0|0:0,0:0:0:0:
168,115,125238,2,0,L|175:200,1,75.9999976806641,0|2,0:0|0:0,0:0:0:0:
186,210,125472,2,0,B|179:255|179:255|188:281|188:281|182:339,1,113.999996520996,0|2,3:0|0:0,0:0:0:0:
186,210,125941,6,0,L|179:128,1,75.9999976806641,0|2,1:0|0:0,0:0:0:0:
247,57,126175,2,0,L|254:139,1,75.9999976806641,0|2,0:0|0:0,0:0:0:0:
252,153,126410,2,0,B|300:165|300:165|383:135,1,113.999996520996,0|2,3:0|0:0,0:0:0:0:
422,25,126878,5,0,1:0:0:0:
411,93,126995,1,2,0:0:0:0:
257,313,127230,1,2,0:0:0:0:
268,245,127347,1,0,3:0:0:0:
140,72,127581,1,2,0:0:0:0:
156,228,127816,5,0,1:0:0:0:
256,104,128050,1,2,0:0:0:0:
207,162,128167,1,2,3:2:0:0:
132,150,128285,6,0,L|31:138,1,75.9999976806641,0|0,3:0|0:0,0:0:0:0:
39,131,128519,2,0,P|28:193|57:243,1,113.999996520996,2|0,0:0|1:0,0:0:0:0:
226,248,128910,1,2,0:0:0:0:
235,254,128988,2,0,P|283:246|318:253,1,75.9999976806641,0|2,0:0|0:0,0:0:0:0:
329,231,129222,2,0,P|377:241|459:216,2,113.999996520996,0|2|0,3:0|0:0|1:0,0:0:0:0:
412,65,129847,5,2,0:0:0:0:
420,73,129925,2,0,L|410:159,1,75.9999976806641,0|2,0:0|0:0,0:0:0:0:
344,186,130160,2,0,L|328:323,2,113.999996520996,0|2|0,3:0|0:0|1:0,0:0:0:0:
456,276,130785,1,2,0:0:0:0:
447,282,130863,2,0,L|436:366,1,75.9999976806641,0|2,0:0|0:0,0:0:0:0:
456,368,131097,2,0,L|328:365,2,113.999996520996,0|2|0,3:0|0:0|1:0,0:0:0:0:
281,269,131722,1,2,0:0:0:0:
274,277,131800,2,0,L|202:277,1,56.9999982604981,0|2,0:0|3:2,0:0:0:0:
142,239,132035,5,0,3:0:0:0:
352,321,132269,2,0,P|368:269|344:184,1,113.999996520996,2|0,0:0|1:0,0:0:0:0:
268,152,132738,2,0,P|229:150|184:168,1,75.9999976806641,0|2,0:0|0:0,0:0:0:0:
184,176,132972,2,0,P|168:124|192:39,1,113.999996520996,0|2,3:0|0:0,0:0:0:0:
176,66,133441,1,0,1:0:0:0:
262,49,133597,1,2,0:0:0:0:
268,58,133675,2,0,B|303:73|303:73|355:63,1,75.9999976806641,0|2,0:0|0:0,0:0:0:0:
359,51,133910,6,0,L|346:140,1,75.9999976806641,0|0,3:0|0:0,0:0:0:0:
400,262,134144,2,0,L|413:171,1,75.9999976806641,2|0,0:2|0:0,0:0:0:0:
402,178,134378,2,0,B|439:170|439:170|474:185,1,75.9999976806641,0|2,1:0|0:2,0:0:0:0:
423,343,134613,1,0,0:0:0:0:
423,343,134730,1,2,1:2:0:0:
423,343,134847,6,0,L|361:343,1,56.9999982604981,0|0,1:0|1:0,1:0:0:0:
318,271,135081,1,0,1:0:0:0:
277,345,135199,6,0,L|215:345,1,56.9999982604981,0|0,1:0|1:0,1:0:0:0:
176,271,135433,1,0,1:0:0:0:
136,348,135550,1,0,1:0:0:0:
136,348,135668,1,0,1:0:0:0:
136,348,135785,1,4,3:1:0:0:
33,137,136019,6,0,L|131:120,1,75.9999976806641,2|0,0:0|0:0,0:0:0:0:
155,63,136253,2,0,P|207:46|276:71,1,113.999996520996,0|0,1:0|0:0,0:0:0:0:
292,304,136644,1,2,0:0:0:0:
286,311,136722,2,0,P|281:269|295:232,1,75.9999976806641,0|0,3:0|0:0,0:0:0:0:
348,196,136956,1,2,0:0:0:0:
214,126,137191,5,0,1:0:0:0:
214,126,137308,2,0,L|203:248,1,113.999996520996,2|2,0:0|0:0,0:0:0:0:
148,300,137660,2,0,P|112:285|64:286,1,75.9999976806641,0|0,3:0|0:0,0:0:0:0:
64,288,137894,1,2,0:0:0:0:
203,239,138128,5,0,1:0:0:0:
203,239,138245,2,0,L|213:125,1,113.999996520996,2|2,0:0|0:0,0:0:0:0:
288,100,138597,2,0,B|309:100|328:85|328:85|358:119|404:112,1,113.999996520996,0|2,3:0|0:0,0:0:0:0:
214,126,139066,6,0,L|208:194,1,56.9999982604981,0|2,1:0|0:0,0:0:0:0:
207,204,139300,2,0,L|201:272,1,56.9999982604981,0|2,0:0|3:2,0:0:0:0:
453,217,139535,5,0,1:0:0:0:
312,223,139769,1,2,1:2:0:0:
432,219,140003,2,0,B|394:216|394:216|374:224|374:224|337:222,1,95,0|0,1:0|3:0,0:0:0:0:
338,222,141175,5,0,1:0:0:0:
347,292,141292,1,2,1:2:0:0:
355,363,141410,1,0,3:0:0:0:
207,341,141566,1,0,0:2:0:0:
203,349,141644,2,0,L|122:342,1,75.9999976806641,2|0,0:2|0:2,0:0:0:0:
128,343,141878,6,0,P|93:349|52:367,1,75.9999976806641,0|2,1:0|0:2,0:0:0:0:
85,259,142113,2,0,P|46:209|17:193,1,75.9999976806641,0|2,0:0|0:2,0:0:0:0:
137,180,142347,2,0,P|173:145|193:62,1,113.999996520996,0|2,3:0|0:2,0:0:0:0:
128,343,142816,6,0,L|189:346,1,56.9999982604981,0|2,1:0|0:2,0:0:0:0:
264,302,143050,2,0,L|324:304,1,56.9999982604981,0|2,0:0|3:2,0:0:0:0:
377,369,143285,5,0,3:0:0:0:
452,73,143519,2,0,P|431:117|447:198,1,113.999996520996,2|0,0:2|1:0,0:0:0:0:
437,180,143988,2,0,L|468:258,1,75.9999976806641,0|2,0:0|0:2,0:0:0:0:
381,251,144222,2,0,L|352:333,1,75.9999976806641,0|0,3:0|0:2,0:0:0:0:
300,254,144456,2,0,L|179:259,2,113.999996520996,2|0|2,0:2|1:2|0:2,0:0:0:0:
433,322,145042,2,0,L|502:320,1,56.9999982604981,2|0,0:2|3:0,0:0:0:0:
300,254,145394,6,0,L|312:113,1,113.999996520996,2|0,0:2|1:0,0:0:0:0:
362,96,145745,1,2,0:2:0:0:
320,41,145863,1,0,0:0:0:0:
267,84,145980,1,2,0:2:0:0:
309,140,146097,2,0,L|304:200,1,56.9999982604981,0|0,3:0|0:0,0:0:0:0:
227,212,146331,2,0,L|222:272,1,56.9999982604981,2|0,0:2|0:0,0:0:0:0:
251,342,146566,2,0,L|246:282,1,56.9999982604981,0|2,1:0|0:2,0:0:0:0:
151,235,146800,2,0,L|146:175,1,56.9999982604981,0|2,0:0|3:2,0:0:0:0:
146,178,147035,5,0,3:0:0:0:
47,318,147269,2,0,P|95:318|130:303,1,75.9999976806641,2|0,0:2|0:0,0:0:0:0:
131,305,147503,1,0,1:0:0:0:
173,105,147738,2,0,P|125:105|90:120,1,75.9999976806641,0|2,0:2|0:2,0:0:0:0:
88,139,147972,2,0,P|81:74|49:13,2,113.999996520996,0|2|0,3:0|0:2|1:0,0:0:0:0:
107,277,148675,2,0,P|110:318|124:356,1,75.9999976806641,0|2,0:0|0:2,0:0:0:0:
198,359,148910,5,4,3:1:0:0:
423,250,149144,1,0,1:2:0:0:
314,25,149378,1,0,1:0:0:0:
89,134,149612,1,0,1:0:0:0:
256,192,149847,12,4,150785,3:3:0:0:
350,190,165316,5,8,0:0:0:0:
350,190,165550,2,0,L|342:241,1,40.375000770092,8|0,0:0|0:0,0:0:0:0:
335,305,165785,6,0,B|363:345|363:345|432:337|432:337|454:277,2,161.500003080368,0|0|0,3:0|3:0|3:0,0:0:0:0:
335,305,167191,1,0,3:0:0:0:
212,190,167425,1,0,0:0:0:0:
183,193,167542,1,0,0:0:0:0:
154,197,167660,6,0,B|131:290|131:290|208:279,2,161.500003080368,0|0|0,3:0|3:0|3:0,0:0:0:0:
88,119,168831,2,0,L|75:33,1,80.750001540184,0|0,0:0|3:0,0:0:0:0:
292,85,169300,1,0,0:0:0:0:
292,85,169417,1,0,0:0:0:0:
292,85,169535,6,0,B|331:92|350:76|350:76|373:88|385:110|385:110|415:103|455:117,2,161.500003080368,0|0|0,3:0|3:0|3:0,0:0:0:0:
292,85,170941,1,0,3:0:0:0:
211,234,171175,1,0,0:0:0:0:
209,258,171292,1,0,0:0:0:0:
208,282,171410,6,0,L|200:375,1,80.750001540184,0|0,3:0|0:0,0:0:0:0:
317,253,171878,2,0,L|331:343,1,80.750001540184,0|0,3:0|0:0,0:0:0:0:
112,197,172347,2,0,L|78:294,1,80.750001540184,0|0,3:0|0:0,0:0:0:0:
397,176,172816,1,0,3:0:0:0:
397,176,173050,2,0,L|436:270,1,80.750001540184,0|0,0:0|3:0,0:0:0:0:
242,224,173519,5,0,0:0:0:0:
304,160,173753,1,0,3:0:0:0:
173,124,173988,1,0,0:0:0:0:
236,59,174222,2,0,P|203:21|94:47,1,161.500003080368,0|0,3:0|3:0,0:0:0:0:
52,163,174925,1,0,0:0:0:0:
52,163,175042,1,0,0:0:0:0:
52,163,175160,6,0,L|68:255,1,80.750001540184,0|0,3:0|0:0,0:0:0:0:
160,347,175628,2,0,L|144:255,1,80.750001540184,0|0,3:0|0:0,0:0:0:0:
199,193,176097,1,0,3:0:0:0:
288,323,176331,2,0,P|347:334|433:268,1,161.500003080368
427,280,177035,1,0,3:0:0:0:
383,205,177269,5,0,0:0:0:0:
426,43,177503,1,0,3:0:0:0:
383,205,177738,1,0,0:0:0:0:
439,131,177972,2,0,L|346:115,1,80.750001540184,0|0,3:0|0:0,0:0:0:0:
240,202,178441,1,0,3:0:0:0:
217,64,178675,1,0,0:0:0:0:
214,48,178792,1,0,0:0:0:0:
211,31,178910,5,0,3:0:0:0:
65,204,179378,1,0,3:0:0:0:
390,347,179847,1,0,3:0:0:0:
390,347,180081,1,0,0:0:0:0:
344,196,180316,5,8,1:2:0:0:
344,196,180785,6,0,L|453:186,1,95,4|0,3:1|0:0,0:0:0:0:
445,335,181253,2,0,L|336:345,1,95,8|0,3:2|0:0,0:0:0:0:
249,187,181722,6,0,L|343:195,1,95,0|0,3:0|0:0,0:0:0:0:
350,343,182191,2,0,L|255:334,1,95,8|0,3:2|0:0,0:0:0:0:
154,200,182660,5,0,3:0:0:0:
249,187,182894,1,0,0:0:0:0:
124,348,183128,5,8,3:2:0:0:
29,361,183362,1,0,0:0:0:0:
130,266,183597,5,0,3:2:0:0:
136,171,183831,2,0,L|124:371,1,190,2|2,0:2|0:2,0:0:0:0:
136,171,184535,5,0,3:0:0:0:
294,170,184769,1,0,0:0:0:0:
294,170,185003,2,0,L|414:181,1,95,8|0,3:2|0:0,0:0:0:0:
506,181,185472,2,0,L|386:170,1,95,0|0,3:0|0:0,0:0:0:0:
393,152,185941,6,0,L|410:54,1,95,8|0,3:2|0:0,0:0:0:0:
390,277,186410,2,0,L|407:179,1,95,0|0,3:0|0:0,0:0:0:0:
251,159,186878,5,8,3:2:0:0:
406,183,187113,1,0,0:0:0:0:
242,64,187347,1,0,3:0:0:0:
420,40,187581,1,0,0:0:0:0:
251,159,187816,5,8,3:2:0:0:
242,64,188050,2,0,L|258:264,1,190,2|2,0:0|0:0,0:0:0:0:
396,115,188753,5,8,3:2:0:0:
413,299,188988,1,0,0:0:0:0:
396,115,189222,2,0,L|404:218,1,95,0|0,3:0|0:0,0:0:0:0:
291,124,189691,1,8,3:2:0:0:
484,155,189925,1,0,0:0:0:0:
298,218,190160,2,0,L|289:114,1,95,0|0,3:0|0:0,0:0:0:0:
298,218,190628,1,8,3:2:0:0:
281,34,190863,1,0,0:0:0:0:
200,185,191097,5,0,3:2:0:0:
389,166,191331,2,0,L|196:185,1,190,2|2,0:2|0:2,0:0:0:0:
108,261,192035,6,0,L|88:361,1,95,0|0,3:0|0:0,0:0:0:0:
150,154,192503,2,0,L|131:247,1,95,8|0,3:2|0:0,0:0:0:0:
116,361,192972,6,0,L|7:372,1,95,0|0,3:0|0:0,0:0:0:0:
118,128,193441,2,0,L|227:139,1,95,8|0,3:2|0:0,0:0:0:0:
360,230,193910,5,0,3:0:0:0:
472,190,194144,1,0,0:0:0:0:
360,230,194378,5,8,3:2:0:0:
248,270,194612,1,0,0:0:0:0:
360,230,194847,5,0,3:0:0:0:
400,342,195081,1,0,0:0:0:0:
360,230,195315,5,10,3:2:0:0:
320,118,195549,1,2,0:0:0:0:
305,299,195785,6,0,B|250:330|250:330|122:307,1,190,4|0,1:0|1:0,0:0:0:0:
125,307,196488,1,2,0:0:0:0:
388,203,196722,2,0,B|434:189|434:189|461:145|461:145|505:189|489:245,1,190,0|0,1:2|1:0,0:0:0:0:
309,246,197425,1,2,0:0:0:0:
309,246,197542,1,2,0:0:0:0:
309,246,197660,6,0,P|293:201|311:151,1,95,0|0,1:0|0:0,0:0:0:0:
168,102,198128,2,0,P|197:163|171:279,1,190,0|0,1:0|1:0,0:0:0:0:
6,173,198831,2,0,L|111:180,1,95,2|0,0:2|1:0,0:0:0:0:
171,278,199300,2,0,L|66:271,1,95,2|0,0:2|1:0,0:0:0:0:
76,271,199769,1,0,0:0:0:0:
127,198,200003,5,0,1:0:0:0:
53,78,200238,1,2,0:0:0:0:
196,159,200472,5,0,1:0:0:0:
191,18,200707,1,0,0:0:0:0:
275,167,200941,5,0,1:0:0:0:
341,42,201176,1,2,0:2:0:0:
360,79,201292,1,2,0:2:0:0:
379,117,201410,5,0,1:0:0:0:
276,91,201644,1,0,0:0:0:0:
260,228,201878,1,0,1:0:0:0:
276,91,202113,1,0,0:0:0:0:
357,288,202347,1,0,1:0:0:0:
276,91,202581,1,0,0:2:0:0:
188,130,202816,5,0,1:0:0:0:
446,160,203050,2,0,L|495:166,2,47.5,2|0|0,0:2|0:0|1:0,0:0:0:0:
420,326,203519,5,2,0:2:0:0:
420,326,203753,2,0,P|406:279|431:230,1,95,0|2,1:0|0:2,0:0:0:0:
282,142,204222,2,0,B|320:106|320:106|385:165|334:226,1,190,0|0,1:0|1:0,0:0:0:0:
316,355,204925,1,2,0:2:0:0:
316,355,205042,1,2,0:2:0:0:
316,355,205160,6,0,L|219:347,1,95,0|0,1:0|0:0,0:0:0:0:
419,132,205628,2,0,L|411:229,1,95,0|0,1:0|0:0,0:0:0:0:
196,29,206097,2,0,L|293:37,1,95,0|2,1:0|0:2,0:0:0:0:
92,252,206566,2,0,L|100:155,1,95,0|2,1:0|0:2,0:0:0:0:
33,99,207035,5,0,1:0:0:0:
173,197,207269,1,0,0:0:0:0:
92,252,207503,5,0,1:0:0:0:
249,145,207738,1,2,0:2:0:0:
220,69,207972,5,0,1:0:0:0:
360,167,208206,1,0,0:0:0:0:
279,222,208440,5,0,1:0:0:0:
436,115,208675,1,2,0:2:0:0:
436,115,208792,1,2,0:2:0:0:
436,115,208910,2,0,B|423:188|423:188|437:225,1,95,0|0,1:0|1:0,0:0:0:0:
430,207,209378,6,0,L|379:200,1,47.5,0|0,1:0|1:0,1:0:0:0:
346,213,209613,2,0,L|295:206,1,47.5,0|0,1:0|1:0,1:0:0:0:
329,63,209847,2,0,L|278:56,1,47.5,0|0,1:0|1:0,1:0:0:0:
264,130,210081,2,0,L|213:123,1,47.5,0|0,1:0|1:0,1:0:0:0:
246,34,210316,2,0,L|195:27,1,47.5,0|0,1:0|1:0,1:0:0:0:
155,194,210550,2,0,L|104:187,1,47.5,0|0,1:0|1:0,1:0:0:0:
41,138,210785,5,4,3:1:0:0:
118,55,211019,2,0,L|125:105,1,47.5,0|0,0:2|0:0,0:0:0:0:
138,258,211253,2,0,P|142:306|108:347,1,95,0|0,1:0|0:0,0:0:0:0:
71,285,211605,1,0,0:2:0:0:
138,258,211722,2,0,B|177:243|208:259|208:259|238:290|279:284,1,142.5,0|0,3:0|0:0,0:0:0:0:
335,245,212191,1,0,1:0:0:0:
419,98,212425,1,2,0:2:0:0:
423,280,212660,6,0,L|404:180,1,95,0|0,3:0|0:2,0:0:0:0:
405,186,213011,1,0,0:0:0:0:
405,186,213128,1,0,1:0:0:0:
499,218,213363,1,0,0:0:0:0:
397,363,213597,2,0,L|303:311,1,95,0|0,3:0|0:2,0:0:0:0:
313,317,213949,1,0,0:0:0:0:
313,317,214066,1,0,1:0:0:0:
194,234,214300,2,0,L|136:242,1,47.5,2|0,0:2|3:0,0:0:0:0:
68,254,214535,5,0,3:0:0:0:
194,234,214769,2,0,L|252:226,1,47.5,0|0,0:2|0:0,0:0:0:0:
330,148,215003,2,0,B|355:108|355:108|339:57,1,95,0|0,1:0|0:0,0:0:0:0:
380,0,215355,1,0,0:2:0:0:
475,78,215472,6,0,P|405:89|340:62,1,142.5,0|0,3:0|0:0,0:0:0:0:
271,90,215941,2,0,P|221:75|174:86,1,95,0|2,1:0|0:2,0:0:0:0:
19,186,216410,6,0,B|60:194|90:168|90:168|134:165|174:194,1,142.5,0|0,3:2|0:2,0:0:0:0:
206,243,216878,2,0,P|252:260|302:241,1,95,0|0,1:0|0:0,0:0:0:0:
325,178,217230,1,0,0:2:0:0:
325,178,217347,1,0,3:0:0:0:
424,263,217581,2,0,L|387:232,1,47.5,0|0,0:2|0:0,0:0:0:0:
325,178,217816,1,0,1:0:0:0:
380,24,218050,2,0,L|362:84,1,47.5,2|0,0:2|3:0,0:0:0:0:
325,178,218285,5,0,3:0:0:0:
424,176,218519,1,0,0:2:0:0:
276,92,218753,2,0,P|225:65|178:78,1,95,0|0,1:0|0:0,0:0:0:0:
174,89,219105,1,0,0:2:0:0:
159,107,219222,2,0,B|104:120|104:120|84:152|84:152|24:167,1,142.5,0|0,3:0|0:0,0:0:0:0:
13,97,219691,1,0,1:0:0:0:
150,244,219925,1,2,0:2:0:0:
67,330,220160,6,0,P|57:289|43:234,1,95,0|0,3:0|0:2,0:0:0:0:
44,238,220511,1,0,0:0:0:0:
44,238,220628,1,0,1:0:0:0:
109,149,220863,1,0,0:0:0:0:
258,284,221097,2,0,P|227:313|186:352,1,95,0|0,3:0|0:2,0:0:0:0:
189,351,221448,1,0,0:0:0:0:
189,351,221565,1,0,1:0:0:0:
209,93,221800,2,0,L|161:88,1,47.5,2|0,0:2|3:0,0:0:0:0:
109,149,222035,5,0,3:0:0:0:
209,93,222269,2,0,L|276:99,1,47.5,0|0,0:2|0:0,0:0:0:0:
314,163,222503,2,0,B|359:184|359:184|415:167,1,95,0|0,1:0|0:0,0:0:0:0:
417,96,222855,1,0,0:2:0:0:
314,163,222972,6,0,B|268:178|268:178|245:235|302:281,1,142.5,0|0,3:0|0:0,0:0:0:0:
366,285,223441,2,0,P|385:332|367:380,1,95,0|2,1:0|0:2,0:0:0:0:
304,368,223792,1,0,0:0:0:0:
304,368,223910,1,0,3:0:0:0:
177,173,224144,5,2,0:2:0:0:
292,206,224378,1,0,1:0:0:0:
366,112,224613,1,2,0:2:0:0:
292,206,224847,1,0,3:0:0:0:
323,312,225081,1,2,1:2:0:0:
292,206,225316,1,0,1:0:0:0:
416,220,225550,2,0,L|364:215,1,47.5,2|0,1:2|1:0,0:0:0:0:
176,192,225785,5,4,3:1:0:0:
166,327,226019,2,0,L|170:278,1,47.5,2|0,0:2|0:0,0:0:0:0:
94,267,226253,2,0,B|73:310|73:310|96:362,1,95,0|0,1:2|0:0,0:0:0:0:
66,358,226605,6,0,L|12:365,1,47.5,2|0,0:2|3:0,0:0:0:0:
248,337,226839,2,0,L|302:330,2,47.5,0|2|0,0:0|0:2|0:0,0:0:0:0:
236,353,227191,1,0,1:0:0:0:
326,233,227425,1,2,0:2:0:0:
383,282,227542,1,0,0:0:0:0:
447,243,227660,6,0,L|500:249,1,47.5,0|0,3:0|0:0,0:0:0:0:
266,133,227894,2,0,L|319:139,1,47.5,2|0,0:2|0:0,0:0:0:0:
407,157,228128,2,0,L|508:166,1,95,0|0,1:0|0:0,0:0:0:0:
501,165,228480,1,2,0:2:0:0:
407,157,228597,6,0,L|354:163,1,47.5,0|0,3:0|0:0,0:0:0:0:
266,133,228831,2,0,L|213:139,1,47.5,2|0,0:2|0:0,0:0:0:0:
123,104,229066,1,0,1:0:0:0:
113,104,229183,1,0,0:0:0:0:
103,104,229300,1,2,0:2:0:0:
93,105,229417,1,0,3:0:0:0:
48,160,229535,5,0,3:0:0:0:
215,197,229769,2,0,L|226:148,1,47.5,2|0,0:2|0:0,0:0:0:0:
310,137,230003,2,0,L|287:238,1,95,0|0,1:0|0:0,0:0:0:0:
314,235,230355,6,0,L|369:247,1,47.5,2|0,0:2|3:0,0:0:0:0:
178,316,230589,2,0,L|123:328,2,47.5,0|2|0,0:0|0:2|0:0,0:0:0:0:
189,295,230941,1,0,1:0:0:0:
314,366,231175,1,2,0:2:0:0:
254,328,231292,1,0,0:0:0:0:
273,258,231410,6,0,L|282:207,1,47.5,0|0,3:0|0:0,0:0:0:0:
230,143,231644,2,0,L|279:122,1,47.5,2|0,0:2|0:0,0:0:0:0:
269,50,231878,2,0,B|318:44|318:44|363:77,1,95,0|0,1:0|0:0,0:0:0:0:
354,70,232230,1,2,0:2:0:0:
250,135,232347,6,0,L|206:153,1,47.5,0|0,3:0|0:0,0:0:0:0:
279,232,232581,2,0,L|269:278,1,47.5,2|0,0:2|0:0,0:0:0:0:
370,283,232816,1,0,1:0:0:0:
372,292,232933,1,0,0:0:0:0:
374,301,233050,1,2,0:2:0:0:
376,310,233167,1,0,3:0:0:0:
323,367,233285,5,0,3:0:0:0:
204,93,233519,2,0,L|138:87,1,47.5,2|0,0:2|0:0,0:0:0:0:
34,216,233753,2,0,L|140:227,1,95,0|0,1:0|0:0,0:0:0:0:
145,206,234105,6,0,L|138:151,1,47.5,2|0,0:2|3:2,0:2:0:0:
220,180,234339,1,0,0:0:0:0:
292,139,234456,1,2,0:2:0:0:
292,139,234574,1,0,0:0:0:0:
292,139,234691,2,0,P|302:180|276:242,1,95,0|2,1:0|0:2,0:0:0:0:
220,180,235042,1,0,0:0:0:0:
140,159,235160,6,0,L|89:150,1,47.5,0|0,3:0|0:0,0:0:0:0:
165,246,235394,2,0,L|135:291,1,47.5,2|0,0:2|0:0,0:0:0:0:
247,258,235628,2,0,L|265:359,1,95,0|0,1:0|0:0,0:0:0:0:
263,351,235980,1,2,0:2:0:0:
247,258,236097,6,0,L|237:200,1,47.5,0|0,3:0|0:0,0:0:0:0:
351,213,236331,2,0,L|362:155,1,47.5,2|0,0:2|0:0,0:0:0:0:
450,250,236566,1,0,1:0:0:0:
456,242,236683,1,0,0:0:0:0:
462,234,236800,1,2,0:2:0:0:
468,227,236917,1,0,3:0:0:0:
466,154,237035,6,0,L|458:105,2,47.5,0|0|2,3:0|0:0|0:2,0:0:0:0:
466,154,237503,1,4,1:2:0:0:
365,238,237738,1,0,0:0:0:0:
337,106,237972,2,0,L|318:7,1,95,4|0,3:2|0:0,0:0:0:0:
351,173,238324,1,0,0:0:0:0:
365,238,238441,2,0,L|384:337,1,95,4|0,1:2|3:0,0:0:0:0:
312,321,238792,1,0,3:0:0:0:
241,305,238910,5,4,3:2:0:0:
241,305,239144,2,0,L|184:318,1,47.5
165,190,239378,2,0,L|178:247,1,47.5
55,269,239613,2,0,L|112:256,1,47.5
131,384,239847,2,0,L|118:327,1,47.5
71,188,240081,5,0,0:0:0:0:
71,188,240199,1,0,0:0:0:0:
155,196,240316,1,0,0:1:0:0:
155,196,240433,2,2,B|216:185|190:220|271:201,1,95,0|0,2:1|2:1,0:1:0:0:
289,193,240785,5,4,0:1:0:0:
491,44,241019,2,0,P|479:83|455:100,1,56.9999982604981
449,112,241253,1,8,0:0:0:0:
449,112,241370,2,0,P|395:89|334:100,1,113.999996520996
276,137,241722,5,0,0:0:0:0:
125,243,241956,1,0,0:0:0:0:
36,62,242191,2,0,L|56:141,1,56.9999982604981,8|2,0:0|0:2,0:0:0:0:
120,139,242425,1,2,0:2:0:0:
187,107,242542,1,2,0:2:0:0:
244,154,242660,5,0,0:0:0:0:
344,353,242894,2,0,P|347:318|340:290,1,56.9999982604981
331,264,243128,1,8,0:0:0:0:
331,264,243245,2,0,P|317:212|346:152,1,113.999996520996
505,228,243597,6,0,L|390:216,1,113.999996520996,0|2,0:0|0:2,0:0:0:0:
391,216,243949,1,2,0:2:0:0:
331,264,244066,2,0,L|216:252,1,113.999996520996,8|2,0:0|0:2,0:0:0:0:
217,252,244418,1,2,0:2:0:0:
151,299,244535,5,0,0:0:0:0:
24,339,244769,2,0,P|13:304|19:275,1,56.9999982604981
12,247,245003,1,8,0:0:0:0:
12,247,245120,2,0,P|72:253|124:217,1,113.999996520996
146,155,245472,5,0,0:0:0:0:
217,323,245706,1,0,0:0:0:0:
283,158,245941,2,0,L|294:226,1,56.9999982604981,8|2,0:0|0:2,0:0:0:0:
354,259,246175,1,2,0:2:0:0:
350,286,246292,1,2,0:2:0:0:
413,327,246410,5,0,0:0:0:0:
235,221,246644,2,0,L|301:213,1,56.9999982604981
367,155,246878,2,0,B|488:138|488:138|454:194,1,170.999994781494,8|0,0:0|0:0,0:0:0:0:
359,175,247347,2,0,L|293:183,1,56.9999982604981
377,297,247581,2,0,P|428:267|487:281,1,113.999996520996,2|8,0:1|0:0,0:0:0:0:
312,351,247933,2,0,L|188:341,1,113.999996520996,2|2,0:1|0:2,0:0:0:0:
111,334,248285,5,0,0:0:0:0:
20,171,248519,2,0,P|51:150|82:144,1,56.9999982604981
190,248,248753,1,8,0:0:0:0:
190,248,248870,2,0,P|135:227|78:239,1,113.999996520996
26,285,249222,5,0,0:0:0:0:
136,149,249456,1,0,0:0:0:0:
240,293,249691,2,0,L|314:284,1,56.9999982604981,8|2,0:0|0:2,0:0:0:0:
361,250,249925,1,2,0:2:0:0:
297,212,250042,1,2,0:2:0:0:
362,176,250160,5,0,0:0:0:0:
362,176,250277,1,0,0:0:0:0:
362,176,250394,2,0,L|356:98,1,56.9999982604981
438,88,250628,2,0,B|471:137|471:137|437:201,1,113.999996520996,8|0,0:0|0:0,0:0:0:0:
445,185,251097,6,0,B|366:171|366:171|318:192,1,113.999996520996,0|2,0:0|0:2,0:0:0:0:
335,184,251449,1,2,0:2:0:0:
276,144,251566,2,0,B|196:158|196:158|148:137,1,113.999996520996,8|2,0:0|0:2,0:0:0:0:
166,145,251917,1,2,0:2:0:0:
99,173,252035,5,0,0:0:0:0:
197,25,252269,2,0,L|214:87,1,56.9999982604981,2|0,0:3|0:0,0:0:0:0:
186,226,252503,2,0,L|232:188,1,56.9999982604981,8|0,0:1|0:0,0:0:0:0:
313,72,252738,2,0,L|330:134,1,56.9999982604981,2|0,0:3|0:0,0:0:0:0:
302,273,252972,2,0,L|348:235,1,56.9999982604981
458,98,253206,2,0,B|483:154|483:154|452:202,1,113.999996520996,2|8,0:3|0:0,0:0:0:0:
454,198,253675,2,0,P|425:187|396:186,1,56.9999982604981,0|0,0:2|0:2,0:0:0:0:
210,174,253910,5,0,0:0:0:0:
210,174,254027,2,2,P|274:175|322:149,1,113.999996520996,0|2,0:1|0:1,0:1:0:0:
301,69,254378,2,0,L|251:101,1,56.9999982604981,8|0,0:0|0:0,0:0:0:0:
140,283,254613,2,2,L|190:251,1,56.9999982604981,0|2,0:1|0:1,0:1:0:0:
263,269,254847,6,0,B|307:266|307:266|337:280|337:280|388:275,1,113.999996520996,0|2,0:0|0:1,0:0:0:0:
375,286,255199,1,0,0:0:0:0:
319,221,255316,5,8,0:0:0:0:
317,230,255433,1,0,0:0:0:0:
387,177,255550,5,2,0:1:0:0:
389,186,255667,1,0,0:0:0:0:
304,141,255785,6,0,L|296:72,1,66.4999979705811,4|0,0:0|0:0,0:0:0:0:
432,3,256019,2,0,P|454:41|446:84,1,66.4999979705811
390,167,256253,1,8,0:0:0:0:
373,178,256370,2,0,B|323:173|323:173|294:188|294:188|228:182,1,132.999995941162
175,74,256722,2,0,B|135:106|135:106|158:208,1,132.999995941162
159,204,257074,1,0,0:0:0:0:
244,183,257191,2,0,L|254:106,1,66.4999979705811,8|2,0:0|0:2,0:0:0:0:
290,42,257425,2,0,L|280:119,1,66.4999979705811,2|2,0:2|0:2,0:0:0:0:
230,264,257660,6,0,P|193:225|102:237,1,132.999995941162
102,238,258011,1,0,0:0:0:0:
17,327,258128,1,8,0:0:0:0:
17,327,258245,2,0,B|66:322|66:322|96:337|96:337|161:332,1,132.999995941162
202,211,258597,2,0,P|206:175|220:144,1,66.4999979705811
406,261,258831,2,0,P|402:297|388:328,1,66.4999979705811
282,367,259066,2,0,B|275:287|311:325|296:215,1,132.999995941162,8|2,0:0|0:2,0:0:0:0:
298,236,259417,1,2,0:2:0:0:
298,236,259535,1,0,0:0:0:0:
260,67,259769,6,0,B|255:36|255:36|268:-2,1,66.4999979705811
357,154,260003,1,8,0:0:0:0:
340,165,260120,2,0,B|302:182|302:182|200:166,1,132.999995941162
129,39,260472,2,0,P|104:77|106:116,1,66.4999979705811
158,225,260706,2,0,B|195:186|195:186|178:86,1,132.999995941162,0|8,0:0|0:0,0:0:0:0:
147,245,261058,2,0,L|136:335,2,66.4999979705811,2|2|2,0:2|0:2|0:2,0:0:0:0:
179,94,261410,6,0,L|258:83,1,66.4999979705811
136,322,261644,2,0,L|57:333,1,66.4999979705811
19,180,261878,6,0,L|89:190,1,66.4999979705811,8|0,0:0|0:0,0:0:0:0:
289,224,262113,2,0,L|219:214,1,66.4999979705811
164,151,262347,5,0,0:0:0:0:
142,74,262464,2,0,P|203:44|274:70,1,132.999995941162
335,105,262816,5,8,0:0:0:0:
337,117,262933,1,2,0:2:0:0:
254,147,263050,5,2,0:2:0:0:
252,159,263167,1,2,0:2:0:0:
348,193,263285,6,0,L|361:260,1,66.4999979705811
411,358,263519,2,0,B|452:368|452:368|485:347,1,66.4999979705811
431,214,263753,1,8,0:0:0:0:
348,193,263870,2,0,B|298:198|298:198|273:225|273:225|213:232,1,132.999995941162
176,294,264222,2,0,B|197:258|197:258|174:157,1,132.999995941162
172,149,264574,1,0,0:0:0:0:
283,59,264691,2,0,L|239:108,1,66.4999979705811,8|2,0:0|0:2,0:0:0:0:
110,239,264925,2,0,L|97:160,1,66.4999979705811,2|2,0:2|0:2,0:0:0:0:
36,128,265160,6,0,P|83:149|115:144,1,66.4999979705811
307,76,265394,2,0,P|301:24|281:0,1,66.4999979705811
182,239,265628,2,0,L|217:173,1,66.4999979705811,8|0,0:0|0:0,0:0:0:0:
136,27,265863,2,0,L|150:102,1,66.4999979705811
345,168,266097,6,0,L|196:181,1,132.999995941162
149,93,266449,2,0,L|298:80,1,132.999995941162,0|2,0:0|0:2,0:0:0:0:
336,25,266800,2,0,B|362:53|362:53|355:82,1,66.4999979705811,2|2,0:2|0:2,0:0:0:0:
395,268,267035,5,0,0:0:0:0:
441,139,267269,2,0,L|420:68,1,66.4999979705811,2|0,0:3|0:0,0:0:0:0:
395,268,267503,2,0,L|368:340,1,66.4999979705811,8|0,0:0|0:0,0:0:0:0:
315,152,267738,2,0,L|294:81,1,66.4999979705811,2|0,0:3|0:0,0:0:0:0:
269,281,267972,2,0,L|242:353,1,66.4999979705811
115,369,268206,2,0,B|61:333|61:333|93:260,1,132.999995941162,2|8,0:3|0:0,0:0:0:0:
88,270,268675,2,0,P|89:243|82:204,1,66.4999979705811
326,273,268910,6,0,P|288:291|255:292,1,66.4999979705811
26,141,269144,2,2,P|64:123|97:122,1,66.4999979705811,8|2,0:1|0:1,0:1:0:0:
278,57,269378,5,10,0:0:0:0:
311,121,269495,1,0,0:0:0:0:
289,191,269613,1,2,0:1:0:0:
221,220,269730,1,0,0:0:0:0:
153,191,269847,5,0,0:0:0:0:
146,189,269964,1,0,0:0:0:0:
139,187,270081,1,2,0:1:0:0:
132,185,270199,1,0,0:0:0:0:
146,100,270316,5,2,0:0:0:0:
141,93,270433,1,0,0:0:0:0:
137,87,270550,1,2,0:1:0:0:
133,81,270668,1,0,0:0:0:0:
199,21,270785,5,4,0:0:0:0:
337,153,271019,2,0,P|274:168|218:134,1,132.999995941162,2|8,0:1|0:1,0:0:0:0:
225,141,271370,1,2,0:2:0:0:
225,141,271488,2,0,P|163:114|97:164,1,132.999995941162,2|4,0:1|0:2,0:0:0:0:
25,145,271839,5,0,0:0:0:0:
125,220,271956,1,2,0:2:0:0:
108,142,272074,1,2,0:2:0:0:
43,225,272191,2,0,L|56:311,1,66.4999979705811,8|2,0:0|0:2,0:0:0:0:
134,293,272425,2,0,L|147:379,1,66.4999979705811,2|0,0:2|0:0,0:0:0:0:
67,381,272660,1,0,0:0:0:0:
309,292,272894,6,0,P|351:244|338:181,1,132.999995941162,2|8,0:1|0:0,0:0:0:0:
345,188,273245,1,2,0:2:0:0:
345,188,273363,2,0,P|331:125|374:77,1,132.999995941162,2|4,0:1|0:2,0:0:0:0:
480,146,273714,5,0,0:0:0:0:
428,207,273831,1,2,0:2:0:0:
374,78,273949,1,2,0:2:0:0:
321,135,274066,2,0,B|271:128|271:128|239:145|239:145|169:136,1,132.999995941162,8|2,0:0|0:2,0:0:0:0:
173,136,274417,1,0,0:0:0:0:
173,136,274535,1,0,0:0:0:0:
51,254,274769,6,0,B|89:202|89:202|70:135,1,132.999995941162,2|8,0:1|0:0,0:0:0:0:
78,142,275121,1,2,0:2:0:0:
78,142,275238,2,0,B|41:193|41:193|60:260,1,132.999995941162,2|4,0:1|0:2,0:0:0:0:
163,323,275589,5,2,0:2:0:0:
85,340,275706,1,0,0:0:0:0:
140,245,275824,1,2,0:2:0:0:
163,323,275941,2,0,L|236:329,1,66.4999979705811,8|2,0:0|0:2,0:0:0:0:
461,261,276175,2,0,L|388:267,1,66.4999979705811,2|0,0:2|0:0,0:0:0:0:
332,369,276410,1,0,0:0:0:0:
144,176,276644,6,0,B|195:170|195:170|226:180|226:180|290:173,1,132.999995941162,2|8,0:1|0:0,0:0:0:0:
281,182,276995,1,2,0:2:0:0:
281,182,277113,2,0,B|230:176|230:176|202:187|202:187|134:182,1,132.999995941162,2|4,0:1|0:2,0:0:0:0:
102,115,277464,5,0,0:0:0:0:
28,224,277581,1,2,0:2:0:0:
150,183,277699,1,2,0:2:0:0:
28,143,277816,2,0,P|12:85|57:16,1,132.999995941162,8|2,0:0|0:2,0:0:0:0:
123,54,278167,1,0,0:0:0:0:
123,54,278285,2,0,L|287:60,1,132.999995941162,0|8,0:0|0:0,0:0:0:0:
255,58,278753,5,8,0:0:0:0:
247,131,278871,1,0,0:0:0:0:
264,67,278988,1,0,0:0:0:0:
256,140,279106,1,0,0:0:0:0:
341,40,279222,5,0,0:0:0:0:
117,95,279456,1,8,0:0:0:0:
400,131,279691,1,8,0:0:0:0:
400,131,279808,1,0,3:0:0:0:
400,131,279925,2,0,L|319:140,1,66.4999979705811,0|0,3:0|2:0,0:0:0:0:
332,349,280160,6,0,L|346:266,1,66.4999979705811
325,108,280394,2,0,P|307:144|310:185,1,66.4999979705811,2|0,0:1|0:0,0:0:0:0:
423,318,280628,1,8,0:0:0:0:
487,281,280745,2,2,B|511:235|511:235|483:137,1,132.999995941162,0|2,0:1|0:1,0:1:0:0:
488,157,281097,2,0,L|408:151,1,66.4999979705811,4|0,0:2|0:0,0:0:0:0:
283,274,281331,2,0,L|363:268,1,66.4999979705811
429,122,281566,2,0,L|362:126,1,66.4999979705811,8|2,0:0|0:2,0:0:0:0:
204,34,281800,2,0,L|270:38,1,66.4999979705811,2|2,0:2|0:2,0:0:0:0:
196,177,282035,6,0,B|152:192|152:192|68:174,1,132.999995941162,0|2,0:0|0:1,0:0:0:0:
70,100,282386,1,0,0:0:0:0:
180,93,282503,2,0,L|341:80,1,132.999995941162,8|2,0:0|0:1,0:0:0:0:
312,82,282855,1,0,0:0:0:0:
379,32,282972,6,0,P|393:75|397:109,1,66.4999979705811,4|0,0:2|0:0,0:0:0:0:
432,336,283206,2,0,P|432:299|439:264,1,66.4999979705811
476,123,283441,2,0,P|435:171|354:168,1,132.999995941162,8|2,0:0|0:2,0:0:0:0:
283,176,283792,1,2,0:2:0:0:
358,190,283910,6,0,B|405:194|405:194|435:218|435:218|493:224,1,132.999995941162,0|2,0:0|0:1,0:0:0:0:
353,350,284378,2,0,L|366:280,1,66.4999979705811,8|0,0:0|0:0,0:0:0:0:
395,105,284613,1,2,0:1:0:0:
395,105,284847,6,0,P|364:133|324:144,1,66.4999979705811,4|0,0:2|0:0,0:0:0:0:
99,237,285081,2,0,P|130:209|170:198,1,66.4999979705811
319,238,285316,2,0,P|278:249|238:241,1,66.4999979705811,8|2,0:0|0:2,0:0:0:0:
162,91,285550,2,0,P|202:79|242:87,1,66.4999979705811,2|2,0:2|0:2,0:0:0:0:
341,141,285785,5,4,0:0:0:0:
162,91,286019,2,2,B|126:114|126:114|21:106,1,132.999995941162,0|10,0:1|0:1,0:1:0:0:
10,75,286370,2,0,L|32:151,1,66.4999979705811
141,256,286605,1,0,0:0:0:0:
146,239,286722,2,0,P|216:212|279:253,1,132.999995941162,4|0,0:2|0:0,0:0:0:0:
320,287,287074,1,0,0:0:0:0:
270,351,287191,5,8,0:0:0:0:
331,303,287308,2,0,B|377:294|377:294|415:307|415:307|465:297,1,132.999995941162,2|2,0:2|0:2,0:0:0:0:
463,316,287660,6,0,P|481:284|477:242,1,66.4999979705811
342,147,287894,2,2,L|360:220,1,66.4999979705811,0|2,0:1|0:1,0:1:0:0:
449,77,288128,2,0,L|497:20,2,66.4999979705811,10|0|0,0:0|0:0|0:0,0:0:0:0:
438,94,288480,1,0,0:0:0:0:
372,49,288597,2,0,B|330:69|330:69|224:52,1,132.999995941162,4|0,0:2|0:0,0:0:0:0:
198,115,288949,1,0,0:0:0:0:
260,272,289066,2,0,P|290:213|267:129,1,132.999995941162,8|2,0:0|0:2,0:0:0:0:
280,149,289417,1,2,0:2:0:0:
280,149,289535,1,0,0:0:0:0:
63,48,289769,6,2,P|49:85|54:130,1,66.4999979705811,0|2,0:1|0:1,0:1:0:0:
150,250,290003,2,0,L|164:325,2,66.4999979705811,10|0|0,0:0|0:0|0:0,0:0:0:0:
104,190,290355,2,0,B|141:218|141:218|243:197,1,132.999995941162
247,189,290706,2,0,L|315:198,1,66.4999979705811
71,263,290941,2,0,L|-2:275,2,66.4999979705811,8|2|2,0:0|0:2|0:2,0:0:0:0:
153,355,291292,6,0,L|157:211,1,132.999995941162,2|0,0:2|0:0,0:0:0:0:
32,122,291644,2,2,P|46:165|50:199,1,66.4999979705811,0|2,0:1|0:1,0:1:0:0:
181,50,291878,2,0,P|136:40|105:27,1,66.4999979705811,10|0,0:0|0:0,0:0:0:0:
157,223,292113,2,0,P|187:189|214:168,1,66.4999979705811
409,201,292347,1,4,0:2:0:0:
359,258,292464,2,0,P|289:283|227:248,1,132.999995941162
203,176,292816,5,8,0:0:0:0:
207,162,292933,1,2,0:2:0:0:
155,100,293050,5,2,0:2:0:0:
151,86,293167,1,2,0:2:0:0:
201,25,293285,6,0,L|190:164,1,132.999995941162
314,130,293753,6,0,L|321:202,1,66.4999979705811,8|0,0:0|0:0,0:0:0:0:
321,196,293988,1,0,0:0:0:0:
321,196,294105,1,0,0:0:0:0:
161,202,294222,6,0,L|152:340,1,132.999995941162,4|0,0:2|0:0,0:0:0:0:
191,245,294574,2,0,L|187:314,1,66.4999979705811,2|8,0:2|0:0,0:0:0:0:
319,380,294808,1,2,0:2:0:0:
316,361,294925,2,0,L|312:292,1,66.4999979705811,0|2,0:1|0:2,0:0:0:0:
167,52,295160,6,0,P|204:48|238:64,1,66.4999979705811
345,177,295394,2,0,P|371:112|357:38,2,132.999995941162,2|8|2,0:1|0:0|0:1,0:0:0:0:
167,207,296097,1,4,0:2:0:0:
167,207,296214,2,0,L|32:229,1,132.999995941162
345,177,296566,2,0,L|480:155,1,132.999995941162,8|2,0:0|0:2,0:0:0:0:
476,155,296917,1,2,0:2:0:0:
503,229,297035,5,0,0:0:0:0:
345,177,297269,2,0,L|361:100,1,66.4999979705811,2|0,0:3|0:0,0:0:0:0:
258,5,297503,2,0,L|275:75,1,66.4999979705811,8|0,0:0|0:0,0:0:0:0:
192,199,297738,2,0,L|208:122,1,66.4999979705811,2|0,0:3|0:0,0:0:0:0:
105,27,297972,2,0,L|122:97,1,66.4999979705811,4|0,0:2|0:0,0:0:0:0:
53,268,298206,2,0,B|5:219|5:219|45:139,1,132.999995941162,2|8,0:3|0:0,0:0:0:0:
33,161,298675,2,0,P|68:179|98:177,1,66.4999979705811
134,100,298910,6,0,L|213:86,1,66.4999979705811
263,224,299144,2,2,L|342:238,1,66.4999979705811,8|2,0:0|0:0,0:1:0:0:
406,243,299378,5,10,0:0:0:0:
382,174,299495,1,0,0:0:0:0:
321,132,299613,1,2,0:1:0:0:
248,138,299730,1,0,0:0:0:0:
192,185,299847,5,4,0:2:0:0:
194,189,299964,1,0,0:0:0:0:
196,193,300081,1,0,0:0:0:0:
198,197,300199,1,0,0:0:0:0:
262,286,300316,5,4,0:2:0:0:
260,290,300433,1,0,0:0:0:0:
258,294,300550,1,0,0:0:0:0:
256,298,300668,1,0,0:0:0:0:
168,359,300785,5,4,0:0:0:0:
54,237,301019,2,0,B|89:226|89:226|142:232,1,71.2500027179719
274,351,301253,1,8,0:0:0:0:
351,302,301370,2,0,P|384:255|353:168,1,142.500005435944
198,161,301722,6,0,B|180:258|180:258|210:304,1,142.500005435944,4|0,0:2|0:0,0:0:0:0:
265,237,302074,1,0,0:0:0:0:
363,152,302191,2,0,L|282:165,1,71.2500027179719,8|2,0:0|0:2,0:0:0:0:
151,141,302425,2,0,L|236:124,1,71.2500027179719,2|2,0:2|0:2,0:0:0:0:
403,42,302660,6,0,L|318:59,1,71.2500027179719,0|0,0:1|0:0,0:0:0:0:
220,127,302894,2,0,B|192:62|192:62|238:-14,1,142.500005435944,0|8,0:0|0:0,0:0:0:0:
463,94,303245,2,0,B|491:159|491:159|445:235,1,142.500005435944
453,220,303597,2,0,L|467:298,1,71.2500027179719,4|0,0:2|0:0,0:0:0:0:
361,173,303831,2,0,L|346:94,1,71.2500027179719
319,262,304066,5,8,0:0:0:0:
316,289,304183,1,2,0:2:0:0:
258,186,304300,5,2,0:2:0:0:
261,157,304417,1,2,0:2:0:0:
210,256,304535,6,0,L|130:274,1,71.2500027179719
367,194,304769,2,0,L|447:176,1,71.2500027179719,0|0,0:1|0:0,0:0:0:0:
192,140,305003,1,8,0:0:0:0:
163,42,305120,2,0,B|117:28|117:28|83:80|126:136,1,142.500005435944
192,140,305472,6,0,P|236:122|274:125,1,71.2500027179719,4|0,0:2|0:0,0:0:0:0:
111,298,305706,2,0,P|67:316|29:313,1,71.2500027179719
197,306,305941,1,8,0:0:0:0:
226,223,306058,2,0,P|295:215|356:250,1,142.500005435944,2|2,0:2|0:2,0:0:0:0:
271,366,306410,6,0,L|283:287,1,71.2500027179719
166,72,306644,2,0,L|178:151,1,71.2500027179719
419,292,306878,2,0,P|456:239|415:160,1,142.500005435944,8|0,0:1|0:0,0:0:0:0:
379,123,307230,1,0,0:0:0:0:
438,62,307347,5,4,0:2:0:0:
365,119,307464,2,0,B|320:111|320:111|279:127|279:127|226:120,1,142.500005435944
149,65,307816,5,8,0:0:0:0:
137,45,307933,1,2,0:2:0:0:
163,176,308050,5,2,0:2:0:0:
155,200,308167,1,2,0:2:0:0:
87,114,308285,6,0,L|48:37,1,71.2500027179719
129,293,308519,2,0,L|147:224,1,71.2500027179719
395,269,308753,2,0,L|496:278,2,71.2500027179719,8|0|0,0:0|0:0|0:0,0:0:0:0:
368,265,309105,1,0,0:0:0:0:
294,191,309222,6,0,P|326:168|389:161,1,71.2500027179719,4|0,0:2|0:0,0:0:0:0:
463,257,309456,2,0,P|456:295|417:345,1,71.2500027179719
366,132,309691,2,0,P|404:139|439:164,1,71.2500027179719,8|2,0:0|0:2,0:0:0:0:
453,349,309925,2,0,P|421:370|378:377,1,71.2500027179719,2|2,0:2|0:2,0:0:0:0:
210,371,310160,6,0,L|197:292,1,71.2500027179719
160,74,310394,2,0,B|111:101|111:101|15:87,2,142.500005435944,0|8|0,0:0|0:0|0:0,0:0:0:0:
160,74,311097,1,4,0:2:0:0:
231,124,311214,2,0,P|298:112|371:154,1,142.500005435944
433,115,311566,5,8,0:0:0:0:
448,148,311683,1,2,0:2:0:0:
390,213,311800,5,2,0:2:0:0:
404,242,311917,1,2,0:2:0:0:
368,317,312035,5,0,0:0:0:0:
362,144,312269,6,0,L|276:144,1,71.2500027179719,2|0,0:3|0:0,0:0:0:0:
104,176,312503,2,0,L|190:176,1,71.2500027179719,8|0,0:0|0:0,0:0:0:0:
448,292,312738,2,0,L|362:292,1,71.2500027179719,2|0,0:3|0:0,0:0:0:0:
56,348,312972,2,0,L|127:348,1,71.2500027179719,4|0,0:2|0:0,0:0:0:0:
256,373,313206,2,0,B|276:277|233:320|256:227,1,142.500005435944,2|8,0:3|0:0,0:0:0:0:
254,233,313675,2,0,P|259:269|253:306,1,71.2500027179719
152,260,313910,5,0,0:0:0:0:
132,251,314027,2,2,B|85:193|85:193|126:100,1,142.500005435944,0|2,0:1|0:1,0:1:0:0:
380,251,314378,2,0,B|427:193|427:193|386:100,1,142.500005435944,8|2,0:0|0:1,0:0:0:0:
399,130,314730,1,0,0:0:0:0:
323,149,314847,5,4,0:2:0:0:
318,166,314964,1,0,0:0:0:0:
357,50,315081,5,2,0:1:0:0:
362,33,315198,1,0,0:0:0:0:
288,109,315316,5,0,0:0:0:0:
271,113,315433,1,0,0:0:0:0:
391,89,315550,5,2,0:1:0:0:
408,85,315667,1,0,0:0:0:0:
309,67,315785,6,0,L|251:13,1,71.2500027179719,4|0,0:0|0:0,0:0:0:0:
99,75,316019,2,2,L|103:146,1,71.2500027179719,0|2,0:1|0:1,0:1:0:0:
224,281,316253,2,0,B|244:219|244:219|217:129,1,142.500005435944,10|0,0:0|0:1,0:0:0:0:
213,124,316605,1,0,0:0:0:0:
73,180,316722,6,0,P|113:176|156:151,1,71.2500027179719,4|0,0:2|0:0,0:0:0:0:
213,124,316956,1,0,0:0:0:0:
337,221,317074,2,2,P|265:237|201:204,1,142.500005435944,0|2,0:1|0:1,0:1:0:0:
205,208,317425,2,0,P|223:255|217:284,1,71.2500027179719,2|2,0:2|0:2,0:0:0:0:
337,221,317660,6,0,L|348:126,1,71.2500027179719
430,35,317894,2,2,B|445:68|445:68|434:104,1,71.2500027179719,0|2,0:1|0:1,0:1:0:0:
283,90,318128,2,0,L|193:102,2,71.2500027179719,10|0|0,0:0|0:0|0:1,0:0:0:0:
337,221,318480,2,0,B|389:215|389:215|428:228|428:228|480:222,1,142.500005435944
493,220,318831,1,0,0:0:0:0:
374,302,318949,2,2,B|322:308|322:308|295:332|295:332|235:340,1,142.500005435944,0|2,0:1|0:1,0:1:0:0:
34,299,319300,1,2,0:2:0:0:
52,219,319417,1,2,0:2:0:0:
114,279,319535,6,0,P|110:319|95:353,1,71.2500027179719,8|0,0:0|0:0,0:0:0:0:
204,260,319769,2,0,L|188:191,1,71.2500027179719,8|0,0:0|0:0,0:0:0:0:
243,101,320003,2,0,P|288:170|359:202,1,142.500005435944,8|0,0:0|0:0,0:0:0:0:
339,197,320472,5,0,3:0:0:0:
346,199,320589,1,0,3:0:0:0:
421,218,320824,2,0,L|479:229,1,47.5,0|0,3:0|2:0,0:0:0:0:
419,122,321175,5,2,0:1:0:0:
346,199,321292,1,2,0:2:0:0:
301,104,321410,2,0,P|271:69|226:62,1,76,4|0,0:0|0:0,0:0:0:0:
60,220,321644,2,0,P|90:255|135:262,1,76,2|0,0:0|0:0,0:0:0:0:
260,211,321878,2,2,B|227:156|227:156|129:180,1,152,8|2,0:1|0:1,0:1:0:0:
60,220,322230,1,0,0:0:0:0:
172,324,322347,6,0,P|195:287|193:246,1,76,4|0,0:2|0:0,0:0:0:0:
193,110,322581,2,0,P|213:148|250:167,1,76
360,115,322816,1,8,0:0:0:0:
435,250,322933,2,2,P|316:230|282:252,1,152,0|2,0:1|0:1,0:1:0:0:
365,382,323285,6,0,P|364:336|357:298,1,76
152,306,323519,2,2,P|147:344|147:382,1,76,0|2,0:0|0:0,0:0:0:0:
413,208,323753,2,0,P|419:162|432:117,1,76,10|0,0:1|0:0,0:0:0:0:
61,144,323988,2,0,P|70:180|74:218,1,76
238,25,324222,5,4,0:2:0:0:
275,183,324339,1,0,0:0:0:0:
304,82,324456,2,2,L|390:72,1,76,0|2,0:1|0:1,0:1:0:0:
207,133,324691,2,2,B|145:130|145:130|123:148|123:148|52:144,1,152,8|0,0:1|0:1,0:1:0:0:
275,183,325042,1,2,0:2:0:0:
360,129,325160,6,0,P|419:148|423:236,1,152,0|2,0:0|0:1,0:0:0:0:
275,183,325511,1,0,0:0:0:0:
428,228,325628,2,2,P|487:209|491:121,1,152,8|2,0:1|0:1,0:1:0:0:
441,62,325980,1,0,0:0:0:0:
323,146,326097,5,4,0:2:0:0:
323,146,326214,1,0,0:0:0:0:
323,146,326331,2,2,B|320:179|320:179|323:187|323:187|319:230,1,76,0|2,0:1|0:1,0:1:0:0:
61,152,326566,5,8,0:0:0:0:
173,126,326683,1,2,0:2:0:0:
128,185,326800,1,2,0:1:0:0:
240,159,326917,1,2,0:2:0:0:
197,218,327035,6,2,B|194:278|194:278|203:293|203:293|200:376,1,152,0|2,0:1|0:1,0:1:0:0:
172,25,327503,2,0,P|191:23|251:46,1,76,10|0,0:0|0:0,0:0:0:0:
415,203,327738,2,0,P|395:204|335:181,1,76
193,102,327972,5,0,0:0:0:0:
398,127,328089,2,2,P|318:162|242:150,1,152,0|2,0:1|0:1,0:1:0:0:
256,80,328441,1,8,0:0:0:0:
260,61,328558,1,2,0:2:0:0:
180,68,328675,5,2,0:2:0:0:
256,156,328792,1,2,0:2:0:0:
332,68,328910,1,0,0:0:0:0:
332,68,329144,6,2,L|414:62,1,76,8|2,0:1|0:1,0:1:0:0:
180,68,329378,1,8,0:0:0:0:
192,148,329495,1,0,0:0:0:0:
180,68,329613,2,2,L|88:64,1,76,0|2,0:1|0:1,0:1:0:0:
284,289,329847,5,4,0:2:0:0:
288,295,329964,1,0,0:0:0:0:
291,301,330081,1,0,0:1:0:0:
294,307,330199,1,0,0:0:0:0:
218,231,330316,5,0,0:0:0:0:
275,194,330433,1,0,0:0:0:0:
343,190,330550,1,0,0:1:0:0:
403,221,330667,1,0,0:0:0:0:
445,274,330785,5,4,0:0:0:0:
