osu file format v14

[General]
AudioFilename: myon.mp3
AudioLeadIn: 0
PreviewTime: -1
Countdown: 1
SampleSet: None
StackLeniency: 0.3
Mode: 0
LetterboxInBreaks: 0
WidescreenStoryboard: 0

[Editor]
Bookmarks: 44204,58749,73295,87840,116931,146022,175113,204204,258749
DistanceSpacing: 2
BeatDivisor: 4
GridSize: 8
TimelineZoom: 1

[Metadata]
Title:Myoisia
TitleUnicode:Myoisia
Artist:Shibayan Records
ArtistUnicode:Shibayan Records
Creator:DT-sama
Version:SEGN4
Source:
Tags:
BeatmapID:1420057
BeatmapSetID:671658

[Difficulty]
HPDrainRate:3
CircleSize:4
OverallDifficulty:8
ApproachRate:8
SliderMultiplier:3.2
SliderTickRate:1

[Events]
//Background and Video events
0,0,"myonnn.jpg",0,0
//Break Periods
2,88040,114363
//Storyboard Layer 0 (Background)
//Storyboard Layer 1 (Fail)
//Storyboard Layer 2 (Pass)
//Storyboard Layer 3 (Foreground)
//Storyboard Sound Samples

[TimingPoints]
568,454.545454545455,4,1,0,100,1,0
69658,-66.6666666666667,4,1,0,100,0,0
70113,-100,4,1,0,100,0,0
71022,-200,4,1,0,100,0,0
71477,-100,4,1,0,100,0,0
73295,-100,4,1,0,100,0,0
85568,-75.187969924812,4,1,0,100,0,0
86022,-100,4,1,0,100,0,0
87386,-75.187969924812,4,1,0,100,0,0
87840,-100,4,1,0,100,0,0
128295,-50,4,1,0,100,0,0
128977,-25,4,1,0,100,0,0
129658,-100,4,1,0,100,0,0
142840,-50,4,1,0,100,0,0
143522,-25,4,1,0,100,0,0
144204,-100,4,1,0,100,0,0

[HitObjects]
0,64,58749,6,0,P|80:160|320:136,1,320
328,120,59318,1,0,0:0:0:0:
256,252,59545,1,0,0:0:0:0:
264,172,59658,1,0,0:0:0:0:
328,120,59772,2,0,P|440:112|512:24,1,160
496,8,60113,1,0,0:0:0:0:
248,88,60340,5,0,0:0:0:0:
248,88,60454,1,0,0:0:0:0:
512,320,60568,6,0,P|432:224|192:248,1,320
184,264,61137,1,0,0:0:0:0:
256,132,61364,1,0,0:0:0:0:
248,212,61477,1,0,0:0:0:0:
184,264,61590,5,0,0:0:0:0:
248,212,61704,1,0,0:0:0:0:
184,264,61818,1,0,0:0:0:0:
312,264,61931,1,0,0:0:0:0:
248,328,62158,5,0,0:0:0:0:
248,328,62272,1,0,0:0:0:0:
440,176,62386,6,0,P|336:72|168:120,1,320
168,184,62954,1,0,0:0:0:0:
140,35,63181,1,0,0:0:0:0:
180,107,63295,1,0,0:0:0:0:
168,184,63408,1,0,0:0:0:0:
344,184,63636,1,0,0:0:0:0:
332,107,63749,1,0,0:0:0:0:
256,40,63977,5,0,0:0:0:0:
256,40,64090,1,0,0:0:0:0:
256,344,64204,6,0,L|256:112,1,160
256,40,64658,1,0,0:0:0:0:
256,40,64772,1,0,0:0:0:0:
256,184,64999,5,0,0:0:0:0:
168,280,65113,5,0,0:0:0:0:
344,280,65264,1,0,0:0:0:0:
256,136,65416,1,0,0:0:0:0:
344,72,65568,5,0,0:0:0:0:
168,72,65719,1,0,0:0:0:0:
256,216,65871,1,0,0:0:0:0:
256,32,66022,6,0,P|168:112|96:88,1,160
168,24,66477,1,0,0:0:0:0:
168,24,66590,1,0,0:0:0:0:
400,216,66818,1,0,0:0:0:0:
344,272,66931,1,0,0:0:0:0:
352,352,67045,1,0,0:0:0:0:
160,352,67272,1,0,0:0:0:0:
168,272,67386,1,0,0:0:0:0:
256,328,67613,5,0,0:0:0:0:
256,328,67727,1,0,0:0:0:0:
80,232,67840,6,0,P|160:184|248:224,1,160
168,272,68295,1,0,0:0:0:0:
168,272,68408,1,0,0:0:0:0:
256,128,68636,5,0,0:0:0:0:
344,272,68749,6,0,P|352:184|384:152,2,80
168,152,69090,6,0,P|248:216|344:176,1,160
256,128,69431,5,0,0:0:0:0:
256,128,69545,1,0,0:0:0:0:
344,272,69658,6,0,P|400:184|208:56,1,360.000013732911
256,200,70113,6,0,P|248:128|240:184,1,240
192,240,70568,6,0,P|272:280|376:232,1,160
280,160,70908,5,0,0:0:0:0:
376,208,71022,6,0,L|376:128,1,80
320,336,71477,5,0,0:0:0:0:
240,336,71590,1,0,0:0:0:0:
240,256,71704,1,0,0:0:0:0:
320,256,71931,1,0,0:0:0:0:
256,104,72272,5,0,0:0:0:0:
136,0,72386,6,0,P|96:104|159:232,1,240
368,217,72840,6,0,P|415:110|376:0,1,240
256,104,73295,6,0,P|152:128|128:360,1,320
160,360,73863,1,0,0:0:0:0:
17,306,74091,1,0,0:0:0:0:
97,314,74204,1,0,0:0:0:0:
160,360,74318,1,0,0:0:0:0:
264,264,74545,1,0,0:0:0:0:
240,344,74659,1,0,0:0:0:0:
168,248,74886,5,0,0:0:0:0:
168,248,74999,1,0,0:0:0:0:
488,304,75113,6,0,P|384:280|360:48,1,320
392,48,75681,1,0,0:0:0:0:
249,102,75909,1,0,0:0:0:0:
329,94,76022,1,0,0:0:0:0:
392,48,76136,5,0,0:0:0:0:
472,64,76249,1,0,0:0:0:0:
496,144,76363,1,0,0:0:0:0:
472,64,76477,1,0,0:0:0:0:
400,160,76704,5,0,0:0:0:0:
400,160,76817,1,0,0:0:0:0:
68,205,76931,6,0,P|80:282|144:328,1,160
160,232,77386,1,0,0:0:0:0:
160,232,77499,1,0,0:0:0:0:
296,232,77727,5,0,0:0:0:0:
232,184,77841,1,0,0:0:0:0:
216,104,77954,1,0,0:0:0:0:
312,136,78181,1,0,0:0:0:0:
312,136,78295,1,0,0:0:0:0:
232,280,78522,5,0,0:0:0:0:
232,280,78636,1,0,0:0:0:0:
403,162,78749,6,0,P|391:85|328:40,1,160
312,136,79204,1,0,0:0:0:0:
312,136,79317,1,0,0:0:0:0:
344,280,79545,5,0,0:0:0:0:
184,232,79658,5,0,0:0:0:0:
312,136,79809,1,0,0:0:0:0:
168,72,79961,1,0,0:0:0:0:
184,256,80113,5,0,0:0:0:0:
336,136,80264,1,0,0:0:0:0:
152,56,80416,1,0,0:0:0:0:
344,280,80568,6,0,P|440:264|488:200,1,160
440,48,81022,1,0,0:0:0:0:
360,56,81136,1,0,0:0:0:0:
264,272,81363,1,0,0:0:0:0:
296,200,81477,1,0,0:0:0:0:
376,200,81590,1,0,0:0:0:0:
72,336,81818,1,0,0:0:0:0:
152,328,81932,1,0,0:0:0:0:
384,360,82158,5,0,0:0:0:0:
384,360,82272,1,0,0:0:0:0:
184,256,82386,6,0,P|256:128|424:136,1,320
464,192,82954,1,0,0:0:0:0:
176,208,83181,1,0,0:0:0:0:
248,248,83295,1,0,0:0:0:0:
320,216,83408,5,0,0:0:0:0:
400,240,83522,1,0,0:0:0:0:
320,216,83636,1,0,0:0:0:0:
464,192,83749,1,0,0:0:0:0:
384,144,83977,5,0,0:0:0:0:
384,144,84090,1,0,0:0:0:0:
176,208,84204,6,0,P|48:216|72:192,1,320
264,64,85113,1,0,0:0:0:0:
403,283,85454,5,0,0:0:0:0:
475,243,85568,2,0,P|377:335|336:208,1,320
400,248,86022,5,0,0:0:0:0:
328,288,86136,1,0,0:0:0:0:
264,240,86249,1,0,0:0:0:0:
272,160,86477,1,0,0:0:0:0:
40,272,86818,5,0,0:0:0:0:
120,264,86932,2,0,P|200:208|232:72,1,240
88,112,87386,6,0,P|216:184|376:88,1,320
232,75,87840,5,0,0:0:0:0:
496,240,115113,5,0,0:0:0:0:
62,134,115568,1,0,0:0:0:0:
142,118,115681,1,0,0:0:0:0:
431,183,116023,5,0,0:0:0:0:
351,199,116136,1,0,0:0:0:0:
287,143,116250,1,0,0:0:0:0:
206,174,116364,1,0,0:0:0:0:
480,352,116931,5,0,0:0:0:0:
40,32,117386,5,0,0:0:0:0:
80,96,117499,1,0,0:0:0:0:
256,112,117727,1,0,0:0:0:0:
256,32,117840,1,0,0:0:0:0:
256,112,117954,1,0,0:0:0:0:
432,96,118181,1,0,0:0:0:0:
472,32,118294,1,0,0:0:0:0:
256,192,118522,5,0,0:0:0:0:
256,192,118636,1,0,0:0:0:0:
32,360,118749,5,0,0:0:0:0:
472,32,119205,5,0,0:0:0:0:
432,96,119318,1,0,0:0:0:0:
40,32,119544,5,0,0:0:0:0:
80,96,119657,1,0,0:0:0:0:
256,32,119772,5,0,0:0:0:0:
256,112,119885,1,0,0:0:0:0:
256,32,119999,1,0,0:0:0:0:
256,192,120113,1,0,0:0:0:0:
256,352,120340,5,0,0:0:0:0:
256,352,120454,1,0,0:0:0:0:
480,24,120568,5,0,0:0:0:0:
40,352,121022,5,0,0:0:0:0:
80,288,121135,1,0,0:0:0:0:
256,272,121363,1,0,0:0:0:0:
256,352,121476,1,0,0:0:0:0:
256,272,121590,1,0,0:0:0:0:
432,288,121817,1,0,0:0:0:0:
472,352,121930,1,0,0:0:0:0:
256,32,122158,5,0,0:0:0:0:
256,32,122272,1,0,0:0:0:0:
32,24,122386,5,0,0:0:0:0:
472,352,122840,5,0,0:0:0:0:
432,288,122953,1,0,0:0:0:0:
256,272,123181,5,0,0:0:0:0:
256,352,123294,5,0,0:0:0:0:
72,192,123446,1,0,0:0:0:0:
256,32,123598,1,0,0:0:0:0:
440,192,123749,5,0,0:0:0:0:
72,192,123901,1,0,0:0:0:0:
256,352,124052,1,0,0:0:0:0:
256,32,124204,5,0,0:0:0:0:
168,320,124658,5,0,0:0:0:0:
168,320,124772,1,0,0:0:0:0:
256,272,124999,1,0,0:0:0:0:
256,352,125113,1,0,0:0:0:0:
256,272,125227,1,0,0:0:0:0:
344,320,125454,1,0,0:0:0:0:
344,320,125568,1,0,0:0:0:0:
256,192,125795,5,0,0:0:0:0:
256,192,125908,1,0,0:0:0:0:
256,352,126022,5,0,0:0:0:0:
344,64,126477,5,0,0:0:0:0:
344,64,126591,1,0,0:0:0:0:
256,112,126818,1,0,0:0:0:0:
256,32,126932,1,0,0:0:0:0:
256,112,127045,5,0,0:0:0:0:
256,32,127159,1,0,0:0:0:0:
168,64,127272,1,0,0:0:0:0:
168,64,127386,1,0,0:0:0:0:
256,192,127614,5,0,0:0:0:0:
256,192,127727,1,0,0:0:0:0:
256,112,127840,6,0,L|256:336,1,160
104,352,128295,6,0,L|448:352,1,320
256,272,128749,6,0,L|256:112,1,160
408,32,129090,6,0,L|64:32,2,320
408,272,129658,5,0,0:0:0:0:
256,320,129772,1,0,0:0:0:0:
104,272,129886,1,0,0:0:0:0:
256,192,130113,1,0,0:0:0:0:
104,112,130454,5,0,0:0:0:0:
256,64,130568,6,0,P|240:192|360:264,1,240
408,272,131022,6,0,P|280:216|168:240,1,240
104,272,131477,5,0,0:0:0:0:
472,32,131931,5,0,0:0:0:0:
432,96,132044,1,0,0:0:0:0:
256,112,132272,1,0,0:0:0:0:
256,32,132385,1,0,0:0:0:0:
256,112,132499,1,0,0:0:0:0:
80,96,132726,1,0,0:0:0:0:
40,32,132839,1,0,0:0:0:0:
256,192,133067,5,0,0:0:0:0:
256,192,133181,1,0,0:0:0:0:
480,360,133294,5,0,0:0:0:0:
40,32,133750,5,0,0:0:0:0:
80,96,133863,1,0,0:0:0:0:
472,32,134089,5,0,0:0:0:0:
432,96,134202,1,0,0:0:0:0:
256,32,134317,5,0,0:0:0:0:
256,112,134430,1,0,0:0:0:0:
256,32,134544,1,0,0:0:0:0:
256,192,134658,1,0,0:0:0:0:
256,352,134885,5,0,0:0:0:0:
256,352,134999,1,0,0:0:0:0:
32,24,135113,5,0,0:0:0:0:
472,352,135567,5,0,0:0:0:0:
432,288,135680,1,0,0:0:0:0:
256,272,135908,1,0,0:0:0:0:
256,352,136021,1,0,0:0:0:0:
256,272,136135,1,0,0:0:0:0:
80,288,136362,1,0,0:0:0:0:
40,352,136475,1,0,0:0:0:0:
256,32,136703,5,0,0:0:0:0:
256,32,136817,1,0,0:0:0:0:
480,24,136931,5,0,0:0:0:0:
40,352,137385,5,0,0:0:0:0:
80,288,137498,1,0,0:0:0:0:
256,272,137726,5,0,0:0:0:0:
256,352,137839,5,0,0:0:0:0:
440,192,137991,1,0,0:0:0:0:
256,32,138143,1,0,0:0:0:0:
72,192,138294,5,0,0:0:0:0:
440,192,138446,1,0,0:0:0:0:
256,352,138597,1,0,0:0:0:0:
256,32,138749,5,0,0:0:0:0:
344,320,139203,5,0,0:0:0:0:
344,320,139317,1,0,0:0:0:0:
256,272,139544,1,0,0:0:0:0:
256,352,139658,1,0,0:0:0:0:
256,272,139772,1,0,0:0:0:0:
168,320,139999,1,0,0:0:0:0:
168,320,140113,1,0,0:0:0:0:
256,192,140340,5,0,0:0:0:0:
256,192,140453,1,0,0:0:0:0:
256,352,140567,5,0,0:0:0:0:
168,64,141022,5,0,0:0:0:0:
168,64,141136,1,0,0:0:0:0:
256,112,141363,1,0,0:0:0:0:
256,32,141477,1,0,0:0:0:0:
256,112,141590,5,0,0:0:0:0:
256,32,141704,1,0,0:0:0:0:
344,64,141817,1,0,0:0:0:0:
344,64,141931,1,0,0:0:0:0:
256,192,142159,5,0,0:0:0:0:
256,192,142272,1,0,0:0:0:0:
256,112,142385,6,0,L|256:336,1,160
408,352,142840,6,0,L|64:352,1,320
256,272,143294,6,0,L|256:112,1,160
104,32,143635,6,0,L|448:32,2,320
104,272,144203,5,0,0:0:0:0:
256,320,144317,1,0,0:0:0:0:
408,272,144431,1,0,0:0:0:0:
256,192,144658,1,0,0:0:0:0:
408,112,144999,5,0,0:0:0:0:
256,64,145113,6,0,P|272:192|152:264,1,240
104,272,145567,6,0,P|232:216|344:240,1,240
408,272,146022,5,0,0:0:0:0:
