osu file format v14

[General]
AudioFilename: dingdong.mp3
AudioLeadIn: 0
PreviewTime: 185827
Countdown: 0
SampleSet: Normal
StackLeniency: 0.7
Mode: 3
LetterboxInBreaks: 0
SpecialStyle: 0
WidescreenStoryboard: 1

[Editor]
DistanceSpacing: 1.1
BeatDivisor: 4
GridSize: 16
TimelineZoom: 1.7

[Metadata]
Title:Nova
TitleUnicode:Nova
Artist:Shibayan
ArtistUnicode:Shibayan
Creator:Jole
Version:GUN BULLET JACKS
Source:eXceed: Gun Bullet Children
Tags:bullet hell first stage theme 01 nyu media ltd dark (vampire genocide) techno jumpjacks jacks 4 key
BeatmapID:1848821
BeatmapSetID:884521

[Difficulty]
HPDrainRate:8
CircleSize:4
OverallDifficulty:8
ApproachRate:5
SliderMultiplier:1.4
SliderTickRate:1

[Events]
//Background and Video events
0,0,"oneofthecharacters.jpg",0,0
//Break Periods
//Storyboard Layer 0 (Background)
//Storyboard Layer 1 (Fail)
//Storyboard Layer 2 (Pass)
//Storyboard Layer 3 (Foreground)
//Storyboard Layer 4 (Overlay)
//Storyboard Sound Samples

[TimingPoints]
448,413.793103448276,4,1,0,0,1,0

[HitObjects]
64,192,448,5,0,0:0:0:0:
192,192,448,1,0,0:0:0:0:
320,192,551,1,0,0:0:0:0:
448,192,654,1,0,0:0:0:0:
192,192,758,1,0,0:0:0:0:
448,192,861,1,0,0:0:0:0:
320,192,861,1,0,0:0:0:0:
64,192,965,1,0,0:0:0:0:
320,192,1068,1,0,0:0:0:0:
64,192,1172,1,0,0:0:0:0:
320,192,1275,1,0,0:0:0:0:
192,192,1275,1,0,0:0:0:0:
448,192,1379,1,0,0:0:0:0:
192,192,1482,1,0,0:0:0:0:
320,192,1585,1,0,0:0:0:0:
64,192,1689,1,0,0:0:0:0:
192,192,1689,1,0,0:0:0:0:
448,192,1792,1,0,0:0:0:0:
320,192,1896,1,0,0:0:0:0:
448,192,1999,1,0,0:0:0:0:
192,192,2103,1,0,0:0:0:0:
64,192,2103,1,0,0:0:0:0:
448,192,2206,1,0,0:0:0:0:
192,192,2310,1,0,0:0:0:0:
320,192,2413,1,0,0:0:0:0:
64,192,2516,1,0,0:0:0:0:
192,192,2516,1,0,0:0:0:0:
320,192,2620,1,0,0:0:0:0:
448,192,2723,1,0,0:0:0:0:
320,192,2827,1,0,0:0:0:0:
192,192,2930,1,0,0:0:0:0:
64,192,2930,1,0,0:0:0:0:
448,192,3034,1,0,0:0:0:0:
320,192,3137,1,0,0:0:0:0:
64,192,3241,1,0,0:0:0:0:
320,192,3344,1,0,0:0:0:0:
192,192,3344,1,0,0:0:0:0:
64,192,3448,1,0,0:0:0:0:
448,192,3551,1,0,0:0:0:0:
192,192,3654,1,0,0:0:0:0:
448,192,3758,1,0,0:0:0:0:
320,192,3758,1,0,0:0:0:0:
448,192,3861,1,0,0:0:0:0:
64,192,3965,1,0,0:0:0:0:
320,192,4068,1,0,0:0:0:0:
192,192,4172,1,0,0:0:0:0:
64,192,4172,1,0,0:0:0:0:
320,192,4275,1,0,0:0:0:0:
448,192,4379,1,0,0:0:0:0:
320,192,4482,1,0,0:0:0:0:
64,192,4585,1,0,0:0:0:0:
192,192,4585,1,0,0:0:0:0:
448,192,4689,1,0,0:0:0:0:
320,192,4792,1,0,0:0:0:0:
448,192,4896,1,0,0:0:0:0:
64,192,4999,1,0,0:0:0:0:
320,192,4999,1,0,0:0:0:0:
192,192,5103,1,0,0:0:0:0:
448,192,5206,1,0,0:0:0:0:
64,192,5310,1,0,0:0:0:0:
320,192,5413,1,0,0:0:0:0:
192,192,5413,1,0,0:0:0:0:
64,192,5516,1,0,0:0:0:0:
320,192,5620,1,0,0:0:0:0:
192,192,5723,1,0,0:0:0:0:
320,192,5827,1,0,0:0:0:0:
448,192,5827,1,0,0:0:0:0:
192,192,5930,1,0,0:0:0:0:
320,192,6034,1,0,0:0:0:0:
448,192,6137,1,0,0:0:0:0:
192,192,6241,1,0,0:0:0:0:
64,192,6241,1,0,0:0:0:0:
320,192,6344,1,0,0:0:0:0:
448,192,6448,1,0,0:0:0:0:
64,192,6551,1,0,0:0:0:0:
448,192,6654,1,0,0:0:0:0:
192,192,6654,1,0,0:0:0:0:
192,192,6758,1,0,0:0:0:0:
320,192,6861,1,0,0:0:0:0:
448,192,6861,1,0,0:0:0:0:
448,192,6965,1,0,0:0:0:0:
192,192,7068,1,0,0:0:0:0:
320,192,7068,1,0,0:0:0:0:
192,192,7172,1,0,0:0:0:0:
448,192,7275,1,0,0:0:0:0:
448,192,7379,1,0,0:0:0:0:
192,192,7379,1,0,0:0:0:0:
64,192,7482,1,0,0:0:0:0:
192,192,7585,1,0,0:0:0:0:
448,192,7689,1,0,0:0:0:0:
320,192,7689,1,0,0:0:0:0:
448,192,7792,1,0,0:0:0:0:
64,192,7896,1,0,0:0:0:0:
64,192,7999,1,0,0:0:0:0:
320,192,7999,1,0,0:0:0:0:
192,192,8103,1,0,0:0:0:0:
448,192,8206,1,0,0:0:0:0:
192,192,8310,1,0,0:0:0:0:
320,192,8310,1,0,0:0:0:0:
320,192,8413,1,0,0:0:0:0:
192,192,8516,1,0,0:0:0:0:
64,192,8620,1,0,0:0:0:0:
448,192,8620,1,0,0:0:0:0:
448,192,8723,1,0,0:0:0:0:
320,192,8723,1,0,0:0:0:0:
192,192,8827,1,0,0:0:0:0:
64,192,8930,1,0,0:0:0:0:
192,192,9034,1,0,0:0:0:0:
64,192,9034,1,0,0:0:0:0:
320,192,9137,1,0,0:0:0:0:
448,192,9137,1,0,0:0:0:0:
192,192,9241,1,0,0:0:0:0:
448,192,9344,1,0,0:0:0:0:
320,192,9448,1,0,0:0:0:0:
64,192,9551,1,0,0:0:0:0:
320,192,9551,1,0,0:0:0:0:
448,192,9654,1,0,0:0:0:0:
320,192,9758,1,0,0:0:0:0:
64,192,9861,1,0,0:0:0:0:
64,192,9965,1,0,0:0:0:0:
192,192,9965,1,0,0:0:0:0:
320,192,10068,1,0,0:0:0:0:
64,192,10172,1,0,0:0:0:0:
448,192,10275,1,0,0:0:0:0:
64,192,10379,1,0,0:0:0:0:
192,192,10379,1,0,0:0:0:0:
320,192,10482,1,0,0:0:0:0:
192,192,10585,1,0,0:0:0:0:
448,192,10689,1,0,0:0:0:0:
64,192,10792,1,0,0:0:0:0:
192,192,10792,1,0,0:0:0:0:
320,192,10896,1,0,0:0:0:0:
448,192,10999,1,0,0:0:0:0:
64,192,11103,1,0,0:0:0:0:
320,192,11206,1,0,0:0:0:0:
448,192,11206,1,0,0:0:0:0:
192,192,11310,1,0,0:0:0:0:
64,192,11413,1,0,0:0:0:0:
192,192,11516,1,0,0:0:0:0:
320,192,11620,1,0,0:0:0:0:
448,192,11620,1,0,0:0:0:0:
64,192,11723,1,0,0:0:0:0:
448,192,11827,1,0,0:0:0:0:
320,192,11930,1,0,0:0:0:0:
192,192,12034,1,0,0:0:0:0:
64,192,12034,1,0,0:0:0:0:
320,192,12137,1,0,0:0:0:0:
448,192,12241,1,0,0:0:0:0:
64,192,12344,1,0,0:0:0:0:
192,192,12448,1,0,0:0:0:0:
320,192,12448,1,0,0:0:0:0:
448,192,12551,1,0,0:0:0:0:
320,192,12654,1,0,0:0:0:0:
448,192,12758,1,0,0:0:0:0:
64,192,12861,1,0,0:0:0:0:
192,192,12861,1,0,0:0:0:0:
320,192,12965,1,0,0:0:0:0:
448,192,13068,1,0,0:0:0:0:
320,192,13172,1,0,0:0:0:0:
64,192,13275,1,0,0:0:0:0:
192,192,13275,1,0,0:0:0:0:
448,192,13379,1,0,0:0:0:0:
64,192,13482,1,0,0:0:0:0:
192,192,13482,1,0,0:0:0:0:
192,192,13585,1,0,0:0:0:0:
64,192,13585,1,0,0:0:0:0:
448,192,13689,1,0,0:0:0:0:
320,192,13689,1,0,0:0:0:0:
192,192,13689,1,0,0:0:0:0:
64,192,13689,1,0,0:0:0:0:
448,192,13792,1,0,0:0:0:0:
192,192,13896,1,0,0:0:0:0:
448,192,13896,1,0,0:0:0:0:
64,192,13999,1,0,0:0:0:0:
192,192,14103,1,0,0:0:0:0:
448,192,14103,1,0,0:0:0:0:
320,192,14103,1,0,0:0:0:0:
320,192,14206,1,0,0:0:0:0:
64,192,14310,1,0,0:0:0:0:
320,192,14310,1,0,0:0:0:0:
448,192,14413,1,0,0:0:0:0:
192,192,14516,1,0,0:0:0:0:
64,192,14516,1,0,0:0:0:0:
320,192,14620,1,0,0:0:0:0:
192,192,14723,1,0,0:0:0:0:
320,192,14723,1,0,0:0:0:0:
64,192,14827,1,0,0:0:0:0:
192,192,14930,1,0,0:0:0:0:
448,192,14930,1,0,0:0:0:0:
64,192,14930,1,0,0:0:0:0:
192,192,15034,1,0,0:0:0:0:
448,192,15137,1,0,0:0:0:0:
192,192,15137,1,0,0:0:0:0:
320,192,15241,1,0,0:0:0:0:
64,192,15344,1,0,0:0:0:0:
192,192,15344,1,0,0:0:0:0:
448,192,15448,1,0,0:0:0:0:
64,192,15551,1,0,0:0:0:0:
448,192,15551,1,0,0:0:0:0:
320,192,15654,1,0,0:0:0:0:
64,192,15758,1,0,0:0:0:0:
448,192,15758,1,0,0:0:0:0:
192,192,15758,1,0,0:0:0:0:
192,192,15861,1,0,0:0:0:0:
192,192,15965,1,0,0:0:0:0:
320,192,15965,1,0,0:0:0:0:
448,192,16068,1,0,0:0:0:0:
64,192,16172,1,0,0:0:0:0:
192,192,16172,1,0,0:0:0:0:
448,192,16275,1,0,0:0:0:0:
448,192,16379,1,0,0:0:0:0:
320,192,16379,1,0,0:0:0:0:
192,192,16482,1,0,0:0:0:0:
64,192,16585,1,0,0:0:0:0:
448,192,16585,1,0,0:0:0:0:
320,192,16585,1,0,0:0:0:0:
320,192,16689,1,0,0:0:0:0:
320,192,16792,1,0,0:0:0:0:
64,192,16792,1,0,0:0:0:0:
192,192,16896,1,0,0:0:0:0:
320,192,16999,1,0,0:0:0:0:
448,192,16999,1,0,0:0:0:0:
64,192,17103,1,0,0:0:0:0:
64,192,17206,1,0,0:0:0:0:
192,192,17206,1,0,0:0:0:0:
448,192,17310,1,0,0:0:0:0:
64,192,17413,1,0,0:0:0:0:
320,192,17413,1,0,0:0:0:0:
192,192,17413,1,0,0:0:0:0:
192,192,17516,1,0,0:0:0:0:
448,192,17620,1,0,0:0:0:0:
192,192,17620,1,0,0:0:0:0:
64,192,17723,1,0,0:0:0:0:
320,192,17827,1,0,0:0:0:0:
448,192,17827,1,0,0:0:0:0:
192,192,17930,1,0,0:0:0:0:
64,192,18034,1,0,0:0:0:0:
192,192,18034,1,0,0:0:0:0:
448,192,18137,1,0,0:0:0:0:
64,192,18241,1,0,0:0:0:0:
320,192,18241,1,0,0:0:0:0:
192,192,18241,1,0,0:0:0:0:
192,192,18344,1,0,0:0:0:0:
448,192,18448,1,0,0:0:0:0:
192,192,18448,1,0,0:0:0:0:
320,192,18551,1,0,0:0:0:0:
192,192,18654,1,0,0:0:0:0:
64,192,18654,1,0,0:0:0:0:
448,192,18758,1,0,0:0:0:0:
448,192,18861,1,0,0:0:0:0:
64,192,18861,1,0,0:0:0:0:
192,192,18965,1,0,0:0:0:0:
64,192,19068,1,0,0:0:0:0:
448,192,19068,1,0,0:0:0:0:
320,192,19068,1,0,0:0:0:0:
320,192,19172,1,0,0:0:0:0:
192,192,19275,1,0,0:0:0:0:
320,192,19275,1,0,0:0:0:0:
64,192,19379,1,0,0:0:0:0:
320,192,19482,1,0,0:0:0:0:
448,192,19482,1,0,0:0:0:0:
64,192,19585,1,0,0:0:0:0:
64,192,19689,1,0,0:0:0:0:
192,192,19689,1,0,0:0:0:0:
320,192,19792,1,0,0:0:0:0:
192,192,19896,1,0,0:0:0:0:
448,192,19896,1,0,0:0:0:0:
64,192,19896,1,0,0:0:0:0:
64,192,19999,1,0,0:0:0:0:
64,192,20103,1,0,0:0:0:0:
448,192,20103,1,0,0:0:0:0:
320,192,20206,1,0,0:0:0:0:
192,192,20310,1,0,0:0:0:0:
64,192,20310,1,0,0:0:0:0:
448,192,20413,1,0,0:0:0:0:
448,192,20516,1,0,0:0:0:0:
192,192,20516,1,0,0:0:0:0:
320,192,20620,1,0,0:0:0:0:
64,192,20723,1,0,0:0:0:0:
448,192,20723,1,0,0:0:0:0:
192,192,20723,1,0,0:0:0:0:
192,192,20827,1,0,0:0:0:0:
192,192,20930,1,0,0:0:0:0:
320,192,20930,1,0,0:0:0:0:
64,192,21034,1,0,0:0:0:0:
320,192,21137,1,0,0:0:0:0:
448,192,21137,1,0,0:0:0:0:
192,192,21241,1,0,0:0:0:0:
192,192,21344,1,0,0:0:0:0:
64,192,21344,1,0,0:0:0:0:
448,192,21448,1,0,0:0:0:0:
64,192,21551,1,0,0:0:0:0:
320,192,21551,1,0,0:0:0:0:
448,192,21551,1,0,0:0:0:0:
320,192,21654,1,0,0:0:0:0:
192,192,21758,1,0,0:0:0:0:
320,192,21758,1,0,0:0:0:0:
64,192,21861,1,0,0:0:0:0:
320,192,21965,1,0,0:0:0:0:
448,192,21965,1,0,0:0:0:0:
64,192,22068,1,0,0:0:0:0:
64,192,22172,1,0,0:0:0:0:
192,192,22172,1,0,0:0:0:0:
448,192,22275,1,0,0:0:0:0:
64,192,22379,1,0,0:0:0:0:
320,192,22379,1,0,0:0:0:0:
192,192,22379,1,0,0:0:0:0:
192,192,22482,1,0,0:0:0:0:
448,192,22585,1,0,0:0:0:0:
192,192,22585,1,0,0:0:0:0:
64,192,22689,1,0,0:0:0:0:
320,192,22792,1,0,0:0:0:0:
448,192,22792,1,0,0:0:0:0:
192,192,22896,1,0,0:0:0:0:
64,192,22999,1,0,0:0:0:0:
192,192,22999,1,0,0:0:0:0:
448,192,23103,1,0,0:0:0:0:
64,192,23206,1,0,0:0:0:0:
320,192,23206,1,0,0:0:0:0:
192,192,23206,1,0,0:0:0:0:
192,192,23310,1,0,0:0:0:0:
448,192,23413,1,0,0:0:0:0:
192,192,23413,1,0,0:0:0:0:
320,192,23516,1,0,0:0:0:0:
192,192,23620,1,0,0:0:0:0:
64,192,23620,1,0,0:0:0:0:
448,192,23723,1,0,0:0:0:0:
448,192,23827,1,0,0:0:0:0:
64,192,23827,1,0,0:0:0:0:
192,192,23930,1,0,0:0:0:0:
64,192,24034,1,0,0:0:0:0:
448,192,24034,1,0,0:0:0:0:
320,192,24034,1,0,0:0:0:0:
320,192,24137,1,0,0:0:0:0:
192,192,24241,1,0,0:0:0:0:
320,192,24241,1,0,0:0:0:0:
64,192,24344,1,0,0:0:0:0:
320,192,24448,1,0,0:0:0:0:
448,192,24448,1,0,0:0:0:0:
64,192,24551,1,0,0:0:0:0:
64,192,24654,1,0,0:0:0:0:
192,192,24654,1,0,0:0:0:0:
320,192,24758,1,0,0:0:0:0:
192,192,24861,1,0,0:0:0:0:
448,192,24861,1,0,0:0:0:0:
64,192,24861,1,0,0:0:0:0:
64,192,24965,1,0,0:0:0:0:
64,192,25068,1,0,0:0:0:0:
448,192,25068,1,0,0:0:0:0:
320,192,25172,1,0,0:0:0:0:
192,192,25275,1,0,0:0:0:0:
64,192,25275,1,0,0:0:0:0:
448,192,25379,1,0,0:0:0:0:
448,192,25482,1,0,0:0:0:0:
192,192,25482,1,0,0:0:0:0:
320,192,25585,1,0,0:0:0:0:
64,192,25689,1,0,0:0:0:0:
448,192,25689,1,0,0:0:0:0:
192,192,25689,1,0,0:0:0:0:
192,192,25792,1,0,0:0:0:0:
192,192,25896,1,0,0:0:0:0:
320,192,25896,1,0,0:0:0:0:
64,192,25999,1,0,0:0:0:0:
320,192,26103,1,0,0:0:0:0:
448,192,26103,1,0,0:0:0:0:
192,192,26206,1,0,0:0:0:0:
448,192,26310,1,0,0:0:0:0:
64,192,26310,1,0,0:0:0:0:
448,192,26413,1,0,0:0:0:0:
64,192,26516,1,0,0:0:0:0:
320,192,26516,1,0,0:0:0:0:
448,192,26516,1,0,0:0:0:0:
192,192,26620,1,0,0:0:0:0:
192,192,26723,1,0,0:0:0:0:
448,192,26723,1,0,0:0:0:0:
64,192,26723,1,0,0:0:0:0:
64,192,26827,1,0,0:0:0:0:
320,192,26827,1,0,0:0:0:0:
448,192,26827,1,0,0:0:0:0:
448,192,26930,1,0,0:0:0:0:
320,192,26930,1,0,0:0:0:0:
192,192,26930,1,0,0:0:0:0:
64,192,27034,1,0,0:0:0:0:
192,192,27137,1,0,0:0:0:0:
64,192,27137,1,0,0:0:0:0:
448,192,27241,1,0,0:0:0:0:
320,192,27344,1,0,0:0:0:0:
64,192,27344,1,0,0:0:0:0:
448,192,27344,1,0,0:0:0:0:
192,192,27448,1,0,0:0:0:0:
192,192,27551,1,0,0:0:0:0:
320,192,27551,1,0,0:0:0:0:
64,192,27654,1,0,0:0:0:0:
320,192,27654,1,0,0:0:0:0:
448,192,27758,1,0,0:0:0:0:
192,192,27861,1,0,0:0:0:0:
320,192,27861,1,0,0:0:0:0:
192,192,27965,1,0,0:0:0:0:
64,192,27965,1,0,0:0:0:0:
448,192,28068,1,0,0:0:0:0:
320,192,28172,1,0,0:0:0:0:
64,192,28172,1,0,0:0:0:0:
192,192,28275,1,0,0:0:0:0:
64,192,28275,1,0,0:0:0:0:
448,192,28379,1,0,0:0:0:0:
320,192,28482,1,0,0:0:0:0:
64,192,28585,1,0,0:0:0:0:
192,192,28585,1,0,0:0:0:0:
448,192,28689,1,0,0:0:0:0:
64,192,28792,1,0,0:0:0:0:
448,192,28792,1,0,0:0:0:0:
192,192,28896,1,0,0:0:0:0:
448,192,28999,1,0,0:0:0:0:
64,192,28999,1,0,0:0:0:0:
192,192,28999,1,0,0:0:0:0:
320,192,29103,1,0,0:0:0:0:
320,192,29206,1,0,0:0:0:0:
192,192,29206,1,0,0:0:0:0:
64,192,29310,1,0,0:0:0:0:
192,192,29310,1,0,0:0:0:0:
448,192,29413,1,0,0:0:0:0:
320,192,29413,1,0,0:0:0:0:
64,192,29516,1,0,0:0:0:0:
192,192,29516,1,0,0:0:0:0:
64,192,29620,1,0,0:0:0:0:
448,192,29620,1,0,0:0:0:0:
320,192,29723,1,0,0:0:0:0:
448,192,29827,1,0,0:0:0:0:
192,192,29827,1,0,0:0:0:0:
64,192,29930,1,0,0:0:0:0:
192,192,29930,1,0,0:0:0:0:
448,192,30034,1,0,0:0:0:0:
320,192,30137,1,0,0:0:0:0:
64,192,30241,1,0,0:0:0:0:
192,192,30241,1,0,0:0:0:0:
448,192,30344,1,0,0:0:0:0:
192,192,30448,1,0,0:0:0:0:
448,192,30448,1,0,0:0:0:0:
320,192,30551,1,0,0:0:0:0:
448,192,30654,1,0,0:0:0:0:
64,192,30654,1,0,0:0:0:0:
192,192,30654,1,0,0:0:0:0:
64,192,30758,1,0,0:0:0:0:
320,192,30861,1,0,0:0:0:0:
448,192,30861,1,0,0:0:0:0:
64,192,30965,1,0,0:0:0:0:
448,192,30965,1,0,0:0:0:0:
320,192,31068,1,0,0:0:0:0:
192,192,31172,1,0,0:0:0:0:
64,192,31172,1,0,0:0:0:0:
64,192,31275,1,0,0:0:0:0:
320,192,31275,1,0,0:0:0:0:
448,192,31379,1,0,0:0:0:0:
320,192,31482,1,0,0:0:0:0:
64,192,31482,1,0,0:0:0:0:
448,192,31585,1,0,0:0:0:0:
64,192,31585,1,0,0:0:0:0:
192,192,31689,1,0,0:0:0:0:
320,192,31792,1,0,0:0:0:0:
192,192,31896,1,0,0:0:0:0:
64,192,31896,1,0,0:0:0:0:
448,192,31999,1,0,0:0:0:0:
448,192,32103,1,0,0:0:0:0:
64,192,32103,1,0,0:0:0:0:
192,192,32206,1,0,0:0:0:0:
192,192,32310,1,0,0:0:0:0:
64,192,32310,1,0,0:0:0:0:
448,192,32310,1,0,0:0:0:0:
320,192,32413,1,0,0:0:0:0:
192,192,32516,1,0,0:0:0:0:
320,192,32516,1,0,0:0:0:0:
192,192,32620,1,0,0:0:0:0:
64,192,32620,1,0,0:0:0:0:
320,192,32723,1,0,0:0:0:0:
448,192,32723,1,0,0:0:0:0:
192,192,32827,1,0,0:0:0:0:
64,192,32827,1,0,0:0:0:0:
448,192,32930,1,0,0:0:0:0:
64,192,32930,1,0,0:0:0:0:
320,192,33034,1,0,0:0:0:0:
192,192,33137,1,0,0:0:0:0:
448,192,33137,1,0,0:0:0:0:
192,192,33241,1,0,0:0:0:0:
64,192,33241,1,0,0:0:0:0:
448,192,33344,1,0,0:0:0:0:
320,192,33448,1,0,0:0:0:0:
192,192,33551,1,0,0:0:0:0:
64,192,33551,1,0,0:0:0:0:
448,192,33654,1,0,0:0:0:0:
448,192,33758,1,0,0:0:0:0:
192,192,33758,1,0,0:0:0:0:
320,192,33861,1,0,0:0:0:0:
192,192,33965,1,0,0:0:0:0:
64,192,33965,1,0,0:0:0:0:
448,192,33965,1,0,0:0:0:0:
64,192,34068,1,0,0:0:0:0:
448,192,34172,1,0,0:0:0:0:
320,192,34172,1,0,0:0:0:0:
448,192,34275,1,0,0:0:0:0:
64,192,34275,1,0,0:0:0:0:
320,192,34379,1,0,0:0:0:0:
64,192,34482,1,0,0:0:0:0:
192,192,34482,1,0,0:0:0:0:
320,192,34585,1,0,0:0:0:0:
64,192,34585,1,0,0:0:0:0:
448,192,34689,1,0,0:0:0:0:
64,192,34792,1,0,0:0:0:0:
320,192,34792,1,0,0:0:0:0:
64,192,34896,1,0,0:0:0:0:
448,192,34896,1,0,0:0:0:0:
192,192,34999,1,0,0:0:0:0:
320,192,35103,1,0,0:0:0:0:
64,192,35206,1,0,0:0:0:0:
192,192,35206,1,0,0:0:0:0:
448,192,35310,1,0,0:0:0:0:
64,192,35413,1,0,0:0:0:0:
448,192,35413,1,0,0:0:0:0:
192,192,35516,1,0,0:0:0:0:
448,192,35620,1,0,0:0:0:0:
64,192,35620,1,0,0:0:0:0:
192,192,35620,1,0,0:0:0:0:
320,192,35723,1,0,0:0:0:0:
320,192,35827,1,0,0:0:0:0:
192,192,35827,1,0,0:0:0:0:
64,192,35930,1,0,0:0:0:0:
192,192,35930,1,0,0:0:0:0:
448,192,36034,1,0,0:0:0:0:
320,192,36034,1,0,0:0:0:0:
64,192,36137,1,0,0:0:0:0:
192,192,36137,1,0,0:0:0:0:
64,192,36241,1,0,0:0:0:0:
448,192,36241,1,0,0:0:0:0:
320,192,36344,1,0,0:0:0:0:
448,192,36448,1,0,0:0:0:0:
192,192,36448,1,0,0:0:0:0:
64,192,36551,1,0,0:0:0:0:
192,192,36551,1,0,0:0:0:0:
448,192,36654,1,0,0:0:0:0:
320,192,36758,1,0,0:0:0:0:
64,192,36861,1,0,0:0:0:0:
192,192,36861,1,0,0:0:0:0:
448,192,36965,1,0,0:0:0:0:
192,192,37068,1,0,0:0:0:0:
448,192,37068,1,0,0:0:0:0:
320,192,37172,1,0,0:0:0:0:
448,192,37275,1,0,0:0:0:0:
64,192,37275,1,0,0:0:0:0:
192,192,37275,1,0,0:0:0:0:
64,192,37379,1,0,0:0:0:0:
320,192,37482,1,0,0:0:0:0:
448,192,37482,1,0,0:0:0:0:
64,192,37585,1,0,0:0:0:0:
448,192,37585,1,0,0:0:0:0:
320,192,37689,1,0,0:0:0:0:
192,192,37792,1,0,0:0:0:0:
64,192,37792,1,0,0:0:0:0:
64,192,37896,1,0,0:0:0:0:
320,192,37896,1,0,0:0:0:0:
448,192,37999,1,0,0:0:0:0:
320,192,38103,1,0,0:0:0:0:
64,192,38103,1,0,0:0:0:0:
448,192,38206,1,0,0:0:0:0:
64,192,38206,1,0,0:0:0:0:
192,192,38310,1,0,0:0:0:0:
320,192,38413,1,0,0:0:0:0:
64,192,38516,1,0,0:0:0:0:
192,192,38516,1,0,0:0:0:0:
64,192,38620,1,0,0:0:0:0:
448,192,38620,1,0,0:0:0:0:
320,192,38723,1,0,0:0:0:0:
64,192,38827,1,0,0:0:0:0:
192,192,38827,1,0,0:0:0:0:
448,192,38930,1,0,0:0:0:0:
64,192,38930,1,0,0:0:0:0:
320,192,39034,1,0,0:0:0:0:
64,192,39137,1,0,0:0:0:0:
192,192,39137,1,0,0:0:0:0:
64,192,39241,1,0,0:0:0:0:
448,192,39241,1,0,0:0:0:0:
320,192,39344,1,0,0:0:0:0:
64,192,39448,1,0,0:0:0:0:
192,192,39448,1,0,0:0:0:0:
448,192,39448,1,0,0:0:0:0:
64,192,39551,1,0,0:0:0:0:
448,192,39551,1,0,0:0:0:0:
320,192,39654,1,0,0:0:0:0:
64,192,39758,1,0,0:0:0:0:
192,192,39758,1,0,0:0:0:0:
448,192,39861,1,0,0:0:0:0:
64,192,39861,1,0,0:0:0:0:
64,192,39965,1,0,0:0:0:0:
192,192,39965,1,0,0:0:0:0:
320,192,39965,1,0,0:0:0:0:
64,192,40068,1,0,0:0:0:0:
192,192,40068,1,0,0:0:0:0:
320,192,40068,1,0,0:0:0:0:
64,192,40172,1,0,0:0:0:0:
192,192,40172,1,0,0:0:0:0:
320,192,40172,1,0,0:0:0:0:
448,192,40172,1,0,0:0:0:0:
448,192,40275,1,0,0:0:0:0:
64,192,40379,1,0,0:0:0:0:
192,192,40379,1,0,0:0:0:0:
320,192,40482,1,0,0:0:0:0:
64,192,40585,1,0,0:0:0:0:
192,192,40585,1,0,0:0:0:0:
448,192,40585,1,0,0:0:0:0:
64,192,40689,1,0,0:0:0:0:
448,192,40792,1,0,0:0:0:0:
320,192,40792,1,0,0:0:0:0:
192,192,40896,1,0,0:0:0:0:
320,192,40999,1,0,0:0:0:0:
448,192,40999,1,0,0:0:0:0:
64,192,40999,1,0,0:0:0:0:
448,192,41103,1,0,0:0:0:0:
64,192,41206,1,0,0:0:0:0:
320,192,41206,1,0,0:0:0:0:
192,192,41310,1,0,0:0:0:0:
192,192,41413,1,0,0:0:0:0:
448,192,41413,1,0,0:0:0:0:
64,192,41516,1,0,0:0:0:0:
192,192,41620,1,0,0:0:0:0:
320,192,41620,1,0,0:0:0:0:
448,192,41620,1,0,0:0:0:0:
448,192,41723,1,0,0:0:0:0:
64,192,41827,1,0,0:0:0:0:
192,192,41827,1,0,0:0:0:0:
448,192,41930,1,0,0:0:0:0:
64,192,42034,1,0,0:0:0:0:
192,192,42034,1,0,0:0:0:0:
320,192,42034,1,0,0:0:0:0:
64,192,42137,1,0,0:0:0:0:
448,192,42241,1,0,0:0:0:0:
192,192,42241,1,0,0:0:0:0:
64,192,42344,1,0,0:0:0:0:
448,192,42448,1,0,0:0:0:0:
320,192,42448,1,0,0:0:0:0:
64,192,42551,1,0,0:0:0:0:
192,192,42654,1,0,0:0:0:0:
320,192,42654,1,0,0:0:0:0:
448,192,42758,1,0,0:0:0:0:
64,192,42861,1,0,0:0:0:0:
320,192,42861,1,0,0:0:0:0:
64,192,42965,1,0,0:0:0:0:
448,192,43068,1,0,0:0:0:0:
320,192,43068,1,0,0:0:0:0:
192,192,43172,1,0,0:0:0:0:
64,192,43275,1,0,0:0:0:0:
320,192,43275,1,0,0:0:0:0:
448,192,43275,1,0,0:0:0:0:
320,192,43379,1,0,0:0:0:0:
192,192,43482,1,0,0:0:0:0:
64,192,43482,1,0,0:0:0:0:
320,192,43585,1,0,0:0:0:0:
192,192,43689,1,0,0:0:0:0:
448,192,43689,1,0,0:0:0:0:
320,192,43792,1,0,0:0:0:0:
448,192,43896,1,0,0:0:0:0:
192,192,43896,1,0,0:0:0:0:
64,192,43896,1,0,0:0:0:0:
448,192,43999,1,0,0:0:0:0:
192,192,44103,1,0,0:0:0:0:
64,192,44103,1,0,0:0:0:0:
320,192,44206,1,0,0:0:0:0:
192,192,44310,1,0,0:0:0:0:
64,192,44310,1,0,0:0:0:0:
448,192,44310,1,0,0:0:0:0:
64,192,44413,1,0,0:0:0:0:
192,192,44516,1,0,0:0:0:0:
448,192,44516,1,0,0:0:0:0:
320,192,44620,1,0,0:0:0:0:
320,192,44723,1,0,0:0:0:0:
64,192,44723,1,0,0:0:0:0:
192,192,44827,1,0,0:0:0:0:
448,192,44930,1,0,0:0:0:0:
320,192,44930,1,0,0:0:0:0:
64,192,45034,1,0,0:0:0:0:
448,192,45137,1,0,0:0:0:0:
192,192,45137,1,0,0:0:0:0:
320,192,45241,1,0,0:0:0:0:
64,192,45344,1,0,0:0:0:0:
192,192,45344,1,0,0:0:0:0:
448,192,45448,1,0,0:0:0:0:
192,192,45551,1,0,0:0:0:0:
448,192,45551,1,0,0:0:0:0:
64,192,45654,1,0,0:0:0:0:
320,192,45758,1,0,0:0:0:0:
448,192,45758,1,0,0:0:0:0:
64,192,45861,1,0,0:0:0:0:
448,192,45965,1,0,0:0:0:0:
192,192,45965,1,0,0:0:0:0:
320,192,46068,1,0,0:0:0:0:
64,192,46172,1,0,0:0:0:0:
192,192,46172,1,0,0:0:0:0:
448,192,46172,1,0,0:0:0:0:
64,192,46275,1,0,0:0:0:0:
320,192,46379,1,0,0:0:0:0:
448,192,46379,1,0,0:0:0:0:
192,192,46482,1,0,0:0:0:0:
64,192,46585,1,0,0:0:0:0:
320,192,46585,1,0,0:0:0:0:
448,192,46689,1,0,0:0:0:0:
192,192,46792,1,0,0:0:0:0:
320,192,46792,1,0,0:0:0:0:
64,192,46792,1,0,0:0:0:0:
192,192,46896,1,0,0:0:0:0:
448,192,46999,1,0,0:0:0:0:
320,192,46999,1,0,0:0:0:0:
64,192,47103,1,0,0:0:0:0:
192,192,47206,1,0,0:0:0:0:
448,192,47206,1,0,0:0:0:0:
320,192,47206,1,0,0:0:0:0:
448,192,47310,1,0,0:0:0:0:
64,192,47413,1,0,0:0:0:0:
192,192,47413,1,0,0:0:0:0:
320,192,47516,1,0,0:0:0:0:
64,192,47620,1,0,0:0:0:0:
192,192,47620,1,0,0:0:0:0:
448,192,47620,1,0,0:0:0:0:
192,192,47723,1,0,0:0:0:0:
64,192,47827,1,0,0:0:0:0:
320,192,47827,1,0,0:0:0:0:
448,192,47930,1,0,0:0:0:0:
192,192,48034,1,0,0:0:0:0:
320,192,48034,1,0,0:0:0:0:
64,192,48137,1,0,0:0:0:0:
192,192,48241,1,0,0:0:0:0:
448,192,48241,1,0,0:0:0:0:
320,192,48241,1,0,0:0:0:0:
192,192,48344,1,0,0:0:0:0:
448,192,48448,1,0,0:0:0:0:
320,192,48448,1,0,0:0:0:0:
192,192,48551,1,0,0:0:0:0:
64,192,48654,1,0,0:0:0:0:
320,192,48654,1,0,0:0:0:0:
448,192,48654,1,0,0:0:0:0:
448,192,48758,1,0,0:0:0:0:
64,192,48861,1,0,0:0:0:0:
320,192,48861,1,0,0:0:0:0:
192,192,48965,1,0,0:0:0:0:
448,192,49068,1,0,0:0:0:0:
320,192,49068,1,0,0:0:0:0:
64,192,49172,1,0,0:0:0:0:
192,192,49275,1,0,0:0:0:0:
448,192,49275,1,0,0:0:0:0:
320,192,49379,1,0,0:0:0:0:
64,192,49482,1,0,0:0:0:0:
448,192,49482,1,0,0:0:0:0:
192,192,49482,1,0,0:0:0:0:
448,192,49585,1,0,0:0:0:0:
64,192,49689,1,0,0:0:0:0:
320,192,49689,1,0,0:0:0:0:
192,192,49792,1,0,0:0:0:0:
448,192,49896,1,0,0:0:0:0:
320,192,49896,1,0,0:0:0:0:
64,192,49896,1,0,0:0:0:0:
320,192,49999,1,0,0:0:0:0:
192,192,50103,1,0,0:0:0:0:
64,192,50103,1,0,0:0:0:0:
448,192,50206,1,0,0:0:0:0:
64,192,50310,1,0,0:0:0:0:
320,192,50310,1,0,0:0:0:0:
192,192,50413,1,0,0:0:0:0:
448,192,50516,1,0,0:0:0:0:
64,192,50516,1,0,0:0:0:0:
64,192,50620,1,0,0:0:0:0:
192,192,50723,1,0,0:0:0:0:
320,192,50723,1,0,0:0:0:0:
448,192,50827,1,0,0:0:0:0:
64,192,50930,1,0,0:0:0:0:
320,192,50930,1,0,0:0:0:0:
320,192,51034,1,0,0:0:0:0:
192,192,51137,1,0,0:0:0:0:
64,192,51137,1,0,0:0:0:0:
320,192,51241,1,0,0:0:0:0:
320,192,51344,1,0,0:0:0:0:
448,192,51344,1,0,0:0:0:0:
64,192,51448,1,0,0:0:0:0:
448,192,51551,1,0,0:0:0:0:
192,192,51551,1,0,0:0:0:0:
320,192,51551,1,0,0:0:0:0:
192,192,51654,1,0,0:0:0:0:
320,192,51758,1,0,0:0:0:0:
448,192,51758,1,0,0:0:0:0:
192,192,51861,1,0,0:0:0:0:
448,192,51965,1,0,0:0:0:0:
64,192,51965,1,0,0:0:0:0:
64,192,52068,1,0,0:0:0:0:
320,192,52172,1,0,0:0:0:0:
448,192,52172,1,0,0:0:0:0:
64,192,52275,1,0,0:0:0:0:
192,192,52379,1,0,0:0:0:0:
448,192,52379,1,0,0:0:0:0:
320,192,52482,1,0,0:0:0:0:
64,192,52585,1,0,0:0:0:0:
192,192,52585,1,0,0:0:0:0:
320,192,52689,1,0,0:0:0:0:
192,192,52792,1,0,0:0:0:0:
64,192,52792,1,0,0:0:0:0:
448,192,52792,1,0,0:0:0:0:
448,192,52896,1,0,0:0:0:0:
64,192,52999,1,0,0:0:0:0:
320,192,52999,1,0,0:0:0:0:
192,192,52999,1,0,0:0:0:0:
64,192,53103,1,0,0:0:0:0:
192,192,53206,1,0,0:0:0:0:
320,192,53206,1,0,0:0:0:0:
448,192,53206,1,0,0:0:0:0:
64,192,53310,1,0,0:0:0:0:
320,192,53310,1,0,0:0:0:0:
448,192,53310,1,0,0:0:0:0:
192,192,53413,1,0,0:0:0:0:
64,192,53413,1,0,0:0:0:0:
448,192,53413,1,0,0:0:0:0:
320,192,53516,1,0,0:0:0:0:
64,192,53620,1,0,0:0:0:0:
448,192,53620,1,0,0:0:0:0:
192,192,53723,1,0,0:0:0:0:
448,192,53827,1,0,0:0:0:0:
320,192,53827,1,0,0:0:0:0:
64,192,53827,1,0,0:0:0:0:
448,192,53930,1,0,0:0:0:0:
64,192,54034,1,0,0:0:0:0:
192,192,54034,1,0,0:0:0:0:
320,192,54137,1,0,0:0:0:0:
192,192,54241,1,0,0:0:0:0:
64,192,54241,1,0,0:0:0:0:
448,192,54241,1,0,0:0:0:0:
64,192,54344,1,0,0:0:0:0:
448,192,54448,1,0,0:0:0:0:
192,192,54448,1,0,0:0:0:0:
320,192,54551,1,0,0:0:0:0:
320,192,54654,1,0,0:0:0:0:
64,192,54654,1,0,0:0:0:0:
448,192,54758,1,0,0:0:0:0:
320,192,54861,1,0,0:0:0:0:
192,192,54861,1,0,0:0:0:0:
64,192,54861,1,0,0:0:0:0:
64,192,54965,1,0,0:0:0:0:
448,192,55068,1,0,0:0:0:0:
320,192,55068,1,0,0:0:0:0:
64,192,55172,1,0,0:0:0:0:
448,192,55275,1,0,0:0:0:0:
320,192,55275,1,0,0:0:0:0:
192,192,55275,1,0,0:0:0:0:
448,192,55379,1,0,0:0:0:0:
64,192,55482,1,0,0:0:0:0:
320,192,55482,1,0,0:0:0:0:
448,192,55585,1,0,0:0:0:0:
64,192,55689,1,0,0:0:0:0:
192,192,55689,1,0,0:0:0:0:
448,192,55792,1,0,0:0:0:0:
320,192,55896,1,0,0:0:0:0:
192,192,55896,1,0,0:0:0:0:
64,192,55999,1,0,0:0:0:0:
448,192,56103,1,0,0:0:0:0:
192,192,56103,1,0,0:0:0:0:
448,192,56206,1,0,0:0:0:0:
64,192,56310,1,0,0:0:0:0:
192,192,56310,1,0,0:0:0:0:
320,192,56413,1,0,0:0:0:0:
448,192,56516,1,0,0:0:0:0:
192,192,56516,1,0,0:0:0:0:
192,192,56620,1,0,0:0:0:0:
320,192,56723,1,0,0:0:0:0:
448,192,56723,1,0,0:0:0:0:
64,192,56827,1,0,0:0:0:0:
320,192,56930,1,0,0:0:0:0:
64,192,56930,1,0,0:0:0:0:
192,192,57034,1,0,0:0:0:0:
64,192,57137,1,0,0:0:0:0:
320,192,57137,1,0,0:0:0:0:
448,192,57137,1,0,0:0:0:0:
64,192,57241,1,0,0:0:0:0:
320,192,57344,1,0,0:0:0:0:
448,192,57344,1,0,0:0:0:0:
192,192,57448,1,0,0:0:0:0:
320,192,57551,1,0,0:0:0:0:
448,192,57551,1,0,0:0:0:0:
64,192,57551,1,0,0:0:0:0:
448,192,57654,1,0,0:0:0:0:
320,192,57758,1,0,0:0:0:0:
64,192,57758,1,0,0:0:0:0:
192,192,57861,1,0,0:0:0:0:
192,192,57965,1,0,0:0:0:0:
448,192,57965,1,0,0:0:0:0:
320,192,58068,1,0,0:0:0:0:
64,192,58172,1,0,0:0:0:0:
448,192,58172,1,0,0:0:0:0:
64,192,58275,1,0,0:0:0:0:
320,192,58379,1,0,0:0:0:0:
192,192,58379,1,0,0:0:0:0:
448,192,58482,1,0,0:0:0:0:
320,192,58585,1,0,0:0:0:0:
64,192,58585,1,0,0:0:0:0:
320,192,58689,1,0,0:0:0:0:
192,192,58792,1,0,0:0:0:0:
448,192,58896,1,0,0:0:0:0:
192,192,58999,1,0,0:0:0:0:
64,192,58999,1,0,0:0:0:0:
448,192,59103,1,0,0:0:0:0:
64,192,59206,1,0,0:0:0:0:
320,192,59206,1,0,0:0:0:0:
192,192,59310,1,0,0:0:0:0:
448,192,59413,1,0,0:0:0:0:
320,192,59413,1,0,0:0:0:0:
64,192,59413,1,0,0:0:0:0:
448,192,59516,1,0,0:0:0:0:
192,192,59620,1,0,0:0:0:0:
64,192,59620,1,0,0:0:0:0:
320,192,59723,1,0,0:0:0:0:
448,192,59827,1,0,0:0:0:0:
192,192,59827,1,0,0:0:0:0:
64,192,59930,1,0,0:0:0:0:
320,192,60034,1,0,0:0:0:0:
192,192,60034,1,0,0:0:0:0:
448,192,60034,1,0,0:0:0:0:
320,192,60137,1,0,0:0:0:0:
64,192,60241,1,0,0:0:0:0:
192,192,60241,1,0,0:0:0:0:
448,192,60344,1,0,0:0:0:0:
320,192,60448,1,0,0:0:0:0:
64,192,60448,1,0,0:0:0:0:
192,192,60448,1,0,0:0:0:0:
64,192,60551,1,0,0:0:0:0:
448,192,60654,1,0,0:0:0:0:
320,192,60654,1,0,0:0:0:0:
192,192,60758,1,0,0:0:0:0:
448,192,60861,1,0,0:0:0:0:
320,192,60861,1,0,0:0:0:0:
64,192,60861,1,0,0:0:0:0:
320,192,60965,1,0,0:0:0:0:
448,192,61068,1,0,0:0:0:0:
192,192,61068,1,0,0:0:0:0:
64,192,61172,1,0,0:0:0:0:
320,192,61275,1,0,0:0:0:0:
192,192,61275,1,0,0:0:0:0:
448,192,61379,1,0,0:0:0:0:
320,192,61482,1,0,0:0:0:0:
64,192,61482,1,0,0:0:0:0:
192,192,61482,1,0,0:0:0:0:
320,192,61585,1,0,0:0:0:0:
64,192,61689,1,0,0:0:0:0:
192,192,61689,1,0,0:0:0:0:
320,192,61792,1,0,0:0:0:0:
448,192,61896,1,0,0:0:0:0:
192,192,61896,1,0,0:0:0:0:
64,192,61896,1,0,0:0:0:0:
64,192,61999,1,0,0:0:0:0:
448,192,62103,1,0,0:0:0:0:
192,192,62103,1,0,0:0:0:0:
320,192,62206,1,0,0:0:0:0:
64,192,62310,1,0,0:0:0:0:
192,192,62310,1,0,0:0:0:0:
448,192,62413,1,0,0:0:0:0:
320,192,62516,1,0,0:0:0:0:
64,192,62516,1,0,0:0:0:0:
192,192,62620,1,0,0:0:0:0:
448,192,62723,1,0,0:0:0:0:
64,192,62723,1,0,0:0:0:0:
320,192,62723,1,0,0:0:0:0:
64,192,62827,1,0,0:0:0:0:
448,192,62930,1,0,0:0:0:0:
192,192,62930,1,0,0:0:0:0:
320,192,63034,1,0,0:0:0:0:
64,192,63137,1,0,0:0:0:0:
192,192,63137,1,0,0:0:0:0:
448,192,63137,1,0,0:0:0:0:
192,192,63241,1,0,0:0:0:0:
320,192,63344,1,0,0:0:0:0:
448,192,63344,1,0,0:0:0:0:
64,192,63448,1,0,0:0:0:0:
448,192,63551,1,0,0:0:0:0:
192,192,63551,1,0,0:0:0:0:
320,192,63654,1,0,0:0:0:0:
64,192,63758,1,0,0:0:0:0:
448,192,63758,1,0,0:0:0:0:
448,192,63861,1,0,0:0:0:0:
320,192,63965,1,0,0:0:0:0:
192,192,63965,1,0,0:0:0:0:
64,192,64068,1,0,0:0:0:0:
448,192,64172,1,0,0:0:0:0:
192,192,64172,1,0,0:0:0:0:
192,192,64275,1,0,0:0:0:0:
320,192,64379,1,0,0:0:0:0:
448,192,64379,1,0,0:0:0:0:
192,192,64482,1,0,0:0:0:0:
192,192,64585,1,0,0:0:0:0:
64,192,64585,1,0,0:0:0:0:
448,192,64689,1,0,0:0:0:0:
64,192,64792,1,0,0:0:0:0:
320,192,64792,1,0,0:0:0:0:
192,192,64792,1,0,0:0:0:0:
320,192,64896,1,0,0:0:0:0:
192,192,64999,1,0,0:0:0:0:
64,192,64999,1,0,0:0:0:0:
320,192,65103,1,0,0:0:0:0:
64,192,65206,1,0,0:0:0:0:
448,192,65206,1,0,0:0:0:0:
448,192,65310,1,0,0:0:0:0:
192,192,65413,1,0,0:0:0:0:
64,192,65413,1,0,0:0:0:0:
448,192,65516,1,0,0:0:0:0:
320,192,65620,1,0,0:0:0:0:
64,192,65620,1,0,0:0:0:0:
192,192,65723,1,0,0:0:0:0:
64,192,65723,1,0,0:0:0:0:
448,192,65827,1,0,0:0:0:0:
320,192,65827,1,0,0:0:0:0:
64,192,65930,1,0,0:0:0:0:
192,192,65930,1,0,0:0:0:0:
320,192,66034,1,0,0:0:0:0:
448,192,66034,1,0,0:0:0:0:
64,192,66034,1,0,0:0:0:0:
320,192,66137,1,0,0:0:0:0:
448,192,66241,1,0,0:0:0:0:
192,192,66241,1,0,0:0:0:0:
64,192,66241,1,0,0:0:0:0:
448,192,66344,1,0,0:0:0:0:
320,192,66448,1,0,0:0:0:0:
192,192,66448,1,0,0:0:0:0:
64,192,66448,1,0,0:0:0:0:
448,192,66551,1,0,0:0:0:0:
192,192,66551,1,0,0:0:0:0:
64,192,66551,1,0,0:0:0:0:
320,192,66654,1,0,0:0:0:0:
448,192,66654,1,0,0:0:0:0:
64,192,66654,1,0,0:0:0:0:
