osu file format v14

[General]
AudioFilename: PURO_MY__BELOVED.mp3
AudioLeadIn: 0
PreviewTime: 43
Countdown: 0
SampleSet: Normal
StackLeniency: 0.7
Mode: 1
LetterboxInBreaks: 0
WidescreenStoryboard: 0

[Editor]
Bookmarks: 7979,15366,22754,30141
DistanceSpacing: 1.7
BeatDivisor: 8
GridSize: 32
TimelineZoom: 1.2

[Metadata]
Title:Puro The Black Goo
TitleUnicode:Puro The Black Goo
Artist:ShiZi
ArtistUnicode:ShiZi
Creator:yenmaster
Version:Latex
Source:Changed
Tags:video game 8 bit instrumental dragonsnow 8-bit 8bit chiptune ost original soundtrack
BeatmapID:2856565
BeatmapSetID:1382652

[Difficulty]
HPDrainRate:6
CircleSize:2
OverallDifficulty:5
ApproachRate:10
SliderMultiplier:1.4
SliderTickRate:1

[Events]
//Background and Video events
0,0,"pp.png",0,-10
//Break Periods
//Storyboard Layer 0 (Background)
//Storyboard Layer 1 (Fail)
//Storyboard Layer 2 (Pass)
//Storyboard Layer 3 (Foreground)
//Storyboard Layer 4 (Overlay)
//Storyboard Sound Samples

[TimingPoints]
144,461.538461538462,4,1,0,25,1,0
144,-83.3333333333333,4,1,0,25,0,8

[HitObjects]
256,192,144,5,0,0:0:0:0:
256,192,259,1,0,0:0:0:0:
256,192,374,1,8,0:0:0:0:
256,192,567,1,8,0:0:0:0:
256,192,605,1,8,0:0:0:0:
256,192,1067,1,8,0:0:0:0:
256,192,1528,1,0,0:0:0:0:
256,192,1759,1,8,0:0:0:0:
256,192,1874,1,0,0:0:0:0:
256,192,1990,1,8,0:0:0:0:
256,192,2451,1,0,0:0:0:0:
256,192,2682,1,0,0:0:0:0:
256,192,2797,1,0,0:0:0:0:
256,192,2913,1,8,0:0:0:0:
256,192,3374,1,8,0:0:0:0:
256,192,3605,1,0,0:0:0:0:
256,192,3836,1,8,0:0:0:0:
256,192,3951,1,0,0:0:0:0:
256,192,4067,1,8,0:0:0:0:
256,192,4644,1,8,0:0:0:0:
256,192,4701,1,8,0:0:0:0:
256,192,4759,1,8,0:0:0:0:
256,192,5220,1,8,0:0:0:0:
256,192,5451,1,0,0:0:0:0:
256,192,5567,1,0,0:0:0:0:
256,192,5682,1,8,0:0:0:0:
256,192,6374,1,0,0:0:0:0:
256,192,6490,1,8,0:0:0:0:
256,192,6605,1,0,0:0:0:0:
256,192,7067,1,0,0:0:0:0:
256,192,7413,1,8,0:0:0:0:
256,192,7528,1,0,0:0:0:0:
256,192,7644,1,0,0:0:0:0:
256,192,7759,1,8,0:0:0:0:
256,192,7951,1,8,0:0:0:0:
256,192,7990,1,8,0:0:0:0:
256,192,8451,1,8,0:0:0:0:
256,192,8913,1,0,0:0:0:0:
256,192,9144,1,8,0:0:0:0:
256,192,9259,1,0,0:0:0:0:
256,192,9374,1,8,0:0:0:0:
256,192,9836,1,0,0:0:0:0:
256,192,10067,1,8,0:0:0:0:
256,192,10182,1,8,0:0:0:0:
256,192,10297,1,0,0:0:0:0:
256,192,10644,1,0,0:0:0:0:
256,192,10759,1,8,0:0:0:0:
256,192,10990,1,0,0:0:0:0:
256,192,11220,1,8,0:0:0:0:
256,192,11336,1,0,0:0:0:0:
256,192,11451,1,8,0:0:0:0:
256,192,11913,1,0,0:0:0:0:
256,192,12144,1,0,0:0:0:0:
256,192,12259,1,0,0:0:0:0:
256,192,12374,1,8,0:0:0:0:
256,192,12605,1,0,0:0:0:0:
256,192,13067,1,0,0:0:0:0:
256,192,13182,1,8,0:0:0:0:
256,192,13297,1,0,0:0:0:0:
256,192,13874,1,8,0:0:0:0:
256,192,13932,1,8,0:0:0:0:
256,192,13990,1,8,0:0:0:0:
256,192,14105,1,0,0:0:0:0:
256,192,14220,1,8,0:0:0:0:
256,192,14451,1,0,0:0:0:0:
256,192,14913,5,8,0:0:0:0:
256,192,15028,1,0,0:0:0:0:
256,192,15144,1,8,0:0:0:0:
256,192,15336,1,8,0:0:0:0:
256,192,15374,1,8,0:0:0:0:
256,192,15836,1,8,0:0:0:0:
256,192,16297,1,0,0:0:0:0:
256,192,16528,1,8,0:0:0:0:
256,192,16644,1,0,0:0:0:0:
256,192,16759,1,8,0:0:0:0:
256,192,17220,1,0,0:0:0:0:
256,192,17451,1,0,0:0:0:0:
256,192,17567,1,0,0:0:0:0:
256,192,17682,1,8,0:0:0:0:
256,192,18144,1,8,0:0:0:0:
256,192,18374,1,0,0:0:0:0:
256,192,18605,1,8,0:0:0:0:
256,192,18720,1,0,0:0:0:0:
256,192,18836,1,8,0:0:0:0:
256,192,19297,1,0,0:0:0:0:
256,192,19528,1,8,0:0:0:0:
256,192,19990,1,8,0:0:0:0:
256,192,20220,1,0,0:0:0:0:
256,192,20336,1,0,0:0:0:0:
256,192,20451,1,8,0:0:0:0:
256,192,21144,1,0,0:0:0:0:
256,192,21259,1,8,0:0:0:0:
256,192,21317,1,8,0:0:0:0:
256,192,21374,1,8,0:0:0:0:
256,192,21836,1,0,0:0:0:0:
256,192,22297,1,8,0:0:0:0:
256,192,22413,1,0,0:0:0:0:
256,192,22528,1,8,0:0:0:0:
256,192,22990,1,8,0:0:0:0:
256,192,23105,1,8,0:0:0:0:
256,192,23220,1,0,0:0:0:0:
256,192,23682,1,0,0:0:0:0:
256,192,23913,1,8,0:0:0:0:
256,192,24028,1,8,0:0:0:0:
256,192,24144,1,0,0:0:0:0:
256,192,24605,1,0,0:0:0:0:
256,192,24836,1,8,0:0:0:0:
256,192,24951,1,0,0:0:0:0:
256,192,25067,1,8,0:0:0:0:
256,192,25528,1,8,0:0:0:0:
256,192,25759,1,0,0:0:0:0:
256,192,25990,1,8,0:0:0:0:
256,192,26047,1,8,0:0:0:0:
256,192,26105,1,8,0:0:0:0:
256,192,26682,1,0,0:0:0:0:
256,192,26913,1,0,0:0:0:0:
256,192,27028,1,0,0:0:0:0:
256,192,27144,1,8,0:0:0:0:
256,192,27374,1,0,0:0:0:0:
256,192,27720,1,0,0:0:0:0:
256,192,27836,1,8,0:0:0:0:
256,192,27951,1,8,0:0:0:0:
256,192,28067,1,0,0:0:0:0:
256,192,28297,1,0,0:0:0:0:
256,192,28759,1,0,0:0:0:0:
256,192,28874,1,0,0:0:0:0:
256,192,28990,1,0,0:0:0:0:
256,192,29220,1,0,0:0:0:0:
256,192,29682,5,0,0:0:0:0:
256,192,29797,1,0,0:0:0:0:
256,192,29913,1,8,0:0:0:0:
256,192,30105,1,8,0:0:0:0:
256,192,30144,1,8,0:0:0:0:
256,192,30605,1,8,0:0:0:0:
256,192,31067,1,0,0:0:0:0:
256,192,31297,1,8,0:0:0:0:
256,192,31413,1,0,0:0:0:0:
256,192,31528,1,8,0:0:0:0:
256,192,31990,1,0,0:0:0:0:
256,192,32220,1,0,0:0:0:0:
256,192,32336,1,0,0:0:0:0:
256,192,32451,1,8,0:0:0:0:
256,192,32913,1,8,0:0:0:0:
256,192,33144,1,0,0:0:0:0:
256,192,33374,1,8,0:0:0:0:
256,192,33490,1,0,0:0:0:0:
256,192,33605,1,8,0:0:0:0:
256,192,34182,1,8,0:0:0:0:
256,192,34240,1,8,0:0:0:0:
256,192,34297,1,8,0:0:0:0:
256,192,34759,1,8,0:0:0:0:
256,192,34990,1,0,0:0:0:0:
256,192,35105,1,0,0:0:0:0:
256,192,35220,1,8,0:0:0:0:
256,192,35913,1,0,0:0:0:0:
256,192,36028,1,8,0:0:0:0:
256,192,36144,1,0,0:0:0:0:
256,192,36605,1,0,0:0:0:0:
256,192,36951,1,8,0:0:0:0:
256,192,37067,1,0,0:0:0:0:
256,192,37182,1,0,0:0:0:0:
256,192,37297,1,8,0:0:0:0:
256,192,37490,1,8,0:0:0:0:
256,192,37528,1,8,0:0:0:0:
256,192,37990,1,8,0:0:0:0:
256,192,38451,1,0,0:0:0:0:
256,192,38682,1,8,0:0:0:0:
256,192,38797,1,0,0:0:0:0:
256,192,38913,1,8,0:0:0:0:
256,192,39374,1,0,0:0:0:0:
256,192,39605,1,8,0:0:0:0:
256,192,39720,1,0,0:0:0:0:
256,192,39836,1,8,0:0:0:0:
256,192,40182,1,0,0:0:0:0:
256,192,40297,1,8,0:0:0:0:
256,192,40528,1,0,0:0:0:0:
256,192,40644,1,8,0:0:0:0:
256,192,40759,1,0,0:0:0:0:
256,192,40874,1,0,0:0:0:0:
256,192,40990,1,8,0:0:0:0:
256,192,41220,1,8,0:0:0:0:
256,192,41682,1,0,0:0:0:0:
256,192,41797,1,0,0:0:0:0:
256,192,41913,1,8,0:0:0:0:
256,192,42144,1,0,0:0:0:0:
256,192,42567,1,0,0:0:0:0:
256,192,42605,1,0,0:0:0:0:
256,192,42720,1,8,0:0:0:0:
256,192,42836,1,0,0:0:0:0:
256,192,43067,1,0,0:0:0:0:
256,192,43528,1,0,0:0:0:0:
256,192,43644,1,0,0:0:0:0:
256,192,43759,1,8,0:0:0:0:
256,192,43990,1,0,0:0:0:0:
256,192,44336,1,0,0:0:0:0:
256,192,44451,5,8,0:0:0:0:
256,192,44567,1,0,0:0:0:0:
256,192,44682,1,8,0:0:0:0:
256,192,44874,1,8,0:0:0:0:
256,192,44913,1,8,0:0:0:0:
256,192,45374,1,8,0:0:0:0:
256,192,45836,1,0,0:0:0:0:
256,192,46067,1,8,0:0:0:0:
256,192,46182,1,0,0:0:0:0:
256,192,46297,1,8,0:0:0:0:
256,192,46759,1,8,0:0:0:0:
256,192,46990,1,0,0:0:0:0:
256,192,47105,1,0,0:0:0:0:
256,192,47220,1,8,0:0:0:0:
256,192,47682,1,8,0:0:0:0:
256,192,47913,1,0,0:0:0:0:
256,192,48144,1,8,0:0:0:0:
256,192,48259,1,0,0:0:0:0:
256,192,48374,1,8,0:0:0:0:
256,192,48605,1,0,0:0:0:0:
256,192,48951,1,0,0:0:0:0:
256,192,49067,1,8,0:0:0:0:
256,192,49413,1,0,0:0:0:0:
256,192,49528,1,8,0:0:0:0:
256,192,49759,1,0,0:0:0:0:
256,192,49874,1,8,0:0:0:0:
256,192,49990,1,8,0:0:0:0:
256,192,50451,1,8,0:0:0:0:
256,192,50682,1,0,0:0:0:0:
256,192,50797,1,0,0:0:0:0:
256,192,50913,1,8,0:0:0:0:
256,192,51374,1,0,0:0:0:0:
256,192,51836,1,8,0:0:0:0:
256,192,51951,1,0,0:0:0:0:
256,192,52067,1,8,0:0:0:0:
256,192,52297,1,0,0:0:0:0:
256,192,52528,1,0,0:0:0:0:
256,192,52644,1,0,0:0:0:0:
256,192,52759,1,8,0:0:0:0:
256,192,52874,1,0,0:0:0:0:
256,192,52990,1,8,0:0:0:0:
256,192,53105,1,0,0:0:0:0:
256,192,53220,1,8,0:0:0:0:
256,192,53451,1,0,0:0:0:0:
256,192,53567,1,0,0:0:0:0:
256,192,53682,1,8,0:0:0:0:
256,192,53797,1,8,0:0:0:0:
256,192,53913,1,0,0:0:0:0:
256,192,54144,1,8,0:0:0:0:
256,192,54374,1,8,0:0:0:0:
256,192,54490,1,8,0:0:0:0:
256,192,54605,1,0,0:0:0:0:
256,192,54720,1,0,0:0:0:0:
256,192,54836,1,8,0:0:0:0:
256,192,54951,1,0,0:0:0:0:
256,192,55067,1,8,0:0:0:0:
256,192,55297,1,0,0:0:0:0:
256,192,55413,1,0,0:0:0:0:
256,192,55528,1,8,0:0:0:0:
256,192,55874,1,8,0:0:0:0:
256,192,55990,1,0,0:0:0:0:
256,192,56336,1,8,0:0:0:0:
256,192,56451,1,0,0:0:0:0:
256,192,56797,1,0,0:0:0:0:
256,192,56913,1,8,0:0:0:0:
256,192,57259,1,0,0:0:0:0:
256,192,57374,1,8,0:0:0:0:
256,192,57720,1,8,0:0:0:0:
256,192,57836,1,0,0:0:0:0:
256,192,58182,1,0,0:0:0:0:
256,192,58297,1,8,0:0:0:0:
