osu file format v14

[General]
AudioFilename: audio.mp3
AudioLeadIn: 0
PreviewTime: 134121
Countdown: 0
SampleSet: Soft
StackLeniency: 0.3
Mode: 0
LetterboxInBreaks: 0
WidescreenStoryboard: 1

[Editor]
DistanceSpacing: 0.3
BeatDivisor: 4
GridSize: 8
TimelineZoom: 1.4

[Metadata]
Title:Saiaku na Hi demo Anata ga Suki.
TitleUnicode:最悪な日でもあなたが好き。
Artist:Shera L. Greenwood (CV: Serizawa Yuu)
ArtistUnicode:シェラ・L・グリーンウッド (CV: 芹澤優)
Creator:Gottagof4st
Version:Solitude
Source:異世界魔王と召喚少女の奴隷魔術
Tags:isekai maou to shoukan shoujo no dorei majutsu how not to summon a demon lord anime ending rolniczy seto kousuke onlybiscuit HoneyWorks
BeatmapID:1778086
BeatmapSetID:850445

[Difficulty]
HPDrainRate:5
CircleSize:3.7
OverallDifficulty:8.5
ApproachRate:9.2
SliderMultiplier:1.8
SliderTickRate:1

[Events]
//Background and Video events
0,0,"bg.jpg",0,0
//Break Periods
//Storyboard Layer 0 (Background)
//Storyboard Layer 1 (Fail)
//Storyboard Layer 2 (Pass)
//Storyboard Layer 3 (Foreground)
//Storyboard Sound Samples

[TimingPoints]
89,322.58064516129,4,2,1,40,1,0
411,-250,4,2,1,40,0,0
1379,-166.666666666667,4,2,1,40,0,0
2024,-166.666666666667,4,2,1,40,0,0
2669,-166.666666666667,4,2,1,40,0,0
2992,-166.666666666667,4,2,1,40,0,0
3314,-166.666666666667,4,2,1,40,0,0
3798,-166.666666666667,4,2,1,40,0,0
3959,-166.666666666667,4,2,1,40,0,0
4282,-166.666666666667,4,2,1,40,0,0
5250,-166.666666666667,4,2,1,40,0,0
7185,-166.666666666667,4,2,1,40,0,0
7830,-166.666666666667,4,2,1,40,0,0
8314,-166.666666666667,4,2,1,40,0,0
8476,-166.666666666667,4,2,1,40,0,0
8959,-166.666666666667,4,2,1,40,0,0
9121,-166.666666666667,4,2,1,40,0,0
9443,-166.666666666667,4,2,1,40,0,0
12024,-166.666666666667,4,2,1,40,0,0
12185,-166.666666666667,4,2,1,40,0,0
12508,-166.666666666667,4,2,1,40,0,0
12669,-166.666666666667,4,2,1,40,0,0
12992,-166.666666666667,4,2,1,40,0,0
14282,-166.666666666667,4,2,1,40,0,0
15572,-125,4,2,1,60,0,0
18799,-166.666666666667,4,2,1,60,0,0
19444,-142.857142857143,4,2,1,60,0,0
20088,-142.857142857143,4,2,1,60,0,0
20734,-125,4,2,1,60,0,0
24443,-125,4,2,1,60,0,0
25896,-111.111111111111,4,2,1,55,0,0
34928,-100,4,2,1,60,0,0
35895,-166.666666666667,4,2,1,60,0,0
36218,-100,4,2,1,65,0,0
46540,-100,4,2,1,55,0,0
47830,-166.666666666667,4,2,1,55,0,0
50411,-166.666666666667,4,2,1,55,0,0
50734,-166.666666666667,4,2,1,55,0,0
51379,-166.666666666667,4,2,1,55,0,0
51701,-166.666666666667,4,2,1,55,0,0
55572,-111.111111111111,4,2,1,55,0,0
55734,-111.111111111111,4,2,1,55,0,0
56863,-1000,4,2,1,40,0,0
59443,-76.9230769230769,4,2,1,95,0,1
59605,-76.9230769230769,4,2,1,95,0,1
60088,-76.9230769230769,4,2,1,95,0,1
60250,-76.9230769230769,4,2,1,95,0,1
60734,-76.9230769230769,4,2,1,95,0,1
61218,-76.9230769230769,4,2,1,95,0,1
62024,-76.9230769230769,4,2,1,95,0,1
62347,-76.9230769230769,4,2,1,95,0,1
63314,-76.9230769230769,4,2,1,95,0,1
64121,-76.9230769230769,4,2,1,95,0,1
64605,-76.9230769230769,4,2,1,95,0,1
64766,-76.9230769230769,4,2,1,95,0,1
65250,-76.9230769230769,4,2,1,95,0,1
65411,-76.9230769230769,4,2,1,95,0,1
65895,-76.9230769230769,4,2,1,95,0,1
66218,-76.9230769230769,4,2,1,95,0,1
66540,-76.9230769230769,4,2,1,95,0,1
67024,-76.9230769230769,4,2,1,95,0,1
68798,-76.9230769230769,4,2,1,95,0,1
69927,-76.9230769230769,4,2,1,95,0,1
70411,-76.9230769230769,4,2,1,95,0,1
71379,-76.9230769230769,4,2,1,95,0,1
71701,-76.9230769230769,4,2,1,95,0,1
72185,-76.9230769230769,4,2,1,95,0,1
72347,-76.9230769230769,4,2,1,95,0,1
72508,-76.9230769230769,4,2,1,95,0,1
72992,-76.9230769230769,4,2,1,95,0,1
73153,-76.9230769230769,4,2,1,95,0,1
73637,-76.9230769230769,4,2,1,95,0,1
73960,-71.4285714285714,4,2,1,95,0,1
74283,-66.6666666666667,4,2,1,95,0,1
74443,-66.6666666666667,4,2,1,95,0,1
74605,-66.6666666666667,4,2,1,95,0,1
74685,-66.6666666666667,4,2,1,95,0,1
74928,-76.9230769230769,4,2,1,95,0,1
75250,-76.9230769230769,4,2,1,95,0,1
75572,-76.9230769230769,4,2,1,95,0,1
75734,-76.9230769230769,4,2,1,95,0,1
76218,-76.9230769230769,4,2,1,95,0,1
77508,-76.9230769230769,4,2,1,95,0,1
77992,-76.9230769230769,4,2,1,95,0,1
78314,-76.9230769230769,4,2,1,95,0,1
79121,-76.9230769230769,4,2,1,95,0,1
80088,-133.333333333333,4,2,1,70,0,0
81379,-133.333333333333,4,2,1,70,0,0
81540,-133.333333333333,4,2,1,70,0,0
82670,-200,4,2,1,70,0,0
83153,-200,4,2,1,70,0,0
83959,-200,4,2,1,70,0,0
85572,-200,4,2,1,70,0,0
86540,-200,4,2,1,70,0,0
87024,-200,4,2,1,70,0,0
87831,-142.857142857143,4,2,1,70,0,0
89767,-250.000000000001,4,2,1,70,0,0
90411,-125,4,2,1,80,0,0
100734,-111.111111111111,4,2,1,60,0,0
108476,-90.9090909090908,4,2,1,70,0,0
111057,-100,4,2,1,70,0,0
118799,-90.9090909090909,4,2,1,70,0,0
121379,-133.333333333333,4,2,1,55,0,0
122669,-166.666666666667,4,2,1,55,0,0
126218,-166.666666666667,4,2,1,55,0,0
126379,-166.666666666667,4,2,1,55,0,0
130411,-111.111111111111,4,2,1,55,0,0
130734,-111.111111111111,4,2,1,55,0,0
131701,-1000,4,2,1,40,0,0
132911,-1000,4,2,1,5,0,0
132992,-769.230769230769,4,2,1,55,0,0
134282,-76.9230769230769,4,2,1,95,0,1
134444,-76.9230769230769,4,2,1,95,0,1
134927,-76.9230769230769,4,2,1,95,0,1
135089,-76.9230769230769,4,2,1,95,0,1
135573,-76.9230769230769,4,2,1,95,0,1
136057,-76.9230769230769,4,2,1,95,0,1
136863,-76.9230769230769,4,2,1,95,0,1
137186,-76.9230769230769,4,2,1,95,0,1
138153,-76.9230769230769,4,2,1,95,0,1
138960,-76.9230769230769,4,2,1,95,0,1
139444,-76.9230769230769,4,2,1,95,0,1
139605,-76.9230769230769,4,2,1,95,0,1
140089,-76.9230769230769,4,2,1,95,0,1
140250,-76.9230769230769,4,2,1,95,0,1
140734,-76.9230769230769,4,2,1,95,0,1
141057,-76.9230769230769,4,2,1,95,0,1
141379,-76.9230769230769,4,2,1,95,0,1
141863,-76.9230769230769,4,2,1,95,0,1
143637,-76.9230769230769,4,2,1,95,0,1
144766,-76.9230769230769,4,2,1,95,0,1
145250,-76.9230769230769,4,2,1,95,0,1
146218,-76.9230769230769,4,2,1,95,0,1
146540,-76.9230769230769,4,2,1,95,0,1
147024,-76.9230769230769,4,2,1,95,0,1
147186,-76.9230769230769,4,2,1,95,0,1
147347,-76.9230769230769,4,2,1,95,0,1
147831,-76.9230769230769,4,2,1,95,0,1
147992,-76.9230769230769,4,2,1,95,0,1
148476,-76.9230769230769,4,2,1,95,0,1
148798,-71.4285714285714,4,2,1,95,0,1
148799,-71.4285714285714,4,2,1,95,0,1
149121,-66.6666666666667,4,2,1,95,0,1
149122,-66.6666666666667,4,2,1,95,0,1
149282,-66.6666666666667,4,2,1,95,0,1
149444,-66.6666666666667,4,2,1,95,0,1
149524,-66.6666666666667,4,2,1,95,0,1
149766,-76.9230769230769,4,2,1,95,0,1
149767,-76.9230769230769,4,2,1,95,0,1
150089,-76.9230769230769,4,2,1,95,0,1
150411,-76.9230769230769,4,2,1,95,0,1
150573,-76.9230769230769,4,2,1,95,0,1
151057,-76.9230769230769,4,2,1,95,0,1
152347,-76.9230769230769,4,2,1,95,0,1
152831,-76.9230769230769,4,2,1,95,0,1
153153,-76.9230769230769,4,2,1,95,0,1
153960,-76.9230769230769,4,2,1,95,0,1
154927,-133.333333333333,4,2,1,70,0,0
156218,-133.333333333333,4,2,1,70,0,0
156379,-133.333333333333,4,2,1,70,0,0
157509,-133.333333333333,4,2,1,70,0,0
157992,-133.333333333333,4,2,1,70,0,0
158798,-133.333333333333,4,2,1,70,0,0
160411,-133.333333333333,4,2,1,70,0,0
161379,-133.333333333333,4,2,1,70,0,0
161863,-133.333333333333,4,2,1,70,0,0
162670,-142.857142857143,4,2,1,70,0,0
164605,-250.000000000001,4,2,1,55,0,0
165250,-166.666666666667,4,2,1,55,0,0
180250,-111.111111111111,4,2,1,55,0,0
180734,-83.3333333333333,4,2,1,80,0,0
191056,-83.3333333333333,4,2,1,80,0,1
192508,-100,4,2,1,80,0,1
194605,-83.3333333333333,4,2,1,80,0,1
198798,-125,4,2,1,70,0,0
201379,-200,4,2,1,55,0,0
206218,-200,4,2,1,55,0,0
206379,-200,4,2,1,55,0,0
210411,-200,4,2,1,55,0,0
210734,-200,4,2,1,55,0,0
211701,-1000,4,2,1,55,0,0
212911,-1000,4,2,1,5,0,0
212992,-1000,4,2,1,55,0,0
214283,-400,4,2,1,40,0,0
214927,-400,4,2,1,40,0,0
215572,-400,4,2,1,40,0,0
215895,-400,4,2,1,40,0,0
216218,-400,4,2,1,40,0,0
216701,-400,4,2,1,40,0,0
216863,-400,4,2,1,40,0,0
217185,-400,4,2,1,40,0,0
218153,-400,4,2,1,40,0,0
218959,-400,4,2,1,40,0,0
219443,-400,4,2,1,40,0,0
219605,-400,4,2,1,40,0,0
220734,-400,4,2,1,40,0,0
221218,-400,4,2,1,40,0,0
221943,-400,4,2,1,5,0,0
222024,-100,4,2,1,70,0,0
222347,-100,4,2,1,70,0,0
224282,-333.333333333333,4,2,1,70,0,0
224605,-71.4285714285714,4,2,1,95,0,1
224767,-71.4285714285714,4,2,1,95,0,1
225250,-71.4285714285714,4,2,1,95,0,1
225412,-71.4285714285714,4,2,1,95,0,1
225896,-71.4285714285714,4,2,1,95,0,1
226380,-71.4285714285714,4,2,1,95,0,1
227186,-71.4285714285714,4,2,1,95,0,1
227509,-71.4285714285714,4,2,1,95,0,1
228476,-71.4285714285714,4,2,1,95,0,1
229283,-71.4285714285714,4,2,1,95,0,1
229767,-71.4285714285714,4,2,1,95,0,1
229928,-71.4285714285714,4,2,1,95,0,1
230412,-71.4285714285714,4,2,1,95,0,1
230573,-71.4285714285714,4,2,1,95,0,1
231057,-71.4285714285714,4,2,1,95,0,1
231380,-71.4285714285714,4,2,1,95,0,1
231702,-71.4285714285714,4,2,1,95,0,1
232186,-71.4285714285714,4,2,1,95,0,1
233960,-71.4285714285714,4,2,1,95,0,1
235089,-71.4285714285714,4,2,1,95,0,1
235573,-71.4285714285714,4,2,1,95,0,1
236541,-71.4285714285714,4,2,1,95,0,1
236863,-71.4285714285714,4,2,1,95,0,1
237347,-71.4285714285714,4,2,1,95,0,1
237509,-71.4285714285714,4,2,1,95,0,1
237670,-71.4285714285714,4,2,1,95,0,1
238154,-71.4285714285714,4,2,1,95,0,1
238315,-71.4285714285714,4,2,1,95,0,1
238799,-71.4285714285714,4,2,1,95,0,1
239121,-66.6666666666667,4,2,1,95,0,1
239122,-66.6666666666667,4,2,1,95,0,1
239443,-62.5,4,2,1,95,0,1
239445,-62.5,4,2,1,95,0,1
239605,-62.5,4,2,1,95,0,1
239767,-62.5,4,2,1,95,0,1
239847,-62.5,4,2,1,95,0,1
240088,-71.4285714285714,4,2,1,95,0,1
240090,-71.4285714285714,4,2,1,95,0,1
240412,-71.4285714285714,4,2,1,95,0,1
240734,-71.4285714285714,4,2,1,95,0,1
240896,-71.4285714285714,4,2,1,95,0,1
241380,-71.4285714285714,4,2,1,95,0,1
242670,-71.4285714285714,4,2,1,95,0,1
243154,-71.4285714285714,4,2,1,95,0,1
243476,-71.4285714285714,4,2,1,95,0,1
243637,-83.3333333333333,4,2,1,95,0,1
244282,-100,4,2,1,95,0,1
244283,-100,4,2,1,95,0,1
245250,-200,4,2,1,70,0,0
246541,-200,4,2,1,70,0,0
246702,-200,4,2,1,70,0,0
247832,-200,4,2,1,70,0,0
248315,-200,4,2,1,70,0,0
249121,-200,4,2,1,70,0,0
250734,-200,4,2,1,70,0,0
251702,-200,4,2,1,70,0,0
252186,-200,4,2,1,70,0,0
252992,-142.857142857143,4,2,1,70,0,0
252993,-142.857142857143,4,2,1,70,0,0
255572,-200,4,2,1,70,0,0

[Colours]
Combo1 : 62,255,111
Combo2 : 210,210,0
Combo3 : 0,168,0
Combo4 : 255,130,192

[HitObjects]
26,145,412,6,0,L|31:217,2,72,2|2|2,0:0|0:0|0:0,0:0:0:0:
101,38,1379,6,0,L|215:33,1,107.999996704102,2|0,0:0|0:0,0:0:0:0:
274,116,2024,2,0,L|388:121,1,107.999996704102,2|0,0:0|0:0,0:0:0:0:
450,11,2669,1,2,0:0:0:0:
506,128,2992,1,2,0:0:0:0:
506,128,3153,2,0,P|513:157|508:192,1,53.9999983520508,2|2,0:0|0:0,0:0:0:0:
512,181,3798,1,2,0:0:0:0:
475,259,3959,6,0,P|433:250|363:249,1,107.999996704102,2|2,0:0|0:0,0:0:0:0:
313,309,4443,2,0,P|271:300|201:299,1,107.999996704102,2|2,0:0|0:0,0:0:0:0:
142,351,4927,1,2,0:0:0:0:
27,217,5250,1,2,0:0:0:0:
276,171,5895,1,2,0:0:0:0:
39,69,6540,6,0,P|82:46|223:117,2,215.999993408203,2|2|2,0:0|0:0|0:0,0:0:0:0:
39,69,8314,2,0,L|36:137,1,53.9999983520508,2|2,0:0|0:0,0:0:0:0:
36,122,8959,5,2,0:0:0:0:
103,184,9121,2,0,L|226:189,1,107.999996704102,2|2,0:0|0:0,0:0:0:0:
274,133,9605,2,0,L|397:128,1,107.999996704102,2|0,0:0|0:0,0:0:0:0:
445,185,10088,1,2,0:0:0:0:
445,185,11540,5,2,0:0:0:0:
499,256,11701,2,0,P|516:311|505:368,1,107.999996704102,2|2,0:0|0:0,0:0:0:0:
427,384,12185,2,0,L|317:376,1,107.999996704102,2|2,0:0|0:0,0:0:0:0:
247,328,12669,1,2,0:0:0:0:
247,328,12992,6,0,B|184:230|47:301|47:301|129:172|62:110,1,431.999986816407,2|2,0:0|0:0,0:0:0:0:
47,130,14605,1,2,0:0:0:0:
35,148,14927,1,2,0:0:0:0:
23,166,15250,1,2,0:0:0:0:
15,34,15411,1,8,0:0:0:0:
15,34,15492,1,8,0:0:0:0:
15,34,15572,6,0,L|162:27,1,144,4|0,1:2|0:0,0:0:0:0:
239,63,16056,1,2,0:0:0:0:
309,13,16379,1,2,0:0:0:0:
437,72,16701,1,8,0:0:0:0:
437,72,16782,1,8,0:0:0:0:
437,72,16863,6,0,P|411:120|436:207,1,144,4|0,1:2|0:0,0:0:0:0:
512,290,17347,2,0,L|430:293,1,72,8|0,0:3|0:0,0:0:0:0:
357,334,17669,1,8,0:3:0:0:
357,334,17830,1,8,0:3:0:0:
288,270,17992,1,8,0:3:0:0:
193,365,18153,6,0,P|169:315|20:288,1,216,4|2,1:2|0:0,0:0:0:0:
79,384,18798,2,0,P|119:345|98:195,1,216,6|0,1:2|0:0,0:0:0:0:
24,285,19443,1,6,1:2:0:0:
24,285,19605,1,0,3:0:0:0:
24,285,20088,6,8,L|15:237,2,41.9999987182618,8|8|8,0:1|0:1|0:1,0:1:0:0:
77,187,20411,2,8,L|86:139,2,41.9999987182618,8|8|8,3:1|3:1|3:1,0:1:0:0:
16,68,20734,6,0,L|132:64,1,108,6|0,1:2|0:0,0:0:0:0:
160,62,21056,1,8,0:0:0:0:
160,62,21379,1,0,1:2:0:0:
221,182,21540,1,0,1:2:0:0:
286,15,21701,2,0,P|336:3|371:6,1,72,8|0,0:0|0:0,0:0:0:0:
484,59,22024,6,0,L|479:171,1,108,2|0,1:2|0:0,0:0:0:0:
477,200,22347,1,8,0:0:0:0:
477,200,22669,1,0,1:2:0:0:
322,178,22830,1,0,1:2:0:0:
447,331,22992,2,0,P|402:304|349:302,1,72,8|0,0:0|3:0,0:0:0:0:
256,347,23314,5,6,1:2:0:0:
256,192,23395,12,2,24443,0:0:0:0:
256,192,24605,5,2,0:0:0:0:
256,192,24685,12,0,25734,0:0:0:0:
211,75,25895,5,2,1:2:0:0:
188,175,26056,1,2,0:0:0:0:
69,59,26218,1,2,1:2:0:0:
91,159,26379,1,2,0:0:0:0:
224,52,26540,2,0,P|277:39|322:41,1,80.9999975280763,2|0,1:2|0:0,0:0:0:0:
343,201,26863,2,0,P|305:161|284:121,1,80.9999975280763,2|0,1:2|0:0,0:0:0:0:
432,70,27185,5,2,1:2:0:0:
432,70,27508,2,0,L|440:163,1,80.9999975280763,2|0,1:2|0:0,0:0:0:0:
343,201,27830,2,0,L|335:294,1,80.9999975280763,2|0,1:2|0:0,0:0:0:0:
400,355,28153,1,2,1:2:0:0:
400,355,28476,5,2,1:2:0:0:
341,242,28637,1,2,0:0:0:0:
206,288,28798,1,2,1:2:0:0:
265,175,28959,1,2,0:0:0:0:
315,384,29121,2,0,P|262:360|215:363,1,80.9999975280763,2|0,1:2|0:0,0:0:0:0:
80,335,29443,2,0,P|133:359|180:356,1,80.9999975280763,2|0,1:2|0:0,0:0:0:0:
188,204,29766,5,2,1:2:0:0:
177,191,30088,1,0,1:2:0:0:
166,178,30411,1,0,1:2:0:0:
155,165,30734,1,0,1:2:0:0:
145,151,31056,5,2,1:2:0:0:
125,26,31218,1,2,0:0:0:0:
267,0,31379,1,2,1:2:0:0:
247,125,31541,1,2,0:0:0:0:
100,13,31701,2,0,P|49:1|-1:1,1,80.9999975280763,2|0,1:2|0:0,0:0:0:0:
65,165,32024,2,0,P|117:158|164:141,1,80.9999975280763,2|0,1:2|0:0,0:0:0:0:
267,0,32347,6,0,P|326:-6|365:85,1,161.999995056153,2|0,1:2|1:2,0:0:0:0:
486,157,32830,1,0,0:0:0:0:
486,157,32992,2,0,P|427:151|388:242,1,161.999995056153,2|0,1:2|1:2,0:0:0:0:
446,340,33476,1,0,0:0:0:0:
446,340,33637,5,2,1:2:0:0:
430,337,33959,1,0,1:2:0:0:
413,334,34282,1,0,1:2:0:0:
396,331,34605,1,0,1:2:0:0:
380,328,34927,5,2,1:2:0:0:
310,231,35088,1,0,1:2:0:0:
237,373,35250,2,0,P|188:381|139:375,1,90,8|0,0:0|1:2,0:0:0:0:
148,377,35492,1,0,1:2:0:0:
148,377,35572,1,0,1:2:0:0:
299,312,35734,1,0,1:2:0:0:
156,208,35895,6,0,B|114:201|114:201|74:208,1,80.9999975280763,10|0,0:0|0:0,0:0:0:0:
36,271,36218,6,0,L|30:78,1,180,6|8,1:2|0:0,0:0:0:0:
107,0,36701,1,2,0:0:0:0:
238,91,36863,2,0,L|234:207,2,90,2|0|8,1:2|1:2|0:0,0:0:0:0:
126,20,37347,1,2,0:0:0:0:
337,86,37508,6,0,L|442:77,2,90,2|0|8,1:2|1:2|0:0,0:0:0:0:
257,179,37992,1,2,0:0:0:0:
484,277,38153,2,0,B|398:245|404:320|300:276,1,180,2|8,1:2|0:0,0:0:0:0:
257,179,38637,1,0,0:0:0:0:
225,352,38798,6,0,P|149:328|42:329,1,180,6|8,1:2|0:0,0:0:0:0:
124,244,39282,1,2,0:0:0:0:
4,138,39443,2,0,P|80:162|187:161,1,180,2|8,1:2|0:0,0:0:0:0:
227,84,39927,1,2,0:0:0:0:
359,201,40088,6,0,L|366:298,2,90,2|0|8,1:2|1:2|0:0,0:0:0:0:
328,96,40572,1,2,0:0:0:0:
209,1,40734,2,0,P|156:31|174:157,1,180,2|8,1:2|0:0,0:0:0:0:
479,21,41379,5,6,1:2:0:0:
463,150,41540,1,2,0:0:0:0:
328,96,41701,1,10,0:0:0:0:
344,225,41862,1,2,0:0:0:0:
377,24,42024,2,0,P|326:12|280:24,1,90,2|0,1:2|0:0,0:0:0:0:
178,165,42347,2,0,P|229:177|275:165,1,90,10|0,0:0|0:0,0:0:0:0:
111,20,42669,5,2,1:2:0:0:
111,20,42992,2,0,L|106:135,1,90,10|2,0:0|0:0,0:0:0:0:
268,259,43314,2,0,L|263:144,1,90,2|0,1:2|0:0,0:0:0:0:
93,247,43637,2,0,L|88:362,1,90,14|0,0:0|0:0,0:0:0:0:
151,179,43959,5,6,1:2:0:0:
162,366,44121,1,0,1:2:0:0:
283,161,44282,2,0,P|331:138|384:134,1,90,8|0,0:0|0:0,0:0:0:0:
470,300,44605,5,2,1:2:0:0:
434,303,44712,1,2,0:0:0:0:
397,305,44820,1,2,0:0:0:0:
363,331,44927,2,0,L|355:227,1,90,10|0,0:0|0:0,0:0:0:0:
418,61,45250,5,2,1:2:0:0:
448,222,45411,1,10,0:0:0:0:
313,0,45572,1,2,0:0:0:0:
283,161,45734,2,0,P|219:139|175:142,1,90,2|0,0:0|1:2,0:0:0:0:
16,150,46056,2,0,P|91:158|81:274,1,180,2|0,1:2|1:2,0:0:0:0:
34,343,46540,5,2,1:2:0:0:
136,246,46701,1,2,1:2:0:0:
236,366,46863,1,10,0:0:0:0:
236,366,47830,6,0,L|346:372,1,107.999996704102,2|2,1:2|0:0,0:0:0:0:
441,250,48476,2,0,L|331:256,1,107.999996704102,2|2,3:2|0:0,0:0:0:0:
241,177,48959,1,0,1:2:0:0:
241,177,49040,1,0,1:2:0:0:
241,177,49121,6,0,P|221:121|238:67,1,107.999996704102,6|0,1:2|0:0,0:0:0:0:
322,29,49605,1,0,1:2:0:0:
165,5,49766,2,0,L|48:8,1,107.999996704102,10|0,0:0|0:0,0:0:0:0:
0,103,50250,1,0,1:2:0:0:
0,103,50330,1,0,1:2:0:0:
0,103,50411,6,0,L|2:168,1,53.9999983520508,2|8,1:2|0:0,0:0:0:0:
82,197,50734,2,0,L|80:262,1,53.9999983520508,2|0,0:0|1:2,0:0:0:0:
50,364,51056,1,10,0:0:0:0:
169,220,51218,1,0,1:2:0:0:
169,220,51298,1,0,1:2:0:0:
169,220,51379,1,2,3:2:0:0:
161,326,51540,1,8,3:0:0:0:
140,132,51701,5,6,1:2:0:0:
241,277,51863,1,2,1:2:0:0:
295,99,52024,1,10,0:0:0:0:
295,99,52992,6,0,L|411:105,1,107.999996704102,2|2,1:2|0:0,0:0:0:0:
460,10,53637,2,0,L|344:16,1,107.999996704102,2|2,0:0|0:0,0:0:0:0:
301,106,54121,1,8,0:0:0:0:
301,106,54201,1,8,0:0:0:0:
301,106,54282,6,0,P|288:159|306:218,1,107.999996704102,6|0,1:2|0:0,0:0:0:0:
339,284,54766,1,0,1:2:0:0:
435,369,54927,2,0,L|320:364,1,107.999996704102,10|0,0:0|0:0,0:0:0:0:
232,310,55411,1,8,0:0:0:0:
232,310,55492,1,8,0:0:0:0:
232,310,55572,5,6,1:2:0:0:
341,204,55734,2,0,L|296:210,1,40.4999987640381,8|8,0:0|0:0,0:0:0:0:
152,175,55895,6,0,L|197:181,1,40.4999987640381,2|8,0:0|0:0,0:0:0:0:
380,113,56056,2,0,L|335:119,1,40.4999987640381,8|8,0:0|0:0,0:0:0:0:
100,67,56218,5,10,0:0:0:0:
392,13,56379,1,10,0:0:0:0:
182,29,56540,5,10,0:0:0:0:
339,118,56701,1,10,0:0:0:0:
177,155,56863,6,0,L|104:148,1,72,2|2,0:0|0:0,0:0:0:0:
106,149,59444,6,0,B|232:100|209:196|336:158,1,233.999989288331,6|8,1:2|0:0,0:0:0:0:
282,62,59928,1,0,0:0:0:0:
163,243,60089,1,2,1:2:0:0:
331,159,60250,1,0,1:2:0:0:
107,36,60412,2,0,P|92:91|105:148,1,116.999994644165,8|0,0:0|0:0,0:0:0:0:
365,249,60734,6,0,L|224:246,1,116.999994644165,2|0,1:2|1:2,0:0:0:0:
398,352,61057,1,10,0:0:0:0:
331,159,61218,2,0,L|190:156,1,116.999994644165,2|0,0:0|1:2,0:0:0:0:
46,223,61541,1,0,1:2:0:0:
203,322,61702,1,8,0:0:0:0:
240,156,61863,1,2,0:0:0:0:
50,114,62025,6,0,P|29:170|55:234,1,116.999994644165,2|0,1:2|1:0,0:0:0:0:
255,59,62347,1,10,0:0:0:0:
255,59,62509,2,0,L|130:66,1,116.999994644165,2|0,0:0|1:0,0:0:0:0:
447,165,62831,1,2,1:2:0:0:
447,165,62993,2,0,L|322:158,1,116.999994644165,10|0,0:0|0:0,0:0:0:0:
512,0,63315,6,0,B|529:58|529:58|509:118,1,116.999994644165,6|0,1:2|1:2,0:0:0:0:
238,198,63638,2,0,B|221:140|221:140|241:80,1,116.999994644165,10|0,0:0|0:0,0:0:0:0:
505,226,63960,2,0,B|522:284|522:284|502:344,1,116.999994644165,10|2,0:0|0:0,0:0:0:0:
430,363,64202,1,8,0:0:0:0:
430,363,64283,2,0,L|370:358,1,58.4999973220826,8|8,0:0|0:0,0:0:0:0:
258,221,64444,2,0,L|318:216,1,58.4999973220826,8|8,0:0|0:0,0:0:0:0:
193,373,64605,6,0,P|143:301|-5:291,1,233.999989288331,6|8,1:2|0:0,0:0:0:0:
72,378,65089,1,2,0:0:0:0:
198,138,65250,1,2,1:2:0:0:
5,285,65412,1,0,1:2:0:0:
258,221,65573,2,0,L|382:237,1,116.999994644165,8|0,0:0|0:0,0:0:0:0:
116,68,65895,6,0,L|-8:84,1,116.999994644165,2|0,1:2|1:0,0:0:0:0:
209,0,66218,1,10,0:0:0:0:
258,221,66379,2,0,L|382:237,1,116.999994644165,2|2,0:0|1:2,0:0:0:0:
468,137,66702,1,2,1:2:0:0:
209,0,66863,2,0,P|196:59|212:117,1,116.999994644165,10|2,0:0|0:0,0:0:0:0:
402,57,67186,6,0,L|279:58,1,116.999994644165,14|0,0:0|0:0,0:0:0:0:
133,143,67509,1,2,1:2:0:0:
491,236,67670,6,0,L|368:235,1,116.999994644165,14|0,0:0|0:0,0:0:0:0:
216,321,67992,1,2,1:2:0:0:
56,85,68154,6,0,B|4:184|118:209|69:306,1,233.999989288331,14|4,0:0|1:2,0:0:0:0:
269,341,68638,1,8,0:0:0:0:
269,341,68718,1,8,0:0:0:0:
269,341,68799,2,0,P|238:324|205:320,1,58.4999973220826,8|8,0:0|0:0,0:0:0:0:
413,277,68960,2,0,P|444:294|477:298,1,58.4999973220826,10|8,0:0|0:0,0:0:0:0:
195,201,69121,2,0,P|151:177|105:171,1,58.4999973220826,10|8,0:0|0:0,0:0:0:0:
396,111,69282,2,0,P|439:134|485:140,1,58.4999973220826,10|8,0:0|0:0,0:0:0:0:
205,68,69444,5,10,0:0:0:0:
168,49,69525,1,8,0:0:0:0:
128,38,69605,1,8,0:0:0:0:
86,40,69686,1,8,0:0:0:0:
47,54,69767,5,6,1:2:0:0:
135,255,69928,1,0,1:2:0:0:
312,51,70089,2,0,P|371:30|473:26,1,116.999994644165,8|0,0:0|0:0,0:0:0:0:
205,68,70412,1,2,1:2:0:0:
447,137,70573,1,0,1:2:0:0:
230,264,70734,2,0,P|209:323|205:425,1,116.999994644165,8|0,0:0|0:0,0:0:0:0:
351,144,71057,5,2,1:2:0:0:
395,337,71218,1,0,1:2:0:0:
246,183,71379,1,10,0:0:0:0:
202,376,71540,1,2,0:0:0:0:
108,132,71702,2,0,P|48:102|-5:99,1,116.999994644165,2|0,1:2|1:2,0:0:0:0:
175,81,72025,1,8,0:0:0:0:
126,289,72186,1,2,0:0:0:0:
246,183,72347,6,0,L|253:59,1,116.999994644165,6|0,1:2|1:2,0:0:0:0:
453,253,72670,1,10,0:0:0:0:
453,253,72831,2,0,L|446:129,1,116.999994644165,2|2,0:0|1:2,0:0:0:0:
299,370,73154,1,2,1:2:0:0:
299,370,73315,2,0,L|306:246,1,116.999994644165,10|2,0:0|0:0,0:0:0:0:
255,36,73638,6,0,P|199:19|140:31,1,116.999994644165,6|0,1:2|1:0,0:0:0:0:
129,256,73960,2,0,P|174:213|195:152,1,125.999996154785,10|0,0:0|0:0,0:0:0:0:
7,27,74282,2,0,P|22:93|69:146,1,125.999996154785,2|0,1:2|0:0,0:0:0:0:
168,158,74525,1,8,0:0:0:0:
168,158,74605,2,0,L|239:152,1,67.5000025749208,10|8,1:2|0:0,0:0:0:0:
276,9,74767,2,0,L|347:15,1,67.5000025749208,10|8,0:0|0:0,0:0:0:0:
512,116,74928,6,0,P|483:170|485:227,1,116.999994644165,6|0,1:2|1:0,0:0:0:0:
369,368,75250,2,0,P|354:312|314:269,1,116.999994644165,10|0,0:0|0:0,0:0:0:0:
129,256,75573,1,2,1:2:0:0:
259,357,75734,1,0,1:2:0:0:
202,133,75896,2,0,P|151:103|94:101,1,116.999994644165,8|0,0:0|0:0,0:0:0:0:
124,372,76218,6,0,L|129:244,1,116.999994644165,6|0,1:2|1:0,0:0:0:0:
307,122,76541,1,10,0:0:0:0:
307,122,76702,2,0,L|312:250,1,116.999994644165,2|2,0:0|1:2,0:0:0:0:
94,101,77025,1,8,0:0:0:0:
94,101,77105,1,8,0:0:0:0:
94,101,77186,1,10,0:0:0:0:
263,28,77347,1,2,0:0:0:0:
89,256,77509,6,0,L|92:128,1,116.999994644165,6|0,1:2|0:0,0:0:0:0:
158,10,77831,1,2,1:2:0:0:
314,267,77992,6,0,L|309:150,1,116.999994644165,6|0,1:2|0:0,0:0:0:0:
263,28,78315,1,2,1:2:0:0:
89,256,78476,6,0,B|202:317|191:216|319:269,1,233.999989288331,14|0,0:0|1:2,0:0:0:0:
482,342,78960,1,0,1:2:0:0:
482,342,79041,1,0,1:2:0:0:
482,342,79121,6,0,P|469:303|472:269,1,58.4999973220826,10|0,1:2|1:2,0:0:0:0:
386,72,79283,2,0,P|401:110|425:134,1,58.4999973220826,0|0,1:2|1:2,0:0:0:0:
326,297,79444,6,0,P|337:257|359:231,1,58.4999973220826,10|0,1:2|1:2,0:0:0:0:
242,127,79605,2,0,P|269:157|300:172,1,58.4999973220826,0|0,1:2|1:2,0:0:0:0:
183,270,79767,6,0,P|210:239|241:224,1,58.4999973220826,8|8,1:1|1:1,0:1:0:0:
95,174,79928,2,0,P|134:186|168:184,1,58.4999973220826,8|8,1:1|1:1,0:1:0:0:
59,250,80089,6,0,L|36:101,2,135.000005149842,6|2|10,1:2|0:0|0:0,0:0:0:0:
181,352,81057,1,2,0:0:0:0:
181,352,81218,2,0,P|221:341|255:340,1,67.5000025749208,2|2,0:0|1:2,0:0:0:0:
324,295,81541,2,0,P|364:306|398:307,1,67.5000025749208,10|0,0:0|0:0,0:0:0:0:
470,349,81863,1,2,1:2:0:0:
470,349,82025,1,10,0:0:0:0:
279,223,82347,1,2,0:0:0:0:
512,115,82670,6,0,P|465:121|410:112,1,90,10|0,1:2|0:0,0:0:0:0:
348,58,83154,2,0,P|301:52|246:61,1,90,2|0,1:2|0:0,0:0:0:0:
204,110,83638,2,0,P|172:113|152:112,1,45,2|8,0:0|1:0,0:0:0:0:
159,112,83879,1,8,1:2:0:0:
159,112,83959,1,2,1:2:0:0:
97,38,84121,1,10,0:0:0:0:
97,38,84605,5,10,0:0:0:0:
44,115,84767,2,0,L|-2:111,2,45,2|0|0,0:0|0:0|0:0,0:0:0:0:
96,190,85250,6,0,P|109:230|106:288,1,90,10|2,1:2|0:0,0:0:0:0:
14,380,85896,1,10,0:0:0:0:
14,380,86218,1,2,0:0:0:0:
78,310,86379,6,0,P|104:302|133:301,1,45,8|2,1:2|1:2,0:0:0:0:
197,340,86702,2,0,P|223:348|252:349,1,45,8|0,0:0|0:0,0:0:0:0:
312,305,87025,1,2,1:2:0:0:
312,305,87186,1,10,0:0:0:0:
143,198,87509,1,2,0:0:0:0:
398,164,87831,6,0,B|351:233|433:284|388:352,2,188.999994232178,14|6|6,1:2|1:2|1:2,0:0:0:0:
398,164,89767,6,0,L|434:174,3,36,2|0|0|2,0:0|0:0|0:0|0:0,0:0:0:0:
483,249,90411,6,0,L|475:102,1,144,6|8,1:2|0:0,0:0:0:0:
331,0,90895,2,0,P|321:41|322:81,1,72,2|0,0:0|1:2,0:0:0:0:
398,164,91218,1,0,1:2:0:0:
236,156,91379,2,0,P|226:115|227:75,1,72,10|0,0:0|0:0,0:0:0:0:
100,26,91701,6,0,P|121:73|130:173,1,144,2|8,1:2|0:0,0:0:0:0:
6,273,92185,2,0,P|44:246|84:231,1,72,2|0,0:0|1:2,0:0:0:0:
250,182,92508,1,0,1:2:0:0:
230,349,92669,1,10,0:0:0:0:
130,164,92830,1,0,0:0:0:0:
296,274,92992,6,0,B|372:303|374:253|440:274,1,144,6|10,1:2|0:0,0:0:0:0:
437,273,93637,2,0,L|440:197,1,72,2|0,1:2|1:2,0:0:0:0:
337,112,93959,2,0,L|340:188,1,72,10|0,0:0|0:0,0:0:0:0:
476,45,94282,6,0,P|437:35|403:33,1,72,6|0,1:2|0:0,0:0:0:0:
250,107,94605,2,0,P|289:97|323:95,1,72,10|0,0:0|0:0,0:0:0:0:
442,193,94927,2,0,P|403:183|369:181,1,72,2|0,1:2|1:2,0:0:0:0:
295,249,95250,1,10,0:0:0:0:
404,325,95411,1,8,0:0:0:0:
404,325,95492,1,8,0:0:0:0:
404,325,95572,6,0,B|328:297|331:350|261:325,1,144,6|8,1:2|0:0,0:0:0:0:
151,222,96056,2,0,P|168:273|101:328,1,144,2|2,0:0|1:2,0:0:0:0:
18,252,96540,1,8,0:0:0:0:
18,252,96863,6,0,L|24:101,1,144,2|10,1:2|0:0,0:0:0:0:
204,16,97347,2,0,L|210:167,1,144,2|0,0:0|1:2,0:0:0:0:
102,24,97830,1,14,0:0:0:0:
102,24,98153,6,0,L|207:19,1,72,6|0,1:2|0:0,0:0:0:0:
292,126,98476,2,0,L|397:131,1,72,8|2,0:0|0:0,0:0:0:0:
485,70,98798,1,0,1:2:0:0:
400,216,98959,1,0,1:2:0:0:
330,20,99121,2,0,P|287:2|247:0,1,72,10|2,0:0|0:0,0:0:0:0:
167,220,99443,5,2,1:2:0:0:
363,129,99605,1,8,0:0:0:0:
122,134,99766,1,8,0:0:0:0:
399,216,99927,1,10,0:0:0:0:
206,115,100734,5,2,1:2:0:0:
169,239,100895,1,2,0:0:0:0:
270,45,101056,1,10,0:0:0:0:
307,169,101217,1,2,0:0:0:0:
141,55,101379,2,0,P|93:38|42:38,1,80.9999975280763,2|2,1:2|1:2,0:0:0:0:
46,183,101701,2,0,P|94:166|145:166,1,80.9999975280763,10|0,0:0|0:0,0:0:0:0:
263,252,102024,5,2,1:2:0:0:
263,252,102347,2,0,L|256:344,1,80.9999975280763,10|0,0:0|1:2,0:0:0:0:
394,285,102669,2,0,L|387:193,1,80.9999975280763,2|0,0:0|1:2,0:0:0:0:
512,310,102992,1,10,0:0:0:0:
512,310,103314,5,2,1:2:0:0:
359,281,103476,1,2,0:0:0:0:
460,198,103637,1,8,0:0:0:0:
307,169,103799,1,2,0:0:0:0:
500,107,103959,2,0,P|510:60|509:17,1,80.9999975280763,2|0,1:2|1:2,0:0:0:0:
317,58,104282,2,0,P|307:105|308:148,1,80.9999975280763,10|0,0:0|0:0,0:0:0:0:
394,23,104605,6,0,L|224:30,1,161.999995056153,2|8,1:2|0:0,0:0:0:0:
115,130,105088,2,0,P|133:79|37:67,1,161.999995056153,0|0,1:2|1:2,0:0:0:0:
50,50,105492,1,0,1:2:0:0:
50,50,105572,1,0,1:0:0:0:
58,58,105895,5,10,0:0:0:0:
280,109,106056,1,2,1:2:0:0:
96,153,106218,1,2,1:2:0:0:
258,15,106379,5,10,0:0:0:0:
245,241,106540,1,2,1:2:0:0:
149,75,106701,1,2,1:2:0:0:
349,187,106863,5,10,0:0:0:0:
69,175,107024,1,2,0:0:0:0:
351,40,107185,5,2,1:2:0:0:
351,40,107830,1,2,0:0:0:0:
411,99,108153,1,2,0:0:0:0:
471,158,108476,6,0,L|476:274,1,99.0000030212403,8|0,0:0|0:0,0:0:0:0:
253,113,108798,2,0,L|258:-3,1,99.0000030212403,8|0,0:0|0:0,0:0:0:0:
384,214,109121,2,0,L|389:330,1,99.0000030212403,8|0,0:0|1:2,0:0:0:0:
388,312,109363,1,0,1:2:0:0:
388,312,109443,1,0,1:2:0:0:
288,209,109605,5,0,1:2:0:0:
288,209,109685,1,0,1:2:0:0:
288,209,109766,2,0,P|241:193|179:195,1,99.0000030212403,8|0,1:2|0:0,0:0:0:0:
150,371,110088,2,0,P|187:338|216:283,1,99.0000030212403,8|0,0:0|0:0,0:0:0:0:
79,171,110411,1,8,0:0:0:0:
120,280,110572,1,0,1:2:0:0:
120,280,110653,1,0,1:0:0:0:
120,280,110734,2,0,L|93:283,6,24.7500007553101,2|0|0|0|0|0|0,0:0|0:0|0:0|0:0|0:0|0:0|0:0,0:0:0:0:
44,345,111056,6,0,L|36:137,1,198.000006042481,6|8,1:2|0:0,0:0:0:0:
75,11,111540,1,2,0:0:0:0:
199,102,111701,2,0,L|191:202,2,90,2|0|8,1:2|0:0|0:0,0:0:0:0:
303,8,112185,1,2,0:0:0:0:
462,113,112347,6,0,B|395:115|395:115|351:97|351:97|283:99,1,180,2|8,1:2|0:0,0:0:0:0:
420,26,112830,1,2,0:0:0:0:
328,191,112992,2,0,P|316:241|316:291,1,90,2|0,1:2|0:0,0:0:0:0:
504,355,113314,2,0,P|498:303|481:256,1,90,8|0,0:0|0:0,0:0:0:0:
328,191,113637,6,0,L|233:193,2,90,2|0|8,1:2|1:2|0:0,0:0:0:0:
411,307,114121,1,2,0:0:0:0:
233,352,114282,2,0,L|35:347,1,180,2|8,1:2|0:0,0:0:0:0:
158,264,114766,1,2,0:0:0:0:
25,196,114927,6,0,P|13:155|22:110,2,90,2|0|8,1:2|1:2|0:0,0:0:0:0:
158,264,115411,1,2,0:0:0:0:
146,93,115572,2,0,L|48:87,1,90,2|0,1:2|0:0,0:0:0:0:
239,138,115895,1,8,0:0:0:0:
347,6,116056,1,8,0:0:0:0:
347,6,116137,1,8,0:0:0:0:
347,6,116218,6,0,P|339:47|342:117,1,90,14|2,1:2|1:2,0:0:0:0:
421,234,116540,1,10,0:0:0:0:
448,71,116701,1,2,0:0:0:0:
279,163,116863,2,0,P|228:180|184:182,1,90,2|0,1:2|0:0,0:0:0:0:
426,261,117185,2,0,P|477:278|521:280,1,90,10|0,0:0|0:0,0:0:0:0:
275,365,117508,6,0,P|229:320|104:318,1,180,2|10,1:2|0:0,0:0:0:0:
15,371,117992,1,0,0:0:0:0:
61,211,118153,2,0,L|67:109,1,90,2|0,1:2|0:0,0:0:0:0:
16,30,118476,1,6,1:2:0:0:
151,192,118637,1,2,0:0:0:0:
229,0,118798,6,0,B|276:-6|276:-6|331:3,1,90,10|0,0:0|0:0,0:0:0:0:
407,200,119121,2,0,B|360:206|360:206|305:197,1,99.0000030212403,10|0,0:0|0:0,0:0:0:0:
395,1,119443,2,0,B|442:-5|442:-5|497:4,1,99.0000030212403,10|0,0:0|1:2,0:0:0:0:
492,3,119685,1,0,1:2:0:0:
492,3,119766,1,0,1:2:0:0:
443,121,119927,5,0,1:2:0:0:
443,121,120008,1,0,1:2:0:0:
443,121,120088,2,0,P|430:180|431:223,1,99.0000030212403,8|0,0:0|0:0,0:0:0:0:
288,335,120411,2,0,P|275:276|276:233,1,99.0000030212403,8|0,0:0|0:0,0:0:0:0:
357,120,120734,1,8,0:0:0:0:
199,204,120895,2,0,B|96:258|100:159|1:218,1,198.000006042481,12|0,1:2|0:0,0:0:0:0:
44,313,121379,5,2,1:2:0:0:
147,125,121540,1,2,1:2:0:0:
166,366,121701,1,10,0:0:0:0:
166,366,122669,6,0,P|218:351|272:365,1,107.999996704102,2|2,0:0|0:0,0:0:0:0:
392,226,123314,2,0,P|340:241|286:227,1,107.999996704102,2|2,0:0|0:0,0:0:0:0:
228,156,123798,1,8,0:0:0:0:
228,156,123879,1,8,0:0:0:0:
228,156,123959,6,0,L|222:43,1,107.999996704102,2|0,1:2|0:0,0:0:0:0:
306,7,124443,1,0,1:2:0:0:
402,88,124605,2,0,L|396:201,1,107.999996704102,8|0,0:0|0:0,0:0:0:0:
455,268,125088,1,8,0:0:0:0:
348,358,125250,6,0,L|290:354,1,53.9999983520508,6|8,1:2|0:0,0:0:0:0:
227,299,125572,2,0,L|169:303,1,53.9999983520508,2|0,0:0|1:0,0:0:0:0:
111,362,125895,1,8,0:0:0:0:
30,267,126056,1,0,1:2:0:0:
30,267,126137,1,0,1:0:0:0:
30,267,126218,2,0,P|23:236|30:197,1,53.9999983520508,10|8,1:2|0:0,0:0:0:0:
140,106,126540,5,2,1:2:0:0:
108,243,126701,1,2,1:2:0:0:
42,35,126863,1,10,0:0:0:0:
42,35,127830,6,0,B|91:12|91:12|146:15,1,107.999996704102,2|2,0:0|0:0,0:0:0:0:
324,56,128476,2,0,B|274:78|274:78|219:75,1,107.999996704102,2|2,0:0|0:0,0:0:0:0:
140,106,128959,1,8,0:0:0:0:
140,106,129040,1,8,0:0:0:0:
140,106,129121,6,0,P|123:161|137:215,1,107.999996704102,6|0,1:2|0:0,0:0:0:0:
192,279,129605,1,0,1:2:0:0:
290,201,129766,2,0,L|403:197,1,107.999996704102,10|0,0:0|0:0,0:0:0:0:
458,277,130250,1,0,1:2:0:0:
458,277,130330,1,0,1:2:0:0:
458,277,130411,5,2,1:2:0:0:
395,113,130572,1,8,0:0:0:0:
334,300,130734,5,2,1:2:0:0:
260,85,130895,2,0,P|259:110|263:144,1,40.4999987640381,8|8,0:0|0:0,0:0:0:0:
192,339,131056,5,10,0:2:0:0:
112,61,131218,1,10,0:0:0:0:
96,296,131379,5,10,0:0:0:0:
176,134,131540,1,8,0:0:0:0:
192,338,131701,6,0,P|221:327|258:325,1,67.5,2|2,0:0|0:0,0:0:0:0:
273,332,132992,1,2,0:0:0:0:
288,340,133314,1,2,0:0:0:0:
303,348,133637,1,2,0:0:0:0:
303,348,134282,6,0,B|251:232|337:232|289:120,1,233.999989288331,6|8,1:2|0:0,0:0:0:0:
183,175,134766,1,0,0:0:0:0:
397,276,134927,1,2,1:2:0:0:
289,121,135088,1,0,1:2:0:0:
162,317,135250,2,0,P|107:332|50:319,1,116.999994644165,8|0,0:0|0:0,0:0:0:0:
0,77,135572,6,0,L|139:89,1,116.999994644165,2|0,1:2|1:2,0:0:0:0:
169,177,135895,1,10,0:0:0:0:
277,0,136056,2,0,L|138:12,1,116.999994644165,2|0,0:0|1:2,0:0:0:0:
116,87,136379,1,0,1:2:0:0:
357,60,136540,1,8,0:0:0:0:
160,10,136701,1,2,0:0:0:0:
169,177,136863,6,0,L|159:307,1,116.999994644165,2|0,1:2|1:2,0:0:0:0:
437,222,137185,1,10,0:0:0:0:
437,222,137347,2,0,L|447:352,1,116.999994644165,2|0,0:0|1:2,0:0:0:0:
329,80,137669,1,2,1:2:0:0:
329,80,137831,2,0,L|319:210,1,116.999994644165,10|0,0:0|1:2,0:0:0:0:
387,0,138153,6,0,B|329:-17|329:-17|269:3,1,116.999994644165,6|0,1:2|1:2,0:0:0:0:
260,281,138476,1,10,0:0:0:0:
260,281,138637,2,0,B|318:298|318:298|378:278,1,116.999994644165,0|10,0:0|0:0,0:0:0:0:
479,86,138959,1,2,0:0:0:0:
479,86,139040,1,8,0:0:0:0:
479,86,139121,2,0,L|419:81,1,58.4999973220826,8|8,0:0|0:0,0:0:0:0:
261,201,139282,2,0,L|321:196,1,58.4999973220826,8|8,0:0|0:0,0:0:0:0:
161,42,139443,6,0,B|216:152|121:149|167:267,1,233.999989288331,6|8,1:2|0:0,0:0:0:0:
261,201,139927,1,0,0:0:0:0:
67,101,140088,1,2,1:2:0:0:
287,68,140250,1,0,1:2:0:0:
73,193,140411,2,0,P|76:255|95:309,1,116.999994644165,8|2,0:0|0:0,0:0:0:0:
334,362,140734,6,0,L|208:369,1,116.999994644165,2|0,1:2|1:2,0:0:0:0:
261,201,141056,1,10,0:0:0:0:
387,287,141218,2,0,L|513:294,1,116.999994644165,2|2,0:0|1:2,0:0:0:0:
268,209,141540,1,2,1:2:0:0:
268,209,141621,1,0,1:0:0:0:
268,209,141701,1,10,0:0:0:0:
425,378,141863,1,2,0:0:0:0:
401,121,142024,6,0,P|343:102|278:103,1,116.999994644165,10|0,0:0|0:0,0:0:0:0:
150,184,142347,1,2,1:2:0:0:
455,276,142508,6,0,P|406:238|345:217,1,116.999994644165,10|0,0:0|0:0,0:0:0:0:
209,300,142830,1,2,1:2:0:0:
120,33,142992,6,0,L|111:306,1,233.999989288331,10|4,0:0|1:2,0:0:0:0:
277,366,143476,1,8,0:0:0:0:
277,366,143556,1,8,0:0:0:0:
277,366,143637,2,0,L|218:377,1,58.4999973220826,8|8,0:0|0:0,0:0:0:0:
369,259,143798,2,0,L|428:270,1,58.4999973220826,10|8,0:0|0:0,0:0:0:0:
169,256,143959,2,0,L|73:273,1,58.4999973220826,10|8,0:0|0:0,0:0:0:0:
387,135,144120,2,0,L|482:152,1,58.4999973220826,10|8,0:0|0:0,0:0:0:0:
171,143,144282,5,10,0:0:0:0:
129,140,144363,1,8,0:0:0:0:
89,130,144443,1,8,0:0:0:0:
53,107,144524,1,8,0:0:0:0:
27,76,144605,5,6,1:2:0:0:
215,11,144766,1,0,1:2:0:0:
140,221,144927,2,0,P|127:284|128:347,1,116.999994644165,12|0,0:0|0:0,0:0:0:0:
56,208,145250,1,2,1:2:0:0:
200,382,145411,1,0,1:2:0:0:
271,148,145572,2,0,P|334:135|397:136,1,116.999994644165,8|0,0:0|0:0,0:0:0:0:
477,294,145895,6,0,L|464:168,1,116.999994644165,2|0,1:2|1:2,0:0:0:0:
342,232,146218,1,10,0:0:0:0:
471,82,146379,1,2,0:0:0:0:
283,31,146540,2,0,L|270:157,1,116.999994644165,2|0,1:2|1:2,0:0:0:0:
194,49,146863,1,8,0:0:0:0:
342,232,147024,1,2,0:0:0:0:
212,326,147185,6,0,P|141:294|81:291,1,116.999994644165,6|0,1:2|1:2,0:0:0:0:
270,147,147508,1,10,0:0:0:0:
270,147,147669,2,0,P|199:179|139:182,1,116.999994644165,2|2,0:0|1:2,0:0:0:0:
392,67,147992,1,2,1:2:0:0:
392,67,148153,2,0,P|321:35|261:32,1,116.999994644165,10|0,0:0|0:0,0:0:0:0:
85,132,148476,6,0,P|70:192|90:242,1,116.999994644165,6|0,1:2|1:2,0:0:0:0:
265,236,148798,2,0,P|217:190|160:182,1,125.999996154785,10|0,0:0|0:0,0:0:0:0:
72,340,149121,2,0,P|140:320|178:271,1,135.000005149842,10|10,0:0|0:0,0:0:0:0:
160,182,149362,1,8,0:0:0:0:
160,182,149443,2,0,L|154:101,1,67.5000025749208,10|8,1:2|0:0,0:0:0:0:
28,4,149605,2,0,L|22:85,1,67.5000025749208,10|8,0:0|0:0,0:0:0:0:
89,241,149766,5,6,1:2:0:0:
225,73,149927,1,0,1:2:0:0:
23,71,150088,1,10,0:0:0:0:
185,196,150250,1,2,0:0:0:0:
303,19,150411,2,0,P|372:9|432:11,1,116.999994644165,2|0,1:2|1:2,0:0:0:0:
311,112,150734,1,8,0:0:0:0:
491,189,150895,1,2,0:0:0:0:
365,319,151056,6,0,P|300:303|250:303,1,116.999994644165,6|0,1:2|1:0,0:0:0:0:
156,376,151379,1,10,0:0:0:0:
70,179,151540,2,0,P|135:195|185:195,1,116.999994644165,2|10,0:0|0:0,0:0:0:0:
304,97,151863,1,8,0:0:0:0:
304,97,151943,1,8,0:0:0:0:
304,97,152024,1,10,0:0:0:0:
143,108,152185,1,10,0:0:0:0:
311,239,152347,6,0,L|303:105,1,116.999994644165,6|0,1:2|0:0,0:0:0:0:
203,7,152669,1,2,1:2:0:0:
56,280,152830,6,0,L|64:146,1,116.999994644165,6|0,1:2|0:0,0:0:0:0:
120,23,153153,1,2,1:2:0:0:
184,264,153314,6,0,L|425:278,1,233.999989288331,14|0,0:0|1:2,0:0:0:0:
492,34,153798,1,0,1:2:0:0:
492,34,153879,1,0,1:2:0:0:
492,34,153959,6,0,L|497:98,1,58.4999973220826,10|0,1:2|1:2,0:0:0:0:
415,253,154121,2,0,L|420:189,1,58.4999973220826,0|0,1:2|1:2,0:0:0:0:
321,36,154282,6,0,L|347:94,1,58.4999973220826,10|0,1:2|1:2,0:0:0:0:
286,215,154444,2,0,L|312:156,1,58.4999973220826,0|0,1:2|1:2,0:0:0:0:
203,57,154605,6,8,L|255:94,1,58.4999973220826,8|8,1:1|1:1,0:1:0:0:
145,170,154766,2,8,L|202:142,1,58.4999973220826,8|8,1:1|1:1,0:1:0:0:
74,98,154927,6,0,P|100:161|80:225,2,135.000005149842,6|2|10,1:2|0:0|0:0,0:0:0:0:
8,6,155895,1,2,0:0:0:0:
8,6,156056,2,0,L|83:2,1,67.5000025749208,2|2,0:0|1:2,0:0:0:0:
146,46,156379,2,0,L|221:50,1,67.5000025749208,10|0,0:0|0:0,0:0:0:0:
293,10,156701,1,2,1:2:0:0:
293,10,156863,1,10,0:0:0:0:
236,163,157185,1,2,0:0:0:0:
406,38,157508,6,0,L|394:173,1,135.000005149842,10|0,1:2|0:0,0:0:0:0:
484,194,157992,2,0,L|496:329,1,135.000005149842,2|0,1:2|0:0,0:0:0:0:
419,369,158476,2,0,P|370:375|347:373,1,67.5000025749208,2|0,0:0|1:2,0:0:0:0:
352,373,158718,1,0,1:2:0:0:
352,373,158798,1,10,1:2:0:0:
295,295,158959,1,2,0:0:0:0:
295,295,159282,5,0,1:2:0:0:
220,367,159443,2,0,P|190:381|152:384,2,67.5000025749208,10|2|2,0:0|0:0|0:0,0:0:0:0:
201,270,159927,1,8,1:2:0:0:
201,270,160008,1,8,1:2:0:0:
201,270,160088,6,0,L|201:122,1,135.000005149842,2|2,1:2|0:0,0:0:0:0:
137,3,160734,1,10,0:0:0:0:
137,3,161056,1,2,0:0:0:0:
66,57,161218,6,0,P|58:97|63:130,1,67.5000025749208,0|10,1:1|1:2,0:0:0:0:
26,197,161540,2,0,P|34:237|29:270,1,67.5000025749208,8|0,0:0|0:0,0:0:0:0:
4,339,161863,1,2,1:2:0:0:
4,339,162024,1,10,0:0:0:0:
99,332,162185,2,0,L|94:371,2,33.7500012874604,0|8|10,0:0|0:0|0:0,0:0:0:0:
196,283,162508,1,0,1:2:0:0:
196,283,162588,1,0,1:2:0:0:
196,283,162669,6,0,B|269:289|269:289|307:316|307:316|389:322,2,202.500007724762,14|6|6,1:2|1:2|1:2,0:0:0:0:
196,283,164605,6,0,L|201:236,3,36,2|2|2|2,0:0|0:0|0:0|0:0,0:0:0:0:
123,198,165250,6,0,L|304:197,1,161.999995056153,6|0,1:2|1:2,0:0:0:0:
354,260,165895,2,0,P|322:222|343:109,1,161.999995056153,10|0,0:0|1:2,0:0:0:0:
425,94,166540,2,0,L|295:88,1,107.999996704102,2|2,1:2|0:0,0:0:0:0:
219,17,167185,2,0,L|89:23,1,107.999996704102,10|2,1:2|1:2,0:0:0:0:
14,107,167830,5,6,1:2:0:0:
14,107,168476,1,10,0:0:0:0:
14,107,169121,1,2,1:2:0:0:
14,107,169443,1,2,0:0:0:0:
14,107,169766,1,10,0:0:0:0:
14,107,170088,1,2,0:0:0:0:
31,270,170411,6,0,P|65:246|184:290,1,161.999995056153,6|0,1:2|1:2,0:0:0:0:
200,360,171056,2,0,P|196:318|293:237,1,161.999995056153,10|0,0:0|1:2,0:0:0:0:
353,272,171701,2,0,P|309:229|303:166,1,107.999996704102,2|2,1:2|0:0,0:0:0:0:
442,97,172347,2,0,P|426:156|375:193,1,107.999996704102,10|2,1:2|1:2,0:0:0:0:
319,87,172992,5,6,1:2:0:0:
319,87,173638,1,10,0:0:0:0:
319,87,174283,1,2,1:2:0:0:
319,87,174605,1,2,0:0:0:0:
319,87,174928,1,10,0:0:0:0:
319,87,175250,1,2,0:0:0:0:
228,22,175572,6,0,L|111:31,1,107.999996704102,6|2,1:2|0:0,0:0:0:0:
0,150,176218,2,0,L|117:159,1,107.999996704102,10|2,0:0|0:0,0:0:0:0:
249,176,176863,1,2,1:2:0:0:
230,46,177185,1,2,0:0:0:0:
109,133,177508,1,10,0:0:0:0:
90,263,177830,1,2,0:0:0:0:
227,325,178153,6,0,P|266:304|330:304,3,107.999996704102,2|2|10|2,1:2|1:2|1:2|1:2,0:0:0:0:
380,219,179443,2,0,P|419:240|483:240,2,107.999996704102,2|2|10,1:2|0:0|0:0,0:0:0:0:
294,152,180250,1,10,0:0:0:0:
294,152,180330,1,10,0:0:0:0:
294,152,180411,2,0,L|286:103,1,40.4999987640381,8|10,1:2|0:0,0:0:0:0:
364,20,180572,2,0,L|356:69,1,40.4999987640381,10|10,0:0|0:0,0:0:0:0:
194,63,180734,6,0,P|141:38|74:38,1,107.999996704102,12|0,1:2|1:2,0:0:0:0:
20,216,181056,2,0,P|73:211|121:187,1,107.999996704102,8|0,0:0|0:0,0:0:0:0:
39,91,181379,1,0,1:2:0:0:
71,297,181540,1,0,1:2:0:0:
213,145,181701,1,8,0:0:0:0:
181,351,181862,1,0,0:0:0:0:
149,74,182024,6,0,P|207:50|267:69,1,107.999996704102,6|0,1:2|1:2,0:0:0:0:
249,58,182266,1,0,1:1:0:0:
249,58,182347,1,8,0:0:0:0:
336,167,182508,1,0,0:0:0:0:
452,0,182669,2,0,L|459:111,1,107.999996704102,2|0,1:2|1:2,0:0:0:0:
292,233,182992,2,0,P|343:209|393:220,1,107.999996704102,8|0,0:0|0:0,0:0:0:0:
462,266,183234,1,0,0:0:0:0:
462,266,183314,6,0,L|473:383,1,107.999996704102,2|0,1:2|1:2,0:0:0:0:
250,337,183637,2,0,L|261:220,1,107.999996704102,8|0,0:0|0:0,0:0:0:0:
457,74,183959,2,0,L|468:191,1,107.999996704102,0|0,1:2|1:2,0:0:0:0:
256,130,184282,2,0,L|267:13,1,107.999996704102,8|0,0:0|0:0,0:0:0:0:
467,181,184605,6,0,P|406:206|346:203,1,107.999996704102,2|0,1:2|1:2,0:0:0:0:
256,130,184927,1,10,0:0:0:0:
379,37,185088,1,0,0:0:0:0:
357,237,185250,1,2,1:2:0:0:
160,21,185411,1,0,1:2:0:0:
125,221,185572,2,0,L|129:289,1,53.9999983520508,8|0,1:2|0:0,0:0:0:0:
286,108,185734,2,0,L|282:176,1,53.9999983520508,8|8,0:0|0:0,0:0:0:0:
52,12,185895,6,0,P|28:84|31:139,1,107.999996704102,14|0,1:2|1:2,0:0:0:0:
191,161,186218,2,0,P|140:104|91:79,1,107.999996704102,8|0,0:0|0:0,0:0:0:0:
34,216,186540,1,0,1:2:0:0:
265,237,186701,1,0,1:2:0:0:
66,357,186863,1,8,0:0:0:0:
297,378,187024,1,0,0:0:0:0:
191,161,187185,6,0,P|171:109|170:53,1,107.999996704102,2|0,1:2|1:2,0:0:0:0:
336,0,187508,1,8,0:0:0:0:
365,216,187669,1,0,0:0:0:0:
237,0,187830,1,2,1:2:0:0:
450,83,187992,2,0,L|394:87,1,53.9999983520508,8|8,0:0|0:0,0:0:0:0:
191,161,188153,2,0,L|247:165,1,53.9999983520508,8|8,0:0|0:0,0:0:0:0:
459,219,188314,1,8,1:2:0:0:
193,305,188476,5,14,1:2:0:0:
324,134,188637,1,0,0:0:0:0:
377,341,188798,1,0,1:2:0:0:
132,230,188959,5,12,0:0:0:0:
365,216,189121,1,0,0:0:0:0:
174,75,189282,1,0,1:2:0:0:
443,7,189443,6,0,P|381:0|321:0,1,107.999996704102,8|0,0:0|0:0,0:0:0:0:
174,75,189766,5,12,1:2:0:0:
377,134,189927,2,0,L|312:133,1,53.9999983520508,0|0,1:2|1:2,0:0:0:0:
155,62,190088,5,8,0:0:0:0:
287,251,190250,2,0,L|226:227,1,53.9999983520508,0|0,1:2|1:2,0:0:0:0:
135,48,190411,5,8,0:0:0:0:
126,291,190572,2,0,L|57:244,1,53.9999983520508,0|0,1:2|1:2,0:0:0:0:
115,34,190734,5,8,0:0:0:0:
295,258,190895,1,8,0:0:0:0:
295,258,190976,1,8,0:0:0:0:
295,258,191056,6,0,P|321:321|324:405,1,107.999996704102,2|0,1:2|1:2,0:0:0:0:
377,134,191379,1,10,0:0:0:0:
157,188,191540,2,0,P|131:251|128:335,1,107.999996704102,2|0,0:0|1:2,0:0:0:0:
115,34,191863,1,2,0:0:0:0:
377,134,192024,2,0,P|403:197|406:281,1,107.999996704102,10|0,0:0|0:0,0:0:0:0:
431,3,192347,5,6,1:2:0:0:
262,92,192508,1,2,1:2:0:0:
489,128,192669,2,0,P|505:168|507:221,1,90,8|2,0:0|0:0,0:0:0:0:
455,343,192992,5,2,1:2:0:0:
377,134,193153,1,2,1:2:0:0:
285,365,193314,2,0,P|244:381|191:383,1,90,10|0,0:0|0:0,0:0:0:0:
58,211,193637,6,0,L|49:319,1,90,4|0,1:2|1:2,0:0:0:0:
17,91,193959,1,10,0:0:0:0:
217,212,194121,2,0,L|226:320,1,90,2|0,0:0|1:2,0:0:0:0:
154,77,194443,1,2,1:2:0:0:
370,40,194605,2,0,L|361:148,1,107.999996704102,10|0,0:0|0:0,0:0:0:0:
305,279,194927,5,6,1:2:0:0:
178,101,195088,1,2,1:2:0:0:
410,226,195250,1,8,0:0:0:0:
188,214,195411,2,0,L|140:216,2,35.9999989013672
217,212,195572,5,10,1:2:0:0:
459,83,195814,5,2,1:2:0:0:
97,25,196056,5,2,0:0:0:0:
24,137,196218,2,0,L|31:263,1,107.999996704102,6|0,1:2|1:2,0:0:0:0:
138,340,196540,5,10,0:0:0:0:
163,132,196701,1,0,0:0:0:0:
308,280,196863,1,2,1:2:0:0:
268,41,197024,1,0,1:2:0:0:
410,226,197185,5,10,0:0:0:0:
187,51,197346,1,0,0:0:0:0:
439,142,197508,1,6,1:2:0:0:
196,210,197669,1,0,1:2:0:0:
497,216,197830,5,8,0:0:0:0:
163,132,197992,1,2,0:0:0:0:
381,30,198153,1,2,1:2:0:0:
381,30,198234,1,0,1:2:0:0:
381,30,198314,6,0,L|385:88,1,53.9999983520508,0|0,1:2|1:2,0:0:0:0:
500,162,198476,2,0,L|496:220,1,53.9999983520508,10|0,1:2|1:2,0:0:0:0:
393,313,198637,2,0,L|397:371,1,53.9999983520508,0|0,1:2|1:2,0:0:0:0:
238,343,198798,6,0,P|192:302|122:300,1,108,14|0,1:2|0:0,0:0:0:0:
116,302,199121,1,2,0:0:0:0:
37,119,199282,2,0,P|95:138|132:197,1,108,6|0,1:2|0:0,0:0:0:0:
133,204,199605,1,2,0:0:0:0:
205,71,199766,6,0,B|275:39|282:98|347:71,1,144,6|8,1:2|0:0,0:0:0:0:
454,31,200250,1,8,0:0:0:0:
454,31,200330,1,8,0:0:0:0:
454,31,200411,2,8,L|458:82,1,36,8|8,0:0|0:0,0:0:0:0:
397,169,200572,1,8,1:2:0:0:
397,169,200652,1,8,1:2:0:0:
397,169,200733,2,8,L|393:220,1,36,10|8,1:2|0:0,0:0:0:0:
454,322,200895,5,2,0:0:0:0:
265,223,201056,2,0,P|225:214|188:214,1,72,2|0,1:2|0:0,0:0:0:0:
61,356,201379,5,6,1:2:0:0:
217,295,201540,1,2,1:2:0:0:
61,226,201701,1,10,0:0:0:0:
61,226,202669,6,0,L|53:117,1,90,2|2,0:0|0:0,0:0:0:0:
168,21,203314,2,0,L|160:130,1,90,2|2,0:0|0:0,0:0:0:0:
221,186,203798,1,8,0:0:0:0:
221,186,203879,1,0,1:2:0:0:
221,186,203959,6,0,B|265:202|265:202|312:193,1,90,6|0,1:2|0:0,0:0:0:0:
367,122,204443,1,0,1:2:0:0:
271,14,204605,2,0,L|368:12,1,90,8|0,0:0|0:0,0:0:0:0:
447,61,205088,1,8,0:0:0:0:
447,61,205169,1,8,0:0:0:0:
447,61,205250,6,0,P|457:83|459:117,1,45,6|8,1:2|0:0,0:0:0:0:
498,177,205572,2,0,P|488:199|486:233,1,45,2|0,0:0|0:0,0:0:0:0:
512,305,205895,1,8,0:0:0:0:
392,374,206056,2,0,L|291:368,1,90,0|8,1:2|0:0,0:0:0:0:
302,368,206459,1,0,0:0:0:0:
302,368,206540,5,2,1:2:0:0:
418,286,206701,1,0,1:2:0:0:
238,235,206863,1,10,0:0:0:0:
238,235,207830,6,0,L|136:229,1,90,2|2,0:0|0:0,0:0:0:0:
36,120,208476,2,0,L|138:114,1,90,2|2,0:0|0:0,0:0:0:0:
197,57,208959,1,8,0:0:0:0:
197,57,209040,1,8,0:0:0:0:
197,57,209121,6,0,L|299:63,1,90,6|0,1:2|0:0,0:0:0:0:
352,117,209605,1,0,1:2:0:0:
450,67,209766,2,0,P|466:114|459:155,1,90,10|0,0:0|0:0,0:0:0:0:
398,217,210250,1,0,1:2:0:0:
398,217,210330,1,0,1:2:0:0:
398,217,210411,5,2,1:2:0:0:
428,343,210572,1,8,0:0:0:0:
292,175,210734,1,2,1:2:0:0:
262,301,210895,1,8,0:0:0:0:
262,301,210976,1,8,0:0:0:0:
262,301,211056,5,10,0:0:0:0:
430,213,211218,1,10,0:0:0:0:
169,204,211379,1,10,0:0:0:0:
400,84,211540,1,8,0:0:0:0:
246,70,211701,6,0,L|179:73,1,67.5,2|0,0:0|0:0,0:0:0:0:
164,74,212992,1,2,0:0:0:0:
151,86,213314,1,2,0:0:0:0:
137,98,213637,1,2,0:0:0:0:
124,110,213959,1,2,0:0:0:0:
0,0,214282,5,2,0:0:0:0:
366,251,215572,5,2,0:0:0:0:
227,303,216218,1,2,0:0:0:0:
88,355,216863,1,2,0:0:0:0:
472,45,218153,5,2,0:0:0:0:
447,191,218799,1,2,0:0:0:0:
423,337,219444,1,2,0:0:0:0:
39,183,220734,5,2,0:0:0:0:
131,107,221218,1,2,0:0:0:0:
131,107,221298,1,0,0:0:0:0:
131,107,221379,2,0,P|157:138|164:183,1,78.75,0|0,0:0|0:0,0:0:0:0:
162,217,222024,6,0,P|199:199|259:198,1,90,14|0,1:2|0:0,0:0:0:0:
332,251,222347,1,2,1:2:0:0:
95,321,222508,2,0,P|132:339|192:340,1,90,14|0,0:0|0:0,0:0:0:0:
271,315,222830,1,0,1:2:0:0:
85,177,222992,2,0,B|36:87|118:88|75:2,1,180,14|0,0:0|1:2,0:0:0:0:
162,120,223476,5,10,0:0:0:0:
7,48,223637,1,10,0:0:0:0:
213,45,223798,1,10,0:0:0:0:
0,266,223959,1,10,0:0:0:0:
508,104,224282,6,0,L|505:150,1,40.4999987640381,2|0,0:0|0:0,0:0:0:0:
501,186,224605,6,0,B|398:181|398:181|343:208|343:208|245:202,1,251.999992309571,6|8,1:2|0:0,0:0:0:0:
319,111,225088,1,0,0:0:0:0:
431,265,225250,2,0,P|450:325|452:391,1,125.999996154785,2|0,1:2|1:2,0:0:0:0:
212,304,225572,2,0,P|214:241|233:181,1,125.999996154785,8|0,0:0|0:0,0:0:0:0:
332,6,225895,6,0,L|346:136,1,125.999996154785,2|0,1:2|1:2,0:0:0:0:
428,39,226218,1,10,0:0:0:0:
207,173,226379,2,0,L|221:43,1,125.999996154785,0|0,0:0|1:2,0:0:0:0:
345,131,226701,1,0,1:2:0:0:
130,82,226863,1,8,0:0:0:0:
332,6,227024,1,2,0:0:0:0:
207,173,227185,6,0,P|135:199|73:199,1,125.999996154785,2|0,1:2|1:2,0:0:0:0:
214,27,227508,1,10,0:0:0:0:
214,27,227669,2,0,P|142:1|80:1,1,125.999996154785,2|0,0:0|1:2,0:0:0:0:
344,160,227992,1,2,1:2:0:0:
344,160,228153,2,0,P|272:186|210:186,1,125.999996154785,10|0,0:0|1:2,0:0:0:0:
417,95,228476,6,0,B|438:157|438:157|427:220,1,125.999996154785,6|0,1:2|1:2,0:0:0:0:
233,309,228798,2,0,B|212:247|212:247|223:184,1,125.999996154785,10|0,1:2|0:0,0:0:0:0:
444,335,229121,1,10,0:0:0:0:
302,250,229282,1,10,0:0:0:0:
302,250,229363,1,8,0:0:0:0:
302,250,229443,2,0,L|369:256,1,62.9999980773926,8|8,0:0|0:0,0:0:0:0:
500,151,229605,2,0,L|433:157,1,62.9999980773926,8|8,0:0|0:0,0:0:0:0:
288,5,229766,6,0,L|415:16,1,125.999996154785,6|0,1:2|1:2,0:0:0:0:
222,187,230088,2,0,L|94:198,1,125.999996154785,8|0,0:0|0:0,0:0:0:0:
160,23,230411,1,2,1:2:0:0:
306,137,230572,1,0,1:2:0:0:
61,121,230734,2,0,P|34:63|30:-1,1,125.999996154785,8|0,0:0|0:0,0:0:0:0:
222,187,231056,6,0,P|249:245|253:309,1,125.999996154785,2|0,1:2|1:2,0:0:0:0:
175,384,231379,1,10,0:0:0:0:
340,292,231540,2,0,L|490:299,1,125.999996154785,2|2,0:0|1:2,0:0:0:0:
341,192,231863,1,10,1:2:0:0:
341,192,231943,1,8,0:0:0:0:
341,192,232024,1,10,0:0:0:0:
406,338,232185,1,10,0:0:0:0:
403,111,232347,6,0,B|336:96|336:96|274:105,1,125.999996154785,14|0,0:0|0:0,0:0:0:0:
113,189,232669,1,2,1:2:0:0:
340,292,232830,6,0,B|273:307|273:307|211:298,1,125.999996154785,14|0,0:0|0:0,0:0:0:0:
30,232,233153,1,2,1:2:0:0:
116,41,233314,6,0,P|180:3|260:132,1,251.999992309571,14|4,0:0|1:2,0:0:0:0:
113,189,233798,1,8,0:0:0:0:
113,189,233879,1,8,0:0:0:0:
113,189,233959,2,0,L|106:123,1,62.9999980773926,8|8,0:0|0:0,0:0:0:0:
211,308,234121,2,0,L|204:374,1,62.9999980773926,10|8,0:0|0:0,0:0:0:0:
272,183,234282,2,0,L|265:117,1,62.9999980773926,10|8,0:0|0:0,0:0:0:0:
370,302,234444,2,0,L|363:368,1,62.9999980773926,10|8,0:0|0:0,0:0:0:0:
465,192,234605,5,10,0:0:0:0:
467,148,234685,1,8,0:0:0:0:
469,103,234766,1,8,0:0:0:0:
471,58,234847,1,8,0:0:0:0:
474,14,234927,5,6,1:2:0:0:
298,58,235088,1,0,1:2:0:0:
465,192,235250,2,0,P|492:261|494:325,1,125.999996154785,8|0,0:0|0:0,0:0:0:0:
363,364,235572,1,2,1:2:0:0:
281,150,235734,1,0,1:2:0:0:
186,354,235895,2,0,P|117:381|53:383,1,125.999996154785,8|0,0:0|0:0,0:0:0:0:
89,155,236218,6,0,L|102:281,1,125.999996154785,2|0,1:2|1:2,0:0:0:0:
186,354,236541,1,10,0:0:0:0:
17,241,236702,1,2,0:0:0:0:
201,107,236863,2,0,P|263:91|330:107,1,125.999996154785,2|0,1:2|1:2,0:0:0:0:
232,249,237186,1,8,0:0:0:0:
116,64,237347,1,2,0:0:0:0:
360,39,237508,6,0,L|371:172,1,125.999996154785,6|0,1:2|1:2,0:0:0:0:
201,107,237831,1,10,0:0:0:0:
201,107,237992,2,0,L|190:240,1,125.999996154785,2|2,0:0|1:2,0:0:0:0:
346,240,238314,1,2,1:2:0:0:
346,240,238475,2,0,L|357:373,1,125.999996154785,10|2,0:0|0:0,0:0:0:0:
430,178,238798,6,0,P|370:141|296:138,1,125.999996154785,6|0,1:2|1:2,0:0:0:0:
248,325,239121,2,0,P|310:291|349:228,1,135.000005149842,10|0,0:0|1:0,0:0:0:0:
221,78,239443,2,0,P|218:148|253:214,1,144,10|10,0:0|0:0,0:0:0:0:
353,244,239685,1,8,0:0:0:0:
353,244,239766,2,0,L|445:263,1,72,10|8,1:2|0:0,0:0:0:0:
499,134,239927,2,0,L|407:153,1,72,10|8,0:0|0:0,0:0:0:0:
296,19,240088,6,0,L|443:38,1,125.999996154785,6|0,1:2|1:2,0:0:0:0:
221,155,240411,2,0,L|74:174,1,125.999996154785,10|0,0:0|0:0,0:0:0:0:
257,244,240734,1,2,1:2:0:0:
223,66,240895,1,0,1:2:0:0:
40,249,241056,1,8,0:0:0:0:
74,71,241217,1,2,0:0:0:0:
127,295,241379,6,0,P|70:339|10:343,1,125.999996154785,6|0,1:2|0:0,0:0:0:0:
96,171,241701,1,10,0:0:0:0:
203,364,241863,2,0,P|260:320|320:316,1,125.999996154785,2|10,0:0|0:0,0:0:0:0:
435,361,242185,1,8,0:0:0:0:
435,361,242266,1,8,0:0:0:0:
435,361,242347,1,10,0:0:0:0:
305,172,242508,1,10,0:0:0:0:
305,172,242588,1,8,0:0:0:0:
305,172,242669,6,0,L|292:20,1,125.999996154785,6|0,1:2|0:0,0:0:0:0:
188,1,242992,1,2,1:2:0:0:
28,242,243153,6,0,L|41:90,1,125.999996154785,6|0,1:2|0:0,0:0:0:0:
116,39,243476,1,2,1:2:0:0:
159,242,243637,6,0,B|255:200|259:290|368:234,1,215.999993408203,14|0,0:0|1:2,0:0:0:0:
421,162,244067,5,8,1:2:0:0:
424,125,244175,1,8,1:2:0:0:
426,95,244282,2,0,L|430:31,2,60,8|8|8,1:2|1:2|1:2,0:0:0:0:
327,59,244605,2,0,L|323:-5,2,60,8|8|8,1:2|1:2|1:2,0:0:0:0:
256,108,244927,1,8,1:2:0:0:
226,113,245035,1,8,1:2:0:0:
196,116,245142,1,8,1:2:0:0:
160,139,245250,6,0,L|60:144,1,90,2|2,1:2|0:0,0:0:0:0:
2,245,245895,1,10,0:0:0:0:
2,245,246218,1,2,0:0:0:0:
76,292,246379,6,0,L|131:294,1,45,2|2,0:0|1:2,0:0:0:0:
195,329,246701,2,0,L|250:327,1,45,10|0,0:0|0:0,0:0:0:0:
318,358,247024,1,2,1:2:0:0:
318,358,247185,1,10,0:0:0:0:
243,211,247508,1,2,0:0:0:0:
433,345,247830,6,0,P|447:299|448:250,1,90,10|0,1:2|0:0,0:0:0:0:
391,199,248314,2,0,P|377:153|376:104,1,90,2|0,1:2|0:0,0:0:0:0:
339,39,248798,2,0,L|278:34,1,45,2|0,0:0|1:2,0:0:0:0:
217,1,249121,5,10,1:2:0:0:
217,1,249605,1,0,1:2:0:0:
133,62,249766,1,10,0:0:0:0:
140,69,250250,1,0,1:2:0:0:
140,69,250330,1,0,1:2:0:0:
140,69,250411,6,0,L|148:166,1,90,14|2,1:2|0:0,0:0:0:0:
88,270,251056,1,10,0:0:0:0:
88,270,251379,1,2,0:0:0:0:
154,321,251540,6,0,P|175:326|201:327,1,45,0|10,1:2|1:2,0:0:0:0:
266,277,251863,2,0,P|287:272|313:271,1,45,8|0,0:0|0:0,0:0:0:0:
374,321,252185,1,2,1:2:0:0:
374,321,252347,1,10,0:0:0:0:
446,189,252669,1,2,0:0:0:0:
366,138,252830,1,0,1:2:0:0:
366,138,252911,1,0,1:2:0:0:
366,138,252992,6,0,B|313:118|313:118|234:118,1,125.999996154785,14|0,1:2|0:0,0:0:0:0:
210,296,253476,2,0,B|253:260|253:260|293:191,1,125.999996154785,6|0,1:2|0:0,0:0:0:0:
160,82,253959,5,6,1:2:0:0:
256,192,254040,12,0,255411,0:0:0:0:
291,142,255572,6,0,L|190:134,1,90,2|2,0:0|0:0,0:0:0:0:
69,62,256218,1,2,0:0:0:0:
69,62,256540,1,2,0:0:0:0:
190,32,256701,5,2,0:0:0:0:
190,32,257024,1,2,0:0:0:0:
190,32,257347,1,2,0:0:0:0:
317,68,257508,6,0,L|377:73,1,45,2|0,0:0|0:0,0:0:0:0:
421,146,257830,2,0,L|361:151,1,45,2|0,0:0|0:0,0:0:0:0:
319,209,258153,5,14,0:0:0:0:
220,84,258314,1,0,1:2:0:0:
206,275,258476,1,0,1:2:0:0:
317,68,258637,5,14,0:0:0:0:
125,153,258798,1,0,1:2:0:0:
348,225,258959,1,0,1:2:0:0:
121,56,259121,6,0,P|64:82|46:210,1,202.5,14|0,0:0|0:0,0:0:0:0:
56,220,259927,1,0,1:2:0:0:
66,231,260008,1,0,1:2:0:0:
77,241,260088,5,14,1:2:0:0:
