osu file format v14

[General]
AudioFilename: Geronimo.mp3
AudioLeadIn: 0
PreviewTime: 40626
Countdown: 0
SampleSet: None
StackLeniency: 0.2
Mode: 0
LetterboxInBreaks: 0
WidescreenStoryboard: 1

[Editor]
Bookmarks: 81401,94499,133795,149006,162527,165485
DistanceSpacing: 1.1
BeatDivisor: 4
GridSize: 4
TimelineZoom: 1

[Metadata]
Title:Geronimo
TitleUnicode:Geronimo
Artist:Sheppard
ArtistUnicode:Sheppard
Creator:ezek
Version:Medium
Source:
Tags:Bombs Away BoatKrab Gero
BeatmapID:677678
BeatmapSetID:302303

[Difficulty]
HPDrainRate:4
CircleSize:3.5
OverallDifficulty:4
ApproachRate:5
SliderMultiplier:1.4
SliderTickRate:1

[Events]
//Background and Video events
Video,-2517,"Video.avi"
0,0,"OtakuRock95.jpg",0,0
//Break Periods
2,135485,147806
2,162727,164285
//Storyboard Layer 0 (Background)
//Storyboard Layer 1 (Fail)
//Storyboard Layer 2 (Pass)
//Storyboard Layer 3 (Foreground)
//Storyboard Sound Samples

[TimingPoints]
7035,422.535211267606,4,3,0,80,1,0
40837,-83.3333333333333,4,2,0,80,0,1
54358,-100,4,3,0,60,0,0
67880,-100,4,2,0,80,0,0
94922,-83.3333333333333,4,2,0,80,0,1
108443,-100,4,3,0,60,0,0
121964,-100,4,2,0,80,0,0
149006,-100,4,3,0,80,0,0
165908,-83.3333333333333,4,2,0,80,0,1
179429,-83.3333333333333,4,2,0,80,0,0
192950,-83.3333333333333,4,3,0,80,0,0

[Colours]
Combo1 : 85,199,52
Combo2 : 136,183,221
Combo3 : 200,174,125
Combo4 : 231,214,90
Combo5 : 147,147,147
Combo6 : 255,40,40
Combo7 : 163,73,156

[HitObjects]
200,144,7034,6,0,P|256:108|312:144,1,140,0|0,1:0|1:0,0:0:0:0:
196,244,7880,2,0,P|132:224|100:160,2,140,0|0|0,1:0|1:0|1:0,0:0:0:0:
256,104,9147,1,0,1:0:0:0:
316,244,9570,2,0,P|380:224|412:160,2,140,0|0|0,1:0|1:0|1:0,0:0:0:0:
256,104,10837,5,0,1:0:0:0:
116,36,11260,1,0,1:0:0:0:
24,160,11682,1,0,1:0:0:0:
112,288,12105,1,0,1:0:0:0:
256,240,12527,1,0,1:0:0:0:
372,140,12950,2,0,P|428:128|496:172,1,140,0|0,1:0|1:0,0:0:0:0:
492,248,13584,1,0,0:0:0:0:
464,320,13795,6,0,P|408:332|340:288,1,140,0|0,1:0|1:0,0:0:0:0:
256,160,14640,2,0,P|200:148|132:192,1,140,0|0,1:0|1:0,0:0:0:0:
105,262,15274,1,0,0:0:0:0:
72,332,15485,2,0,L|48:192,1,140,0|0,1:0|0:0,0:0:0:0:
36,116,16119,1,0,0:0:0:0:
24,40,16330,2,0,B|48:80|104:80|104:80|152:80,1,140,0|0,1:0|1:0,0:0:0:0:
228,80,16964,1,0,0:0:0:0:
304,76,17175,70,0,B|352:76|352:76|404:76|432:116,1,140,0|0,1:0|1:0,0:0:0:0:
436,268,18020,2,0,P|364:256|312:292,1,140,0|0,1:0|1:0,0:0:0:0:
256,344,18654,1,0,0:0:0:0:
200,292,18865,2,0,P|148:256|76:268,1,140,0|0,1:0|1:0,0:0:0:0:
68,112,19711,2,0,B|112:104|112:104|152:72|152:72|196:64,1,140,0|0,1:0|1:0,0:0:0:0:
256,112,20344,1,0,0:0:0:0:
316,64,20556,6,0,B|360:72|360:72|400:104|400:104|444:112,2,140,0|0|0,1:0|1:0|1:0,0:0:0:0:
256,112,21612,1,0,0:0:0:0:
256,112,21823,2,0,L|256:252,1,140,0|0,1:0|1:0,0:0:0:0:
256,328,22457,1,0,0:0:0:0:
196,280,22668,2,0,P|256:248|316:280,1,140,0|0,1:0|1:0,0:0:0:0:
364,340,23302,1,0,0:0:0:0:
432,300,23513,6,0,P|488:256|512:188,2,140,0|0|0,1:0|1:0|1:0,0:0:0:0:
364,164,24781,2,0,B|336:116|336:116|336:32,1,140,0|0,1:0|1:0,0:0:0:0:
176,32,25626,2,0,B|176:116|176:116|148:164,1,140,0|0,1:0|1:0,0:0:0:0:
96,224,26260,1,0,0:0:0:0:
96,224,26471,2,0,L|24:212,2,70,0|0|0,1:0|0:0|1:0,0:0:0:0:
192,344,27316,70,0,B|228:344|256:320|256:320|284:344|320:344,1,140,4|0,2:0|1:0,0:0:0:0:
476,352,28161,2,0,P|448:324|436:288,1,70,0|0,1:0|0:0,0:0:0:0:
496,244,28584,2,0,P|452:272|380:236,1,140,0|0,1:0|1:0,0:0:0:0:
332,176,29218,1,0,0:0:0:0:
284,116,29429,2,0,P|228:80|164:108,1,140,0|0,1:0|1:0,0:0:0:0:
112,164,30063,2,0,B|92:136|92:136|88:96,2,70,0|0|0,0:0|1:0|0:0,0:0:0:0:
57,218,30696,6,0,P|37:274|56:352,2,140,0|0|0,1:0|1:0|1:0,0:0:0:0:
180,128,31964,2,0,B|216:180|216:180|216:256,1,140,0|0,1:0|1:0,0:0:0:0:
256,320,32598,1,0,0:0:0:0:
296,256,32809,2,0,B|296:180|296:180|332:128,1,140,0|0,1:0|1:0,0:0:0:0:
376,64,33443,2,0,L|416:4,2,70,0|0|0,0:0|1:0|0:0,0:0:0:0:
424,124,34077,6,0,P|452:192|432:252,1,140,0|0,1:0|1:0,0:0:0:0:
308,344,34922,2,0,P|280:280|300:216,1,140,0|0,1:0|1:0,0:0:0:0:
361,169,35556,1,0,0:0:0:0:
361,169,35767,2,0,P|297:139|237:169,1,140,0|0,1:0|1:0,0:0:0:0:
172,203,36401,1,0,0:0:0:0:
172,203,36612,2,0,P|108:233|48:203,1,140,0|0,1:0|1:0,0:0:0:0:
36,128,37246,1,0,0:0:0:0:
64,56,37457,70,0,L|132:76,2,70,4|0|8,3:0|0:0|3:0,0:0:0:0:
216,72,38302,2,0,L|288:52,2,70,4|0|8,3:0|0:0|3:0,0:0:0:0:
368,56,39147,2,0,L|480:76,2,105,0|0|0,1:0|1:0|1:0,0:0:0:0:
292,44,39992,1,0,1:0:0:0:
288,198,40415,1,2,0:0:0:0:
110,146,40837,54,0,P|89:63|20:28,1,167.999994873047,4|8,0:0|1:0,0:0:0:0:
19,125,41471,1,0,0:0:0:0:
19,125,41682,2,0,B|-2:174|21:211|21:211|39:243|21:286,1,167.999994873047,2|8,0:0|1:0,0:0:0:0:
203,237,42527,1,2,0:0:0:0:
203,237,42739,2,0,B|232:256|256:304|256:304|280:256|307:237,1,167.999994873047,4|0,0:0|0:0,0:0:0:0:
396,252,43373,2,0,P|444:196|433:108,1,167.999994873047,2|8,0:0|1:0,0:0:0:0:
248,112,44218,6,0,P|156:136|92:88,1,167.999994873047,4|8,0:0|1:0,0:0:0:0:
56,16,44851,1,0,0:0:0:0:
56,16,45063,2,0,L|56:188,1,167.999994873047,2|8,0:0|1:0,0:0:0:0:
156,340,45908,1,2,0:0:0:0:
204,264,46119,2,0,B|244:296|244:336|244:336|332:328,1,167.999994873047,4|0,0:0|0:0,0:0:0:0:
416,316,46753,2,0,P|472:256|456:176,1,167.999994873047,2|8,0:0|1:0,0:0:0:0:
312,60,47598,6,0,P|276:128|320:200,1,167.999994873047,4|8,0:0|1:0,0:0:0:0:
376,128,48232,1,0,0:0:0:0:
376,128,48443,2,0,L|206:128,2,167.999994873047,2|8|2,0:0|1:0|0:0,0:0:0:0:
437,59,49499,2,0,P|469:134|429:205,1,167.999994873047,4|0,0:0|0:0,0:0:0:0:
339,224,50133,2,0,P|307:299|347:370,1,167.999994873047,2|8,0:0|1:0,0:0:0:0:
217,236,50978,70,0,P|249:156|209:88,1,167.999994873047,4|8,0:0|1:0,0:0:0:0:
125,60,51612,1,0,0:0:0:0:
125,60,51823,2,0,L|293:60,1,167.999994873047,2|8,0:0|1:0,0:0:0:0:
476,64,52668,2,0,P|488:100|476:144,1,83.9999974365235,2|0,0:0|0:0,0:0:0:0:
392,184,53091,2,0,P|380:220|392:264,1,83.9999974365235,8|0,1:0|0:0,0:0:0:0:
428,348,53513,1,2,0:0:0:0:
256,272,53936,1,2,0:0:0:0:
208,128,54358,38,0,P|140:88|84:104,2,140
256,272,55626,1,0,0:0:0:0:
304,128,56049,2,0,P|372:88|428:104,2,140
256,272,57316,1,0,0:0:0:0:
120,348,57739,6,0,P|72:304|84:236,1,140
196,128,58584,2,0,B|228:140|256:104|256:104|284:140|316:128,1,140
428,236,59429,2,0,P|440:304|392:348,2,140
276,216,60696,2,0,L|208:192,1,70
140,160,61119,6,0,P|176:104|244:80,1,140,4|0,2:0|0:0,0:0:0:0:
316,118,61753,1,0,0:0:0:0:
316,118,61964,2,0,P|364:162|436:158,1,140
472,304,62809,2,0,L|332:296,1,140
256,292,63443,1,0,0:0:0:0:
180,272,63654,2,0,B|196:224|244:216|244:216|232:168,1,140,4|8,0:0|0:0,0:0:0:0:
352,72,64499,70,0,P|428:72|460:120,1,140,4|0,2:0|0:0,0:0:0:0:
436,192,65133,1,0,0:0:0:0:
460,264,65344,2,0,P|428:312|352:312,1,140
256,188,66189,1,8,0:0:0:0:
256,188,66401,1,8,0:0:0:0:
160,311,66823,1,4,0:0:0:0:
160,311,67035,2,0,P|93:316|52:264,1,140,4|4,3:0|3:0,0:0:0:0:
64,108,67880,6,0,B|104:96|136:108|136:108|168:120|204:108,1,140,4|8,0:0|0:0,0:0:0:0:
256,56,68513,1,0,0:0:0:0:
310,108,68725,2,0,B|344:120|376:108|376:108|408:96|448:108,1,140,2|8,0:0|0:0,0:0:0:0:
448,264,69570,2,0,P|484:272|516:264,2,70,2|0|8,0:0|0:0|0:0,0:0:0:0:
320,180,70415,2,0,B|276:176|256:200|256:200|236:176|192:180,1,140,2|8,0:0|0:0,0:0:0:0:
40,204,71260,6,0,P|8:264|40:328,1,140,2|8,0:0|0:0,0:0:0:0:
86,266,71894,1,0,0:0:0:0:
133,326,72105,2,0,B|166:337|198:325|198:325|230:313|270:325,1,140,2|8,0:0|0:0,0:0:0:0:
417,370,72950,2,0,P|456:377|484:370,2,70,2|0|8,0:0|0:0|0:0,0:0:0:0:
309,259,73795,2,0,L|308:113,1,140,2|8,0:0|0:0,0:0:0:0:
240,92,74429,1,0,0:0:0:0:
240,92,74640,70,0,P|168:92|120:136,1,140,4|8,0:0|0:0,0:0:0:0:
68,192,75274,1,0,0:0:0:0:
120,248,75485,2,0,P|168:292|240:292,1,140,2|8,0:0|0:0,0:0:0:0:
332,168,76330,2,0,P|396:184|440:240,1,140,2|8,0:0|0:0,0:0:0:0:
494,302,76964,1,0,0:0:0:0:
494,302,77175,2,0,L|494:162,1,140,2|8,0:0|0:0,0:0:0:0:
372,68,78020,6,0,B|302:73|302:73|236:52,1,140,4|8,3:0|0:0,0:0:0:0:
159,63,78654,1,0,0:0:0:0:
206,123,78865,2,0,B|272:145|272:145|324:190,1,140,2|8,0:0|0:0,0:0:0:0:
440,296,79711,2,0,B|392:256|320:256|280:316|332:360|256:372|180:360|232:316|192:256|120:256|72:296,1,420,8|4,3:0|3:0,0:0:0:0:
200,212,81401,6,0,B|216:180|200:144|200:144|184:108|200:76,1,140,4|8,0:0|0:0,0:0:0:0:
256,24,82035,1,0,0:0:0:0:
312,76,82246,2,0,B|328:108|312:144|312:144|296:180|312:212,1,140,2|8,0:0|0:0,0:0:0:0:
428,316,83091,2,0,B|380:276|328:292|328:292|296:304,1,140,2|8,0:0|0:0,0:0:0:0:
256,368,83725,1,0,0:0:0:0:
214,303,83936,2,0,B|184:292|184:292|132:276|84:316,1,140,2|8,0:0|0:0,0:0:0:0:
16,356,84570,1,0,0:0:0:0:
16,356,84781,70,0,B|0:288|0:288|16:220,1,140,2|8,0:0|0:0,0:0:0:0:
80,172,85415,1,0,0:0:0:0:
80,172,85626,2,0,B|96:104|96:104|80:36,1,140,2|8,0:0|0:0,0:0:0:0:
224,92,86471,2,0,B|256:79|256:79|288:92,2,70,2|0|8,0:0|0:0|0:0,0:0:0:0:
192,244,87316,2,0,B|228:244|256:268|256:268|284:244|320:244,1,140,2|8,0:0|0:0,0:0:0:0:
316,324,87950,6,0,P|256:354|196:324,2,140,4|4|4,0:0|0:0|0:0,0:0:0:0:
384,280,89006,1,2,0:0:0:0:
256,192,89429,1,8,0:0:0:0:
128,280,89851,2,0,L|52:280,2,70,2|0|8,0:0|0:0|0:0,0:0:0:0:
192,140,90696,1,0,0:0:0:0:
192,140,90908,2,0,P|256:116|320:140,1,140
376,192,91542,6,0,B|384:227|384:227|376:260,2,70,4|0|4,3:0|0:0|3:0,0:0:0:0:
254,286,92387,2,0,B|246:319|246:319|254:354,2,70,4|0|4,3:0|0:0|3:0,0:0:0:0:
376,192,93232,1,2,0:0:0:0:
32,192,94499,1,2,0:0:0:0:
32,192,94922,22,0,P|108:188|172:128,1,167.999994873047,4|8,0:0|1:0,0:0:0:0:
220,48,95556,1,0,0:0:0:0:
220,48,95767,2,0,B|264:76|268:128|268:128|320:180,1,167.999994873047,2|8,0:0|1:0,0:0:0:0:
448,308,96612,1,2,0:0:0:0:
448,308,96823,2,0,P|392:344|292:344,1,167.999994873047,4|0,0:0|0:0,0:0:0:0:
220,288,97457,2,0,P|140:272|64:308,1,167.999994873047,2|8,0:0|1:0,0:0:0:0:
28,128,98302,6,0,P|116:128|184:88,1,167.999994873047,4|8,0:0|1:0,0:0:0:0:
256,32,98936,1,0,0:0:0:0:
256,32,99147,2,0,P|304:84|396:100,1,167.999994873047,2|8,0:0|1:0,0:0:0:0:
408,284,99992,1,2,0:0:0:0:
344,348,100204,2,0,L|168:336,1,167.999994873047,4|0,0:0|0:0,0:0:0:0:
84,328,100837,1,2,0:0:0:0:
44,244,101049,1,0,0:0:0:0:
84,160,101260,1,8,1:0:0:0:
256,92,101682,6,0,P|344:104|380:168,1,167.999994873047,4|8,0:0|1:0,0:0:0:0:
288,180,102316,1,0,0:0:0:0:
288,180,102527,2,0,L|192:324,2,167.999994873047,2|8|2,0:0|1:0|0:0,0:0:0:0:
344,108,103584,2,0,P|416:73|492:112,1,167.999994873047,4|0,0:0|0:0,0:0:0:0:
416,164,104218,2,0,L|322:303,1,167.999994873047,2|8,0:0|1:0,0:0:0:0:
143,357,105063,70,0,P|51:309|39:253,1,167.999994873047,4|8,0:0|1:0,0:0:0:0:
31,161,105696,1,0,0:0:0:0:
108,110,105908,2,0,L|274:87,1,167.999994873047,2|8,0:0|1:0,0:0:0:0:
452,140,106753,2,0,L|432:224,1,83.9999974365235,2|0,0:0|0:0,0:0:0:0:
340,236,107175,2,0,L|320:320,2,83.9999974365235,8|0|2,1:0|0:0|0:0,0:0:0:0:
256,72,108020,1,2,2:0:0:0:
132,164,108443,38,0,P|68:192|40:252,1,140
188,308,109288,2,0,P|256:324|324:308,1,140
472,252,110133,2,0,P|444:192|380:164,1,140
256,72,110978,1,0,0:0:0:0:
256,228,111401,6,0,P|184:212|136:168,1,140
256,72,112246,1,0,0:0:0:0:
256,228,112668,2,0,P|328:212|376:168,2,140
176,96,113936,2,0,B|100:84|100:84|36:96,2,140
248,124,114992,1,0,0:0:0:0:
188,172,115204,6,0,L|128:304,1,140,4|0,2:0|0:0,0:0:0:0:
96,368,115837,1,0,0:0:0:0:
96,368,116049,2,0,B|136:336|188:336|188:336|228:336,1,140
380,309,116894,1,4,3:0:0:0:
380,309,117105,2,0,P|412:262|419:175,1,140
346,158,117739,2,0,P|344:101|298:26,1,140,4|0,3:0|0:0,0:0:0:0:
148,40,118584,70,0,B|140:92|136:128|136:128|152:180,1,140,4|0,2:0|0:0,0:0:0:0:
196,240,119218,1,0,0:0:0:0:
240,304,119429,2,0,B|292:352|372:344,1,140
488,244,120274,1,8,0:0:0:0:
488,244,120485,2,0,P|432:212|356:212,1,140,8|0,0:0|0:0,0:0:0:0:
288,248,121119,2,0,L|216:232,1,70,8|0,0:0|0:0,0:0:0:0:
144,256,121542,2,0,L|76:240,1,70,8|0,0:0|0:0,0:0:0:0:
16,192,121964,6,0,P|80:164|116:104,1,140,4|8,0:0|0:0,0:0:0:0:
148,36,122598,1,0,0:0:0:0:
148,36,122809,2,0,L|288:32,1,140,2|8,0:0|0:0,0:0:0:0:
392,144,123654,2,0,L|472:140,2,70,2|0|8,0:0|0:0|0:0,0:0:0:0:
360,296,124499,2,0,L|216:304,1,140,2|8,0:0|0:0,0:0:0:0:
80,368,125344,6,0,B|48:308|48:308|80:244,1,140,2|8,0:0|0:0,0:0:0:0:
128,184,125978,1,0,0:0:0:0:
128,184,126189,2,0,B|160:124|160:124|128:60,1,140,2|8,0:0|0:0,0:0:0:0:
268,124,127035,2,0,L|340:124,1,70,2|0,0:0|0:0,0:0:0:0:
388,181,127457,2,0,P|408:249|392:317,2,140,8|2|8,0:0|0:0|0:0,0:0:0:0:
292,64,128725,70,0,P|260:136|272:196,1,140,4|8,0:0|0:0,0:0:0:0:
332,244,129358,1,0,0:0:0:0:
392,292,129570,2,0,L|248:292,1,140,2|8,0:0|0:0,0:0:0:0:
108,344,130415,2,0,P|60:304|64:232,1,140,2|8,0:0|0:0,0:0:0:0:
132,196,131049,1,0,0:0:0:0:
128,272,131260,2,0,L|271:287,1,140,2|8,0:0|0:0,0:0:0:0:
424,273,132105,5,4,3:0:0:0:
424,273,132316,1,8,3:0:0:0:
408,120,132739,1,4,3:0:0:0:
348,72,132950,2,0,P|424:44|472:76,2,140,8|8|4,3:0|3:0|3:0,3:0:0:0:
240,296,149006,6,0,L|116:232,1,140,4|8,0:0|0:2,0:0:0:0:
44,192,149640,1,0,0:0:0:0:
116,152,149851,2,0,L|240:88,1,140,4|8,0:0|0:2,0:0:0:0:
392,72,150696,2,0,P|420:104|428:132,1,70,4|0,0:0|0:0,0:0:0:0:
364,176,151119,2,0,P|420:208|488:180,2,140,8|4|8,0:2|0:0|0:2,0:0:0:0:
308,124,152175,1,0,0:0:0:0:
259,63,152387,70,0,P|203:31|135:59,2,140,4|8|4,0:0|0:2|0:0,0:0:0:0:
191,200,153654,1,8,0:2:0:0:
276,328,154077,2,0,L|344:344,1,70,4|0,0:0|0:0,0:0:0:0:
420,360,154499,1,8,0:2:0:0:
492,224,154922,2,0,L|424:208,1,70,4|0,0:0|0:0,0:0:0:0:
348,192,155344,1,8,0:2:0:0:
216,108,155767,6,0,B|140:108|140:108|84:140,1,140,4|8,0:0|0:2,0:0:0:0:
28,192,156401,1,0,0:0:0:0:
84,244,156612,2,0,B|140:276|140:276|216:276,1,140,4|8,0:0|0:2,0:0:0:0:
344,192,157457,2,0,L|416:192,1,70,4|0,0:0|0:0,0:0:0:0:
464,132,157880,2,0,P|432:192|464:252,2,140,8|4|8,0:2|0:0|0:2,0:0:0:0:
336,48,159147,6,0,B|304:36|268:48|268:48|236:60|196:48,1,140,4|8,0:0|1:0,0:0:0:0:
124,32,159781,1,0,0:0:0:0:
124,32,159992,1,0,1:0:0:0:
44,164,160415,1,8,1:0:0:0:
256,192,160626,12,0,162527,0:0:0:0:
101,26,165485,69,2,2:0:0:0:
264,112,165908,54,0,P|356:136|420:88,1,167.999994873047,4|8,0:0|1:0,0:0:0:0:
456,16,166541,1,0,0:0:0:0:
456,16,166753,2,0,L|456:188,1,167.999994873047,2|8,0:0|1:0,0:0:0:0:
356,340,167598,1,2,0:0:0:0:
308,264,167809,2,0,B|268:296|268:336|268:336|184:328,1,167.999994873047,4|0,0:0|0:0,0:0:0:0:
96,316,168443,2,0,P|40:256|56:176,1,167.999994873047,2|8,0:0|1:0,0:0:0:0:
184,44,169288,6,0,P|272:56|308:120,1,167.999994873047,4|8,0:0|1:0,0:0:0:0:
304,212,169922,1,0,0:0:0:0:
304,212,170133,2,0,L|208:356,2,167.999994873047,2|8|2,0:0|1:0|0:0,0:0:0:0:
368,144,171189,2,0,P|404:220|360:284,1,167.999994873047,4|0,0:0|0:0,0:0:0:0:
304,212,171823,2,0,P|268:136|308:68,1,167.999994873047,2|8,0:0|1:0,0:0:0:0:
208,224,172668,6,0,P|140:256|56:224,1,167.999994873047,4|8,0:0|1:0,0:0:0:0:
8,148,173302,1,0,0:0:0:0:
8,148,173513,2,0,L|24:316,1,167.999994873047,2|8,0:0|1:0,0:0:0:0:
204,360,174358,1,2,0:0:0:0:
296,344,174570,2,0,B|356:348|400:300|400:300|412:248,1,167.999994873047,4|0,0:0|0:0,0:0:0:0:
432,160,175204,2,0,P|392:104|288:96,1,167.999994873047,2|8,0:0|1:0,0:0:0:0:
192,244,176049,70,0,P|112:228|72:156,1,167.999994873047,4|8,0:0|1:0,0:0:0:0:
64,64,176682,1,0,0:0:0:0:
64,64,176894,1,2,0:0:0:0:
248,40,177316,1,8,1:0:0:0:
432,72,177739,2,0,P|464:100|468:220,1,167.999994873047,2|8,0:0|1:0,0:0:0:0:
416,296,178373,1,0,0:0:0:0:
327,269,178584,6,0,B|219:233|179:297|139:357|3:301,1,335.999989746094,2|4,0:0|0:0,0:0:0:0:
116,152,179851,22,0,P|164:144|196:128,1,83.9999974365235,8|0,1:0|0:0,0:0:0:0:
252,56,180274,2,0,B|282:86|285:118|285:118|380:128,1,167.999994873047,2|8,0:0|1:0,0:0:0:0:
492,276,181119,1,2,0:0:0:0:
420,336,181330,2,0,B|360:356|296:336|296:336|264:304,1,167.999994873047,4|0,0:0|0:0,0:0:0:0:
200,240,181964,2,0,B|172:212|172:212|108:188|44:208,1,167.999994873047,2|8,0:0|1:0,0:0:0:0:
148,52,182809,5,4,0:0:0:0:
148,52,183232,2,0,L|240:56,1,83.9999974365235,8|0,1:0|0:0,0:0:0:0:
324,60,183654,2,0,P|364:104|376:208,1,167.999994873047,2|8,0:0|1:0,0:0:0:0:
248,340,184500,1,2,0:0:0:0:
248,340,184711,2,0,L|216:176,1,167.999994873047,4|0,0:0|0:0,0:0:0:0:
188,88,185344,2,0,P|128:64|28:84,1,167.999994873047,2|8,0:0|1:0,0:0:0:0:
72,264,186189,6,0,P|124:316|208:296,1,167.999994873047,4|8,0:0|1:0,0:0:0:0:
256,216,186823,1,0,0:0:0:0:
304,296,187035,2,0,P|376:320|440:264,1,167.999994873047,2|8,0:0|1:0,0:0:0:0:
464,80,187880,1,2,0:0:0:0:
464,80,188091,2,0,B|396:60|396:60|348:44|300:60,1,167.999994873047,4|0,0:0|0:0,0:0:0:0:
216,92,188725,2,0,B|168:108|120:92|120:92|52:72,1,167.999994873047,2|8,0:0|1:0,0:0:0:0:
56,256,189570,70,0,B|88:296|136:304|136:304|176:296|200:272,1,167.999994873047,4|8,0:0|1:0,0:0:0:0:
256,196,190204,1,0,0:0:0:0:
312,272,190415,2,0,B|336:296|376:304|376:304|424:296|456:256,1,167.999994873047,2|8,0:0|1:0,0:0:0:0:
348,108,191260,2,0,L|432:116,2,83.9999974365235,2|4|8,0:0|0:0|1:0,0:0:0:0:
256,100,191894,1,0,0:0:0:0:
164,108,192105,2,0,L|80:116,2,83.9999974365235,2|0|8,0:0|0:0|1:0,0:0:0:0:
128,288,192950,6,0,P|76:272|60:248,2,83.9999974365235,8|0|2,0:0|0:0|0:0,0:0:0:0:
188,112,193795,2,0,B|212:84|256:64|256:64|300:84|324:112,1,167.999994873047,8|2,0:0|0:0,0:0:0:0:
420,268,194640,2,0,P|464:280|500:268,2,83.9999974365235,8|0|2,0:0|0:0|0:0,0:0:0:0:
256,180,195485,2,0,B|232:264|280:264|256:348,1,167.999994873047,8|2,0:0|0:0,0:0:0:0:
76,284,196330,5,8,0:0:0:0:
80,100,196753,1,2,0:0:0:0:
200,240,197175,1,8,0:0:0:0:
20,196,197598,1,2,0:0:0:0:
196,136,198020,1,8,0:0:0:0:
368,68,198443,2,0,P|412:48|452:52,2,83.9999974365235,2|0|8,0:0|0:0|0:0,0:0:0:0:
448,236,199288,70,0,P|392:296|312:288,1,167.999994873047,2|8,0:0|0:0,0:0:0:0:
192,148,200133,2,0,P|156:112|120:100,1,83.9999974365235,2|0,0:0|0:0,0:0:0:0:
56,160,200556,2,0,P|32:108|84:20,1,167.999994873047,8|2,0:0|0:0,0:0:0:0:
264,64,201401,2,0,P|352:96|408:152,1,167.999994873047,8|2,0:0|0:0,0:0:0:0:
320,312,202246,2,0,P|228:296|168:248,1,167.999994873047,8|2,0:0|0:0,0:0:0:0:
68,96,203091,6,0,P|120:64|164:60,1,83.9999974365235,8|0,0:0|0:0,0:0:0:0:
236,60,203513,2,0,P|320:84|388:128,2,167.999994873047,2|8|2,0:0|0:0|0:0,0:0:0:0:
148,224,204781,2,0,L|64:232,2,83.9999974365235,8|0|2,0:0|0:0|0:0,0:0:0:0:
316,300,205626,1,2,2:0:0:0:
472,200,206049,1,2,2:0:0:0:
304,120,206471,5,4,2:3:0:0:
256,192,206682,12,0,213232,2:0:0:0:
