osu file format v14

[General]
AudioFilename: Geronimo.mp3
AudioLeadIn: 0
PreviewTime: 40626
Countdown: 0
SampleSet: Soft
StackLeniency: 0.2
Mode: 0
LetterboxInBreaks: 0
WidescreenStoryboard: 1

[Editor]
Bookmarks: 81401,94499,133795,149006,162527,165485
DistanceSpacing: 1.1
BeatDivisor: 4
GridSize: 4
TimelineZoom: 1

[Metadata]
Title:Geronimo
TitleUnicode:Geronimo
Artist:Sheppard
ArtistUnicode:Sheppard
Creator:ezek
Version:Low
Source:
Tags:Bombs Away BoatKrab Gero
BeatmapID:677677
BeatmapSetID:302303

[Difficulty]
HPDrainRate:2
CircleSize:3.5
OverallDifficulty:2
ApproachRate:3
SliderMultiplier:0.9
SliderTickRate:1

[Events]
//Background and Video events
Video,-2517,"Video.avi"
0,0,"OtakuRock95.jpg",0,0
//Break Periods
2,135485,147446
2,162727,164045
//Storyboard Layer 0 (Background)
//Storyboard Layer 1 (Fail)
//Storyboard Layer 2 (Pass)
//Storyboard Layer 3 (Foreground)
//Storyboard Sound Samples

[TimingPoints]
7035,422.535211267606,4,3,0,80,1,0
40837,-100,4,2,0,80,0,1
54358,-100,4,3,0,60,0,0
67880,-100,4,2,0,80,0,0
94922,-100,4,2,0,80,0,1
108443,-100,4,3,0,60,0,0
121964,-100,4,2,0,80,0,0
149006,-100,4,3,0,80,0,0
165908,-100,4,2,0,80,0,1
179429,-100,4,2,0,80,0,0
192950,-100,4,3,0,80,0,0

[Colours]
Combo1 : 85,199,52
Combo2 : 136,183,221
Combo3 : 200,174,125
Combo4 : 231,214,90
Combo5 : 147,147,147
Combo6 : 255,40,40
Combo7 : 163,73,156

[HitObjects]
40,72,7034,6,0,P|84:52|124:56,1,90,0|0,1:0|1:0,0:0:0:0:
140,152,7880,2,0,P|96:176|56:172,2,90,0|0|0,1:0|1:0|1:0,0:0:0:0:
214,87,9147,2,0,P|302:83|374:135,1,180,0|0,1:0|1:0,0:0:0:0:
324,220,10415,6,0,P|284:248|244:256,1,90,0|0,1:0|1:0,0:0:0:0:
176,184,11260,2,0,P|216:156|256:148,2,90,0|0|0,1:0|1:0|1:0,0:0:0:0:
88,232,12527,2,0,P|30:291|44:384,1,180,0|0,1:0|1:0,0:0:0:0:
124,325,13795,6,0,B|180:329|180:329|212:321,1,90,0|0,1:0|1:0,0:0:0:0:
308,294,14640,2,0,B|340:286|340:286|396:290,1,90,0|0,1:0|1:0,0:0:0:0:
488,251,15485,2,0,P|480:191|392:119,1,180,0|0,1:0|1:0,0:0:0:0:
292,124,16753,70,0,P|244:124|208:104,1,90,0|0,1:0|1:0,0:0:0:0:
128,48,17598,2,0,L|108:136,1,90,0|0,1:0|1:0,0:0:0:0:
88,232,18443,2,0,B|96:292|132:332|132:332|204:340,1,180,0|0,1:0|1:0,0:0:0:0:
300,340,19711,1,0,1:0:0:0:
376,276,20133,6,0,P|396:316|396:364,2,90,0|0|0,1:0|1:0|1:0,0:0:0:0:
304,208,21401,1,0,1:0:0:0:
220,160,21823,2,0,P|272:120|376:144,1,180,0|0,1:0|1:0,0:0:0:0:
460,196,23091,2,0,P|388:240|304:208,1,180,0|0,1:0|1:0,0:0:0:0:
220,160,24358,6,0,B|180:136|180:136|136:124,1,90,0|0,1:0|1:0,0:0:0:0:
44,96,25204,2,0,L|40:188,1,90,0|0,1:0|1:0,0:0:0:0:
80,276,26049,1,0,1:0:0:0:
173,308,26471,2,0,L|170:357,2,45,0|2|0,1:0|0:0|1:0,0:0:0:0:
250,247,27316,70,0,P|286:223|334:223,1,90,4|0,2:0|1:0,0:0:0:0:
388,304,28161,2,0,P|436:296|472:268,1,90,0|0,1:0|1:0,0:0:0:0:
480,172,29006,2,0,P|436:112|340:124,1,180,0|0,1:0|1:0,0:0:0:0:
256,180,30274,1,0,1:0:0:0:
172,124,30696,6,0,P|76:112|32:172,1,180,0|0,1:0|1:0,0:0:0:0:
44,272,31964,2,0,B|72:312|72:312|112:328,1,90,0|0,1:0|1:0,0:0:0:0:
204,296,32809,1,0,1:0:0:0:
284,236,33232,2,0,P|292:196|280:148,1,90,0|0,1:0|1:0,0:0:0:0:
193,101,34077,6,0,P|181:57|189:13,1,90,0|0,1:0|1:0,0:0:0:0:
279,52,34922,2,0,L|463:56,1,180,0|0,1:0|1:0,0:0:0:0:
500,145,36189,1,0,1:0:0:0:
409,186,36612,2,0,L|311:183,1,90,0|0,1:0|1:0,0:0:0:0:
220,177,37457,70,0,L|172:175,2,45,4|0|8,0:0|0:0|0:0,0:0:0:0:
150,248,38302,2,0,L|102:246,2,45,4|0|8,0:0|0:0|0:0,0:0:0:0:
77,315,39147,2,0,P|32:252|85:175,1,180,0|0,1:0|1:0,0:0:0:0:
181,186,40415,1,2,2:0:0:0:
132,100,40837,54,0,P|114:39|196:56,1,180,4|2,0:0|0:0,0:0:0:0:
256,132,42105,1,8,1:0:0:0:
316,54,42527,2,0,P|385:24|380:100,1,180,2|2,0:0|0:0,0:0:0:0:
360,196,43795,1,8,1:0:0:0:
336,292,44218,6,0,B|288:292|256:328|256:328|224:292|176:292,1,180,4|2,0:0|0:0,0:0:0:0:
152,196,45485,1,8,1:0:0:0:
122,101,45908,2,0,P|164:88|206:101,1,90,2|8,0:0|1:0,0:0:0:0:
306,101,46753,2,0,P|348:88|390:101,1,90,2|8,0:0|1:0,0:0:0:0:
464,167,47598,6,0,P|464:268|400:304,1,180,4|2,0:0|0:0,0:0:0:0:
304,292,48865,1,8,1:0:0:0:
208,264,49288,2,0,L|176:176,1,90,2|8,0:0|1:0,0:0:0:0:
240,104,50133,2,0,L|272:188,1,90,2|8,0:0|1:0,0:0:0:0:
344,256,50978,70,0,P|428:244|468:164,1,180,4|2,0:0|0:0,0:0:0:0:
414,82,52246,1,8,1:0:0:0:
318,55,52668,2,0,L|326:11,2,45,2|0|8,0:0|0:0|1:0,0:0:0:0:
256,132,53513,2,0,P|212:160|176:164,1,90,2|2,0:0|0:0,0:0:0:0:
108,92,54358,38,0,P|76:176|124:248,1,180
208,296,55626,1,0,0:0:0:0:
308,296,56049,2,0,B|344:300|344:300|360:308|360:308|400:312,2,90
252,216,57316,1,0,0:0:0:0:
189,139,57739,6,0,B|229:115|274:121|274:121|322:126|361:103,1,180
443,46,59006,2,0,P|459:94|455:134,2,90
361,102,60274,2,0,P|361:162|377:190,1,90
445,258,61119,6,0,P|389:322|301:310,1,180,4|0,2:0|0:0,0:0:0:0:
212,272,62387,1,0,0:0:0:0:
244,180,62809,2,0,P|300:116|388:128,1,180
472,180,64077,1,0,0:0:0:0:
448,84,64499,70,0,P|411:55|369:41,1,90,4|0,3:0|0:0,0:0:0:0:
272,48,65344,2,0,P|228:72|200:104,1,90
140,180,66189,2,0,L|161:223,1,45,4|4,3:0|3:0,0:0:0:0:
257,237,66823,2,0,L|276:277,1,45,4|4,3:0|3:0,0:0:0:0:
349,345,67457,1,4,0:0:0:0:
444,316,67880,6,0,P|480:260|464:152,1,180,4|2,0:0|0:0,0:0:0:0:
388,88,69147,1,8,0:0:0:0:
316,156,69570,2,0,P|260:154|228:136,2,90,2|8|2,0:0|0:0|0:0,0:0:0:0:
292,60,70837,1,8,0:0:0:0:
194,42,71260,6,0,P|110:82|78:162,1,180,2|2,0:0|0:0,0:0:0:0:
119,248,72527,1,8,0:0:0:0:
191,315,72950,2,0,P|141:343|103:345,2,90,2|8|2,0:0|0:0|0:0,0:0:0:0:
228,223,74218,1,8,0:0:0:0:
228,124,74640,70,0,B|304:108|304:108|404:128,1,180,4|2,0:0|0:0,0:0:0:0:
480,192,75908,1,8,0:0:0:0:
404,256,76330,2,0,B|304:276|304:276|228:260,1,180,2|2,0:0|0:0,0:0:0:0:
156,192,77598,1,8,0:0:0:0:
164,92,78020,6,0,P|112:103|80:127,1,90,4|8,3:0|0:0,0:0:0:0:
9,191,78865,2,0,P|50:218|93:223,1,90,2|8,0:0|0:0,0:0:0:0:
256,192,79711,12,4,81401,0:0:0:0:
256,104,83091,5,2,0:0:0:0:
256,204,83513,2,0,L|256:260,2,45,8|0|2,0:0|0:0|0:0,0:0:0:0:
332,140,84358,1,8,0:0:0:0:
330,239,84781,70,0,P|331:285|306:319,1,90,2|8,0:0|0:0,0:0:0:0:
206,319,85626,2,0,P|180:283|181:238,1,90,2|8,0:0|0:0,0:0:0:0:
83,250,86471,2,0,P|91:319|126:376,2,135,2|0|8,0:0|0:0|0:0,0:0:0:0:
138,167,88161,6,0,B|178:143|178:143|206:111,1,90,2|8,0:0|0:0,0:0:0:0:
306,111,89006,2,0,B|334:143|334:143|374:167,1,90,2|8,0:0|0:0,0:0:0:0:
416,256,89851,2,0,P|368:328|272:332,1,180,2|2,0:0|0:0,0:0:0:0:
319,244,91119,1,8,0:0:0:0:
357,152,91542,6,0,L|364:103,2,45,4|0|4,3:0|0:0|3:0,0:0:0:0:
276,94,92387,2,0,L|283:45,2,45,4|0|4,3:0|0:0|3:0,0:0:0:0:
193,39,93232,1,2,0:0:0:0:
80,240,94499,69,2,0:0:0:0:
40,148,94922,54,0,B|84:128|136:156|136:156|200:108,1,180,4|2,0:0|0:0,0:0:0:0:
256,28,96189,1,8,1:0:0:0:
312,108,96612,2,0,B|376:156|376:156|428:128|472:148,1,180,2|2,0:0|0:0,0:0:0:0:
432,240,97880,1,8,1:0:0:0:
400,332,98302,6,0,B|340:344|296:316|296:316|296:244,1,180,4|2,0:0|0:0,0:0:0:0:
256,152,99570,1,8,1:0:0:0:
216,244,99992,2,0,B|216:316|216:316|172:344|112:332,1,180,2|2,0:0|0:0,0:0:0:0:
80,240,101260,1,8,1:0:0:0:
44,148,101682,6,0,B|80:96|132:92|132:92|204:88,1,180,4|2,0:0|0:0,0:0:0:0:
256,172,102950,1,8,1:0:0:0:
308,88,103373,2,0,B|380:92|380:92|432:96|468:148,1,180,2|2,0:0|0:0,0:0:0:0:
496,244,104640,1,8,1:0:0:0:
432,320,105063,70,0,L|252:336,1,180,4|2,0:0|0:0,0:0:0:0:
154,342,106330,1,8,1:0:0:0:
72,286,106753,2,0,L|24:294,2,45,2|0|8,0:0|0:0|1:0,0:0:0:0:
166,255,107598,2,0,P|206:223|214:187,1,90,2|2,0:0|0:0,0:0:0:0:
204,88,108443,38,0,P|248:52|364:76,1,180
424,148,109711,1,0,0:0:0:0:
468,236,110133,2,0,L|504:324,2,90
368,228,111401,1,0,0:0:0:0:
292,292,111823,6,0,B|260:244|276:196|276:196|200:168,1,180
108,140,113091,2,0,P|92:96|108:56,2,90
152,228,114358,2,0,P|168:272|152:312,1,90
60,272,115204,6,0,L|244:272,1,180,4|0,2:0|0:0,0:0:0:0:
340,272,116471,1,0,0:0:0:0:
408,344,116894,2,0,P|438:268|392:188,1,180
312,136,118161,1,0,0:0:0:0:
220,176,118584,70,0,P|124:188|72:132,1,180,4|0,3:0|0:0,0:0:0:0:
164,96,119851,1,0,0:0:0:0:
252,48,120274,2,0,L|296:52,1,45,4|4,0:0|0:0,0:0:0:0:
386,93,120908,2,0,L|430:97,1,45,4|4,0:0|0:0,0:0:0:0:
426,196,121542,1,4,0:0:0:0:
328,184,121964,6,0,P|292:228|288:348,1,180,4|2,0:0|0:0,0:0:0:0:
384,364,123232,1,8,0:0:0:0:
392,264,123654,2,0,P|440:276|468:308,2,90,2|8|2,0:0|0:0|0:0,0:0:0:0:
292,272,124922,1,8,0:0:0:0:
196,288,125344,6,0,B|124:232|124:232|96:148,1,180,2|2,0:0|0:0,0:0:0:0:
64,52,126612,1,8,0:0:0:0:
156,84,127035,2,0,P|200:88|248:84,1,90,2|8,0:0|0:0,0:0:0:0:
332,36,127880,2,0,P|376:32|424:36,1,90,2|8,0:0|0:0,0:0:0:0:
484,112,128725,70,0,B|464:179|464:179|447:230|387:252,1,180,4|2,0:0|0:0,0:0:0:0:
288,255,129992,1,8,0:0:0:0:
196,292,130415,2,0,P|136:304|44:240,1,180,2|2,0:0|0:0,0:0:0:0:
12,144,131682,1,8,0:0:0:0:
84,72,132105,6,0,L|136:64,1,45,0|0,1:0|1:0,2:0:0:0:
228,80,132739,2,0,L|280:76,1,45,0|0,1:0|1:0,2:0:0:0:
372,88,133373,2,0,B|400:124|400:124|404:168,1,90,0|0,1:0|1:0,2:0:0:0:
216,144,149006,6,0,B|168:152|168:152|124:152,2,90,4|8|4,0:0|0:2|0:0,0:0:0:0:
312,116,150274,1,8,0:2:0:0:
408,88,150696,2,0,P|444:148|432:256,1,180,4|4,0:0|0:0,0:0:0:0:
372,332,151964,1,8,0:2:0:0:
272,336,152387,70,0,L|180:332,2,90,4|8|4,0:0|0:2|0:0,0:0:0:0:
372,332,153654,1,8,0:2:0:0:
320,248,154077,2,0,L|140:240,1,180,4|0,0:0|0:0,0:0:0:0:
40,236,155344,1,8,0:2:0:0:
104,160,155767,6,0,P|68:140|16:140,2,90,4|8|4,0:0|0:2|0:0,0:0:0:0:
160,240,157035,1,8,0:2:0:0:
224,316,157457,2,0,B|264:276|256:224|256:224|320:180,1,180,4|0,0:0|0:0,0:0:0:0:
404,128,158725,1,8,0:2:0:0:
364,36,159147,6,0,L|408:32,2,45,4|0|8,0:0|0:0|1:0,0:0:0:0:
268,52,159992,1,4,0:0:0:0:
169,66,160415,1,8,1:0:0:0:
256,192,160626,12,0,162527,0:0:0:0:
432,192,165485,69,2,0:0:0:0:
452,288,165908,54,0,B|372:304|372:304|316:288|304:240,1,180,4|2,0:0|0:0,0:0:0:0:
256,152,167175,1,8,1:0:0:0:
208,240,167598,2,0,B|196:288|140:304|140:304|60:288,1,180,2|2,0:0|0:0,0:0:0:0:
80,192,168865,1,8,1:0:0:0:
60,96,169288,6,0,B|144:76|144:76|240:76,1,180,4|2,0:0|0:0,0:0:0:0:
336,76,170556,1,8,1:0:0:0:
432,100,170978,2,0,L|476:180,1,90,2|8,0:0|1:0,0:0:0:0:
396,236,171823,2,0,L|372:328,1,90,2|8,0:0|1:0,0:0:0:0:
276,344,172668,6,0,B|184:336|184:336|100:312,1,180,4|2,0:0|0:0,0:0:0:0:
12,264,173936,1,8,1:0:0:0:
96,212,174358,2,0,P|136:184|160:152,1,90,2|8,0:0|1:0,0:0:0:0:
228,76,175204,2,0,P|260:44|304:24,1,90,2|8,0:0|1:0,0:0:0:0:
316,124,176049,70,0,B|360:152|372:192|372:192|360:232|316:260,1,180,4|2,0:0|0:0,0:0:0:0:
256,336,177316,1,8,1:0:0:0:
196,260,177739,2,0,B|152:232|140:192|140:192|152:152|196:124,1,180,2|2,0:0|0:0,0:0:0:0:
256,48,179006,1,8,1:0:0:0:
356,52,179429,38,0,B|404:64|428:108|428:108|428:196,1,180,4|2,0:0|0:0,0:0:0:0:
428,292,180696,1,8,1:0:0:0:
340,336,181119,2,0,B|296:344|296:344|248:344,1,90,2|8,0:0|1:0,0:0:0:0:
188,268,181964,2,0,B|144:260|144:260|96:260,1,90,2|8,0:0|1:0,0:0:0:0:
52,348,182809,6,0,L|68:168,1,180,4|2,0:0|0:0,0:0:0:0:
80,72,184077,1,8,1:0:0:0:
174,102,184499,2,0,P|202:142|206:190,1,90,2|8,0:0|1:0,0:0:0:0:
160,269,185344,2,0,P|172:313|204:345,1,90,2|8,0:0|1:0,0:0:0:0:
284,288,186189,6,0,B|340:280|340:280|400:304|456:260,1,180,4|2,0:0|0:0,0:0:0:0:
384,192,187457,1,8,1:0:0:0:
456,124,187880,2,0,B|400:80|340:104|340:104|284:96,1,180,2|2,0:0|0:0,0:0:0:0:
188,76,189147,1,8,1:0:0:0:
92,52,189570,70,0,P|64:108|88:224,1,180,4|2,0:0|0:0,0:0:0:0:
152,292,190837,1,8,1:0:0:0:
240,340,191260,2,0,B|280:352|280:352|328:352,2,90,0|0|0,1:0|1:0|1:0,0:0:0:0:
152,292,192527,1,0,1:0:0:0:
84,220,192950,6,0,P|76:176|84:132,1,90,8|2,0:0|0:0,0:0:0:0:
184,132,193795,2,0,P|192:88|184:44,1,90,8|2,0:0|0:0,0:0:0:0:
84,44,194640,2,0,L|264:44,1,180,8|8,0:0|0:0,0:0:0:0:
364,44,195908,1,2,0:0:0:0:
432,116,196330,6,0,L|432:208,1,90,8|2,0:0|0:0,0:0:0:0:
332,216,197175,2,0,L|332:312,1,90,8|2,0:0|0:0,0:0:0:0:
236,332,198020,2,0,P|144:320|92:256,1,180,8|8,0:0|0:0,0:0:0:0:
60,160,199288,1,2,0:0:0:0:
80,64,199711,70,0,B|128:56|128:56|168:68,1,90,8|2,0:0|0:0,0:0:0:0:
224,148,200556,2,0,B|272:156|272:156|312:144,1,90,8|2,0:0|0:0,0:0:0:0:
404,108,201401,2,0,P|456:184|408:268,1,180,8|8,0:0|0:0,0:0:0:0:
336,304,202668,1,2,0:0:0:0:
240,336,203091,6,0,P|192:328|164:300,1,90,8|2,0:0|0:0,0:0:0:0:
244,240,203936,2,0,P|280:216|300:172,2,90,8|2|8,0:0|0:0|0:0,0:0:0:0:
152,204,205204,1,2,0:0:0:0:
105,116,205626,2,0,P|123:75|160:50,1,90,2|2,2:0|2:0,2:0:0:0:
249,95,206471,5,4,0:3:0:0:
256,192,206682,12,0,213232,2:0:0:0:
