osu file format v14

[General]
AudioFilename: audio.mp3
AudioLeadIn: 0
PreviewTime: 91016
Countdown: 1
SampleSet: Normal
StackLeniency: 0.7
Mode: 0
LetterboxInBreaks: 0
WidescreenStoryboard: 0

[Editor]
DistanceSpacing: 0.3
BeatDivisor: 4
GridSize: 4
TimelineZoom: 1

[Metadata]
Title:RUSH B
TitleUnicode:RUSH B
Artist:Sheet Music Boss
ArtistUnicode:Sheet Music Boss
Creator:FrostiDrinks
Version:Russian
Source:
Tags:
BeatmapID:1551135
BeatmapSetID:734715

[Difficulty]
HPDrainRate:7
CircleSize:4
OverallDifficulty:7
ApproachRate:9.5
SliderMultiplier:1
SliderTickRate:1

[Events]
//Background and Video events
0,0,"maxresdefault.jpg",0,0
//Break Periods
//Storyboard Layer 0 (Background)
//Storyboard Layer 1 (Fail)
//Storyboard Layer 2 (Pass)
//Storyboard Layer 3 (Foreground)
//Storyboard Sound Samples

[TimingPoints]
1035,4000,4,1,0,65,1,0
5035,1714.28571428571,4,1,0,65,1,0
6740,1333.33333333333,4,1,0,65,1,0
8055,545.454545454546,4,1,0,70,1,0
8600,521.739130434783,4,1,0,70,1,0
9121,300,4,1,0,70,1,0
9421,285.714285714286,4,1,0,70,1,0
9992,216.606498194946,4,1,0,70,1,0
10208,182.926829268293,4,1,0,70,1,0
10417,181.818181818182,4,1,0,75,1,0
10598,179.10447761194,4,1,0,75,1,0
11135,173.913043478261,4,1,0,75,1,0
11308,157.894736842105,4,1,0,80,1,0
11465,150,4,1,0,80,1,0
11615,145.631067961165,4,1,0,80,1,0
11740,127.118644067797,4,1,0,85,1,0
11867,103.448275862069,4,1,0,85,1,0
11970,100,4,1,0,85,1,0
12170,100,4,1,0,65,1,0
12170,-200,4,1,0,85,0,0
13545,923.076923076923,4,1,0,70,1,0
14468,857.142857142857,4,1,0,70,1,0
15325,800,4,1,0,70,1,0
16925,779.220779220779,4,1,0,70,1,0
16925,-200,4,1,0,70,0,0
17606,-200,4,2,0,5,0,0
17704,750,4,1,0,70,1,0
18454,705.882352941176,4,1,0,70,1,0
19159,666.666666666667,4,1,0,70,1,0
19825,631.578947368421,4,1,0,75,1,0
20456,600,4,1,0,75,1,0
21656,582.52427184466,4,1,0,75,1,0
22238,571.428571428571,4,1,0,75,1,0
23380,555.555555555556,4,1,0,75,1,0
23935,521.739130434783,4,1,0,75,1,0
24456,512.820512820513,4,1,0,75,1,0
24968,491.803278688525,4,1,0,75,1,0
25459,480,4,1,0,75,1,0
25939,468.75,4,1,0,75,1,0
26407,461.538461538462,4,1,0,75,1,0
27330,444.444444444444,4,1,0,75,1,0
27774,419.58041958042,4,1,0,75,1,0
28193,413.793103448276,4,1,0,75,1,0
28606,405.405405405405,4,1,0,75,1,0
29011,400,4,1,0,75,1,0
29411,392.156862745098,4,1,0,75,1,0
29803,387.096774193548,4,1,0,75,1,0
30964,370.37037037037,4,1,0,75,1,0
31704,352.941176470588,4,1,0,75,1,0
32409,342.857142857143,4,1,0,75,1,0
32751,342.857142857143,4,1,0,75,1,0
33436,-133.333333333333,4,1,0,75,0,0
33951,-133.333333333333,4,2,0,5,0,0
34137,346.820809248555,4,1,0,75,1,0
34830,342.857142857143,4,1,0,75,1,0
35172,333.333333333333,4,1,0,75,1,0
35505,315.789473684211,4,1,0,75,1,0
35820,300,4,1,0,75,1,0
36120,292.682926829268,4,1,0,75,1,0
37583,272.727272727273,4,1,0,75,1,0
37855,266.666666666667,4,1,0,75,1,0
38655,260.869565217391,4,1,0,75,1,0
38915,255.31914893617,4,1,0,75,1,0
39170,250,4,1,0,75,1,0
39420,240,4,1,0,75,1,0
39660,235.294117647059,4,1,0,75,1,0
39895,230.769230769231,4,1,0,75,1,0
40125,226.415094339623,4,1,0,75,1,0
40351,222.222222222222,4,1,0,75,1,0
40573,218.181818181818,4,1,0,75,1,0
40791,218.181818181818,4,1,0,75,1,0
42448,-100,4,2,0,5,0,0
42545,387.096774193548,4,1,0,80,1,0
42545,-80,4,1,0,80,0,0
48641,-80,4,2,0,5,0,0
48738,-80,4,1,0,80,0,0
53383,-80,4,1,0,80,0,0
54835,-80,4,1,0,65,0,0
55222,-66.6666666666667,4,1,0,65,0,0
59577,-66.6666666666667,4,1,0,80,0,0
61028,-66.6666666666667,4,2,0,5,0,0
61125,-66.6666666666667,4,1,0,65,0,0
64996,-66.6666666666667,4,1,0,80,0,0
65770,-66.6666666666667,4,1,0,80,0,0
67222,-66.6666666666667,4,2,0,5,0,0
67319,370.37037037037,4,1,0,85,1,0
67319,-66.6666666666667,4,1,0,85,0,0
72504,-66.6666666666667,4,1,0,85,0,0
73152,-66.6666666666667,4,2,0,5,0,0
73244,-66.6666666666667,4,1,0,85,0,0
77689,-66.6666666666667,4,1,0,85,0,0
78430,-66.6666666666667,4,1,0,85,0,0
79305,-100,4,1,0,50,0,0
90958,-100,4,2,0,5,0,0
91120,358.208955223881,4,1,0,85,1,1
91120,-50,4,1,0,85,0,1
96134,-50,4,1,0,85,0,1
96851,-50,4,1,0,85,0,1
101149,-50,4,1,0,85,0,1
102224,-50,4,1,0,75,0,0
102582,-50,4,1,0,75,0,0
102761,-50,4,1,0,70,0,0
106881,-50,4,1,0,80,0,0
107597,-50,4,1,0,100,0,0
108314,-50,4,1,0,75,0,0
112612,-50,4,1,0,100,0,0
113597,-50,4,1,0,80,0,0
113957,-50,4,2,0,5,0,0
114082,348.837209302326,4,1,0,90,1,1
114082,-50,4,1,0,90,0,1
118965,-50,4,1,0,90,0,1
119576,-50,4,2,0,5,0,1
119663,-50,4,1,0,90,0,1
123849,-50,4,1,0,90,0,0
125157,-50,4,2,0,5,0,0
125244,326.086956521739,4,1,0,90,1,1
125244,-50,4,1,0,90,0,1
127852,322.58064516129,4,1,0,90,1,1
127852,-50,4,1,0,90,0,1
129142,319.148936170213,4,1,0,90,1,1
129142,-50,4,1,0,90,0,1
129780,-40,4,1,0,90,0,1
130343,-50,4,2,0,5,0,1
130418,300,4,1,0,95,1,1
130418,-50,4,1,0,95,0,1
133118,-50,4,2,0,5,0,1
133268,-50,4,1,0,95,0,1
134955,-100,4,1,0,95,0,0
135214,-50,4,1,0,95,0,0
135249,-50,4,2,0,5,0,0
135356,285.714285714286,4,1,0,90,1,0
135356,-50,4,1,0,90,0,0
135571,-50,4,2,0,5,0,0
135642,-50,4,1,0,90,0,0
136928,-138.888888888889,4,1,0,100,0,0

[Colours]
Combo1 : 182,182,182
Combo2 : 183,0,0
Combo3 : 157,157,0
Combo4 : 0,108,0

[HitObjects]
256,192,1035,5,0,0:0:0:0:
256,192,5035,5,0,0:0:0:0:
256,192,6740,5,0,0:0:0:0:
128,244,8055,5,0,0:0:0:0:
92,88,8600,1,0,0:0:0:0:
240,28,9121,1,0,0:0:0:0:
352,112,9421,1,0,0:0:0:0:
360,224,9706,1,0,0:0:0:0:
288,296,9992,1,0,0:0:0:0:
200,304,10208,1,0,0:0:0:0:
132,272,10417,5,0,0:0:0:0:
104,220,10598,1,0,0:0:0:0:
100,168,10777,1,0,0:0:0:0:
112,124,10956,1,0,0:0:0:0:
136,92,11135,1,0,0:0:0:0:
164,76,11308,5,0,0:0:0:0:
200,72,11465,1,0,0:0:0:0:
232,80,11615,1,0,0:0:0:0:
248,88,11740,5,0,0:0:0:0:
256,100,11867,1,0,0:0:0:0:
256,112,11970,1,0,0:0:0:0:
252,124,12070,1,0,0:0:0:0:
248,136,12170,6,0,B|256:188|304:204|304:204|308:264|308:264|280:276|184:304|116:152|132:84|176:48|220:28|284:32|328:80|332:128|332:128|356:136|384:132,1,683.333333333333
256,288,14468,5,0,0:0:0:0:
0,204,15325,1,0,0:0:0:0:
136,328,16125,1,0,0:0:0:0:
32,68,16725,5,0,0:0:0:0:
42,51,16825,1,0,0:0:0:0:
60,44,16925,2,0,P|84:44|104:52,1,43.75
144,100,17704,5,0,0:0:0:0:
408,56,18454,1,0,0:0:0:0:
128,288,19159,1,0,0:0:0:0:
288,332,19825,6,0,L|252:244,1,50
256,164,20456,2,0,L|275:211,1,50
356,304,21056,2,0,L|320:216,1,50
324,136,21656,2,0,L|343:183,1,50
448,248,22238,1,0,0:0:0:0:
336,8,22809,5,0,0:0:0:0:
216,220,23380,1,0,0:0:0:0:
160,0,23935,1,0,0:0:0:0:
44,232,24456,5,0,0:0:0:0:
388,116,24968,1,0,0:0:0:0:
108,144,25459,1,0,0:0:0:0:
384,256,25939,1,0,0:0:0:0:
180,72,26407,1,0,0:0:0:0:
396,184,26868,6,0,P|440:212|458:265,1,100
252,340,27774,5,0,0:0:0:0:
260,160,28193,1,0,0:0:0:0:
76,288,28606,1,0,0:0:0:0:
208,96,29011,1,0,0:0:0:0:
0,172,29411,1,0,0:0:0:0:
232,16,29803,1,0,0:0:0:0:
280,116,30190,6,0,P|248:160|192:168,1,100
132,56,30964,5,0,0:0:0:0:
388,152,31334,1,0,0:0:0:0:
108,240,31704,1,0,0:0:0:0:
304,40,32056,1,0,0:0:0:0:
216,288,32409,1,0,0:0:0:0:
184,36,32751,1,0,0:0:0:0:
288,148,33436,6,0,P|232:152|164:144,1,112.500004291535
152,68,34137,5,0,0:0:0:0:
120,204,34310,1,0,0:0:0:0:
228,72,34483,1,0,0:0:0:0:
216,220,34657,1,0,0:0:0:0:
300,72,34830,5,0,0:0:0:0:
312,220,35001,1,0,0:0:0:0:
372,68,35172,1,0,0:0:0:0:
408,200,35338,1,0,0:0:0:0:
468,84,35505,1,0,0:0:0:0:
380,296,35820,5,0,0:0:0:0:
224,76,36120,1,0,0:0:0:0:
24,280,36412,1,0,0:0:0:0:
88,48,36705,5,0,0:0:0:0:
208,312,36998,1,0,0:0:0:0:
368,60,37290,1,0,0:0:0:0:
144,172,37583,1,0,0:0:0:0:
340,172,37855,1,0,0:0:0:0:
40,148,38121,6,0,P|24:224|52:268,1,100,0|0,0:0|0:0,0:0:0:0:
104,332,38655,2,0,P|176:348|244:328,1,100,0|0,0:0|0:0,0:0:0:0:
300,288,39170,2,0,P|328:212|312:160,1,100,0|0,0:0|0:0,0:0:0:0:
183,51,39660,5,0,0:0:0:0:
332,308,39895,1,0,0:0:0:0:
109,179,40125,1,0,0:0:0:0:
406,179,40351,1,0,0:0:0:0:
183,308,40573,1,0,0:0:0:0:
332,51,40791,5,0,0:0:0:0:
28,176,41227,1,0,0:0:0:0:
480,176,41663,1,0,0:0:0:0:
320,200,42100,6,0,P|268:148|176:148,1,150,0|0,0:0|0:0,0:0:0:0:
172,152,42545,5,0,0:0:0:0:
149,173,42641,1,0,0:0:0:0:
134,200,42738,1,0,0:0:0:0:
128,231,42835,1,0,0:0:0:0:
132,261,42932,5,0,0:0:0:0:
145,289,43028,1,0,0:0:0:0:
167,312,43125,1,0,0:0:0:0:
194,327,43222,1,0,0:0:0:0:
225,332,43319,1,0,0:0:0:0:
332,236,43512,6,0,P|344:186|329:153,1,62.5,0|0,0:0|0:0,0:0:0:0:
272,104,43899,5,0,0:0:0:0:
120,180,44093,1,0,0:0:0:0:
152,36,44286,1,0,0:0:0:0:
188,216,44480,1,0,0:0:0:0:
224,28,44674,1,0,0:0:0:0:
68,128,44868,1,0,0:0:0:0:
360,104,45061,6,0,P|390:119|421:166,1,62.5,0|0,0:0|0:0,0:0:0:0:
360,268,45448,5,0,0:0:0:0:
292,156,45641,1,0,0:0:0:0:
264,308,45835,1,0,0:0:0:0:
227,182,46028,1,0,0:0:0:0:
160,328,46222,1,0,0:0:0:0:
156,196,46415,1,0,0:0:0:0:
172,76,46609,6,0,P|206:88|245:125,1,62.5,0|0,0:0|0:0,0:0:0:0:
261,290,46996,5,0,0:0:0:0:
357,95,47190,1,0,0:0:0:0:
411,229,47383,1,0,0:0:0:0:
208,232,47577,1,0,0:0:0:0:
409,153,47770,1,0,0:0:0:0:
207,157,47964,1,0,0:0:0:0:
256,348,48351,6,0,P|288:376|364:376,1,93.75,0|0,0:0|0:0,0:0:0:0:
368,380,48738,5,0,0:0:0:0:
399,377,48834,1,0,0:0:0:0:
428,368,48931,1,0,0:0:0:0:
455,352,49028,1,0,0:0:0:0:
478,331,49125,5,0,0:0:0:0:
495,305,49221,1,0,0:0:0:0:
506,275,49318,1,0,0:0:0:0:
510,244,49415,1,0,0:0:0:0:
507,213,49512,1,0,0:0:0:0:
448,108,49706,6,0,P|396:88|364:100,1,62.5,0|0,0:0|0:0,0:0:0:0:
244,216,50093,5,0,0:0:0:0:
421,321,50286,1,0,0:0:0:0:
276,144,50480,1,0,0:0:0:0:
476,196,50673,1,0,0:0:0:0:
288,67,50867,1,0,0:0:0:0:
493,59,51061,1,0,0:0:0:0:
392,96,51254,6,0,P|396:128|384:180,1,62.5,0|0,0:0|0:0,0:0:0:0:
376,232,51641,2,0,P|367:263|335:306,1,62.5,0|0,0:0|0:0,0:0:0:0:
288,344,52028,2,0,P|256:352|204:335,1,62.5,0|0,0:0|0:0,0:0:0:0:
86,128,52415,5,0,0:0:0:0:
242,267,52609,1,0,0:0:0:0:
138,59,52803,1,0,0:0:0:0:
284,219,52996,1,0,0:0:0:0:
159,132,53190,1,0,0:0:0:0:
348,302,53383,5,0,0:0:0:0:
280,16,53770,1,0,0:0:0:0:
55,227,54157,1,0,0:0:0:0:
16,168,54544,2,0,P|40:192|56:240,1,62.5,0|0,0:0|0:0,0:0:0:0:
55,227,54835,6,0,L|51:243,2,15.625,0|0|0,0:0|0:0|0:0,0:0:0:0:
152,120,55125,2,0,L|160:64,2,31.25,0|0|0,0:0|0:0|0:0,0:0:0:0:
216,240,55512,2,0,L|209:276,2,37.5000014305115,0|0|0,0:0|0:0|0:0,0:0:0:0:
228,91,55899,5,0,0:0:0:0:
280,272,56093,1,0,0:0:0:0:
372,109,56286,1,0,0:0:0:0:
424,288,56480,1,0,0:0:0:0:
442,118,56674,5,0,0:0:0:0:
352,281,56867,1,0,0:0:0:0:
298,100,57061,1,0,0:0:0:0:
210,257,57254,1,0,0:0:0:0:
408,200,57448,6,0,L|316:188,1,75.0000028610231,0|0,0:0|0:0,0:0:0:0:
52,28,57835,5,0,0:0:0:0:
183,93,58028,1,0,0:0:0:0:
12,106,58222,1,0,0:0:0:0:
144,172,58415,1,0,0:0:0:0:
137,24,58609,1,0,0:0:0:0:
58,175,58803,1,0,0:0:0:0:
128,308,58996,6,0,L|212:280,1,75.0000028610231,0|0,0:0|0:0,0:0:0:0:
360,216,59383,1,0,0:0:0:0:
220,236,59577,5,0,0:0:0:0:
465,116,59770,1,0,0:0:0:0:
337,357,59964,1,0,0:0:0:0:
299,87,60157,1,0,0:0:0:0:
488,283,60351,1,0,0:0:0:0:
360,216,60738,6,0,P|380:276|432:332,1,112.500004291535,0|0,0:0|0:0,0:0:0:0:
448,144,61125,5,0,0:0:0:0:
280,56,61319,2,0,L|272:16,2,37.5000014305115,0|0|0,0:0|0:0|0:0,0:0:0:0:
200,160,61706,2,0,L|208:200,2,37.5000014305115,0|0|0,0:0|0:0|0:0,0:0:0:0:
92,128,62093,5,0,0:0:0:0:
160,260,62286,1,0,0:0:0:0:
60,228,62480,1,0,0:0:0:0:
192,160,62673,1,0,0:0:0:0:
128,356,62867,5,0,0:0:0:0:
260,288,63060,1,0,0:0:0:0:
128,193,63254,1,0,0:0:0:0:
196,325,63447,1,0,0:0:0:0:
268,204,63641,6,0,P|292:168|288:124,1,75.0000028610231,0|0,0:0|0:0,0:0:0:0:
248,56,64028,2,0,P|212:32|168:36,1,75.0000028610231,0|0,0:0|0:0,0:0:0:0:
92,80,64415,2,0,P|68:116|72:160,1,75.0000028610231,0|0,0:0|0:0,0:0:0:0:
265,322,64803,5,0,0:0:0:0:
246,61,64996,1,0,0:0:0:0:
373,249,65190,1,0,0:0:0:0:
138,134,65383,1,0,0:0:0:0:
360,116,65577,1,0,0:0:0:0:
147,265,65770,5,0,0:0:0:0:
384,376,66157,1,0,0:0:0:0:
128,16,66544,1,0,0:0:0:0:
224,72,66932,6,0,P|284:48|360:48,1,112.500004291535,0|0,0:0|0:0,0:0:0:0:
416,104,67319,5,0,0:0:0:0:
383,122,67411,1,0,0:0:0:0:
361,152,67504,1,0,0:0:0:0:
353,188,67596,1,0,0:0:0:0:
360,228,67689,2,0,L|368:260,8,18.7500007152558,0|0|0|0|0|0|0|0|0,0:0|0:0|0:0|0:0|0:0|0:0|0:0|0:0|0:0,0:0:0:0:
432,224,68244,6,0,P|430:269|411:298,1,75.0000028610231,0|0,0:0|0:0,0:0:0:0:
348,340,68615,5,0,0:0:0:0:
496,180,68800,1,0,0:0:0:0:
328,260,68986,1,0,0:0:0:0:
476,100,69171,1,0,0:0:0:0:
308,180,69356,1,0,0:0:0:0:
456,20,69541,1,0,0:0:0:0:
320,108,69726,6,0,P|272:116|244:144,1,75.0000028610231,0|0,0:0|0:0,0:0:0:0:
164,340,70096,5,0,0:0:0:0:
16,180,70281,1,0,0:0:0:0:
184,260,70467,1,0,0:0:0:0:
36,100,70652,1,0,0:0:0:0:
204,180,70837,1,0,0:0:0:0:
56,20,71022,1,0,0:0:0:0:
192,108,71207,6,0,P|240:116|268:144,1,75.0000028610231,0|0,0:0|0:0,0:0:0:0:
327,340,71578,5,0,0:0:0:0:
184,43,71763,1,0,0:0:0:0:
348,259,71948,1,0,0:0:0:0:
163,124,72133,1,0,0:0:0:0:
369,178,72319,1,0,0:0:0:0:
142,205,72504,1,0,0:0:0:0:
296,160,72874,6,0,P|308:212|380:256,1,112.500004291535,0|0,0:0|0:0,0:0:0:0:
432,268,73244,5,0,0:0:0:0:
414,301,73337,1,0,0:0:0:0:
384,323,73430,1,0,0:0:0:0:
348,331,73522,1,0,0:0:0:0:
308,324,73615,2,0,L|289:319,8,18.7500007152558,0|0|0|0|0|0|0|0|0,0:0|0:0|0:0|0:0|0:0|0:0|0:0|0:0|0:0,0:0:0:0:
200,288,74170,6,0,P|163:247|159:207,1,75.0000028610231,0|0,0:0|0:0,0:0:0:0:
329,61,74541,5,0,0:0:0:0:
272,208,74726,1,0,0:0:0:0:
176,80,74911,1,0,0:0:0:0:
340,148,75096,1,0,0:0:0:0:
186,166,75281,1,0,0:0:0:0:
256,28,75467,1,0,0:0:0:0:
420,148,75652,6,0,P|444:184|443:221,1,75.0000028610231,0|0,0:0|0:0,0:0:0:0:
488,268,76022,2,0,P|447:283|410:276,1,75.0000028610231,0|0,0:0|0:0,0:0:0:0:
376,224,76393,2,0,P|343:252|333:289,1,75.0000028610231,0|0,0:3|0:3,0:3:0:0:
384,356,76763,5,0,0:0:0:0:
172,291,76948,1,0,0:0:0:0:
416,288,77133,1,0,0:0:0:0:
224,204,77319,1,0,0:0:0:0:
336,292,77504,1,0,0:0:0:0:
140,216,77689,5,0,0:0:0:0:
186,0,78059,1,0,0:0:0:0:
457,227,78430,1,0,0:0:0:0:
256,192,79305,12,0,90958,0:0:0:0:
368,380,91120,5,0,0:0:0:0:
313,384,91209,1,0,0:0:0:0:
262,367,91299,1,0,0:0:0:0:
220,331,91388,1,0,0:0:0:0:
191,295,91478,2,0,L|182:269,8,25,0|0|0|0|0|0|0|0|0,0:0|0:0|0:0|0:0|0:0|0:0|0:0|0:0|0:0,0:0:0:0:
164,192,92015,6,0,P|184:136|236:104,1,100,0|0,0:0|0:0,0:0:0:0:
320,212,92373,5,0,0:0:0:0:
88,184,92552,1,0,0:0:0:0:
312,96,92731,1,0,0:0:0:0:
104,72,92911,1,0,0:0:0:0:
244,276,93090,1,0,0:0:0:0:
216,36,93269,1,0,0:0:0:0:
172,232,93448,6,0,P|196:180|176:128,1,100,0|0,0:0|0:0,0:0:0:0:
15,224,93806,5,0,0:0:0:0:
179,345,93985,1,0,0:0:0:0:
56,128,94164,1,0,0:0:0:0:
252,312,94343,1,0,0:0:0:0:
185,140,94522,1,0,0:0:0:0:
52,336,94701,1,0,0:0:0:0:
88,208,94881,6,0,P|136:226|171:291,1,100
52,336,95239,5,0,0:0:0:0:
41,79,95418,1,0,0:0:0:0:
137,345,95597,1,0,0:0:0:0:
219,100,95776,1,0,0:0:0:0:
214,381,95955,1,0,0:0:0:0:
382,195,96134,1,0,0:0:0:0:
174,222,96493,5,0,0:0:0:0:
500,248,96851,5,0,0:0:0:0:
508,193,96940,1,0,0:0:0:0:
496,141,97030,1,0,0:0:0:0:
463,96,97119,1,0,0:0:0:0:
430,64,97209,2,0,L|404:53,8,25,0|0|0|0|0|0|0|0|0,0:0|0:0|0:0|0:0|0:0|0:0|0:0|0:0|0:0,0:0:0:0:
284,32,97746,6,0,P|224:48|192:88,1,100,0|0,0:0|0:0,0:0:0:0:
168,260,98105,5,0,0:0:0:0:
360,152,98284,1,0,0:0:0:0:
99,139,98463,1,0,0:0:0:0:
392,232,98642,1,0,0:0:0:0:
240,19,98821,1,0,0:0:0:0:
242,307,99000,1,0,0:0:0:0:
172,24,99179,6,0,P|176:84|248:120,1,100,0|0,0:0|0:0,0:0:0:0:
272,132,99537,2,0,P|252:188|173:205,1,100,0|0,0:0|0:0,0:0:0:0:
160,168,99896,2,0,P|149:227|210:279,1,100,0|0,0:0|0:0,0:0:0:0:
480,279,100254,5,0,0:0:0:0:
302,60,100433,1,0,0:0:0:0:
317,342,100612,1,0,0:0:0:0:
471,105,100791,1,0,0:0:0:0:
208,207,100970,1,0,0:0:0:0:
480,279,101149,5,0,0:0:0:0:
240,16,101508,1,0,0:0:0:0:
260,384,101866,1,0,0:0:0:0:
12,176,102224,2,0,P|64:148|84:104,1,100,0|0,0:0|0:0,0:0:0:0:
84,104,102493,6,0,L|87:59,2,25,0|0|0,0:0|0:0|0:0,0:0:0:0:
152,205,102761,2,0,L|142:272,2,50,0|0|0,0:0|0:0|0:0,0:0:0:0:
260,138,103120,2,0,L|269:70,2,50,0|0|0,0:0|0:0|0:0,0:0:0:0:
421,218,103478,5,0,0:0:0:0:
260,337,103657,1,0,0:0:0:0:
280,196,103836,1,0,0:0:0:0:
399,357,104015,1,0,0:0:0:0:
354,177,104194,5,0,0:0:0:0:
326,375,104373,1,0,0:0:0:0:
240,261,104552,1,0,0:0:0:0:
437,290,104731,1,0,0:0:0:0:
336,264,104911,6,0,P|384:244|436:196,1,100,0|0,0:0|0:0,0:0:0:0:
352,48,105269,5,0,0:0:0:0:
132,24,105448,1,0,0:0:0:0:
359,121,105627,1,0,0:0:0:0:
107,93,105806,1,0,0:0:0:0:
371,195,105985,1,0,0:0:0:0:
80,164,106164,1,0,0:0:0:0:
304,116,106343,6,0,P|256:168|256:220,2,100,0|0|0,0:0|0:0|0:0,0:0:0:0:
256,57,106881,5,0,0:0:0:0:
390,191,107060,1,0,0:0:0:0:
122,191,107239,1,0,0:0:0:0:
256,325,107418,1,0,0:0:0:0:
117,53,107597,5,0,0:0:0:0:
394,53,107776,1,0,0:0:0:0:
117,328,107955,1,0,0:0:0:0:
394,328,108134,1,0,0:0:0:0:
52,124,108314,5,0,0:0:0:0:
136,176,108493,2,0,L|160:240,2,50,0|0|0,0:0|0:0|0:0,0:0:0:0:
212,104,108851,2,0,L|188:40,2,50,0|0|0,0:0|0:0|0:0,0:0:0:0:
360,328,109209,5,0,0:0:0:0:
392,140,109388,1,0,0:0:0:0:
216,240,109567,1,0,0:0:0:0:
464,188,109746,5,0,0:0:0:0:
288,288,109925,1,0,0:0:0:0:
320,100,110104,1,0,0:0:0:0:
360,328,110284,1,0,0:0:0:0:
384,56,110463,1,0,0:0:0:0:
72,92,110642,6,0,P|48:160|48:216,1,100,0|0,0:0|0:0,0:0:0:0:
56,264,111000,2,0,P|106:315|156:339,1,100,0|0,0:0|0:0,0:0:0:0:
208,316,111358,2,0,P|272:283|311:243,1,100,0|0,0:0|0:0,0:0:0:0:
180,60,111717,5,0,0:0:0:0:
331,322,111896,1,0,0:0:0:0:
105,191,112075,1,0,0:0:0:0:
406,192,112254,1,0,0:0:0:0:
180,322,112433,1,0,0:0:0:0:
331,60,112612,5,0,0:0:0:0:
40,368,112970,1,0,0:0:0:0:
472,16,113328,1,0,0:0:0:0:
436,88,113597,6,0,L|492:184,2,100,0|0|0,0:0|0:0|0:0,0:0:0:0:
396,52,114082,5,0,0:0:0:0:
339,42,114169,1,0,0:0:0:0:
295,79,114256,1,0,0:0:0:0:
304,136,114343,1,0,0:0:0:0:
355,168,114430,5,0,0:0:0:0:
400,206,114518,1,0,0:0:0:0:
403,261,114605,1,0,0:0:0:0:
356,296,114692,1,0,0:0:0:0:
298,284,114779,1,0,0:0:0:0:
272,356,114954,6,0,P|228:304|234:225,1,100,0|0,0:0|0:0,0:0:0:0:
339,42,115302,5,0,0:0:0:0:
124,208,115477,1,0,0:0:0:0:
160,24,115651,1,0,0:0:0:0:
298,284,115826,1,0,0:0:0:0:
338,120,116000,1,0,0:0:0:0:
48,192,116175,1,0,0:0:0:0:
384,176,116349,6,0,P|308:184|272:144,1,100,0|0,0:0|0:0,0:0:0:0:
173,42,116698,5,0,0:0:0:0:
352,264,116873,1,0,0:0:0:0:
312,24,117047,1,0,0:0:0:0:
100,308,117222,1,0,0:0:0:0:
384,176,117396,1,0,0:0:0:0:
72,56,117571,1,0,0:0:0:0:
100,308,117744,6,0,P|120:248|164:212,1,100,0|0,0:0|0:0,0:0:0:0:
400,328,118093,5,0,0:0:0:0:
400,40,118268,1,0,0:0:0:0:
232,365,118442,1,0,0:0:0:0:
232,2,118617,1,0,0:0:0:0:
64,328,118791,1,0,0:0:0:0:
64,40,118966,1,0,0:0:0:0:
224,232,119314,6,0,P|308:168|376:160,1,150,0|0,0:0|0:0,0:0:0:0:
408,160,119663,5,0,0:0:0:0:
462,182,119750,1,0,0:0:0:0:
499,229,119837,1,0,0:0:0:0:
506,287,119924,1,0,0:0:0:0:
483,342,120012,5,0,0:0:0:0:
437,377,120099,1,0,0:0:0:0:
377,384,120186,1,0,0:0:0:0:
323,359,120273,1,0,0:0:0:0:
289,311,120360,1,0,0:0:0:0:
368,59,120535,5,0,0:0:0:0:
132,234,120709,1,0,0:0:0:0:
394,166,120884,1,0,0:0:0:0:
105,125,121058,1,0,0:0:0:0:
229,290,121233,5,0,0:0:0:0:
270,1,121407,1,0,0:0:0:0:
337,264,121582,1,0,0:0:0:0:
162,28,121756,1,0,0:0:0:0:
128,200,121930,6,0,P|180:140|240:144,1,100,0|0,0:0|0:0,0:0:0:0:
288,152,122279,2,0,P|339:212|325:271,1,100,0|0,0:0|0:0,0:0:0:0:
328,324,122628,2,0,P|262:368|205:349,1,100,0|0,0:0|0:0,0:0:0:0:
86,84,122977,5,0,0:0:0:0:
435,190,123151,1,0,0:0:0:0:
91,308,123326,1,0,0:0:0:0:
299,10,123500,1,0,0:0:0:0:
306,374,123675,1,0,0:0:0:0:
86,84,123849,5,0,0:0:0:0:
511,189,124198,1,0,0:0:0:0:
21,358,124547,1,0,0:0:0:0:
468,228,124895,6,0,P|496:152|468:80,1,150,0|0,0:0|0:0,0:0:0:0:
448,40,125244,5,0,0:0:0:0:
389,22,125325,1,0,0:0:0:0:
333,44,125407,1,0,0:0:0:0:
319,99,125488,1,0,0:0:0:0:
347,152,125570,5,0,0:0:0:0:
372,207,125651,1,0,0:0:0:0:
356,263,125733,1,0,0:0:0:0:
300,283,125814,1,0,0:0:0:0:
247,257,125896,1,0,0:0:0:0:
272,24,126059,5,0,0:0:0:0:
388,332,126222,1,0,0:0:0:0:
272,24,126385,1,0,0:0:0:0:
268,360,126548,1,0,0:0:0:0:
272,24,126711,5,0,0:0:0:0:
156,328,126874,1,0,0:0:0:0:
272,24,127037,1,0,0:0:0:0:
80,240,127200,1,0,0:0:0:0:
319,109,127363,6,0,P|352:72|352:24,2,100,0|0|0,0:0|0:0|0:0,0:0:0:0:
98,124,127852,5,0,0:0:0:0:
339,340,128013,1,0,0:0:0:0:
272,24,128174,1,0,0:0:0:0:
140,320,128335,1,0,0:0:0:0:
420,157,128497,1,0,0:0:0:0:
72,248,128658,6,0,P|36:296|36:356,2,100,0|0|0,0:0|0:0|0:0,0:0:0:0:
414,124,129142,5,0,0:0:0:0:
173,340,129301,1,0,0:0:0:0:
240,24,129461,1,0,0:0:0:0:
372,320,129620,1,0,0:0:0:0:
228,260,129780,6,0,B|214:214|166:183|166:183|244:172|298:79|226:-32|117:-7|84:36,1,437.5,0|0,0:0|0:0,0:0:0:0:
48,72,130418,5,0,0:0:0:0:
16,127,130493,1,0,0:0:0:0:
6,192,130568,1,0,0:0:0:0:
18,256,130643,1,0,0:0:0:0:
50,312,130718,5,0,0:0:0:0:
98,355,130793,1,0,0:0:0:0:
158,379,130868,1,0,0:0:0:0:
223,382,130943,1,0,0:0:0:0:
284,364,131018,1,0,0:0:0:0:
432,111,131168,5,0,0:0:0:0:
112,197,131318,1,0,0:0:0:0:
412,230,131468,1,0,0:0:0:0:
128,72,131618,1,0,0:0:0:0:
306,315,131768,5,0,0:0:0:0:
227,3,131918,1,0,0:0:0:0:
130,253,132068,1,0,0:0:0:0:
400,56,132218,1,0,0:0:0:0:
109,123,132368,5,0,0:0:0:0:
434,186,132518,1,0,0:0:0:0:
178,18,132668,1,0,0:0:0:0:
306,315,132818,1,0,0:0:0:0:
232,92,132968,6,0,P|240:144|200:192,1,100
95,123,133268,5,0,0:0:0:0:
419,123,133418,1,0,0:0:0:0:
168,332,133568,1,0,0:0:0:0:
256,15,133718,1,0,0:0:0:0:
345,332,133868,1,0,0:0:0:0:
47,357,134018,5,0,0:0:0:0:
255,0,134318,1,0,0:0:0:0:
465,357,134618,1,0,0:0:0:0:
120,132,134955,6,0,P|148:132|176:144,2,50,0|0|0,0:0|0:0|0:0,0:0:0:0:
48,84,135356,6,0,P|40:156|96:212,1,150,0|0,0:0|0:0,0:0:0:0:
317,215,135642,5,0,0:0:0:0:
84,24,135785,1,0,0:0:0:0:
67,325,135928,1,0,0:0:0:0:
276,108,136071,1,0,0:0:0:0:
0,176,136214,1,0,0:0:0:0:
288,288,136356,5,0,0:0:0:0:
164,24,136641,5,0,0:0:0:0:
164,384,136928,6,0,B|164:20|164:20|284:20|384:32|352:88|388:184|312:192|189:192|189:192|312:192|408:200|384:304|416:384|284:384|164:384,1,1296.00003164063,0|0,0:0|0:0,0:0:0:0:
