osu file format v14

[General]
AudioFilename: audio.mp3
AudioLeadIn: 0
PreviewTime: 236576
Countdown: 0
SampleSet: None
StackLeniency: 0.4
Mode: 0
LetterboxInBreaks: 0
WidescreenStoryboard: 1

[Editor]
Bookmarks: 44592,59361,74130,111053,125808,140577,168731,177500,177576,177807,177884,177961,178115,178192,178346,178500,178653,178807,178961,179115,179269,179500,179653,179884,180038,180192,180423,180576,180730,180961,181115,181346,181500,181730,181884,182115,182269,182500,182653,182884,183038,183269,183423,183653,183807,183961,184192,184346,184500,184653,184730,184884,184961,185192,185346,185576,185730,185961,186192,186346,186500,186576,186653,186730,186884,186961,187038,187115,187269,187346,187423,187576,187653,187730,187807,187961,188038,188192,188269,188423,188653,188884,189038,189115,189192,189423,189576,189653,189730,189807,189884,190038,190115,190269,190346,190423,190576,190653,190807,190884,190961,191115,191346,191576,191807,191961,192115,192269,207038,219038,221807,236576,251346,255038,258730
DistanceSpacing: 2.9
BeatDivisor: 6
GridSize: 16
TimelineZoom: 2.2

[Metadata]
Title:Yami ni Furu Ame
TitleUnicode:闇に降る雨
Artist:Sheena Ringo
ArtistUnicode:椎名林檎
Creator:Beren
Version:ScubDomino's Insane
Source:
Tags:[Keqing] Natsume Shiki ScubDomino anime girl Necho cqmasai Reincarnation 東京事変 勝訴ストリップ MoRA Tokyo Incidents Jihen Shoso sutorippu japanese pop rock
BeatmapID:3384601
BeatmapSetID:1649315

[Difficulty]
HPDrainRate:5
CircleSize:4
OverallDifficulty:8
ApproachRate:9
SliderMultiplier:2.3
SliderTickRate:1

[Events]
//Background and Video events
0,0,"IMG_5037.jpg",0,0
//Break Periods
2,177700,191669
//Storyboard Layer 0 (Background)
//Storyboard Layer 1 (Fail)
//Storyboard Layer 2 (Pass)
//Storyboard Layer 3 (Foreground)
//Storyboard Layer 4 (Overlay)
//Storyboard Sound Samples

[TimingPoints]
44592,461.538461538462,4,2,1,50,1,0
46284,-100,4,2,1,5,0,0
46438,-100,4,2,1,50,0,0
49976,-100,4,2,1,5,0,0
50130,-100,4,2,1,50,0,0
53668,-100,4,2,1,5,0,0
53822,-100,4,2,1,50,0,0
58284,-100,4,2,1,5,0,0
58438,-100,4,2,1,60,0,0
60284,-125,4,2,1,60,0,0
62130,-100,4,2,1,60,0,0
62592,-125,4,2,1,60,0,0
72745,-83.3333333333333,4,2,1,60,0,0
74592,-71.4285714285714,4,2,1,60,0,0
75822,-71.4285714285714,4,2,1,60,0,0
76438,-71.4285714285714,4,2,1,60,0,0
80515,-83.3333333333333,4,2,1,60,0,0
81976,-71.4285714285714,4,2,1,60,0,0
87053,-62.5,4,2,1,70,0,0
88899,-83.3333333333333,4,2,1,70,0,0
89361,-133.333333333333,4,2,1,70,0,0
89822,-71.4285714285714,4,2,1,70,0,0
90745,-83.3333333333333,4,2,1,70,0,0
91668,-50,4,2,1,70,0,0
93976,-83.3333333333333,4,2,1,70,0,0
95361,-71.4285714285714,4,2,1,70,0,0
97207,-83.3333333333333,4,2,1,70,0,0
98130,-83.3333333333333,4,2,1,70,0,0
98592,-83.3333333333333,4,2,1,70,0,0
102745,-62.5,4,2,1,70,0,0
103668,-83.3333333333333,4,2,1,70,0,0
106899,-62.5,4,2,1,70,0,0
107361,-222.222222222222,4,2,1,70,0,0
108130,-222.222222222222,4,2,1,5,0,0
108284,-285.714285714286,4,2,1,60,0,0
109054,-285.714285714286,4,2,1,5,0,0
109207,-222.222222222222,4,2,1,50,0,0
109976,-222.222222222222,4,2,1,5,0,0
110130,-222.222222222222,4,2,1,60,0,0
111053,-83.3333333333333,4,2,1,60,0,0
117976,-71.4285714285714,4,2,1,60,0,0
118438,-83.3333333333333,4,2,1,60,0,0
123976,458.015267175573,4,2,1,60,1,0
123976,-83.3333333333333,4,2,1,60,0,0
125808,461.538461538462,4,2,1,50,1,0
138731,-71.4285714285714,4,2,1,50,0,0
139192,-90.9090909090909,4,2,1,50,0,0
139654,-90.9090909090909,4,2,1,60,0,0
140115,-222.222222222222,4,2,1,60,0,0
140577,-71.4285714285714,4,2,1,60,0,0
141038,-83.3333333333333,4,2,1,60,0,0
144577,-71.4285714285714,4,2,1,60,0,0
148884,-83.3333333333333,4,2,1,60,0,0
149346,-71.4285714285714,4,2,1,60,0,0
153500,-71.4285714285714,4,2,1,70,0,0
155346,454.545454545455,4,2,1,70,1,0
155346,-71.4285714285714,4,2,1,70,0,0
155800,-133.333333333333,4,2,1,70,0,0
156255,-71.4285714285714,4,2,1,70,0,0
157164,468.75,4,2,1,70,1,0
157164,-100,4,2,1,70,0,0
159039,461.538461538462,4,2,1,70,1,0
162269,-83.3333333333333,4,2,1,70,0,0
169192,-62.5,4,2,1,70,0,0
170115,-83.3333333333333,4,2,1,70,0,0
173346,-83.3333333333333,4,2,1,70,0,1
173808,458.015267175573,4,2,1,70,1,0
173808,-222.222222222222,4,2,1,70,0,0
174571,-222.222222222222,4,2,1,5,0,0
174724,-285.714285714286,4,2,1,60,0,0
175487,-285.714285714286,4,2,1,5,0,0
175640,465.116279069767,4,2,1,50,1,0
175640,-222.222222222222,4,2,1,50,0,0
176415,-222.222222222222,4,2,1,5,0,0
176570,-222.222222222222,4,2,1,60,0,0
177500,461.538461538462,4,2,1,30,1,0
192269,-100,4,2,1,50,0,0
193653,-142.857142857143,4,2,1,50,0,0
194115,-100,4,2,1,50,0,0
195500,-142.857142857143,4,2,1,50,0,0
195961,-100,4,2,1,50,0,0
196884,-83.3333333333333,4,2,1,50,0,0
199653,-90.9090909090909,4,2,1,50,0,0
200576,-100,4,2,1,50,0,0
201038,-142.857142857143,4,2,1,50,0,0
201500,-90.9090909090909,4,2,1,50,0,0
203346,-100,4,2,1,50,0,0
206115,-100,4,2,1,60,0,0
212576,-83.3333333333333,4,2,1,60,0,0
216269,-100,4,2,1,60,0,0
218115,-100,4,2,1,60,0,1
219346,-76.9230769230769,4,2,1,60,0,1
219961,-76.9230769230769,4,2,1,60,0,1
221807,-76.9230769230769,4,2,1,70,0,0
222269,-100,4,2,1,70,0,0
225038,-83.3333333333333,4,2,1,70,0,0
228269,-100,4,2,1,70,0,0
231961,-66.6666666666667,4,2,1,70,0,0
232884,-83.3333333333333,4,2,1,70,0,0
233346,-100,4,2,1,70,0,0
235653,-76.9230769230769,4,2,1,70,0,0
237038,-181.818181818181,4,2,1,70,0,0
237500,-76.9230769230769,4,2,1,70,0,0
237961,-153.846153846153,4,2,1,70,0,0
238885,-181.818181818181,4,2,1,70,0,0
239807,-76.9230769230769,4,2,1,70,0,0
240269,-100,4,2,1,70,0,0
246730,-66.6666666666667,4,2,1,70,0,0
249961,-100,4,2,1,70,0,0
251346,-200,4,2,1,70,0,0
252115,-200,4,2,1,5,0,0
252269,-200,4,2,1,60,0,0
253038,-200,4,2,1,5,0,0
253192,-200,4,2,1,50,0,0
253961,-200,4,2,1,5,0,0
254115,-200,4,2,1,60,0,0
255038,-200,4,2,1,70,0,0
255807,-200,4,2,1,5,0,0
255961,-200,4,2,1,60,0,0
256730,-200,4,2,1,5,0,0
256884,-200,4,2,1,50,0,0
257653,-200,4,2,1,5,0,0
257807,-200,4,2,1,50,0,0

[Colours]
Combo1 : 173,146,184
Combo2 : 139,158,175

[HitObjects]
501,59,44592,5,2,1:2:0:0:
502,59,45053,1,2,2:0:0:0:
502,59,45515,1,2,2:0:0:0:
502,59,45976,2,2,B|473:75|426:29|442:21|389:-33|317:10,1,191.666666666667,2|0,1:2|0:0,0:0:0:0:
276,53,46438,5,2,1:2:0:0:
276,53,46899,1,2,2:0:0:0:
276,53,47361,1,2,2:0:0:0:
276,53,47822,1,2,2:0:0:0:
358,194,48284,5,2,1:2:0:0:
358,194,48745,1,2,2:0:0:0:
358,194,49207,1,2,2:0:0:0:
358,194,49668,2,2,B|395:158|458:223|418:286|369:313,1,191.666666666667,2|0,1:2|0:0,0:0:0:0:
296,329,50130,5,2,1:2:0:0:
296,329,50592,1,2,2:0:0:0:
191,384,51053,5,8,1:0:0:0:
142,328,51207,1,0,1:0:0:0:
70,345,51361,1,0,1:0:0:0:
21,289,51515,1,8,1:1:0:0:
93,272,51669,1,8,0:0:0:0:
142,328,51823,1,10,1:2:0:0:
214,311,51976,5,2,1:2:0:0:
214,311,52438,1,2,2:0:0:0:
214,311,52899,2,0,L|267:303,1,38.3333333333333,2|0,1:0|0:0,0:0:0:0:
214,311,53361,2,0,B|226:280|207:244|207:244|247:218|263:167|229:111,1,191.666666666667,2|0,2:0|0:0,0:0:0:0:
189,79,53822,5,2,1:2:0:0:
189,79,54284,1,2,2:0:0:0:
189,79,54745,2,2,B|95:6|-1:76|32:152,1,230,2|2,1:0|2:0,0:0:0:0:
281,214,55515,1,2,2:0:0:0:
358,191,55668,5,2,1:2:0:0:
358,191,56130,1,2,2:0:0:0:
358,191,56592,1,2,2:0:0:0:
358,191,57053,1,2,2:0:0:0:
422,148,57361,2,0,L|408:95,1,38.3333333333333,0|0,1:0|0:0,0:0:0:0:
455,42,57515,6,2,P|487:54|487:198,1,191.666666666667,2|0,1:0|0:0,0:0:0:0:
432,227,57976,2,0,P|400:239|400:383,1,191.666666666667,2|0,0:0|0:0,0:0:0:0:
327,320,58438,6,0,P|294:306|244:315,1,76.6666666666667,2|0,1:3|1:0,0:0:0:0:
197,365,58745,5,8,1:0:0:0:
128,264,58899,1,10,1:3:0:0:
144,192,59053,1,8,1:0:0:0:
160,120,59207,1,8,1:0:0:0:
91,19,59361,1,4,1:0:0:0:
22,56,59822,5,0,1:0:0:0:
39,133,60130,1,0,0:0:0:0:
144,192,60284,6,0,P|223:192|319:263,1,184,8|8,1:0|1:0,0:0:0:0:
429,382,61053,2,0,L|471:373,1,30.6666666666667,8|0,1:0|0:0,0:0:0:0:
512,322,61207,5,0,1:0:0:0:
485,249,61668,5,2,1:2:0:0:
457,178,61976,1,0,0:0:0:0:
512,50,62130,6,0,B|476:84|476:84|417:114|357:72,1,153.333333333333,8|0,1:0|1:0,0:0:0:0:
367,76,62592,2,0,P|330:104|234:94,1,122.666666666667,8|0,1:0|0:0,0:0:0:0:
171,5,63053,1,12,1:0:0:0:
101,27,63515,5,0,1:0:0:0:
31,51,63822,1,0,0:0:0:0:
0,186,63976,5,8,1:0:0:0:
0,186,64438,1,8,1:0:0:0:
47,247,64592,1,0,1:0:0:0:
121,246,64745,1,8,1:0:0:0:
170,189,64899,5,8,1:0:0:0:
324,233,65361,1,0,1:2:0:0:
490,270,65822,6,0,B|483:238|483:238|477:229|477:229|475:200|475:200|459:129,1,122.666666666667,8|0,1:0|1:0,0:0:0:0:
453,21,66284,2,0,B|463:69|463:69|465:98|465:98|471:107|471:107|478:139,1,122.666666666667,8|10,1:0|1:2,1:0:0:0:
413,270,66745,1,4,1:0:0:0:
346,304,67207,5,0,1:0:0:0:
280,339,67515,1,0,0:0:0:0:
126,284,67668,1,8,1:0:0:0:
126,284,68130,6,0,P|106:228|143:157,1,122.666666666667,8|8,1:0|1:0,0:0:0:0:
114,92,68592,5,8,1:0:0:0:
211,128,69053,1,2,1:2:0:0:
311,162,69515,6,0,B|356:151|378:102|359:59|359:59|429:98|429:98|437:152,1,245.333333333333,8|0,1:0|2:0,0:0:0:0:
484,228,70284,2,0,L|478:272,1,30.6666666666667
512,330,70438,5,12,1:0:0:0:
354,282,70899,1,0,1:0:0:0:
201,238,71361,1,8,1:0:0:0:
201,238,71822,5,8,1:0:0:0:
168,302,71976,1,0,1:0:0:0:
97,316,72130,1,8,1:0:0:0:
48,262,72284,5,8,1:0:0:0:
48,262,72745,2,0,B|13:222|8:167|40:126|40:126|96:150,1,183.999994384766,2|0,1:2|0:0,0:0:0:0:
261,143,73207,2,0,B|243:193|198:225|147:217|147:217|140:157,1,183.999994384766,8|0,1:0|1:0,0:0:0:0:
94,40,73668,5,8,1:0:0:0:
144,102,73822,1,0,1:0:0:0:
142,182,73976,1,10,1:2:0:0:
86,238,74130,1,4,1:0:0:0:
263,0,74592,6,0,B|262:40|230:61|230:61|298:114|265:213,1,214.66666011556,0|0,1:0|0:0,0:0:0:0:
187,354,75053,2,0,P|88:326|125:244,1,214.66666011556,8|0,1:0|0:0,0:0:0:0:
201,224,75515,2,0,B|245:195|245:195|193:210,1,107.33333005778,8|0,1:0|1:0,0:0:0:0:
357,160,75822,6,0,B|287:167|176:131|146:56|146:56|207:44|256:85,1,321.99999017334,8|0,1:0|0:0,0:0:0:0:
428,115,76438,6,0,P|439:174|407:233,1,107.33333005778,2|0,1:2|0:0,0:0:0:0:
198,309,76745,2,0,P|180:259|191:207,1,107.33333005778,0|8,1:0|1:0,0:0:0:0:
354,254,77053,2,0,B|337:312|399:384|399:384|363:371|346:337,1,214.66666011556,2|8,0:0|1:0,0:0:0:0:
110,315,77668,5,0,1:0:0:0:
106,329,77745,1,0,1:0:0:0:
103,342,77822,2,0,P|1:340|59:240,1,214.66666011556,4|0,1:0|1:0,0:0:0:0:
162,138,78284,2,0,P|99:59|6:96,1,214.66666011556,0|0,1:0|0:0,0:0:0:0:
5,176,78745,6,0,B|8:194|38:212|38:212|57:181|52:158,1,107.33333005778,8|0,1:0|2:0,0:0:0:0:
116,17,79053,1,0,1:0:0:0:
242,96,79207,2,0,P|280:102|354:57,1,107.33333005778,8|0,1:0|2:0,0:0:0:0:
407,222,79515,1,8,1:0:0:0:
399,367,79668,6,0,B|378:275|448:212|448:212|415:210|392:234,1,214.66666011556,8|0,1:0|1:0,0:0:0:0:
254,363,80130,2,0,B|181:335|185:253|185:253|134:279|95:258,1,214.66666011556,2|0,1:2|1:0,0:0:0:0:
107,255,80515,1,0,1:0:0:0:
101,246,80592,5,8,1:0:0:0:
101,246,81053,1,8,1:0:0:0:
186,167,81207,1,0,1:0:0:0:
307,192,81361,1,10,1:2:0:0:
353,301,81515,6,0,B|399:314|431:348|431:348|412:297|371:279,1,183.999994384766,12|0,1:0|0:0,0:0:0:0:
373,279,81976,6,0,P|358:170|446:79,1,214.66666011556,0|0,1:0|0:0,0:0:0:0:
164,58,82438,2,0,P|268:69|349:4,1,214.66666011556,8|0,1:0|0:0,0:0:0:0:
320,196,82899,2,0,P|277:164|224:158,1,107.33333005778,8|0,1:0|1:0,1:0:0:0:
223,235,83207,6,0,P|260:363|131:331,1,321.99999017334,8|0,1:0|0:0,0:0:0:0:
43,110,83822,2,0,P|76:147|70:230,1,107.33333005778,2|0,1:2|1:0,1:0:0:0:
25,308,84130,6,0,B|27:236|109:192|175:233|175:233|188:277|164:323|130:330,1,321.99999017334,0|0,1:0|0:0,0:0:0:0:
350,322,84745,2,0,P|308:289|255:281,1,107.33333005778,8|0,1:0|0:0,0:0:0:0:
253,379,85053,1,0,1:0:0:0:
249,204,85207,6,0,P|256:125|245:69,1,107.33333005778,12|0,1:0|2:0,0:0:0:0:
253,98,85515,2,0,B|389:66|325:148|483:115,1,214.66666011556,0|0,1:0|0:0,0:0:0:0:
512,183,85976,1,0,1:0:0:0:
483,311,86130,6,0,P|429:354|309:196,1,321.99999017334,8|8,1:0|1:0,0:0:0:0:
199,282,86745,2,0,P|135:277|69:358,1,160.99999508667,0|0,1:0|0:0,0:0:0:0:
160,362,87053,6,0,B|142:320|156:270|156:270|124:248|128:203|128:203|139:167|125:104,1,245.333333333333,12|0,1:0|1:0,0:0:0:0:
259,231,87515,2,0,B|282:188|267:157|267:157|242:113|260:71|260:71|285:32|257:-20,1,245.333333333333,10|0,1:2|1:0,0:0:0:0:
410,40,87976,5,4,1:0:0:0:
372,187,88130,1,0,2:0:0:0:
425,124,88284,1,0,1:0:0:0:
491,336,88438,5,10,1:2:0:0:
450,202,88592,1,0,1:0:0:0:
357,304,88746,1,8,1:0:0:0:
433,280,88899,6,0,B|328:267|355:323|257:315,1,183.999994384766,12|0,1:0|1:0,0:0:0:0:
493,207,89361,6,0,B|496:218|496:218|514:224|514:224|525:196|505:180|505:180|474:166|446:207,1,143.750005483628,10|0,1:2|0:0,0:0:0:0:
272,234,89822,6,0,B|141:250|190:162|51:190,1,214.66666011556,4|0,1:0|1:0,0:0:0:0:
0,248,90284,5,10,1:2:0:0:
175,308,90438,1,0,1:0:0:0:
254,137,90592,1,8,1:0:0:0:
327,170,90745,6,0,P|397:126|507:137,1,183.999994384766,12|0,1:0|2:0,0:0:0:0:
471,313,91207,6,0,L|482:358,1,45.9999985961914,6|0,1:2|0:0,0:0:0:0:
398,349,91361,1,0,1:0:0:0:
325,379,91515,1,0,1:0:0:0:
391,228,91668,6,0,B|428:239|428:239|454:219|454:219|407:221,2,76.6666666666667,0|0|0,1:0|0:0|1:0,0:0:0:0:
135,344,91976,6,0,B|132:349|132:349|128:317|128:317|157:290,2,76.6666666666667,8|0|10,1:0|0:0|1:2,0:0:0:0:
183,10,92284,6,0,B|181:6|181:6|210:18|210:18|219:57,2,76.6666666666667,0|0|8,1:0|0:0|1:0,0:0:0:0:
0,133,92592,5,12,1:0:0:0:
52,189,92899,1,0,1:0:0:0:
222,210,93053,5,2,1:2:0:0:
291,176,93361,1,0,0:0:0:0:
460,195,93515,5,10,1:0:0:0:
512,251,93822,1,8,1:0:0:0:
439,380,93976,6,0,B|405:379|405:379|336:317,1,91.9999971923829,10|0,1:2|2:0,0:0:0:0:
299,293,94284,1,8,1:0:0:0:
190,384,94438,5,12,1:0:0:0:
165,307,94745,1,0,1:0:0:0:
244,232,94900,5,8,1:0:0:0:
269,155,95207,1,0,0:0:0:0:
410,135,95361,6,0,P|422:71|411:-4,1,107.33333005778,10|0,1:0|2:0,0:0:0:0:
284,0,95668,1,0,1:0:0:0:
199,75,95822,6,0,P|187:139|198:214,1,107.33333005778,10|0,1:2|2:0,0:0:0:0:
325,211,96129,1,10,1:2:0:0:
496,131,96284,5,4,1:0:0:0:
496,131,96745,5,2,1:2:0:0:
400,275,97053,1,0,1:0:0:0:
457,220,97207,6,0,L|357:264,1,91.9999971923829,10|0,1:0|2:0,0:0:0:0:
230,326,97515,1,0,1:0:0:0:
315,318,97669,6,0,L|215:362,1,91.9999971923829,10|0,1:2|1:0,0:0:0:0:
15,257,97976,2,0,P|12:280|14:303,1,45.9999985961914,8|0,1:0|0:0,0:0:0:0:
53,183,98130,6,0,P|73:127|19:17,1,183.999994384766,8|0,1:0|0:0,0:0:0:0:
98,259,98592,2,0,P|183:218|256:235,1,137.999995788574,8|0,1:0|0:0,0:0:0:0:
282,269,98899,2,0,L|357:274,1,45.9999985961914,0|0,1:0|0:0,0:0:0:0:
454,292,99053,5,10,1:0:0:0:
476,382,99207,2,0,L|450:275,1,91.9999971923829,0|0,0:0|2:0,0:0:0:0:
376,204,99515,5,10,1:0:0:0:
450,90,99668,1,8,1:0:0:0:
330,24,99822,1,8,1:0:0:0:
251,134,99976,6,0,P|192:128|167:7,1,183.999994384766,12|0,1:0|1:0,0:0:0:0:
325,150,100438,2,0,B|357:178|357:178|330:264|402:308,1,183.999994384766,2|0,1:2|0:0,0:0:0:0:
493,142,100899,5,10,1:0:0:0:
451,58,101053,1,8,1:0:0:0:
512,2,101207,1,8,1:0:0:0:
452,71,101361,6,0,B|442:119|442:119|466:217|466:217|454:274,1,183.999994384766,10|8,1:2|1:0,0:0:0:0:
448,334,101745,1,0,1:0:0:0:
448,334,101822,6,0,P|397:376|283:310,1,183.999994384766,8|0,1:0|1:0,0:0:0:0:
171,183,102284,2,0,P|248:223|294:202,1,137.999995788574,8|0,1:0|0:0,0:0:0:0:
294,199,102592,1,0,1:0:0:0:
232,339,102745,6,0,B|285:278|369:291|369:291|354:150|225:136,1,368,10|10,1:0|1:2,0:0:0:0:
29,312,103515,1,0,1:0:0:0:
78,368,103668,6,0,P|56:312|137:351,1,183.999994384766,12|0,1:0|0:0,0:0:0:0:
92,180,104130,2,0,P|126:159|118:195,1,91.9999971923829,2|0,1:2|2:0,0:0:0:0:
76,250,104438,1,0,1:0:0:0:
278,225,104592,6,0,P|232:268|139:252,1,137.999995788574,10|0,1:0|0:0,0:0:0:0:
153,263,104899,1,0,1:0:0:0:
277,142,105053,2,0,P|323:99|416:115,1,137.999995788574,10|0,1:2|0:0,0:0:0:0:
402,104,105360,1,8,1:0:0:0:
501,258,105515,6,0,P|488:307|476:381,1,91.9999971923829,8|0,1:0|0:0,0:0:0:0:
463,189,105822,1,0,0:0:0:0:
406,300,105976,6,0,P|435:341|484:398,1,91.9999971923829,8|0,1:0|0:0,0:0:0:0:
328,283,106283,1,0,0:0:0:0:
335,175,106437,5,10,1:0:0:0:
291,79,106591,1,0,1:0:0:0:
201,19,106745,1,0,1:0:0:0:
91,14,106899,6,0,B|29:44|43:133|110:150|110:150|84:176|89:211,1,245.333333333333,10|8,1:0|1:0,0:0:0:0:
145,269,107361,6,0,P|69:291|7:216,1,172.499994735718,4|0,1:0|0:0,0:0:0:0:
145,269,108284,6,0,P|210:256|257:297,1,134.166662572225,2|0,1:2|0:0,0:0:0:0:
393,336,109207,6,0,P|317:358|255:283,1,172.499994735718,0|0,1:0|0:0,0:0:0:0:
0,189,110130,5,8,1:0:0:0:
89,169,110284,1,0,1:0:0:0:
158,60,110438,5,8,1:0:0:0:
178,149,110592,1,0,1:0:0:0:
287,218,110745,5,8,1:0:0:0:
198,238,110899,1,0,1:0:0:0:
129,347,111053,6,0,P|230:337|326:411,1,183.999994384766,4|0,1:0|0:0,0:0:0:0:
376,346,111515,6,0,P|382:316|379:277,1,45.9999985961914,0|0,1:0|0:0,0:0:0:0:
451,265,111976,2,0,P|434:239|404:214,1,45.9999985961914,10|0,1:0|0:0,0:0:0:0:
446,154,112438,2,0,P|416:148|377:151,1,45.9999985961914,8|0,1:0|0:0,0:0:0:0:
512,73,112745,1,8,1:0:0:0:
511,194,112899,6,0,P|448:131|438:41,1,183.999994384766,4|0,1:0|0:0,0:0:0:0:
352,1,113361,6,0,L|365:78,1,45.9999985961914,2|0,1:2|0:0,0:0:0:0:
302,199,113822,2,0,P|227:148|138:160,1,183.999994384766,10|0,1:0|0:0,0:0:0:0:
14,194,114284,2,0,P|103:181|177:232,1,183.999994384766,0|0,1:0|0:0,0:0:0:0:
219,307,114668,1,0,1:0:0:0:
219,307,114745,6,0,L|236:381,1,45.9999985961914,12|0,1:0|0:0,0:0:0:0:
393,160,115207,6,0,P|388:182|378:203,1,45.9999985961914,0|0,1:0|0:0,0:0:0:0:
298,114,115668,2,0,P|311:133|318:155,1,45.9999985961914,8|0,1:0|0:0,0:0:0:0:
198,147,116130,2,0,P|220:152|241:163,1,45.9999985961914,8|0,1:0|0:0,0:0:0:0:
293,232,116284,1,0,1:0:0:0:
377,203,116438,1,8,1:0:0:0:
353,324,116592,6,0,L|362:279,1,45.9999985961914,8|0,1:0|0:0,0:0:0:0:
397,95,117053,2,0,L|352:87,1,45.9999985961914,2|0,1:2|0:0,0:0:0:0:
168,134,117361,1,0,0:0:0:0:
154,217,117515,5,8,1:0:0:0:
183,44,117668,2,0,L|168:135,1,91.9999971923829,0|0,0:0|1:0,0:0:0:0:
31,259,117976,5,8,1:0:0:0:
153,227,118130,1,0,1:0:0:0:
255,304,118284,1,10,1:2:0:0:
377,272,118438,2,0,B|397:203|346:141|346:141|391:150|405:194,1,183.999994384766,12|0,1:0|0:0,0:0:0:0:
369,351,118899,6,0,P|346:345|326:335,1,45.9999985961914,0|0,1:0|0:0,0:0:0:0:
269,383,119361,2,0,P|256:364|249:342,1,45.9999985961914,10|0,1:0|0:0,0:0:0:0:
174,338,119822,2,0,P|179:315|189:294,1,45.9999985961914,8|0,1:0|0:0,1:0:0:0:
27,233,120130,5,8,1:0:0:0:
9,142,120284,2,0,L|29:247,1,91.9999971923829,8|0,1:0|0:0,0:0:0:0:
66,92,120592,5,0,0:0:0:0:
49,2,120746,2,0,L|69:107,1,91.9999971923829,2|0,1:2|0:0,0:0:0:0:
66,92,121207,6,0,B|120:75|181:99|202:157|202:157|261:176|261:176|314:159,1,275.999991577149,10|8,1:0|1:0,0:0:0:0:
376,137,121822,1,0,0:0:0:0:
432,187,121976,2,0,L|494:201,1,45.9999985961914,0|0,1:0|1:0,0:0:0:0:
387,60,122130,5,12,1:0:0:0:
261,272,122592,2,0,B|308:249|362:289|367:338|367:338|347:357|343:379,1,183.999994384766,2|0,1:0|0:0,0:0:0:0:
251,112,123053,2,0,B|203:134|149:94|144:45|144:45|164:26|168:4,1,183.999994384766,10|0,1:0|0:0,0:0:0:0:
246,32,123515,5,8,1:0:0:0:
251,112,123668,1,0,1:0:0:0:
256,192,123822,1,8,1:0:0:0:
261,272,123976,6,0,B|308:249|362:289|367:338|367:338|347:357|343:379,1,183.999994384766,10|0,1:0|0:0,0:0:0:0:
184,156,124434,2,0,B|179:208|118:235|73:215|73:215|67:188|49:174,1,183.999994384766,2|0,1:0|0:0,0:0:0:0:
322,147,124892,2,0,B|279:117|286:51|326:22|326:22|353:29|374:22,1,183.999994384766,8|0,1:0|1:0,0:0:0:0:
426,82,125350,5,8,1:0:0:0:
428,250,125502,1,0,1:0:0:0:
347,225,125655,1,10,1:2:0:0:
408,167,125808,6,0,L|468:161,1,38.3333333333333,6|0,1:2|0:0,0:0:0:0:
408,167,126269,6,0,L|468:161,1,38.3333333333333,2|0,2:0|0:0,0:0:0:0:
408,167,126731,6,0,L|468:161,1,38.3333333333333,2|0,2:0|0:0,0:0:0:0:
408,167,127192,6,0,P|479:184|497:269,1,153.333333333333,10|2,1:2|2:0,0:0:0:0:
338,354,127654,6,0,L|278:348,1,38.3333333333333,10|0,1:2|0:0,0:0:0:0:
338,354,128115,6,0,L|278:348,1,38.3333333333333,2|0,2:2|0:0,0:0:0:0:
338,354,128577,6,0,L|278:348,1,38.3333333333333,2|0,2:0|0:0,0:0:0:0:
338,354,129038,6,0,L|278:348,1,38.3333333333333,2|0,2:0|0:0,0:0:0:0:
174,231,129500,6,0,L|177:192,1,38.3333333333333,10|0,1:2|0:0,0:0:0:0:
174,231,129961,6,0,L|177:192,1,38.3333333333333,2|0,2:0|0:0,0:0:0:0:
174,231,130423,6,0,L|177:192,1,38.3333333333333,2|0,2:0|0:0,0:0:0:0:
174,231,130884,6,0,B|174:132|134:172|139:54,1,153.333333333333,10|2,1:2|2:0,0:0:0:0:
232,9,131346,6,0,L|281:-3,1,38.3333333333333,10|0,1:2|0:0,0:0:0:0:
232,9,131808,6,0,L|281:-3,1,38.3333333333333,2|0,0:2|0:0,0:0:0:0:
24,87,132269,6,0,L|61:96,1,38.3333333333333,8|0,1:0|0:0,0:0:0:0:
86,171,132423,1,0,0:0:0:0:
138,110,132577,1,0,1:0:0:0:
56,88,132731,6,2,L|18:78,1,38.3333333333333,2|0,1:1|0:0,0:0:0:0:
115,36,132884,1,0,0:0:0:0:
193,51,133038,1,2,0:0:0:0:
296,127,133192,6,0,B|384:111|354:151|468:126,1,153.333333333333,10|0,1:2|0:0,0:0:0:0:
512,181,133654,2,0,B|528:269|488:239|513:353,1,153.333333333333,2|2,2:0|2:0,0:0:0:0:
446,378,134115,6,0,L|389:371,1,38.3333333333333,2|0,2:0|0:0,0:0:0:0:
446,378,134577,2,0,P|365:322|371:241,1,153.333333333333,10|10,2:0|1:2,0:0:0:0:
296,127,135038,6,0,L|300:165,1,38.3333333333333,10|0,1:2|0:0,0:0:0:0:
296,127,135500,6,0,L|300:165,1,38.3333333333333,2|0,2:2|0:0,0:0:0:0:
296,127,135961,6,0,L|300:165,1,38.3333333333333,2|0,2:0|0:0,0:0:0:0:
296,127,136423,6,0,L|300:165,1,38.3333333333333,2|0,0:0|0:0,0:0:0:0:
75,255,136884,6,0,L|79:216,1,38.3333333333333,10|0,1:2|0:0,0:0:0:0:
75,255,137346,6,0,L|79:216,1,38.3333333333333,2|0,2:0|0:0,0:0:0:0:
75,255,137807,6,0,L|79:216,1,38.3333333333333,2|0,2:0|0:0,0:0:0:0:
75,255,138269,2,0,B|91:203|144:194|144:194|171:229|156:261,1,153.333333333333,10|0,1:2|0:0,0:0:0:0:
157,259,138654,1,0,1:0:0:0:
154,272,138731,6,0,P|98:283|45:126,1,214.66666011556,10|2,1:2|0:0,0:0:0:0:
97,91,139192,2,0,P|175:114|204:192,1,168.666671813965,2|0,2:2|1:0,0:0:0:0:
231,265,139577,1,0,1:0:0:0:
231,265,139654,5,8,1:0:0:0:
367,308,139808,1,0,1:0:0:0:
438,252,139961,1,0,1:0:0:0:
295,208,140115,2,0,L|282:159,2,34.4999989471436,8|8|8,1:0|1:0|1:0,0:0:0:0:
365,144,140577,6,0,B|307:142|280:89|304:38|304:38|364:37|387:-8,1,214.66666011556,12|0,1:0|0:0,0:0:0:0:
451,218,141038,6,0,P|375:171|295:208,1,183.999994384766,0|0,1:0|0:0,0:0:0:0:
113,210,141500,2,0,B|176:202|220:257|220:257|225:182|156:162,1,183.999994384766,8|0,1:0|0:0,0:0:0:0:
211,339,141961,2,0,P|256:332|292:304,1,91.9999971923829,8|0,1:0|1:0,0:0:0:0:
450,219,142269,6,0,B|385:168|385:168|232:191|232:191|278:230,1,275.999991577149,8|0,1:0|0:0,0:0:0:0:
136,314,142884,2,0,P|107:340|15:332,1,91.9999971923829,2|0,1:2|0:0,0:0:0:0:
211,112,143192,2,0,B|274:147|274:147|342:277,1,183.999994384766,0|0,1:0|0:0,0:0:0:0:
405,289,143654,5,0,1:0:0:0:
424,380,143808,2,0,L|397:249,1,91.9999971923829,8|0,1:0|0:0,0:0:0:0:
361,136,144115,5,10,1:2:0:0:
380,45,144269,2,0,L|353:176,1,91.9999971923829,12|0,1:0|0:0,0:0:0:0:
512,249,144577,6,0,B|452:246|439:176|439:176|384:158|384:158|322:222|234:173,1,321.99999017334,0|0,1:0|0:0,0:0:0:0:
211,112,145192,6,0,B|178:110|178:110|61:151,1,107.33333005778,8|0,1:0|0:0,0:0:0:0:
64,264,145500,1,0,1:0:0:0:
13,205,145654,5,8,1:0:0:0:
186,284,145961,1,8,1:0:0:0:
253,359,146115,6,0,P|200:252|255:173,1,214.66666011556,8|0,1:0|1:0,0:0:0:0:
305,27,146577,2,0,B|331:67|313:128|313:128|333:71|389:57,1,214.66666011556,2|0,1:2|1:0,0:0:0:0:
401,54,146961,1,2,0:0:0:0:
412,51,147038,6,0,L|510:68,1,53.66666502889,8|0,1:0|0:0,0:0:0:0:
416,236,147346,1,0,1:0:0:0:
446,156,147500,5,8,1:0:0:0:
263,287,147808,1,10,1:2:0:0:
329,245,147962,6,0,B|183:280|183:280|197:244|249:255,1,214.66666011556,12|0,1:0|0:0,0:0:0:0:
340,332,148423,2,0,L|328:398,2,53.66666502889,0|0|0,1:0|0:0|0:0,0:0:0:0:
407,228,148731,1,0,0:0:0:0:
348,328,148884,6,0,B|382:379|445:351|445:351|405:289|346:316,1,183.999994384766,8|0,1:0|0:0,0:0:0:0:
507,295,149346,2,0,P|522:250|512:191,1,107.33333005778,8|0,1:0|1:0,0:0:0:0:
384,99,149654,6,0,P|464:7|455:129,1,321.99999017334,8|0,1:0|0:0,0:0:0:0:
294,154,150269,2,0,P|339:182|392:177,1,107.33333005778,2|0,1:2|0:0,0:0:0:0:
193,93,150577,6,0,B|155:73|97:82|64:115|64:115|38:150|38:150|-12:161,1,214.66666011556,0|0,1:0|0:0,0:0:0:0:
6,156,151192,2,0,B|38:217|38:217|118:245,1,107.33333005778,8|0,1:0|0:0,0:0:0:0:
124,288,151500,1,10,1:2:0:0:
68,375,151654,6,0,B|101:300|101:300|151:272,1,107.33333005778,12|0,1:0|0:0,0:0:0:0:
259,155,151961,2,0,B|290:103|276:40|232:8|232:8|192:19|182:56,1,214.66666011556,0|0,1:0|0:0,0:0:0:0:
123,75,152423,1,0,1:0:0:0:
143,152,152577,6,0,P|240:185|253:323,1,214.66666011556,8|0,1:0|0:0,0:0:0:0:
272,362,153038,2,0,P|300:262|397:228,1,214.66666011556,8|8,1:0|1:0,0:0:0:0:
173,295,153500,6,0,B|95:333|95:333|130:275|130:275|188:262,1,214.66666011556,12|0,1:0|0:0,0:0:0:0:
272,159,153961,2,0,B|312:139|312:139|294:169|294:169|240:180,1,107.33333005778,10|0,1:2|0:0,0:0:0:0:
463,307,154269,1,0,1:0:0:0:
463,307,154346,1,0,1:0:0:0:
463,307,154423,5,4,1:0:0:0:
397,228,154577,1,0,0:0:0:0:
497,211,154731,1,0,1:0:0:0:
411,96,154884,5,10,1:2:0:0:
511,79,155038,1,0,1:0:0:0:
399,218,155192,1,8,1:0:0:0:
412,86,155346,6,0,B|375:23|295:23|295:23|366:-10|399:37,1,214.66666011556,12|0,1:0|0:0,0:0:0:0:
129,56,155800,5,10,1:2:0:0:
196,110,155952,1,0,0:0:0:0:
211,23,156103,1,0,1:0:0:0:
47,188,156255,6,0,B|84:251|164:251|164:251|93:284|60:237,1,214.66666011556,12|0,1:0|0:0,0:0:0:0:
248,251,156709,1,10,1:2:0:0:
330,218,156861,1,0,0:0:0:0:
263,164,157012,1,8,1:0:0:0:
317,307,157164,6,0,L|308:367,1,38.3333333333333,12|0,1:0|0:0,0:0:0:0:
400,274,157320,1,0,1:0:0:0:
480,240,157476,1,0,1:0:0:0:
497,102,157632,6,0,L|507:26,2,76.6666666666667,10|0|0,1:2|0:0|1:0,0:0:0:0:
387,154,158101,5,4,1:0:0:0:
343,11,158257,1,0,1:0:0:0:
287,82,158414,1,8,1:0:0:0:
330,218,158570,5,10,1:2:0:0:
357,300,158726,1,0,1:0:0:0:
414,234,158882,1,8,1:0:0:0:
239,288,159039,6,0,P|160:264|86:284,1,153.333333333333,12|0,1:0|1:0,0:0:0:0:
273,367,159500,2,0,P|345:344|419:360,1,153.333333333333,2|0,1:2|1:0,0:0:0:0:
454,288,159962,5,10,1:0:0:0:
299,126,160269,1,8,1:0:0:0:
288,51,160423,2,0,B|198:26|198:26|256:80,1,153.333333333333,10|8,1:2|1:0,1:0:0:0:
499,70,160885,5,8,1:0:0:0:
425,93,161192,1,0,1:0:0:0:
304,267,161346,5,8,1:0:0:0:
321,191,161653,1,0,1:0:0:0:
231,0,161808,5,10,1:0:0:0:
288,52,162115,1,0,1:0:0:0:
321,191,162269,6,0,B|334:293|303:264|323:405,1,183.999994384766,10|0,1:2|0:0,0:0:0:0:
316,178,162731,6,0,P|344:136|470:155,1,183.999994384766,12|0,1:0|0:0,0:0:0:0:
508,233,163192,2,0,P|485:259|489:224,1,91.9999971923829,2|0,1:2|0:0,0:0:0:0:
463,146,163500,1,0,1:0:0:0:
402,272,163654,6,0,P|378:310|337:331,1,91.9999971923829,10|0,1:0|0:0,0:0:0:0:
227,141,163962,2,0,L|199:38,1,91.9999971923829,0|10,1:0|1:2,0:0:0:0:
251,219,164423,1,8,1:0:0:0:
97,302,164577,6,0,B|213:268|213:268|225:228|282:202,1,183.999994384766,8|0,1:0|0:0,0:0:0:0:
411,262,165039,2,0,P|416:312|376:379,1,91.9999971923829,8|0,1:0|0:0,0:0:0:0:
328,384,165346,1,0,1:0:0:0:
335,244,165500,6,0,B|324:142|362:156|345:54,1,183.999994384766,10|0,1:0|1:0,0:0:0:0:
418,23,165885,1,0,1:0:0:0:
418,23,165962,5,10,1:0:0:0:
439,120,166115,1,8,1:0:0:0:
239,87,166269,1,8,1:0:0:0:
291,0,166423,5,12,1:0:0:0:
209,15,166731,1,0,1:0:0:0:
215,185,166885,5,2,1:2:0:0:
297,199,167192,1,0,1:0:0:0:
303,369,167346,5,10,1:0:0:0:
221,384,167654,1,8,1:0:0:0:
159,274,167808,6,0,P|91:255|-14:310,1,183.999994384766,10|8,1:2|1:0,0:0:0:0:
95,176,168269,5,8,1:0:0:0:
175,188,168577,1,0,1:0:0:0:
324,255,168731,5,8,1:0:0:0:
404,243,169039,1,0,1:0:0:0:
383,359,169192,6,0,B|321:286|359:170|435:141|435:141|494:148|520:202,1,368,10|10,1:0|1:2,0:0:0:0:
405,101,169962,1,8,1:0:0:0:
492,0,170115,6,0,B|436:13|436:13|390:70|390:70|314:86,1,183.999994384766,12|0,1:0|1:0,0:0:0:0:
165,172,170577,2,0,B|124:163|124:163|88:118|88:118|44:108,1,137.999995788574,2|0,1:2|0:0,0:0:0:0:
39,109,170885,1,0,1:0:0:0:
78,240,171039,6,0,P|63:297|78:354,1,91.9999971923829,10|0,1:0|0:0,0:0:0:0:
142,199,171346,1,0,1:0:0:0:
235,138,171500,6,0,P|250:81|221:2,1,137.999995788574,10|0,1:2|0:0,0:0:0:0:
218,0,171808,1,8,1:0:0:0:
382,84,171962,6,0,P|466:52|494:52,1,91.9999971923829,8|0,1:0|0:0,0:0:0:0:
328,146,172269,1,0,1:0:0:0:
408,187,172423,6,0,P|464:257|473:283,1,91.9999971923829,8|0,1:0|0:0,0:0:0:0:
332,154,172730,1,0,1:0:0:0:
264,276,172885,5,10,1:0:0:0:
173,300,173039,1,0,1:0:0:0:
84,265,173192,1,8,1:0:0:0:
35,151,173346,2,0,B|29:182|29:182|31:169|40:161|57:164|63:175|60:188|60:188|67:150|67:150|69:137|63:127|47:124|37:131|35:144|35:144|34:151,1,183.999994384766,10|8,1:0|1:0,1:0:0:0:
142,23,173808,6,0,P|59:4|-5:71,1,172.499994735718,4|0,1:0|0:0,0:0:0:0:
194,169,174724,6,0,P|243:212|308:197,1,134.166662572225,2|0,1:2|0:0,0:0:0:0:
487,383,175640,6,0,P|425:329|344:347,1,172.499994735718,0|0,1:0|0:0,0:0:0:0:
207,384,176570,5,8,1:0:0:0:
189,298,176725,1,0,1:0:0:0:
308,233,176880,5,8,1:0:0:0:
326,147,177035,1,0,1:0:0:0:
191,89,177190,5,8,1:0:0:0:
173,3,177345,1,0,1:0:0:0:
256,32,177500,1,12,1:0:0:0:
89,173,192269,6,0,B|70:153|7:148|-29:209|-2:297|86:322|151:305|201:212|126:167|58:116|31:166,1,383.333333333333,4|2,1:0|1:2,0:0:0:0:
41,146,193115,1,0,1:0:0:0:
31,139,193192,2,0,B|-2:101|28:57|88:45|133:92,1,153.333333333333,10|0,1:2|0:0,0:0:0:0:
189,101,193653,2,0,B|222:139|192:183|143:170|129:157,1,107.33333005778,2|0,1:2|0:0,0:0:0:0:
141,164,194115,6,0,B|146:112|260:87|347:200|290:337|225:381,1,383.333333333333,0|2,1:0|1:2,0:0:0:0:
220,360,194961,1,0,1:0:0:0:
213,344,195038,2,0,B|188:316|196:254|280:263|333:292|356:342,1,153.333333333333,10|0,1:2|0:0,0:0:0:0:
356,353,195500,2,0,B|413:379|430:326|377:313,1,107.33333005778,2|0,1:2|0:0,0:0:0:0:
309,292,195961,6,0,B|358:314|331:380|211:390|232:141|415:197,1,306.666666666667,0|0,1:0|0:0,0:0:0:0:
457,223,196653,2,0,L|506:217,2,38.3333333333333,0|2|0,0:0|1:2|0:0,0:0:0:0:
392,272,196884,2,0,B|416:264|427:227|409:198|382:212|320:133|396:43|477:92,1,275.999991577149,10|2,1:2|1:2,0:0:0:0:
470,88,197653,1,0,0:0:0:0:
512,192,197807,5,2,1:2:0:0:
442,216,198269,1,2,1:2:0:0:
372,240,198730,1,10,1:2:0:0:
302,264,199038,1,0,0:0:0:0:
302,264,199192,1,0,0:0:0:0:
232,288,199499,1,0,0:0:0:0:
232,288,199653,6,0,P|104:330|187:168,1,421.666679534912,4|2,1:0|1:2,0:0:0:0:
192,163,200500,1,0,1:0:0:0:
201,159,200576,2,0,P|212:109|121:83,1,153.333333333333,10|0,1:2|0:0,0:0:0:0:
57,75,201038,2,0,B|53:97|34:117|-13:73|10:32|63:44|61:72,1,107.33333005778,2|0,1:2|0:0,0:0:0:0:
130,68,201500,6,0,B|164:-10|264:-18|388:42|379:211,1,379.500011581421,0|0,1:0|0:0,0:0:0:0:
336,252,202269,2,0,P|355:262|376:267,1,42.1666679534912,2|0,1:2|0:0,0:0:0:0:
388,271,202423,2,0,B|423:306|468:301|536:236|489:144|428:106,1,253.000007720948,10|2,1:2|1:2,0:0:0:0:
317,307,203192,1,0,0:0:0:0:
321,229,203346,6,0,P|172:238|273:344,1,345,0|0,1:0|0:0,0:0:0:0:
322,374,204115,1,0,1:0:0:0:
335,367,204192,1,0,1:0:0:0:
349,362,204269,2,0,B|407:397|480:375|502:291|402:267|372:339,1,230,10|10,1:2|1:2,0:0:0:0:
209,381,205038,1,0,0:0:0:0:
164,321,205192,5,2,1:2:0:0:
177,246,205653,1,0,0:0:0:0:
190,171,206115,5,8,1:0:0:0:
203,96,206346,5,8,1:0:0:0:
216,21,206576,5,8,1:0:0:0:
216,21,207038,6,0,P|219:46|220:85,1,38.3333333333333,12|0,1:0|0:0,0:0:0:0:
285,106,207269,5,0,0:0:0:0:
409,135,207500,6,0,P|406:160|405:199,1,38.3333333333333,0|0,1:0|0:0,0:0:0:0:
340,220,207731,5,0,0:0:0:0:
296,363,207961,6,0,P|293:338|292:299,1,38.3333333333333,8|0,1:0|0:0,0:0:0:0:
227,278,208192,5,0,0:0:0:0:
103,249,208423,6,0,P|106:224|107:185,1,38.3333333333333,8|0,1:0|0:0,0:0:0:0:
172,164,208654,5,0,0:0:0:0:
21,136,208884,6,0,L|86:145,1,38.3333333333333,8|0,1:0|0:0,0:0:0:0:
125,85,209115,5,0,0:0:0:0:
242,121,209346,6,0,L|233:56,1,38.3333333333333,2|0,1:2|0:0,0:0:0:0:
354,110,209577,5,0,0:0:0:0:
491,248,209807,6,0,L|426:239,1,38.3333333333333,8|0,1:0|0:0,0:0:0:0:
387,299,210038,5,0,0:0:0:0:
270,263,210269,6,0,L|279:328,1,38.3333333333333,8|0,1:0|0:0,0:0:0:0:
158,274,210500,5,0,0:0:0:0:
174,195,210730,6,0,L|228:209,1,38.3333333333333,12|0,1:0|0:0,0:0:0:0:
338,189,210961,6,0,L|284:175,1,38.3333333333333,0|0,1:0|0:0,0:0:0:0:
259,292,211192,6,0,L|269:255,1,38.3333333333333,0|0,1:0|0:0,0:0:0:0:
252,91,211423,6,0,L|242:128,1,38.3333333333333,0|0,1:0|0:0,0:0:0:0:
375,179,211653,6,0,L|321:193,1,38.3333333333333,8|0,1:0|0:0,0:0:0:0:
136,204,211884,6,0,L|190:190,1,38.3333333333333,0|0,1:0|0:0,0:0:0:0:
259,312,212115,5,8,1:0:0:0:
253,72,212346,5,0,1:0:0:0:
251,284,212576,6,0,B|263:238|263:238|241:147|241:147|260:73,2,183.999994384766,10|2|2,1:0|1:0|1:0,0:0:0:0:
164,93,213500,6,0,B|197:85|197:85|279:115,1,91.9999971923829,10|0,1:0|0:0,0:0:0:0:
340,281,213807,6,0,B|314:271|314:271|236:293|236:293|189:359|189:359|62:397,1,275.999991577149,2|8,1:0|1:0,0:0:0:0:
22,316,214423,5,12,1:0:0:0:
40,177,214653,6,0,P|49:145|56:110,1,45.9999985961914,0|0,1:0|0:0,0:0:0:0:
162,91,214884,5,0,1:0:0:0:
144,230,215115,6,0,P|135:262|128:297,1,45.9999985961914,0|0,1:0|0:0,0:0:0:0:
256,272,215346,5,8,1:0:0:0:
362,239,215577,5,0,1:0:0:0:
392,334,215808,5,8,1:0:0:0:
285,369,216038,5,8,1:0:0:0:
384,160,216269,5,8,1:0:0:0:
256,48,216500,5,0,1:0:0:0:
128,160,216730,5,2,1:0:0:0:
256,272,216961,5,0,1:0:0:0:
45,219,217192,6,0,B|43:201|43:201|47:194|47:194|42:171|51:117,1,76.6666666666667,10|0,1:0|0:0,0:0:0:0:
257,87,217500,6,0,B|259:69|259:69|255:62|255:62|260:39|251:-15,1,76.6666666666667,0|10,1:0|1:0,0:0:0:0:
297,360,217807,6,0,B|295:342|295:342|299:335|299:335|294:312|302:253,1,76.6666666666667,0|0,1:0|0:0,0:0:0:0:
145,261,218115,6,0,B|147:240|147:240|142:232|142:232|148:206|139:139,1,115,12|0,1:0|0:0,0:0:0:0:
383,140,218423,6,0,B|380:119|380:119|385:111|385:111|379:85|388:18,1,115,0|0,1:0|0:0,0:0:0:0:
512,246,218730,6,0,B|514:225|514:225|509:217|509:217|515:191|506:124,1,115,0|0,1:0|0:0,0:0:0:0:
261,340,219038,6,0,B|258:319|258:319|263:311|263:311|252:244|263:197,1,115,8|0,1:0|0:0,0:0:0:0:
1,384,219346,6,0,B|3:363|3:363|-2:355|-2:355|10:288|-1:241,1,99.6666621042889,0|8,1:0|1:0,0:0:0:0:
50,144,219653,5,0,1:0:0:0:
149,193,219807,1,8,1:0:0:0:
216,78,219961,6,0,B|217:19|284:15|338:30|404:126|391:249|273:324|171:335|74:315|-2:201|21:54|127:0|295:20|422:117|489:257|442:344|285:406|205:145,1,1096.33328314718,8|8,1:0|1:0,0:0:0:0:
136,53,221807,5,12,1:0:0:0:
64,73,222115,1,0,1:0:0:0:
0,210,222269,5,2,1:2:0:0:
26,287,222576,1,0,1:0:0:0:
156,348,222730,5,10,1:0:0:0:
228,324,223038,1,8,1:0:0:0:
246,166,223192,6,0,P|258:116|261:172,1,153.333333333333,10|8,1:2|1:0,0:0:0:0:
167,191,223653,5,8,1:0:0:0:
156,117,223961,1,0,1:0:0:0:
269,36,224115,5,8,1:0:0:0:
338,63,224423,1,0,0:0:0:0:
351,206,224576,5,10,1:0:0:0:
462,251,224884,1,0,1:0:0:0:
434,363,225038,6,0,P|526:323|459:251,1,229.999992980957,10|0,1:2|0:0,0:0:0:0:
390,292,225500,6,0,B|345:283|345:283|265:302|265:302|200:287,1,183.999994384766,12|0,1:0|0:0,0:0:0:0:
76,316,225961,2,0,B|120:307|120:307|200:326|200:326|265:311,1,183.999994384766,2|0,1:2|1:0,0:0:0:0:
395,313,226423,6,0,P|397:351|346:384,1,91.9999971923829,10|0,1:0|2:0,0:0:0:0:
277,168,226730,2,0,P|276:206|316:252,1,91.9999971923829,0|10,1:0|1:2,0:0:0:0:
453,37,227192,1,8,1:0:0:0:
347,130,227346,6,0,B|309:101|335:50|335:50|343:98|389:147,1,183.999994384766,8|0,1:0|0:0,0:0:0:0:
499,15,227807,2,0,P|432:7|389:8,1,91.9999971923829,8|0,1:0|2:0,0:0:0:0:
331,25,228115,1,0,1:0:0:0:
277,168,228269,6,0,P|200:179|99:167,1,153.333333333333,10|0,1:0|2:0,0:0:0:0:
59,123,228653,1,0,1:0:0:0:
59,123,228730,5,10,1:0:0:0:
34,254,228884,1,0,1:0:0:0:
165,282,229038,1,8,1:0:0:0:
193,151,229192,5,12,1:0:0:0:
178,76,229500,1,0,1:0:0:0:
302,0,229653,2,0,B|288:62|288:62|326:109|303:165,1,153.333333333333,2|0,1:2|1:0,0:0:0:0:
451,210,230115,5,10,1:0:0:0:
437,136,230269,1,8,1:0:0:0:
487,78,230423,1,8,1:0:0:0:
425,139,230576,6,0,B|332:139|358:174|243:165,1,153.333333333333,10|8,1:2|1:0,0:0:0:0:
181,242,231038,6,0,P|148:303|171:399,1,153.333333333333,8|0,1:0|1:0,0:0:0:0:
150,96,231500,2,0,P|184:136|190:179,1,76.6666666666667,8|0,1:0|2:0,0:0:0:0:
227,343,231807,1,0,1:0:0:0:
270,183,231961,6,0,P|137:239|149:95,1,345.000013160706,10|10,1:0|1:2,0:0:0:0:
442,162,232730,1,8,1:0:0:0:
512,253,232884,6,0,B|411:296|411:296|455:237,1,183.999994384766,12|0,1:0|0:0,0:0:0:0:
338,241,233346,2,0,B|367:200|367:200|366:270,1,76.6666666666667,2|0,1:2|2:0,0:0:0:0:
411,326,233653,1,0,1:0:0:0:
327,341,233807,6,0,P|403:348|471:384,1,153.333333333333,10|0,1:0|1:0,0:0:0:0:
260,288,234269,2,0,P|159:330|59:316,1,153.333333333333,10|8,1:2|1:0,0:0:0:0:
21,242,234730,5,8,1:0:0:0:
51,173,234884,1,8,1:0:0:0:
126,150,235038,1,8,1:0:0:0:
195,183,235192,1,8,1:0:0:0:
315,186,235500,5,0,2:0:0:0:
430,86,235653,6,0,B|460:72|460:72|440:100,2,49.8333310521445,10|0|0,1:0|0:0|0:0,0:0:0:0:
246,248,235961,6,0,B|277:262|277:262|256:231,2,49.8333310521445,8|0|0,1:0|0:0|0:0,0:0:0:0:
63,147,236269,6,0,B|95:132|95:132|73:163,2,49.8333310521445,0|0|0,1:0|0:0|0:0,0:0:0:0:
266,22,236576,6,0,P|201:70|211:197,1,199.333324208578,12|0,1:0|1:0,0:0:0:0:
151,327,237038,6,0,P|149:285|173:251,1,84.3333359069825,2|0,1:2|1:0,0:0:0:0:
0,273,237500,6,0,B|26:271|55:258|55:258|60:253|60:253|124:279|124:279|170:260|226:252,1,199.333324208578,12|8,1:0|1:0,0:0:0:0:
298,195,237961,6,0,P|249:185|199:180,1,99.6666621042889,10|8,1:2|1:0,0:0:0:0:
265,381,238423,5,8,1:0:0:0:
330,345,238730,1,0,1:0:0:0:
298,195,238884,5,8,1:0:0:0:
233,159,239191,1,0,1:0:0:0:
281,7,239346,6,0,P|321:0|337:-2,1,42.1666679534912,12|8,1:0|1:0,0:0:0:0:
369,103,239653,1,8,1:0:0:0:
471,79,239807,2,0,B|387:30|290:64|308:151|387:116|390:71,1,199.333324208578,10|8,1:2|1:0,0:0:0:0:
261,53,240269,6,0,P|247:126|298:179,1,153.333333333333,12|0,1:0|0:0,0:0:0:0:
335,305,240730,2,0,P|348:232|298:179,1,153.333333333333,2|0,1:2|1:0,0:0:0:0:
280,378,241192,5,10,1:0:0:0:
432,297,241500,1,0,1:0:0:0:
326,313,241653,5,10,1:2:0:0:
478,232,241961,1,8,1:0:0:0:
378,236,242115,6,0,L|464:187,1,76.6666666666667,8|0,1:0|0:0,0:0:0:0:
473,122,242423,1,0,0:0:0:0:
308,206,242576,6,0,B|296:259|296:259|325:302|325:302|298:410,1,191.666666666667,8|0,1:0|0:0,0:0:0:0:
235,324,243038,5,10,1:0:0:0:
186,269,243192,1,0,1:0:0:0:
202,196,243346,1,8,1:0:0:0:
331,128,243500,5,10,1:0:0:0:
380,72,243654,1,0,1:0:0:0:
364,0,243808,1,8,1:0:0:0:
225,82,243961,6,0,P|165:66|79:73,1,115,12|0,1:0|0:0,0:0:0:0:
100,71,244269,6,0,P|38:60|6:60,2,76.6666666666667,8|2|0,1:0|1:2|1:0,1:0:0:0:
130,150,244730,1,8,1:0:0:0:
289,191,244884,6,0,P|351:180|383:180,1,76.6666666666667,12|0,1:0|1:0,0:0:0:0:
174,255,245192,6,0,L|160:360,1,76.6666666666667,8|10,1:0|1:2,1:0:0:0:
225,82,245500,6,0,L|214:6,1,76.6666666666667,0|8,1:0|1:0,0:0:0:0:
441,164,245807,6,0,P|386:166|336:172,1,76.6666666666667,12|0,1:0|1:0,0:0:0:0:
184,256,246115,6,0,P|239:258|289:264,1,76.6666666666667,8|8,1:0|1:0,1:0:0:0:
418,325,246423,5,0,1:0:0:0:
495,310,246576,1,8,1:0:0:0:
349,373,246730,6,0,B|382:309|382:309|318:37,1,345.000013160706,12|10,1:0|1:2,0:0:0:0:
251,7,247346,1,0,1:0:0:0:
175,12,247500,1,8,1:0:0:0:
125,81,247653,6,0,P|63:94|-23:110,2,115.000004386902,12|0|8,1:0|0:0|1:0,0:0:0:0:
330,185,248115,6,0,P|392:198|478:214,2,115.000004386902,2|0|8,1:2|0:0|1:0,0:0:0:0:
92,300,248576,6,0,P|148:289|205:278,2,115.000004386902,12|0|8,1:0|1:0|1:0,0:0:0:0:
391,382,249038,6,0,P|335:371|279:360,2,115.000004386902,12|0|8,1:0|1:0|1:0,0:0:0:0:
287,315,249500,6,0,B|292:328|292:328|309:338|309:338|269:192,1,172.500006580353,12|0,1:0|0:0,0:0:0:0:
270,192,249807,1,0,1:0:0:0:
300,86,249961,6,0,P|246:35|173:47,1,153.333333333333,8|0,1:0|1:0,0:0:0:0:
54,30,250346,1,0,1:0:0:0:
54,30,250423,5,10,1:0:0:0:
29,107,250576,1,0,1:0:0:0:
106,89,250730,1,8,1:0:0:0:
158,148,250884,5,10,1:0:0:0:
81,166,251038,1,0,1:0:0:0:
4,184,251192,1,8,1:0:0:0:
125,277,251346,6,0,P|176:327|293:266,1,191.666666666667,4|0,1:0|0:0,0:0:0:0:
139,114,252269,6,0,P|69:133|63:265,1,191.666666666667,2|0,1:2|0:0,0:0:0:0:
272,195,253192,6,0,P|290:124|178:54,1,191.666666666667,0|0,1:0|0:0,0:0:0:0:
56,261,254115,5,8,1:0:0:0:
133,241,254269,1,0,1:0:0:0:
219,311,254423,5,0,1:0:0:0:
296,291,254577,1,8,1:0:0:0:
392,363,254730,5,0,1:0:0:0:
469,343,254884,1,8,1:0:0:0:
373,270,255038,6,0,P|442:250|448:118,1,191.666666666667,4|0,1:0|0:0,0:0:0:0:
240,189,255961,6,0,P|221:259|333:329,1,191.666666666667,2|0,1:2|0:0,0:0:0:0:
387,107,256884,6,0,P|335:56|218:117,1,191.666666666667,0|0,1:0|0:0,0:0:0:0:
256,384,258730,5,4,1:0:0:0:
