osu file format v14

[General]
AudioFilename: audio.mp3
AudioLeadIn: 0
PreviewTime: 170807
Countdown: 0
SampleSet: Soft
StackLeniency: 0.7
Mode: 0
LetterboxInBreaks: 0
WidescreenStoryboard: 1

[Editor]
Bookmarks: 14904,34698,49543,69337,89131,103976,123770,143254,170780,180677,190574,212842,233254,253357
DistanceSpacing: 1.3
BeatDivisor: 12
GridSize: 32
TimelineZoom: 2

[Metadata]
Title:Oishii Kisetsu
TitleUnicode:おいしい季節
Artist:Sheena Ringo
ArtistUnicode:椎名林檎
Creator:-Mikan
Version:Hikan's Hard
Source:
Tags:Yumiko Shiina Shina 椎名 裕美子 The Creamy Season Bazz B Bazz_B Mikan Japanese pop j-pop jpop swing jazz self cover Tokyo Jihen Incidents 東京事変 hikan ayesha altugle kazato asa shikibe mayu shizuku- dora- doraemonelf Kudou Chitose mrrrk 栗山千明 Kuriyama Chiaki
BeatmapID:2665987
BeatmapSetID:1123774

[Difficulty]
HPDrainRate:5
CircleSize:3.5
OverallDifficulty:6
ApproachRate:8
SliderMultiplier:2.6
SliderTickRate:1

[Events]
//Background and Video events
0,0,"anime-scenery-train-station-girl-school-uniform-sunset-anime-34366.jpg",0,0
//Break Periods
2,12311,14174
2,171007,179654
//Storyboard Layer 0 (Background)
//Storyboard Layer 1 (Fail)
//Storyboard Layer 2 (Pass)
//Storyboard Layer 3 (Foreground)
//Storyboard Layer 4 (Overlay)
//Storyboard Sound Samples

[TimingPoints]
79,618.556701030928,4,2,1,50,1,0
79,-200,4,2,1,50,0,0
542,-200,4,2,1,5,0,0
697,-200,4,2,1,50,0,0
1316,-200,4,2,2,50,0,0
1625,-200,4,2,1,50,0,0
2243,-200,4,2,2,50,0,0
3481,-200,4,2,1,50,0,0
3790,-200,4,2,1,50,0,0
3944,-200,4,2,1,5,0,0
4099,-200,4,2,1,50,0,0
5027,-200,4,2,2,50,0,0
5646,-200,4,2,1,50,0,0
6264,-200,4,2,2,50,0,0
7192,-200,4,2,1,50,0,0
7501,-200,4,2,2,50,0,0
8892,-200,4,2,2,5,0,0
9048,-200,4,2,2,50,0,0
9357,-200,4,2,1,50,0,0
9990,606.060606060606,4,2,1,50,1,0
9990,-100,4,2,1,50,0,0
10596,-100,4,2,1,60,0,0
11202,-100,4,2,1,70,0,0
11808,-100,4,2,1,80,0,0
12111,-100,4,2,2,80,0,0
12414,626.304801670146,4,2,2,80,1,0
13040,-100,4,2,2,65,0,0
13666,-100,4,2,2,50,0,0
14292,-100,4,2,2,35,0,0
14919,-100,4,2,2,35,0,0
14924,618.556701030928,4,2,1,70,1,0
14924,-153.846153846154,4,2,1,70,0,0
20800,-237.529691211401,4,2,2,70,0,0
21402,618.556701030928,4,2,2,70,1,0
21402,-250,4,2,3,70,0,0
21711,-250,4,2,2,70,0,0
22329,618.556701030928,4,2,2,70,1,0
22329,-250,4,2,2,70,0,0
22947,-200,4,2,2,70,0,0
23566,-166.666666666667,4,2,2,70,0,0
23789,-166.666666666667,4,2,1,70,0,0
23875,-166.666666666667,4,2,3,70,0,0
24184,-142.857142857143,4,2,5,70,0,0
24803,638.297872340426,4,2,5,70,1,0
25122,-142.857142857143,4,2,1,70,0,0
25441,618.556701030928,4,2,1,70,1,0
25441,-153.846153846154,4,2,1,70,0,0
26059,618.556701030928,4,2,1,70,1,0
26059,-153.846153846153,4,2,1,70,0,0
28533,606.060606060606,4,2,1,70,1,0
28533,-153.846153846153,4,2,1,70,0,0
29745,618.556701030928,4,2,1,70,1,0
29745,-153.846153846153,4,2,1,70,0,0
30363,645.161290322581,4,2,1,70,1,0
30685,618.556701030928,4,2,2,70,1,0
30685,-153.846153846154,4,2,2,70,0,0
30994,-250,4,2,2,70,0,0
31303,-250,4,2,3,70,0,0
31612,-250,4,2,2,70,0,0
32231,-125,4,2,2,70,0,0
32540,-125,4,2,4,70,0,0
32849,-153.846153846154,4,2,1,70,0,0
33468,-200,4,2,1,70,0,0
33777,-200,4,2,4,70,0,0
34087,582.52427184466,4,2,1,70,1,0
34087,-200,4,2,1,70,0,0
34378,618.556701030928,4,2,1,70,1,0
34687,631.578947368421,4,2,1,70,1,0
34687,-153.846153846154,4,2,4,75,0,0
35023,-153.846153846154,4,2,4,75,0,0
35318,-153.846153846154,4,2,1,75,0,0
35950,625,4,2,1,75,1,0
36575,-153.846153846153,4,2,1,75,0,0
37211,618.556701030928,4,2,1,75,1,0
37211,-153.846153846154,4,2,1,75,0,0
41231,-200,4,2,5,75,0,0
41850,-200,4,2,1,75,0,0
42159,-153.846153846154,4,2,1,75,0,0
42468,-153.846153846154,4,2,3,75,0,0
42778,-148.148148148148,4,2,2,75,0,0
43396,576.923076923077,4,2,2,75,1,0
43684,625,4,2,3,75,1,0
43684,-153.846153846154,4,2,3,75,0,0
43996,-153.846153846154,4,2,1,75,0,0
44309,576.923076923077,4,2,1,75,1,0
44597,618.556701030928,4,2,5,75,1,0
44597,-153.846153846154,4,2,5,75,0,0
47071,600,4,2,5,80,1,0
47071,-250,4,2,5,80,0,0
47371,-250,4,2,4,80,0,0
48307,615.384615384615,4,2,4,80,1,0
48307,-166.666666666667,4,2,4,80,0,0
48922,574.162679425837,4,2,4,80,1,0
49537,621.761658031088,4,2,6,85,1,1
49537,-100,4,2,6,85,0,1
52024,-100,4,2,3,85,0,1
52645,-100,4,2,7,85,0,1
59174,576.923076923077,4,2,7,85,1,1
59485,618.556701030928,4,2,7,85,1,1
61959,-100,4,2,5,85,0,1
62577,-100,4,2,6,85,0,1
62887,-100,4,2,6,85,0,1
68144,600,4,2,4,70,1,1
69354,620.15503875969,4,2,4,70,1,0
69354,-133.333333333333,4,2,4,70,0,0
69974,-133.333333333333,4,2,1,70,0,0
70594,-133.333333333333,4,2,1,70,0,0
71524,-133.333333333333,4,2,2,70,0,0
71834,-133.333333333333,4,2,5,70,0,0
72144,-133.333333333333,4,2,1,70,0,0
74315,625,4,2,1,70,1,0
74315,-133.333333333333,4,2,1,70,0,0
74940,618.556701030928,4,2,1,70,1,0
75249,-100,4,2,2,70,0,0
75558,-200,4,2,2,70,0,0
77414,612.244897959184,4,2,2,70,1,0
78026,-200,4,2,2,70,0,0
79566,-200,4,2,2,70,0,0
79862,623.376623376623,4,2,2,70,1,0
79862,-133.333333333333,4,2,2,70,0,0
80485,-133.333333333333,4,2,2,70,0,0
81420,-133.333333333333,4,2,1,70,0,0
81524,-133.333333333333,4,2,2,70,0,0
81732,620.15503875969,4,2,1,70,1,0
82352,618.556701030928,4,2,1,70,1,0
82352,-133.333333333333,4,2,1,70,0,0
84826,612.244897959184,4,2,1,70,1,0
84826,-100,4,2,1,70,0,0
85132,-100,4,2,3,70,0,0
85438,618.556701030928,4,2,3,70,1,0
85438,-200,4,2,3,70,0,0
86065,-200,4,2,3,70,0,0
86365,-200,4,2,2,70,0,0
86684,-200,4,2,2,70,0,0
87293,606.060606060606,4,2,2,70,1,0
87293,-200,4,2,2,70,0,0
87798,-200,4,2,1,70,0,0
87902,634.920634920635,4,2,1,70,1,0
88219,-100,4,2,5,70,0,0
88537,600,4,2,5,70,1,0
88537,-200,4,2,5,70,0,0
88837,-200,4,2,1,70,0,0
89137,625,4,2,4,75,1,0
89137,-142.857142857143,4,2,4,75,0,0
89449,-142.857142857143,4,2,4,75,0,0
89762,-142.857142857143,4,2,1,75,0,0
91637,618.556701030928,4,2,1,75,1,0
91637,-142.857142857143,4,2,1,75,0,0
95657,-142.857142857143,4,2,5,75,0,0
96276,-142.857142857143,4,2,1,75,0,0
96894,-142.857142857143,4,2,3,75,0,0
97204,-142.857142857143,4,2,2,75,0,0
98131,-142.857142857143,4,2,3,75,0,0
98441,-142.857142857143,4,2,1,75,0,0
98750,576.923076923077,4,2,1,75,1,0
98942,705.882352941176,4,2,1,75,1,0
99059,618.556701030928,4,2,5,80,1,0
99059,-142.857142857143,4,2,5,80,0,0
99677,-100,4,2,5,80,0,0
101533,606.060606060606,4,2,5,80,1,0
101836,-100,4,2,2,80,0,0
102139,571.428571428571,4,2,1,80,1,0
102424,638.297872340426,4,2,2,80,1,0
102743,645.161290322581,4,2,1,80,1,0
103388,-250,4,2,1,80,0,0
103950,-100,4,2,1,5,0,0
104028,618.556701030928,4,2,6,85,1,1
104028,-100,4,2,6,85,0,1
105265,612.244897959184,4,2,6,85,1,1
106489,603.015075376884,4,2,3,85,1,1
106489,-100,4,2,3,85,0,1
107092,618.556701030928,4,2,7,85,1,1
107401,-100,4,2,7,85,0,1
108947,618.556701030928,4,2,7,85,1,1
110184,-100,4,2,7,85,0,1
112039,625,4,2,7,85,1,1
112039,-100,4,2,7,85,0,1
112664,606.060606060606,4,2,7,85,1,1
112967,-100,4,2,7,85,0,1
113270,645.161290322581,4,2,7,85,1,1
113270,-100,4,2,7,85,0,1
113592,560.747663551402,4,2,7,85,1,1
113778,722.89156626506,4,2,7,85,1,1
113898,618.556701030928,4,2,7,85,1,1
113898,-100,4,2,7,85,0,1
115753,631.578947368421,4,2,7,85,1,1
115753,-100,4,2,7,85,0,1
116384,618.556701030928,4,2,5,85,1,1
117002,-100,4,2,6,85,0,1
117311,-100,4,2,6,85,0,1
117621,618.556701030928,4,2,6,85,1,1
118548,-100,4,2,6,85,0,1
118858,606.060606060606,4,2,6,85,1,1
118858,-100,4,2,6,85,0,1
120070,666.666666666667,4,2,6,85,1,1
120403,618.556701030928,4,2,6,85,1,1
120403,-100,4,2,6,85,0,1
121318,618.556701030928,4,2,6,85,1,1
121936,606.060606060606,4,2,6,85,1,1
121936,-100,4,2,6,85,0,1
122239,-100,4,2,3,85,0,1
122693,-100,4,2,3,85,0,1
122744,-100,4,2,6,85,0,1
122845,631.578947368421,4,2,6,85,1,1
122845,-100,4,2,6,85,0,1
123160,606.060606060606,4,2,6,85,1,1
123160,-100,4,2,6,85,0,1
123766,618.556701030928,4,2,6,85,1,1
123766,-100,4,2,6,85,0,1
126240,631.578947368421,4,2,3,85,1,1
126240,-100,4,2,3,85,0,1
126871,-100,4,2,7,85,0,1
128134,618.556701030928,4,2,7,85,1,1
128752,618.556701030928,4,2,7,85,1,1
128752,-100,4,2,7,85,0,1
131844,681.818181818182,4,2,7,85,1,1
131844,-100,4,2,7,85,0,1
132184,555.555555555556,4,2,7,85,1,1
132461,571.428571428571,4,2,7,85,1,1
132746,638.297872340426,4,2,7,85,1,1
132746,-100,4,2,7,85,0,1
133384,600,4,2,7,85,1,1
133684,618.556701030928,4,2,7,85,1,1
133684,-100,4,2,7,85,0,1
134302,631.578947368421,4,2,7,85,1,1
134302,-100,4,2,7,85,0,1
134933,666.666666666667,4,2,7,85,1,1
134933,-100,4,2,7,85,0,1
135155,491.803278688525,4,2,7,85,1,1
135236,618.556701030928,4,2,7,85,1,1
135236,-100,4,2,7,85,0,1
136060,666.666666666667,4,2,7,85,1,1
136171,618.556701030928,4,2,5,85,1,1
136171,-100,4,2,5,85,0,1
136789,-100,4,2,6,85,0,1
138645,600,4,2,6,85,1,1
138645,-100,4,2,6,85,0,1
139245,625,4,2,6,85,1,1
139245,-100,4,2,6,85,0,1
140495,638.297872340426,4,2,6,85,1,1
140495,-100,4,2,6,85,0,1
140814,618.556701030928,4,2,6,85,1,1
140814,-100,4,2,6,85,0,1
141123,618.556701030928,4,2,6,85,1,1
142669,576.923076923077,4,2,6,85,1,1
142957,631.578947368421,4,2,8,85,1,1
142957,-100,4,2,8,85,0,1
143272,631.578947368421,4,2,6,80,1,0
143272,-100,4,2,6,80,0,0
144219,689.655172413793,4,2,9,80,1,0
144219,-100,4,2,9,80,0,0
144563,588.235294117647,4,2,9,80,1,0
144563,-100,4,2,9,80,0,0
144857,612.244897959184,4,2,9,80,1,0
145061,-100,4,2,1,80,0,0
145265,-100,4,2,9,80,0,0
145469,-100,4,2,9,80,0,0
145775,-100,4,2,5,80,0,0
146693,-100,4,2,9,80,0,0
147152,-100,4,2,9,80,0,0
147305,560.747663551402,4,2,9,80,1,0
147491,705.882352941176,4,2,9,80,1,0
147608,576.923076923077,4,2,9,80,1,0
147896,645.161290322581,4,2,7,80,1,0
147896,-100,4,2,7,80,0,0
148218,618.556701030928,4,2,5,80,1,0
148218,-100,4,2,5,80,0,0
149145,-125,4,2,9,80,0,0
150073,-100,4,2,3,80,0,0
150382,-100,4,2,1,80,0,0
150589,-100,4,2,4,80,0,0
150692,606.060606060606,4,2,4,80,1,0
150995,618.556701030928,4,2,10,80,1,0
150995,-100,4,2,10,80,0,0
151613,631.578947368421,4,2,9,80,1,0
151613,-100,4,2,9,80,0,0
153507,612.244897959184,4,2,9,80,1,0
153507,-100,4,2,9,80,0,0
154731,600,4,2,9,80,1,0
154731,-100,4,2,9,80,0,0
155931,631.578947368421,4,2,7,80,1,0
155931,-100,4,2,7,80,0,0
156562,-100,4,2,9,80,0,0
158457,500,4,2,9,80,1,0
158623,645.161290322581,4,2,9,80,1,0
158730,618.556701030928,4,2,9,80,1,0
159039,-100,4,2,9,80,0,0
159657,-100,4,2,2,80,0,0
159864,-100,4,2,1,80,0,0
159967,-100,4,2,9,80,0,0
160276,-100,4,2,4,80,0,0
160379,-100,4,2,1,80,0,0
160585,576.923076923077,4,2,11,80,1,0
160681,-100,4,2,7,80,0,0
160777,645.161290322581,4,2,7,80,1,0
160884,631.578947368421,4,2,2,70,1,0
160884,-90.9090909090909,4,2,2,70,0,0
161515,-90.9090909090909,4,2,9,70,0,0
162147,-100,4,2,9,70,0,0
163410,555.555555555556,4,2,9,70,1,0
163687,618.556701030928,4,2,9,70,1,0
163996,-100,4,2,9,70,0,0
165542,-100,4,2,6,70,0,0
165851,-100,4,2,7,70,0,0
166470,-100,4,2,9,70,0,0
167089,535.714285714286,4,2,9,70,1,0
167267,697.674418604651,4,2,1,70,1,0
167383,618.556701030928,4,2,1,70,1,0
167383,-100,4,2,1,70,0,0
167692,-100,4,2,9,70,0,0
168001,652.173913043478,4,2,9,70,1,0
168001,-100,4,2,9,70,0,0
168327,576.923076923077,4,2,9,70,1,0
168519,689.655172413793,4,2,9,70,1,0
168633,618.556701030928,4,2,9,70,1,0
168942,-100,4,2,9,70,0,0
169560,-100,4,2,3,70,0,0
170488,638.297872340426,4,2,3,70,1,0
170488,-100,4,2,3,70,0,0
170753,-100,4,2,3,5,0,0
170807,652.173913043478,4,2,3,60,1,0
170807,-100,4,2,3,60,0,0
171459,600,4,2,3,60,1,0
172059,638.297872340426,4,2,3,60,1,0
172378,-100,4,2,3,60,0,0
174293,600,4,2,3,60,1,0
174293,-100,4,2,3,60,0,0
175793,612.244897959184,4,2,3,60,1,0
175793,-100,4,2,3,60,0,0
176405,638.297872340426,4,2,3,60,1,0
177362,-100,4,2,3,60,0,0
178319,594.059405940595,4,2,3,60,1,0
179507,-100,4,2,3,60,0,0
180101,606.060606060606,4,2,3,60,1,0
180101,-166.666666666667,4,2,3,60,0,0
180404,-166.666666666667,4,2,1,60,0,0
180707,618.556701030928,4,2,9,65,1,0
180707,-200,4,2,9,65,0,0
181325,-200,4,2,1,65,0,0
183181,-100,4,2,5,65,0,0
183799,-142.857142857143,4,2,5,65,0,0
185655,-142.857142857143,4,2,3,70,0,0
186274,-117.647058823529,4,2,3,70,0,0
186892,-117.647058823529,4,2,2,70,0,0
188129,-117.647058823529,4,2,9,75,0,0
188438,-117.647058823529,4,2,3,75,0,0
188748,-117.647058823529,4,2,6,75,0,0
189366,-200,4,2,1,75,0,0
189907,-200,4,2,1,5,0,0
189985,-200,4,2,1,75,0,0
190526,-100,4,2,1,5,0,0
190603,-83.3333333333333,4,2,6,85,0,1
191222,631.578947368421,4,2,6,85,1,1
191222,-100,4,2,6,85,0,1
192169,-86.9565217391304,4,2,6,85,0,1
192485,600,4,2,6,85,1,1
192485,-86.9565217391304,4,2,6,85,0,1
193085,618.556701030928,4,2,3,85,1,1
193085,-86.9565217391304,4,2,3,85,0,1
193703,689.655172413793,4,2,6,85,1,1
193703,-86.9565217391304,4,2,6,85,0,1
194047,606.060606060606,4,2,6,85,1,1
194047,-86.9565217391304,4,2,6,85,0,1
194653,566.037735849057,4,2,6,85,1,1
194935,631.578947368421,4,2,6,85,1,1
195566,618.556701030928,4,2,6,85,1,1
195566,-86.9565217391304,4,2,6,85,0,1
198040,594.059405940594,4,2,6,85,1,1
198634,-86.9565217391304,4,2,12,85,0,1
198931,638.297872340426,4,2,12,85,1,1
199250,606.060606060606,4,2,12,85,1,1
199856,-86.9565217391304,4,2,12,85,0,1
200260,-86.9565217391304,4,2,6,85,0,1
200462,631.578947368421,4,2,7,85,1,1
200462,-86.9565217391304,4,2,7,85,0,1
201093,-87.719298245614,4,2,7,85,0,1
201409,652.173913043478,4,2,7,85,1,1
201409,-86.9565217391304,4,2,7,85,0,1
201735,600,4,2,7,85,1,1
202335,-100,4,2,4,85,0,1
202435,-100,4,2,6,85,0,1
202935,645.161290322581,4,2,5,85,1,1
202935,-86.9565217391304,4,2,5,85,0,1
203580,631.578947368421,4,2,6,85,1,1
203580,-86.9565217391304,4,2,6,85,0,1
204843,618.556701030928,4,2,6,85,1,1
205461,-86.9565217391304,4,2,6,85,0,1
206080,612.244897959184,4,2,6,85,1,1
206998,-86.9565217391304,4,2,6,85,0,1
208528,618.556701030928,4,2,6,85,1,0
208837,-100,4,2,4,85,0,0
210074,-142.857142857143,4,2,12,85,0,1
210383,-86.9565217391304,4,2,12,85,0,0
210899,810.810810810811,4,2,12,85,1,1
211034,618.556701030928,4,2,12,90,1,1
211240,-86.9565217391304,4,2,12,90,0,1
211343,-86.9565217391304,4,2,12,90,0,0
211497,-86.9565217391304,4,2,12,90,0,1
211961,-86.9565217391304,4,2,12,90,0,0
212116,-86.9565217391304,4,2,12,90,0,1
212889,600,4,2,12,90,1,1
213389,-86.9565217391304,4,2,12,90,0,0
213489,-86.9565217391304,4,2,6,85,0,1
213789,631.578947368421,4,2,6,85,1,1
214104,618.556701030928,4,2,12,85,1,1
214722,606.060606060606,4,2,12,85,1,1
215043,-100,4,2,12,85,0,1
215328,-100,4,2,12,85,0,1
215631,618.556701030928,4,2,6,85,1,1
215631,-86.9565217391304,4,2,6,85,0,1
215940,625,4,2,3,85,1,1
215940,-95.2380952380952,4,2,3,85,0,1
216565,-95.2380952380952,4,2,12,85,0,1
216877,-95.2380952380952,4,2,12,85,0,1
217190,612.244897959184,4,2,12,85,1,1
217496,-95.2380952380952,4,2,12,85,0,1
217802,-95.2380952380952,4,2,12,85,0,1
218099,-95.2380952380952,4,2,12,85,0,1
219026,-95.2380952380952,4,2,12,85,0,1
219638,625,4,2,12,85,1,1
219638,-95.2380952380952,4,2,12,85,0,1
220572,-95.2380952380952,4,2,12,85,0,1
220888,631.578947368421,4,2,12,85,1,1
220888,-95.2380952380952,4,2,12,85,0,1
221519,-95.2380952380952,4,2,12,85,0,1
221812,-95.2380952380952,4,2,12,85,0,1
221835,-95.2380952380952,4,2,7,85,0,1
222466,600,4,2,7,85,1,1
222466,-95.2380952380952,4,2,7,85,0,1
222766,612.244897959184,4,2,7,85,1,1
223378,-95.2380952380952,4,2,8,85,0,1
223990,-95.2380952380952,4,2,12,85,0,1
224602,571.428571428571,4,2,12,85,1,1
224602,-95.2380952380952,4,2,12,85,0,1
225078,674.157303370787,4,2,12,85,1,1
225190,625,4,2,12,85,1,1
225502,-95.2380952380952,4,2,12,85,0,1
225815,-95.2380952380952,4,2,5,85,0,1
226440,-95.2380952380952,4,2,12,85,0,1
226752,-95.2380952380952,4,2,12,85,0,1
227065,612.244897959184,4,2,12,85,1,1
227371,-95.2380952380952,4,2,12,85,0,1
227677,-95.2380952380952,4,2,12,85,0,1
228289,625,4,2,12,85,1,1
228289,-95.2380952380952,4,2,12,85,0,1
228914,606.060606060606,4,2,12,85,1,1
228914,-95.2380952380952,4,2,12,85,0,1
229520,618.556701030928,4,2,12,85,1,1
229520,-95.2380952380952,4,2,12,85,0,1
230757,638.297872340426,4,2,12,85,1,1
230757,-95.2380952380952,4,2,12,85,0,1
232033,618.556701030928,4,2,12,85,1,1
232033,-95.2380952380952,4,2,12,85,0,1
232651,606.060606060606,4,2,12,85,1,1
232752,-100,4,2,1,85,0,1
233156,-95.2380952380952,4,2,1,85,0,0
233257,625,4,2,6,85,1,1
233257,-95.2380952380952,4,2,6,85,0,1
233882,-95.2380952380952,4,2,12,85,0,1
235444,-95.2380952380952,4,2,5,85,0,1
235757,612.244897959184,4,2,3,85,1,1
236369,-100,4,2,12,85,0,1
236675,-95.2380952380952,4,2,12,85,0,1
239430,618.556701030928,4,2,12,85,1,1
239739,-95.2380952380952,4,2,12,85,0,1
240048,631.578947368421,4,2,12,85,1,1
240048,-95.2380952380952,4,2,12,85,0,1
241311,612.244897959184,4,2,12,85,1,1
241311,-95.2380952380952,4,2,12,85,0,1
241617,-95.2380952380952,4,2,5,85,0,1
241923,600,4,2,9,85,1,1
241923,-95.2380952380952,4,2,9,85,0,1
242223,-95.2380952380952,4,2,6,85,0,1
242523,-95.2380952380952,4,2,12,85,0,1
243123,652.173913043478,4,2,7,85,1,1
243123,-95.2380952380952,4,2,7,85,0,1
243775,618.556701030928,4,2,12,85,1,1
243775,-95.2380952380952,4,2,12,85,0,1
245012,612.244897959184,4,2,12,85,1,1
245318,-95.2380952380952,4,2,12,85,0,1
245624,-95.2380952380952,4,2,1,85,0,1
246236,618.556701030928,4,2,12,85,1,1
246236,-95.2380952380952,4,2,12,85,0,1
246545,-95.2380952380952,4,2,12,85,0,1
246854,576.923076923077,4,2,12,85,1,1
247046,625,4,2,12,85,1,1
247150,-95.2380952380952,4,2,12,85,0,1
247462,638.297872340426,4,2,12,85,1,1
247781,652.173913043478,4,2,12,85,1,1
248107,612.244897959184,4,2,8,85,1,1
248107,-111.111111111111,4,2,8,85,0,1
248719,631.578947368421,4,2,12,85,1,1
249350,612.244897959184,4,2,12,85,1,1
249350,-125,4,2,12,85,0,1
249962,-133.333333333333,4,2,12,85,0,1
250574,-117.647058823529,4,2,12,85,0,1
251186,625,4,2,12,85,1,1
251186,-117.647058823529,4,2,12,85,0,1
251811,-105.263157894737,4,2,3,85,0,1
252436,612.244897959184,4,2,3,85,1,1
252742,560.747663551402,4,2,3,80,1,0
252742,-95.2380952380952,4,2,3,80,0,0
253302,-95.2380952380952,4,2,3,5,0,0

[Colours]
Combo1 : 188,188,122
Combo2 : 255,172,132

[HitObjects]
376,251,79,6,0,P|313:202|253:217,1,130,2|2,2:0|2:0,2:0:0:0:
267,208,1316,1,2,2:0:0:0:
194,247,1625,2,0,P|167:249|118:255,2,65,2|2|2,2:0|2:0|2:0,0:0:0:0:
267,288,2553,2,0,P|338:295|407:311,1,130,2|2,2:0|2:0,0:0:0:0:
462,243,3481,2,0,B|462:181|410:193|412:112,2,130,2|2|2,2:0|2:0|2:0,2:0:0:0:
410,325,5027,6,0,P|364:332|328:349,1,65,2|0,2:0|2:0,0:0:0:0:
262,369,5646,2,0,P|276:296|283:231,1,130,2|2,2:0|2:0,0:0:0:0:
234,177,6573,1,2,2:0:0:0:
234,177,6883,2,0,P|189:184|170:209,1,65,2|2,2:0|2:0,0:0:0:0:
318,168,7501,2,0,P|349:122|343:29,1,130,2|2,2:0|2:0,0:0:0:0:
394,144,8429,2,0,P|413:188|440:204,1,65,2|0,2:0|0:0,2:0:0:0:
430,285,9048,1,2,2:0:0:0:
430,285,9357,2,0,P|471:270|498:269,1,65,2|2,2:0|2:0,0:0:0:0:
363,353,9990,5,8,2:3:0:0:
363,353,10293,1,4,1:3:0:0:
321,268,10596,5,4,1:3:0:0:
222,308,10899,1,4,1:3:0:0:
136,363,11202,5,4,1:3:0:0:
167,223,11505,1,4,1:3:0:0:
9,199,11808,5,4,1:3:0:0:
28,370,12111,1,12,1:3:0:0:
41,352,14924,6,0,P|27:289|13:254,2,84.4999961318971,4|8|8,3:2|2:0|1:2,2:0:0:0:
116,295,16006,1,0,0:0:0:0:
119,290,16161,2,0,B|170:295|151:322|210:329,2,84.4999961318971,10|2|0,2:0|2:0|1:0,2:0:0:0:
86,217,17088,2,0,P|64:128|46:46,1,168.999992263794,10|2,2:0|3:2,0:0:0:0:
173,67,18016,2,0,P|131:107|74:96,1,84.4999961318971,10|0,1:2|0:0,2:0:0:0:
117,200,18635,6,0,P|177:209|232:222,2,84.4999961318971,2|2|10,3:2|3:2|1:2,2:0:0:0:
48,232,19563,1,10,2:0:0:0:
12,163,19769,1,8,2:0:0:0:
18,156,19872,2,0,P|7:107|0:59,2,84.4999961318971,8|0|0,3:2|3:0|1:0,0:0:0:0:
133,190,20800,1,10,2:0:0:0:
117,200,21109,6,0,P|158:205|189:213,1,52,10|10,2:0|3:2,2:0:0:0:
60,261,21711,1,2,1:2:0:0:
60,261,22020,1,10,2:0:0:0:
82,343,22329,2,0,P|108:348|131:357,1,52,8|8,2:0|3:2,0:0:0:0:
195,296,22947,2,0,P|235:284|283:281,1,65,0|8,1:0|2:0,2:0:0:0:
313,209,23566,2,0,P|367:221|405:236,1,77.999997619629,8|12,2:0|2:3,0:0:0:0:
480,177,24184,2,0,P|501:228|506:280,1,90.9999972229005,0|8,1:0|2:0,2:0:0:0:
386,366,24803,5,0,3:0:0:0:
386,366,25122,1,8,2:0:0:0:
329,301,25441,2,0,P|261:295|206:355,1,140.833326886495,8|8,1:2|2:0,0:0:0:0:
205,360,26059,1,10,2:0:0:0:
122,305,26574,2,0,P|118:241|110:167,1,112.666661509196,2|10,2:0|2:0,0:0:0:0:
265,60,27605,1,2,3:2:0:0:
201,0,27914,2,0,P|177:39|188:97,1,84.4999961318971,10|0,1:2|0:0,2:0:0:0:
236,159,28533,6,0,P|304:140|335:141,2,84.4999961318971,2|2|10,3:2|3:2|1:2,2:0:0:0:
166,205,29442,1,10,2:0:0:0:
141,126,29644,1,8,2:0:0:0:
136,121,29745,2,0,B|119:84|150:79|123:14,2,84.4999961318971,8|0|0,3:2|3:0|1:0,0:0:0:0:
254,169,30685,1,10,2:0:0:0:
236,159,30994,6,0,P|267:152|296:149,2,52,10|10|2,2:0|3:2|1:2,2:0:0:0:
156,211,31922,1,10,2:0:0:0:
79,179,32231,2,0,P|44:126|35:72,1,104,8|8,2:0|3:2,0:0:0:0:
86,264,32849,2,0,P|48:312|14:327,1,84.4999961318971,0|8,1:0|2:0,0:0:0:0:
156,211,33468,2,0,P|192:219|225:237,1,65,8|8,2:0|2:3,0:0:0:0:
148,129,34087,2,0,P|153:91|154:66,1,43.3333333333333,0|0,1:0|1:0,0:0:0:0:
181,62,34378,1,6,3:0:0:0:
289,169,34687,6,0,B|374:188|361:114|460:141,2,168.999992263794,6|10|10,3:2|1:2|3:2,2:0:0:0:
225,122,36262,1,2,3:2:0:0:
157,187,36575,2,0,P|139:116|127:81,1,84.4999961318971,2|10,1:2|2:0,2:0:0:0:
60,64,37211,1,8,3:2:0:0:
24,291,37829,2,0,P|74:290|106:326,1,84.4999961318971,0|10,1:0|2:0,2:0:0:0:
171,367,38448,2,0,B|236:365|267:307|267:307|293:328|322:324,1,168.999992263794,10|2,2:0|1:2,0:0:0:0:
384,289,39375,1,10,2:0:0:0:
487,355,39685,6,0,P|502:247|517:161,1,168.999992263794,8|0,3:2|1:0,2:0:0:0:
473,111,40613,2,0,P|427:127|407:162,1,84.4999961318971,8|8,2:0|2:0,0:0:0:0:
336,204,41231,2,0,P|279:208|249:212,2,65,10|0|10,3:2|1:0|2:0,2:0:0:0:
406,280,42159,2,0,P|459:285|504:294,1,84.4999961318971,8|14,3:2|3:0,2:0:0:0:
512,206,42778,1,0,1:0:0:0:
405,196,43087,2,0,B|308:204|353:268|250:275,1,168.999992263794,10|10,2:0|3:2,0:0:0:0:
182,223,43996,1,0,1:0:0:0:
476,154,44597,6,0,P|499:96|477:55,1,84.4999961318971,10|0,3:2|2:0,2:0:0:0:
415,19,45215,2,0,P|390:115|382:186,1,168.999992263794,10|10,1:2|3:2,2:0:0:0:
455,255,46143,1,2,3:2:0:0:
344,325,46452,1,10,1:2:0:0:
261,195,46761,1,2,2:0:0:0:
401,132,47071,2,0,P|447:139|466:147,2,52,8|0|0,3:2|1:0|1:0,0:0:0:0:
355,50,47971,1,4,2:3:0:0:
262,143,48307,6,0,P|195:146|174:47,1,155.999995239258,2|2,1:2|1:2,0:0:0:0:
216,14,49113,1,0,1:0:0:0:
227,17,49209,1,4,2:3:0:0:
380,61,49537,6,0,P|355:171|341:334,2,260,6|10|8,3:2|1:2|3:2,2:0:0:0:
286,9,51091,1,2,2:0:0:0:
171,48,51402,1,10,1:2:0:0:
134,159,51713,1,10,2:3:0:0:
259,107,52024,2,0,B|364:142|369:66|456:31|512:77,1,260,12|10,3:2|1:2,2:0:0:0:
489,168,52956,2,0,P|413:145|391:67,1,130,2|8,2:0|3:2,2:0:0:0:
213,57,53578,2,0,P|243:152|276:313,1,260,2|2,3:2|2:0,0:0:0:0:
417,358,54511,6,0,P|405:289|351:270,1,130,10|0,3:2|3:0,2:0:0:0:
238,336,55132,2,0,B|138:352|159:263|47:250|11:284|8:332|73:298,1,260,10|8,1:2|3:2,0:0:0:0:
143,203,56065,1,2,3:2:0:0:
64,153,56376,1,10,1:2:0:0:
103,42,56687,1,2,2:0:0:0:
198,115,56998,2,0,B|323:74|327:177|453:135,1,260,8|10,3:2|1:2,0:0:0:0:
510,5,57930,2,0,P|488:111|480:226,1,216.666666666667,2|0,2:0|1:0,0:0:0:0:
495,237,58552,1,2,3:2:0:0:
494,362,58863,2,0,P|398:342|376:259,1,130,10|0,1:2|1:0,2:0:0:0:
335,253,59366,1,0,1:0:0:0:
345,245,59485,6,0,P|359:161|372:96,1,130,14|0,3:2|2:0,2:0:0:0:
380,22,60103,2,0,B|328:12|240:32|305:107|208:147|120:103,1,260,10|8,1:2|3:2,2:0:0:0:
5,0,61031,1,2,3:2:0:0:
91,72,61340,1,10,1:2:0:0:
36,190,61649,2,0,P|105:199|156:229,2,130,6|12|0,2:0|3:2|2:0,2:0:0:0:
0,283,62577,1,10,1:2:0:0:
45,367,62887,2,0,P|132:345|144:263,1,130,2|8,2:0|3:2,2:0:0:0:
249,262,63505,2,0,P|346:272|483:369,1,260,2|2,3:2|2:0,0:0:0:0:
511,227,64433,6,0,B|522:201|428:221|438:302,1,130,10|0,3:2|3:0,2:0:0:0:
340,363,65052,2,0,B|342:235|279:250|279:107,1,260,10|8,1:2|3:2,2:0:0:0:
331,19,65979,1,2,3:2:0:0:
420,101,66289,1,10,1:2:0:0:
299,128,66598,1,2,2:0:0:0:
203,63,66907,5,8,3:2:0:0:
122,4,67216,1,0,3:0:0:0:
23,53,67526,1,10,1:2:0:0:
73,130,67835,2,0,P|97:212|94:283,1,130,8|4,2:3|2:3,2:0:0:0:
151,328,68444,2,0,P|144:357|141:388,2,43.3333333333333,0|0|0,1:0|1:0|1:0,0:0:0:0:
182,312,68744,2,0,P|239:326|301:337,1,86.6666666666667,0|0,1:0|1:0,2:0:0:0:
308,315,69044,1,4,2:3:0:0:
379,374,69354,6,0,P|401:326|393:283,1,97.50000371933,8|4,3:0|3:0,0:0:0:0:
328,227,69974,6,0,P|259:101|425:218,1,585.00002231598,8|10,1:3|2:0,2:0:0:0:
332,324,72144,1,10,3:2:0:0:
352,349,72454,2,0,P|278:331|224:329,1,97.50000371933,10|8,1:2|2:0,2:0:0:0:
174,267,73074,6,0,P|153:297|156:363,2,97.50000371933,10|2|2,3:2|3:2|1:2,2:0:0:0:
242,219,74005,1,10,2:0:0:0:
184,157,74315,2,0,P|168:87|150:34,2,97.50000371933,8|0|0,3:2|3:0|1:0,0:0:0:0:
162,252,75249,1,10,2:0:0:0:
174,267,75558,6,0,P|155:303|152:340,2,65,10|2|2,2:0|3:2|1:2,2:0:0:0:
242,219,76486,1,10,2:0:0:0:
352,281,76795,1,8,2:0:0:0:
352,281,77104,1,8,2:0:0:0:
409,212,77414,1,0,1:0:0:0:
479,239,77720,1,8,2:0:0:0:
492,219,78026,2,0,P|501:184|512:149,2,65,8|0|0,2:0|3:0|1:0,0:0:0:0:
476,297,78944,1,8,2:0:0:0:
381,351,79250,5,8,2:0:0:0:
381,351,79556,1,8,3:2:0:0:
296,302,79862,6,0,P|365:176|199:293,1,585.00002231598,0|2,1:0|2:0,2:0:0:0:
41,365,82042,1,2,3:2:0:0:
56,353,82352,2,0,P|66:287|69:236,1,97.50000371933,10|8,1:2|3:2,2:0:0:0:
88,175,82970,6,0,P|33:178|-8:223,2,97.50000371933,10|10|2,3:2|3:2|1:2,2:0:0:0:
159,220,83898,1,10,3:2:0:0:
202,151,84104,1,0,2:0:0:0:
206,146,84207,2,0,P|217:75|225:34,2,97.50000371933,8|8|0,2:0|3:2|1:0,0:0:0:0:
102,164,85132,1,2,3:2:0:0:
88,175,85438,6,0,P|45:180|17:203,2,65,10|2|10,2:0|2:0|1:2,2:0:0:0:
160,215,86365,1,10,2:0:0:0:
273,225,86675,1,10,2:0:0:0:
318,148,86984,1,8,3:2:0:0:
383,187,87293,6,0,P|376:243|374:279,1,65,0|8,1:0|2:0,0:0:0:0:
386,330,87798,2,0,P|390:348|391:366,1,21.6666666666667,8|8,2:3|1:3,0:0:0:0:
500,338,88219,5,8,3:2:0:0:
500,261,88537,2,0,P|502:249|513:203,1,43.3333333333333,8|8,1:3|2:3,0:0:0:0:
501,187,88837,1,6,2:3:0:0:
384,142,89137,6,0,B|364:61|298:89|278:-6,2,181.999994445801,6|10|10,3:2|1:2|3:2,2:0:0:0:
405,241,90699,1,2,3:2:0:0:
303,272,91012,2,0,P|289:336|285:375,2,90.9999972229005,2|2|8,1:2|2:0|3:2,2:0:0:0:
177,195,92255,2,0,P|130:205|103:255,1,90.9999972229005,0|10,1:0|2:0,2:0:0:0:
54,304,92874,2,0,B|99:265|87:205|87:205|62:169|76:132,1,181.999994445801,10|2,2:0|1:2,0:0:0:0:
146,98,93801,1,10,2:0:0:0:
78,8,94111,6,0,P|157:14|269:46,1,181.999994445801,8|0,3:2|1:0,2:0:0:0:
382,39,95039,2,0,P|358:79|350:115,1,60.666664815267,8|0,2:0|2:0,0:0:0:0:
365,116,95348,1,8,2:0:0:0:
486,146,95657,2,0,P|475:75|456:59,2,90.9999972229005,10|0|10,3:2|1:0|2:0,2:0:0:0:
408,238,96585,2,0,B|336:221|309:263|210:240,1,181.999994445801,8|0,3:2|1:0,2:0:0:0:
128,263,97513,2,0,B|117:252|139:200|220:224|236:290|192:352,2,181.999994445801,10|10|10,2:0|3:2|2:0,0:0:0:0:
106,342,99059,6,0,P|58:316|44:257,1,90.9999972229005,10|0,3:2|3:0,2:0:0:0:
63,202,99677,2,0,P|83:132|91:71,1,130,10|2,1:2|3:0,2:0:0:0:
22,0,100296,1,10,3:2:0:0:
188,20,100606,1,2,3:2:0:0:
233,183,100915,1,10,1:2:0:0:
94,267,101224,1,2,1:2:0:0:
256,192,101378,12,2,102743,2:0:0:0:
249,269,103388,6,0,P|293:259|335:253,1,86.6666666666667,2|0,2:0|0:0,2:0:0:0:
353,281,104028,6,0,B|245:292|221:173|103:188,2,260,6|10|8,3:2|1:2|3:2,2:0:0:0:
474,246,105571,1,2,2:0:0:0:
474,115,105877,1,10,1:2:0:0:
353,85,106183,1,8,2:3:0:0:
287,177,106489,2,0,B|205:183|182:94|215:31|311:37|327:109,1,260,12|10,3:2|1:2,2:0:0:0:
359,243,107401,2,0,B|326:271|276:276|276:276|252:248|233:238,1,130,2|8,2:0|3:2,2:0:0:0:
119,317,108019,2,0,B|213:342|256:254|270:214|359:232,1,260,2|2,3:2|2:0,0:0:0:0:
500,214,108947,6,0,P|463:165|399:164,1,130,10|0,3:2|3:0,2:0:0:0:
315,105,109565,2,0,B|282:193|180:236|123:209|99:164|155:159,1,260,10|8,1:2|3:2,2:0:0:0:
212,242,110493,1,2,3:2:0:0:
133,319,110802,1,10,1:2:0:0:
29,238,111111,1,2,2:0:0:0:
10,372,111421,2,0,B|102:376|183:332|212:241,1,260,8|10,3:2|1:2,0:0:0:0:
271,169,112351,2,0,B|329:178|324:227|397:234,1,130,2|8,2:0|3:2,0:0:0:0:
463,204,112866,1,0,1:0:0:0:
458,197,112967,1,2,3:2:0:0:
507,119,113270,2,0,P|436:97|375:100,1,130,10|0,1:2|1:0,2:0:0:0:
302,50,113778,1,0,1:0:0:0:
285,82,113898,6,0,P|239:116|167:118,1,130,14|0,3:2|0:0,2:0:0:0:
28,0,114516,2,0,P|73:96|111:258,1,260,10|8,1:2|3:2,2:0:0:0:
3,328,115444,1,2,3:2:0:0:
120,374,115753,1,10,1:2:0:0:
211,300,116068,2,0,P|232:237|215:168,1,130,2|12,2:0|3:2,2:0:0:0:
356,155,116693,1,0,2:0:0:0:
282,238,117002,1,10,1:2:0:0:
370,347,117311,2,0,P|459:370|502:387,1,130,2|8,2:0|3:2,2:0:0:0:
446,284,117930,2,0,P|432:209|414:27,1,260,2|2,3:2|2:0,0:0:0:0:
293,130,118858,6,0,B|264:148|204:146|185:93|209:74,1,130,10|0,3:2|0:0,2:0:0:0:
319,26,119464,2,0,B|329:14|369:-6|374:65|308:189|285:226|352:251|351:209,1,260,10|8,1:2|3:2,2:0:0:0:
418,156,120403,1,2,3:2:0:0:
405,60,120712,1,10,1:2:0:0:
509,176,121021,1,2,2:0:0:0:
508,306,121318,5,8,3:2:0:0:
423,335,121627,1,0,3:0:0:0:
351,269,121936,1,10,1:2:0:0:
293,365,122239,1,4,1:2:0:0:
200,316,122542,2,0,P|148:307|110:305,1,86.6666666666667,4|8,2:3|2:3,2:0:0:0:
87,325,122845,1,0,3:0:0:0:
2,283,123160,2,0,P|16:199|23:148,1,130,0|0,1:0|1:0,2:0:0:0:
126,201,123665,1,0,1:0:0:0:
136,206,123766,6,0,P|193:187|260:12,2,260,6|10|8,3:2|1:2|3:2,2:0:0:0:
17,279,125312,2,0,P|28:309|34:341,1,65,2|0,1:2|0:0,2:0:0:0:
120,368,125621,2,0,P|178:355|195:353,1,65,10|0,1:2|0:0,2:0:0:0:
284,301,125930,2,0,P|244:285|212:280,1,65,10|0,2:3|0:0,2:0:0:0:
365,354,126240,2,0,P|423:344|464:277,1,130,12|0,3:2|2:0,2:0:0:0:
396,213,126871,1,10,1:2:0:0:
504,161,127187,2,0,B|437:152|438:193|362:197,1,130,2|8,2:0|3:2,2:0:0:0:
288,113,127818,2,0,P|206:98|156:48,1,130,2|8,3:2|1:2,0:0:0:0:
35,0,128443,1,2,2:0:0:0:
0,140,128752,6,0,P|27:200|28:283,1,130,10|0,3:2|0:0,2:0:0:0:
123,329,129370,2,0,P|147:244|320:144,1,260,10|8,1:2|3:2,2:0:0:0:
383,193,130298,1,2,3:2:0:0:
469,107,130607,1,10,1:2:0:0:
393,17,130916,1,2,2:0:0:0:
294,88,131226,5,8,3:2:0:0:
220,17,131535,1,0,3:0:0:0:
126,63,131844,1,10,1:2:0:0:
13,25,132184,2,0,P|65:141|78:195,1,130,2|8,2:0|3:2,0:0:0:0:
115,205,132651,1,0,1:0:0:0:
105,213,132746,1,2,3:2:0:0:
24,284,133065,2,0,P|111:295|190:312,1,130,10|0,1:2|1:0,2:0:0:0:
222,357,133584,1,0,1:0:0:0:
230,360,133684,6,0,P|296:330|323:260,1,130,14|0,3:2|0:0,2:0:0:0:
364,192,134302,2,0,P|462:212|513:360,1,260,10|8,1:2|3:2,2:0:0:0:
397,372,135155,1,0,1:0:0:0:
397,372,135236,2,0,P|380:312|380:272,2,65,2|0|10,3:2|0:0|3:2,2:0:0:0:
275,312,135854,1,2,1:2:0:0:
184,367,136060,1,0,1:0:0:0:
184,367,136171,2,0,P|92:374|25:223,1,260,12|10,3:2|1:2,2:0:0:0:
86,164,137098,2,0,B|130:146|194:171|213:222,1,130,2|8,2:0|3:2,2:0:0:0:
299,117,137717,2,0,P|300:205|279:244,2,130,2|8|2,3:2|1:2|2:0,0:0:0:0:
397,20,138645,6,0,P|445:22|483:100,1,130,10|0,3:2|3:0,2:0:0:0:
512,177,139245,2,0,B|440:186|375:230|371:322|436:356,1,260,10|8,1:2|3:2,2:0:0:0:
501,294,140182,1,2,3:2:0:0:
356,343,140495,1,10,1:2:0:0:
255,248,140814,1,2,2:0:0:0:
144,333,141123,2,0,B|168:349|180:360|180:360|166:256|156:190,1,216.666666666667,8|0,3:2|0:0,0:0:0:0:
145,170,141741,5,10,1:2:0:0:
33,200,142050,1,2,1:2:0:0:
71,72,142360,1,8,1:3:0:0:
208,80,142669,1,10,1:3:0:0:
308,115,142957,6,0,P|317:86|325:42,1,65,6|0,3:2|0:0,2:0:0:0:
384,166,143272,2,0,P|434:114|507:98,2,130,14|0|0,3:2|0:0|3:0,2:0:0:0:
192,253,144219,2,0,P|211:313|278:360,1,130,14|0,1:2|3:0,2:0:0:0:
352,344,144759,1,0,2:0:0:0:
365,331,144857,2,0,P|408:320|455:321,1,86.6666666666667,10|8,3:2|2:3,2:0:0:0:
472,333,145163,2,0,P|479:290|499:249,1,86.6666666666667,4|0,2:3|1:0,0:0:0:0:
512,222,145469,1,10,1:2:0:0:
430,115,145775,6,0,P|351:144|206:169,1,216.666666666667,6|0,3:2|2:0,2:0:0:0:
200,144,146387,1,2,3:2:0:0:
98,22,146693,2,0,P|165:40|244:74,1,130,14|0,1:2|3:0,2:0:0:0:
304,47,147203,1,0,2:0:0:0:
316,50,147305,2,0,P|367:41|401:15,1,86.6666666666667,10|0,1:2|1:0,2:0:0:0:
472,71,147800,1,0,1:0:0:0:
472,71,147896,2,0,P|453:131|455:154,1,65,14|0,1:3|0:0,2:0:0:0:
509,197,148218,6,0,B|471:161|420:181|420:181|375:225|375:225|312:254|250:193,1,260,6|0,3:2|3:0,2:0:0:0:
146,191,149145,2,0,P|195:268|195:304,1,104,14|0,1:2|3:0,2:0:0:0:
76,342,149764,2,0,P|136:345|177:376,1,104,10|4,3:2|1:2,2:0:0:0:
364,312,150589,1,2,1:2:0:0:
364,312,150692,2,0,P|382:356|383:372,2,43.3333333333333,0|0|0,1:0|1:0|1:0,0:0:0:0:
330,285,150995,6,0,P|328:236|428:216,1,130,14|0,3:2|2:0,2:0:0:0:
480,58,151613,2,0,B|516:35|535:108|499:123|452:58|445:32|370:15|317:51,1,216.666666666667,12|0,1:2|1:0,2:0:0:0:
322,53,152244,1,8,3:2:0:0:
222,6,152560,1,0,3:0:0:0:
96,67,152876,6,0,P|114:111|138:191,1,130,12|6,1:2|1:2,2:0:0:0:
255,148,153507,2,0,P|219:249|212:303,1,130,8|0,3:2|3:0,2:0:0:0:
315,235,154119,2,0,P|349:321|362:381,1,130,12|4,1:2|1:2,2:0:0:0:
427,281,154731,2,0,P|459:286|518:308,1,86.6666666666667,8|0,3:2|1:0,2:0:0:0:
505,284,155031,1,0,3:2:0:0:
387,166,155331,2,0,P|456:154|448:47,1,173.333333333333,12|4,1:2|1:2,2:0:0:0:
395,2,155931,6,0,P|334:11|296:19,1,86.6666666666667,12|0,3:2|2:0,2:0:0:0:
270,64,156246,2,2,P|219:50|174:47,1,86.6666666666667,2|2,3:0|2:0,2:0:0:0:
132,8,156562,2,0,B|115:148|24:102|12:244,1,260,12|8,1:2|3:2,2:0:0:0:
139,271,157509,1,0,3:0:0:0:
25,363,157825,6,0,P|86:348|122:348,1,86.6666666666667,12|0,1:2|2:0,2:0:0:0:
165,367,158141,2,0,P|226:382|265:382,1,86.6666666666667,4|0,1:2|3:0,2:0:0:0:
284,328,158457,1,8,3:2:0:0:
412,365,158730,2,0,P|418:328|432:274,1,86.6666666666667,0|0,3:0|3:0,2:0:0:0:
480,240,159039,2,0,P|447:187|381:190,1,130,12|8,1:2|3:2,2:0:0:0:
284,164,159657,5,12,2:3:0:0:
263,183,159760,1,4,2:3:0:0:
237,196,159863,1,8,2:3:0:0:
208,200,159967,2,0,P|170:192|144:195,2,43.3333333333333,4|0|0,1:2|1:0|1:0,0:0:0:0:
260,276,160276,5,8,2:3:0:0:
292,281,160379,1,8,2:3:0:0:
321,295,160482,1,8,2:3:0:0:
344,318,160585,2,0,P|373:308|389:291,2,43.3333333333333,4|4|12,1:2|1:3|1:3,0:0:0:0:
264,378,160884,6,0,P|209:362|170:366,1,95.3333362426759,4|0,3:2|2:0,2:0:0:0:
136,310,161199,2,0,P|75:332|32:328,1,95.3333362426759,0|0,3:0|2:0,2:0:0:0:
9,279,161515,2,0,B|21:213|22:168|22:168|65:127|65:127|65:79|85:-13,1,286.000008728028,12|8,1:2|3:2,2:0:0:0:
231,0,162462,1,0,3:0:0:0:
259,96,162778,6,0,P|310:104|365:115,1,86.6666666666667,12|0,1:2|0:0,2:0:0:0:
378,164,163094,2,0,P|423:157|462:137,1,86.6666666666667,0|0,3:0|0:0,0:0:0:0:
507,95,163410,2,0,P|482:165|488:235,1,130,8|2,3:2|3:0,0:0:0:0:
420,276,163996,2,0,P|367:259|331:264,1,86.6666666666667,12|0,1:2|3:0,2:0:0:0:
303,314,164305,2,0,P|258:351|102:349,1,216.666666666667,4|0,1:2|1:0,2:0:0:0:
84,292,164924,1,0,3:0:0:0:
170,216,165233,2,0,P|180:164|184:126,1,86.6666666666667,12|0,1:2|2:0,2:0:0:0:
158,114,165542,1,8,1:3:0:0:
64,71,165851,6,0,P|135:12|207:28,1,130,12|0,3:2|3:0,2:0:0:0:
269,38,166470,2,0,P|348:48|410:56,1,130,12|0,1:2|3:0,2:0:0:0:
404,179,167089,2,0,P|361:171|296:163,1,86.6666666666667,8|8,3:2|2:3,2:0:0:0:
294,174,167383,1,4,2:3:0:0:
229,269,167692,2,0,P|273:276|340:287,1,65,12|0,1:2|0:0,2:0:0:0:
384,323,168001,2,0,P|330:312|297:309,1,65,4|0,1:2|0:0,2:0:0:0:
248,380,168327,6,0,P|184:367|128:363,1,86.6666666666667,8|0,3:2|1:0,2:0:0:0:
141,370,168633,1,0,3:0:0:0:
83,244,168942,2,0,P|147:257|211:261,1,130,12|0,1:2|3:0,2:0:0:0:
274,167,169560,6,0,P|210:156|166:151,1,86.6666666666667,4|0,1:3|0:0,0:0:0:0:
106,168,169870,2,0,P|117:104|122:60,1,86.6666666666667,4|0,1:3|0:0,0:0:0:0:
131,5,170179,2,0,P|195:16|239:21,1,86.6666666666667,4|0,1:3|0:0,0:0:0:0:
299,4,170489,2,0,P|288:68|283:112,1,86.6666666666667,6|0,1:2|0:0,2:0:0:0:
274,167,170807,5,2,2:0:0:0:
99,214,180404,6,0,P|94:194|86:179,2,25.999999206543,8|8|8,2:0|2:0|2:0,0:0:0:0:
104,244,180707,6,0,P|88:288|71:371,1,130,6|10,3:2|3:2,2:0:0:0:
196,346,181944,2,0,P|185:304|179:279,1,65,8|2,3:2|2:0,0:0:0:0:
242,212,182562,2,0,P|277:220|307:228,2,65,10|10|8,3:2|2:0|3:2,0:0:0:0:
134,158,183696,1,0,0:0:0:0:
123,169,183799,2,0,P|58:180|13:191,1,90.9999972229005,8|2,3:2|2:0,2:0:0:0:
16,100,184418,2,0,P|60:90|105:83,1,90.9999972229005,10|2,3:2|2:0,2:0:0:0:
208,18,185036,2,0,P|155:5|105:-2,1,90.9999972229005,10|2,3:2|2:0,2:0:0:0:
194,108,185655,6,0,P|255:97|290:54,1,90.9999972229005,12|0,3:2|3:0,0:0:0:0:
330,20,186274,2,0,P|381:30|402:33,1,73.6666680717469,8|0,3:2|0:0,0:0:0:0:
487,47,186583,2,0,P|477:99|474:120,1,73.6666680717469,0|0,3:0|0:0,0:0:0:0:
461,206,186892,2,0,P|410:195|389:193,1,73.6666680717469,12|0,3:0|0:0,0:0:0:0:
304,178,187201,2,0,P|314:127|317:106,1,73.6666680717469,6|0,3:0|0:0,0:0:0:0:
330,20,187511,1,14,3:0:0:0:
330,20,187820,1,6,3:0:0:0:
457,101,188129,5,4,1:2:0:0:
263,156,188438,1,4,1:3:0:0:
318,350,188748,1,8,1:3:0:0:
512,295,189057,1,0,1:0:0:0:
445,237,189366,6,0,P|406:228|357:225,1,65,2|0,2:0|0:0,2:0:0:0:
463,158,189985,6,0,P|414:148|375:144,1,65,2|0,2:0|0:0,2:0:0:0:
489,71,190603,6,0,B|324:22|340:162|171:120,1,311.999990478516,6|10,3:2|1:2,2:0:0:0:
331,186,191853,1,8,3:2:0:0:
465,156,192169,2,0,P|450:210|447:271,1,99.6666685676575,2|0,1:2|2:0,2:0:0:0:
360,273,192485,2,0,P|346:208|343:168,1,99.6666685676575,10|0,1:2|2:0,2:0:0:0:
251,221,192785,2,0,P|237:289|234:337,1,99.6666685676575,10|0,2:3|2:0,2:0:0:0:
160,362,193085,6,0,P|51:350|142:243,1,299.000005702973,12|10,3:2|1:2,2:0:0:0:
267,326,194047,2,0,B|351:327|329:381|425:387,1,149.500002851486,2|8,2:0|3:2,2:0:0:0:
481,340,194552,1,0,2:0:0:0:
474,329,194653,1,2,3:2:0:0:
356,261,194935,2,0,P|381:171|408:100,1,130,8|2,1:2|2:0,2:0:0:0:
435,19,195566,6,0,P|333:32|292:102,1,149.500002851486,10|0,3:2|3:0,2:0:0:0:
266,188,196184,2,0,B|243:120|161:57|70:70|70:70|105:93|125:132,1,299.000005702973,10|8,1:2|3:2,2:0:0:0:
145,207,197112,1,2,3:2:0:0:
11,151,197421,1,10,1:2:0:0:
20,301,197730,1,2,2:0:0:0:
125,383,198040,6,0,P|277:321|366:316,1,216.666666666667,8|0,3:2|3:0,0:0:0:0:
400,283,198634,2,0,P|445:296|488:326,1,99.6666685676575,14|0,1:2|2:0,2:0:0:0:
468,220,198931,2,0,P|417:147|434:88,1,130,6|8,1:2|3:2,2:0:0:0:
480,46,199452,1,0,1:0:0:0:
490,50,199553,1,6,3:2:0:0:
365,34,199856,2,0,P|246:45|205:76,1,149.500002851486,14|0,1:2|1:0,2:0:0:0:
148,130,200361,1,0,1:0:0:0:
140,142,200462,6,0,B|99:139|66:122|35:79|42:36|42:36|85:58|74:114,1,249.166671419144,14|0,3:2|2:0,2:0:0:0:
28,180,201093,2,0,P|45:246|63:381,1,199.333337135315,10|0,1:2|0:0,2:0:0:0:
140,354,201626,1,0,3:0:0:0:
149,347,201735,2,0,P|160:305|169:281,5,43.3333333333333,8|0|0|2|0|0,3:2|1:0|1:0|1:2|1:0|1:0,0:0:0:0:
188,250,202335,2,0,P|183:229|177:209,5,43.3333333333333,10|8|8|2|0|0,2:3|2:3|2:3|1:2|1:0|1:0,2:0:0:0:
208,154,202935,5,12,3:2:0:0:
193,35,203257,1,0,3:0:0:0:
328,106,203580,1,10,1:2:0:0:
424,1,203895,2,0,B|352:1|322:69|341:111,1,149.500002851486,2|8,3:2|3:2,0:0:0:0:
256,219,204527,2,0,P|163:167|158:108,1,149.500002851486,2|8,3:2|1:2,0:0:0:0:
193,35,205152,1,2,3:2:0:0:
55,109,205461,6,0,P|73:198|87:288,1,149.500002851486,10|0,3:2|3:0,2:0:0:0:
168,314,206080,2,0,B|302:283|281:404|450:356,1,260,10|8,1:2|3:2,0:0:0:0:
493,254,206998,1,2,3:2:0:0:
399,170,207304,1,10,1:2:0:0:
495,54,207610,1,2,3:2:0:0:
357,86,207916,2,0,P|303:98|255:111,1,99.6666685676575,8|0,3:2|0:0,0:0:0:0:
214,154,208222,2,0,P|170:143|112:119,1,99.6666685676575,0|0,3:0|0:0,0:0:0:0:
61,110,208528,5,10,3:0:0:0:
93,265,208837,1,6,1:3:0:0:
249,236,209146,1,4,1:3:0:0:
220,80,209455,1,6,1:3:0:0:
139,171,209765,6,0,P|126:219|121:271,1,86.6666666666667,6|0,1:3|0:0,0:0:0:0:
54,145,210074,2,0,P|34:242|19:359,1,181.999994445801,10|2,1:2|2:0,2:0:0:0:
123,384,210899,5,0,3:0:0:0:
123,384,211034,2,0,P|162:377|181:375,1,43.3333333333333,4|0,1:2|2:0,2:0:0:0:
105,311,211240,2,0,P|167:301|241:293,1,99.6666685676575,0|0,1:0|0:0,2:0:0:0:
272,240,211549,5,0,3:0:0:0:
272,240,211652,2,0,P|308:246|339:254,1,49.8333342838288,4|0,1:2|2:0,2:0:0:0:
254,312,211858,2,0,P|303:320|353:331,1,99.6666685676575,0|0,1:0|0:0,2:0:0:0:
431,375,212168,5,0,3:0:0:0:
431,375,212271,2,0,P|480:370|514:370,1,49.8333342838288,4|0,1:2|2:0,2:0:0:0:
472,296,212477,2,0,P|447:297|422:301,1,49.8333342838288,0|0,1:0|2:0,2:0:0:0:
411,227,212683,2,0,P|461:222|497:222,1,49.8333342838288,0|0,1:0|2:0,2:0:0:0:
455,147,212889,2,0,P|419:150|388:155,1,43.3333333333333,0|0,1:0|2:0,2:0:0:0:
405,76,213089,2,2,P|443:74|476:73,1,43.3333333333333,2|2,1:2|2:2,2:2:0:0:
442,0,213289,2,2,P|401:3|363:11,1,43.3333333333333,2|2,1:2|2:2,2:2:0:0:
257,28,213489,6,0,P|329:91|403:77,1,149.500002851486,6|0,3:2|3:0,2:0:0:0:
266,159,214104,2,0,P|170:155|126:13,1,260,14|8,1:2|3:2,2:0:0:0:
9,86,215025,2,0,P|38:147|49:203,1,86.6666666666667,0|0,3:0|2:0,2:0:0:0:
77,195,215328,2,0,P|61:243|54:297,1,86.6666666666667,14|0,1:2|2:0,2:0:0:0:
27,304,215631,1,8,2:3:0:0:
143,367,215940,6,0,P|232:351|262:274,1,136.499995834351,12|0,3:2|2:0,2:0:0:0:
403,214,216565,1,14,1:2:0:0:
361,82,216877,2,0,P|214:106|170:114,1,136.499995834351,2|8,2:0|3:2,2:0:0:0:
132,144,217496,2,0,P|128:77|167:22,2,136.499995834351,2|12|2,3:2|1:2|2:0,2:0:0:0:
203,250,218414,6,0,P|90:227|62:228,1,136.499995834351,10|0,3:2|3:0,2:0:0:0:
138,360,219026,2,0,P|239:344|295:233,1,227.499993057251,14|2,1:2|2:0,0:0:0:0:
261,195,219638,2,0,P|250:123|377:154,1,227.499993057251,8|2,3:2|2:0,2:0:0:0:
449,139,220263,2,0,P|429:242|427:309,1,136.499995834351,14|2,1:2|2:0,2:0:0:0:
502,378,220888,6,0,B|472:342|437:325|437:325|341:353|246:358,1,272.999991668701,8|14,3:2|1:2,2:0:0:0:
225,237,221835,2,0,P|188:261|144:272,1,90.9999972229005,4|0,2:0|2:0,2:0:0:0:
103,349,222151,2,0,P|58:283|77:213,1,136.499995834351,8|2,3:2|3:2,2:0:0:0:
123,169,222666,1,0,2:0:0:0:
131,164,222766,2,0,P|117:81|97:3,1,130,10|0,1:2|1:0,0:0:0:0:
191,20,223276,1,0,1:0:0:0:
203,7,223378,6,0,P|281:17|339:33,1,136.499995834351,14|0,3:2|3:0,2:0:0:0:
287,223,223990,2,0,P|360:178|368:115,1,136.499995834351,14|0,1:2|2:0,2:0:0:0:
512,68,224602,2,0,P|498:122|501:174,1,90.9999972229005,10|2,3:2|1:2,0:0:0:0:
512,182,224887,1,2,3:2:0:0:
381,236,225190,1,14,1:2:0:0:
475,336,225502,2,0,P|480:317|494:287,2,45.4999986114502,2|2|2,3:2|2:0|1:2,0:0:0:0:
429,366,225815,6,0,P|326:368|249:279,1,227.499993057251,12|0,3:2|2:0,2:0:0:0:
223,206,226440,2,0,P|149:219|97:237,1,90.9999972229005,14|0,1:2|0:0,2:0:0:0:
53,245,226752,2,0,P|27:132|11:76,1,136.499995834351,2|10,2:0|3:2,2:0:0:0:
190,21,227371,2,0,P|144:94|154:157,2,136.499995834351,2|12|2,3:2|1:2|1:2,0:0:0:0:
274,119,228289,6,0,B|344:131|316:175|412:192,1,136.499995834351,10|0,3:2|3:0,2:0:0:0:
390,304,228914,2,0,P|475:270|480:191,1,136.499995834351,12|0,1:2|1:0,2:0:0:0:
470,180,229318,2,0,P|475:137|489:101,2,45.4999986114502,0|0|8,1:0|1:0|3:2,0:0:0:0:
512,344,229829,1,0,3:0:0:0:
354,274,230138,1,12,1:2:0:0:
215,339,230447,6,0,P|210:375|205:408,2,45.4999986114502,0|0|0,1:0|1:0|1:0,0:0:0:0:
228,324,230757,1,8,3:2:0:0:
131,275,231076,6,0,P|104:283|80:297,2,45.4999986114502,0|0|0,1:0|1:0|1:0,0:0:0:0:
152,282,231395,1,10,3:2:0:0:
248,212,231714,6,0,P|278:221|298:237,2,45.4999986114502,0|0|0,1:0|1:0|1:0,0:0:0:0:
221,215,232033,1,2,3:2:0:0:
69,130,232342,6,2,P|48:101|44:76,2,45.4999986114502,2|2|2,1:2|1:2|1:2,2:2:0:0:
91,140,232651,2,0,P|130:130|233:117,1,130,2|8,1:2|2:3,0:0:0:0:
435,60,233257,6,0,B|394:48|365:46|365:46|339:85|338:133,1,136.499995834351,4|0,3:2|0:0,2:0:0:0:
276,177,233882,2,0,B|417:169|373:68|523:58,1,272.999991668701,14|8,1:2|3:2,2:0:0:0:
382,7,234819,1,2,3:2:0:0:
299,93,235132,1,14,1:2:0:0:
366,204,235444,1,10,2:3:0:0:
490,175,235757,6,0,P|470:259|473:314,1,130,12|0,3:2|3:0,2:0:0:0:
376,378,236369,2,0,P|336:332|328:292,1,86.6666666666667,14|0,1:2|2:0,2:0:0:0:
288,244,236675,2,0,B|179:222|148:215|148:215|114:259|59:271,1,227.499993057251,2|0,1:2|1:0,2:0:0:0:
40,247,237287,1,2,3:2:0:0:
17,145,237593,2,0,P|57:90|164:100,1,136.499995834351,12|2,1:2|3:2,2:0:0:0:
196,32,238103,1,0,1:0:0:0:
210,30,238205,6,0,P|295:46|393:86,1,136.499995834351,10|0,3:2|3:0,2:0:0:0:
208,258,238818,2,0,P|364:215|405:98,1,272.999991668701,14|8,1:2|3:2,0:0:0:0:
483,89,239636,1,0,1:0:0:0:
492,82,239739,2,0,P|485:28|464:-12,1,90.9999972229005,2|0,3:2|2:0,2:0:0:0:
362,46,240048,2,0,P|352:118|347:191,1,136.499995834351,14|2,1:2|1:2,2:0:0:0:
173,104,240679,2,0,P|123:74|111:58,1,68.2499979171754,8|0,3:2|1:0,0:0:0:0:
75,1,240995,1,0,3:0:0:0:
136,186,241311,6,0,P|27:207|-12:228,1,136.499995834351,10|10,1:2|2:3,2:0:0:0:
20,328,241923,2,0,P|84:284|146:272,2,90.9999972229005,4|0|0,1:2|1:0|1:0,2:0:0:0:
169,376,242523,2,0,P|173:319|188:270,2,90.9999972229005,6|0|0,1:2|1:0|1:0,2:0:0:0:
334,318,243123,6,0,P|255:232|222:60,1,272.999991668701,14|14,3:2|1:2,2:0:0:0:
356,162,244290,1,0,0:0:0:0:
366,155,244393,2,0,P|392:93|436:57,1,90.9999972229005,2|0,3:2|0:0,0:0:0:0:
356,19,244702,1,2,3:2:0:0:
503,109,245012,1,6,1:2:0:0:
413,250,245318,2,0,P|396:290|394:337,1,90.9999972229005,2|0,3:2|1:0,2:0:0:0:
417,357,245624,6,0,P|306:337|130:321,1,272.999991668701,4|14,3:2|1:2,2:0:0:0:
19,239,246545,2,0,P|100:208|126:147,1,136.499995834351,2|10,2:0|3:2,2:0:0:0:
110,132,247046,1,2,1:2:0:0:
225,24,247462,1,12,1:2:0:0:
309,80,247781,2,0,P|344:70|374:68,2,43.3333333333333,2|2|2,1:2|1:2|1:2,0:0:0:0:
279,114,248107,6,0,P|298:193|314:272,1,116.999996429443,14|0,3:2|3:0,0:0:0:0:
390,330,248719,2,0,P|412:236|433:179,1,130,14|0,1:2|3:0,0:0:0:0:
506,164,249350,2,0,P|447:117|398:122,1,104,4|0,3:2|3:0,2:0:0:0:
314,80,249962,2,0,P|269:129|263:192,1,97.50000371933,4|0,1:2|3:0,2:0:0:0:
153,168,250574,6,2,P|167:222|172:242,1,73.6666680717469,2|2,3:2|2:2,2:2:0:0:
256,236,250880,2,2,P|242:290|240:312,1,73.6666680717469,2|2,3:2|2:2,2:2:0:0:
324,287,251186,2,2,P|335:332|341:359,1,73.6666680717469,2|2,1:2|2:2,2:2:0:0:
436,313,251498,2,2,P|420:372|418:391,1,73.6666680717469,2|2,1:2|2:2,2:2:0:0:
425,233,251811,6,0,P|484:221|519:221,1,82.3333311347962,4|0,1:3|0:0,0:0:0:0:
351,182,252123,2,0,P|292:170|257:170,1,82.3333311347962,4|0,1:3|0:0,0:0:0:0:
418,122,252436,2,0,P|469:115|506:108,1,86.6666666666667,4|0,1:3|0:0,0:0:0:0:
342,60,252742,6,2,P|265:44|205:40,1,136.499995834351,8|0,1:2|0:0,2:1:0:0:
