osu file format v14

[General]
AudioFilename: audio.mp3
AudioLeadIn: 0
PreviewTime: 113504
Countdown: 0
SampleSet: Soft
StackLeniency: 0.5
Mode: 0
LetterboxInBreaks: 0
EpilepsyWarning: 1
WidescreenStoryboard: 1

[Editor]
Bookmarks: 2145,19288,27860,45003,62145,70717,87860,105003,113574,130717,141431,158574,175717,184288
DistanceSpacing: 1
BeatDivisor: 8
GridSize: 32
TimelineZoom: 3.399998

[Metadata]
Title:Marunouchi Sadistic (neetskills remix)
TitleUnicode:丸ノ内サディスティック (neetskills remix)
Artist:Sheena Ringo
ArtistUnicode:椎名林檎
Creator:-Mikan
Version:toybot's Extra
Source:
Tags:Pentori toybot vikala Sing Axarious Djulus -MikanMyMommy MikanMyMommy Ducky- MRL Yumiko Shiina Shina 椎名 裕美子 Tokyo Jihen Incidents 東京事変 tech japanese english jazz woob electronic jpop pop
BeatmapID:2595876
BeatmapSetID:1125370

[Difficulty]
HPDrainRate:5
CircleSize:3.6
OverallDifficulty:8.3
ApproachRate:9.4
SliderMultiplier:1.8
SliderTickRate:0.5

[Events]
//Background and Video events
0,0,"main_visual_momoco-ex-pc.jpg",0,0
//Break Periods
//Storyboard Layer 0 (Background)
Sprite,Background,Centre,"sb\dot.png",0,240 F,0,113353,,0.6 C,0,113353,,200,0,0 V,0,113353,,25,480 P,0,113353,,A F,19,113503,,0.6,0.9 F,18,113503,,0.9,0.6 V,19,113503,,25,480,32.5,624 V,18,113503,,32.5,624,25,480 MX,0,113503,113569,335.3642,329.1716 F,19,113503,113637,0.6,0.9 V,19,113503,113637,25,480,32.5,624 MX,0,113569,113636,329.1716,347.9303 MX,0,113636,113703,347.9303,335.3642 F,18,113637,113771,0.9,0.6 V,18,113637,113771,32.5,624,25,480 MX,0,113703,113503,335.3642,345 MX,0,113703,113771,335.3642,335 MX,0,113771,113837,335,350.4113 F,19,113771,113972,0.6,0.9 V,19,113771,113972,25,480,32.5,624 MX,0,113837,113904,350.4113,347.7316 MX,0,113904,113971,347.7316,350.4113 MX,0,113971,114038,350.4113,335 F,18,113972,114173,0.9,0.6 V,18,113972,114173,32.5,624,25,480 MX,0,114038,114173,335,128 MX,0,114173,114239,128,186.1326 F,19,114173,114373,0.6,0.9 V,19,114173,114373,25,480,32.5,624 MX,0,114239,114306,186.1326,252.8483 MX,0,114306,114373,252.8483,186.1326 MX,0,114373,114440,186.1326,128 F,18,114373,114574,0.9,0.6 V,18,114373,114574,32.5,624,25,480 MX,0,114440,114574,128,220 MX,0,114574,114640,220,168.9748 F,19,114574,114641,0.6,0.9 V,19,114574,114641,25,480,32.5,624 MX,0,114640,114708,168.9748,192 F,18,114641,114708,0.9,0.6 V,18,114641,114708,32.5,624,25,480 MX,0,114708,114774,192,258.6456 F,19,114708,114842,0.6,0.9 V,19,114708,114842,25,480,32.5,624 MX,0,114774,114841,258.6456,315.3066 MX,0,114841,114908,315.3066,346.8127 F,18,114842,114976,0.9,0.6 V,18,114842,114976,32.5,624,25,480 MX,0,114908,114976,346.8127,332 F,19,114976,115043,0.6,0.9 V,19,114976,115043,25,480,37.5,720 MX,0,114976,115110,332,511 F,18,115043,115110,0.9,0.6 V,18,115043,115110,37.5,720,25,480 F,19,115110,115244,0.6,0.9 V,19,115110,115244,25,480,37.5,720 MX,0,115110,115378,511,527 F,18,115244,115378,0.9,0.6 V,18,115244,115378,37.5,720,25,480 MX,0,115378,115444,527,532.0999 F,19,115378,115512,0.6,0.9 V,19,115378,115512,25,480,32.5,624 MX,0,115444,115511,532.0999,497.1279 MX,0,115511,115578,497.1279,487.3327 F,18,115512,115646,0.9,0.6 V,18,115512,115646,32.5,624,25,480 MX,0,115578,115646,487.3327,511 MX,0,115646,115712,511,518.4388 F,19,115646,115847,0.6,0.9 V,19,115646,115847,25,480,32.5,624 MX,0,115712,115779,518.4388,485.1938 MX,0,115779,115846,485.1938,431.4217 MX,0,115846,115913,431.4217,416.6109 F,18,115847,116048,0.9,0.6 V,18,115847,116048,32.5,624,25,480 MX,0,115913,116048,416.6109,388 MX,0,116048,116114,388,407.7164 F,19,116048,116248,0.6,0.9 V,19,116048,116248,25,480,32.5,624 MX,0,116114,116181,407.7164,399.3487 MX,0,116181,116449,399.3487,399 F,18,116248,116449,0.9,0.6 V,18,116248,116449,32.5,624,25,480 MX,0,116449,116515,399,379.2836 F,19,116449,116583,0.6,0.9 V,19,116449,116583,25,480,32.5,624 MX,0,116515,116582,379.2836,387.6513 MX,0,116582,116717,387.6513,469 F,18,116583,116717,0.9,0.6 V,18,116583,116717,32.5,624,25,480 MX,0,116717,116783,469,383.2524 F,19,116717,116918,0.6,0.9 V,19,116717,116918,25,480,32.5,624 MX,0,116783,116850,383.2524,297.2973 MX,0,116850,116917,297.2973,383.2524 MX,0,116917,116984,383.2524,469 F,18,116918,117119,0.9,0.6 V,18,116918,117119,32.5,624,25,480 MX,0,116984,117119,469,217 MX,0,117119,117185,217,185.9341 F,19,117119,117186,0.6,0.9 V,19,117119,117186,25,480,32.5,624 MX,0,117185,117253,185.9341,262 F,18,117186,117253,0.9,0.6 V,18,117186,117253,32.5,624,25,480 MX,0,117253,117319,262,218.0112 F,19,117253,117387,0.6,0.9 V,19,117253,117387,25,480,32.5,624 MX,0,117319,117386,218.0112,201.6225 MX,0,117386,117453,201.6225,216 F,18,117387,117521,0.9,0.6 V,18,117387,117521,32.5,624,25,480 MX,0,117453,117521,216,297 MX,0,117521,117587,297,327.2468 F,19,117521,117655,0.6,0.9 V,19,117521,117655,25,480,32.5,624 MX,0,117587,117654,327.2468,339.7885 MX,0,117654,117721,339.7885,302.2006 F,18,117655,117789,0.9,0.6 V,18,117655,117789,32.5,624,25,480 MX,0,117721,117789,302.2006,274 MX,0,117789,117855,274,330.219 F,19,117789,117989,0.6,0.9 V,19,117789,117989,25,480,32.5,624 MX,0,117855,117922,330.219,374.1036 MX,0,117922,117989,374.1036,385.0675 MX,0,117989,118056,385.0675,380.5543 F,18,117989,118190,0.9,0.6 V,18,117989,118190,32.5,624,25,480 MX,0,118056,118190,380.5543,540 MX,0,118190,118256,540,475.1123 F,19,118190,118391,0.6,0.9 V,19,118190,118391,25,480,32.5,624 MX,0,118256,118323,475.1123,433.5496 MX,0,118323,118390,433.5496,475.1123 MX,0,118390,118457,475.1123,540 F,18,118391,118592,0.9,0.6 V,18,118391,118592,32.5,624,25,480 MX,0,118457,118592,540,258 MX,0,118592,118658,258,313.874 F,19,118592,118726,0.6,0.9 V,19,118592,118726,25,480,32.5,624 MX,0,118658,118725,313.874,380.1873 MX,0,118725,118860,380.1873,417 F,18,118726,118860,0.9,0.6 V,18,118726,118860,32.5,624,25,480 F,19,118860,118927,0.6,0.9 V,19,118860,118927,25,480,37.5,720 MX,0,118860,118994,417,167 F,18,118927,118994,0.9,0.6 V,18,118927,118994,37.5,720,25,480 F,19,118994,119128,0.6,0.9 V,19,118994,119128,25,480,37.5,720 MX,0,118994,119262,167,181 F,18,119128,119262,0.9,0.6 V,18,119128,119262,37.5,720,25,480 MX,0,119262,119328,181,174 F,19,119262,119329,0.6,0.9 V,19,119262,119329,25,480,32.5,624 MX,0,119328,119396,174,204 F,18,119329,119396,0.9,0.6 V,18,119329,119396,32.5,624,25,480 MX,0,119396,119462,204,137.5573 F,19,119396,119530,0.6,0.9 V,19,119396,119530,25,480,32.5,624 MX,0,119462,119529,137.5573,72.34613 MX,0,119529,119664,72.34613,283 F,18,119530,119664,0.9,0.6 V,18,119530,119664,32.5,624,25,480 MX,0,119664,119730,283,296.508 F,19,119664,119764,0.6,0.9 V,19,119664,119764,25,480,32.5,624 MX,0,119730,119797,296.508,308.9503 F,18,119764,119865,0.9,0.6 V,18,119764,119865,32.5,624,25,480 MX,0,119797,119865,308.9503,295 F,19,119865,119898,0.6,0.9 V,19,119865,119898,25,480,37.5,720 MX,0,119865,119932,295 F,18,119898,119932,0.9,0.6 V,18,119898,119932,37.5,720,25,480 MX,0,119932,119998,295,232.0582 F,19,119932,120065,0.6,0.9 V,19,119932,120065,25,480,32.5,624 MX,0,119998,120065,232.0582,163.7067 MX,0,120065,120132,163.7067,90.46904 F,18,120065,120199,0.9,0.6 V,18,120065,120199,32.5,624,25,480 MX,0,120132,120199,90.46904,73 MX,0,120199,120265,73,50.14287 F,19,120199,120333,0.6,0.9 V,19,120199,120333,25,480,32.5,624 MX,0,120265,120332,50.14287,67.97034 MX,0,120332,120467,67.97034,367 F,18,120333,120467,0.9,0.6 V,18,120333,120467,32.5,624,25,480 F,19,120467,120500,0.6,0.9 V,19,120467,120500,25,480,37.5,720 MX,0,120467,120534,367 F,18,120500,120534,0.9,0.6 V,18,120500,120534,37.5,720,25,480 F,19,120534,120567,0.6,0.9 V,19,120534,120567,25,480,37.5,720 MX,0,120534,120601,367 F,18,120567,120601,0.9,0.6 V,18,120567,120601,37.5,720,25,480 MX,0,120601,120667,367,426.609 F,19,120601,120668,0.6,0.9 V,19,120601,120668,25,480,32.5,624 MX,0,120667,120735,426.609,489 F,18,120668,120735,0.9,0.6 V,18,120668,120735,32.5,624,25,480 MX,0,120735,120801,489,511.8571 F,19,120735,120869,0.6,0.9 V,19,120735,120869,25,480,32.5,624 MX,0,120801,120868,511.8571,494.0297 MX,0,120868,121003,494.0297,282 F,18,120869,121003,0.9,0.6 V,18,120869,121003,32.5,624,25,480 MX,0,121003,121069,282,221.1672 F,19,121003,121070,0.6,0.9 V,19,121003,121070,25,480,32.5,624 MX,0,121069,121137,221.1672,151 F,18,121070,121137,0.9,0.6 V,18,121070,121137,32.5,624,25,480 MX,0,121137,121203,151,121.778 F,19,121137,121271,0.6,0.9 V,19,121137,121271,25,480,32.5,624 MX,0,121203,121270,121.778,152.0559 MX,0,121270,121337,152.0559,143.0213 F,18,121271,121405,0.9,0.6 V,18,121271,121405,32.5,624,25,480 MX,0,121337,121405,143.0213,221 MX,0,121405,121471,221,284 F,19,121405,121472,0.6,0.9 V,19,121405,121472,25,480,32.5,624 MX,0,121471,121539,284,384 F,18,121472,121539,0.9,0.6 V,18,121472,121539,32.5,624,25,480 MX,0,121539,121605,384,448.2624 F,19,121539,121673,0.6,0.9 V,19,121539,121673,25,480,32.5,624 MX,0,121605,121672,448.2624,509 MX,0,121672,121807,509,277 F,18,121673,121807,0.9,0.6 V,18,121673,121807,32.5,624,25,480 F,19,121807,121873,0.6,0.9 MX,0,121807,121873,277,262 V,19,121807,121873,25,480,32.5,624 F,18,121873,121940,0.9,0.6 MX,0,121873,121940,262,368 V,18,121873,121940,32.5,624,25,480 MX,0,121940,122006,368,382.0031 F,19,121940,122007,0.6,0.9 V,19,121940,122007,25,480,32.5,624 MX,0,122006,122074,382.0031,382 F,18,122007,122074,0.9,0.6 V,18,122007,122074,32.5,624,25,480 MX,0,122074,122140,382,315.6339 F,19,122074,122208,0.6,0.9 V,19,122074,122208,25,480,32.5,624 MX,0,122140,122207,315.6339,262.5688 MX,0,122207,122342,262.5688,154 F,18,122208,122342,0.9,0.6 V,18,122208,122342,32.5,624,25,480 MX,0,122342,122408,154,126.8196 F,19,122342,122543,0.6,0.9 V,19,122342,122543,25,480,32.5,624 MX,0,122408,122475,126.8196,165.803 MX,0,122475,122542,165.803,126.8196 MX,0,122542,122609,126.8196,154 F,18,122543,122744,0.9,0.6 V,18,122543,122744,32.5,624,25,480 MX,0,122609,122744,154,311 F,19,122744,122811,0.6,0.9 V,19,122744,122811,25,480,37.5,720 MX,0,122744,122878,311,184 F,18,122811,122878,0.9,0.6 V,18,122811,122878,37.5,720,25,480 MX,0,122878,122944,184,250.0093 F,19,122878,123012,0.6,0.9 V,19,122878,123012,25,480,32.5,624 MX,0,122944,123011,250.0093,298 MX,0,123011,123146,298,515 F,18,123012,123146,0.9,0.6 V,18,123012,123146,32.5,624,25,480 MX,0,123146,123212,515,493.0202 F,19,123146,123213,0.6,0.9 V,19,123146,123213,25,480,32.5,624 MX,0,123212,123280,493.0202,480 F,18,123213,123280,0.9,0.6 V,18,123213,123280,32.5,624,25,480 MX,0,123280,123346,480,470.1953 F,19,123280,123414,0.6,0.9 V,19,123280,123414,25,480,32.5,624 MX,0,123346,123413,470.1953,425.6275 MX,0,123413,123480,425.6275,406.2412 F,18,123414,123548,0.9,0.6 V,18,123414,123548,32.5,624,25,480 MX,0,123480,123548,406.2412,393 F,19,123548,123615,0.6,0.9 V,19,123548,123615,25,480,37.5,720 MX,0,123548,123682,393,387 F,18,123615,123682,0.9,0.6 V,18,123615,123682,37.5,720,25,480 F,19,123682,123815,0.6,0.9 V,19,123682,123815,25,480,37.5,720 MX,0,123682,123949,387,398 F,18,123815,123949,0.9,0.6 V,18,123815,123949,37.5,720,25,480 MX,0,123949,124015,398,424.7455 F,19,123949,124083,0.6,0.9 V,19,123949,124083,25,480,32.5,624 MX,0,124015,124082,424.7455,383.6628 MX,0,124082,124149,383.6628,322.339 F,18,124083,124217,0.9,0.6 V,18,124083,124217,32.5,624,25,480 MX,0,124149,124217,322.339,218 MX,0,124217,124283,218,201.6576 F,19,124217,124418,0.6,0.9 V,19,124217,124418,25,480,32.5,624 MX,0,124283,124350,201.6576,237.9012 MX,0,124350,124417,237.9012,293.8103 MX,0,124417,124484,293.8103,306.7299 F,18,124418,124619,0.9,0.6 V,18,124418,124619,32.5,624,25,480 MX,0,124484,124619,306.7299,64 MX,0,124619,124685,64,123.6166 F,19,124619,124820,0.6,0.9 V,19,124619,124820,25,480,32.5,624 MX,0,124685,124752,123.6166,190.5079 MX,0,124752,125021,190.5079,190 F,18,124820,125021,0.9,0.6 V,18,124820,125021,32.5,624,25,480 MX,0,125021,125087,190,130.3834 F,19,125021,125155,0.6,0.9 V,19,125021,125155,25,480,32.5,624 MX,0,125087,125154,130.3834,63.49207 MX,0,125154,125289,63.49207,109 F,18,125155,125289,0.9,0.6 V,18,125155,125289,32.5,624,25,480 MX,0,125289,125355,109,129.4175 F,19,125289,125489,0.6,0.9 V,19,125289,125489,25,480,32.5,624 MX,0,125355,125422,129.4175,146.1257 MX,0,125422,125489,146.1257,129.4175 MX,0,125489,125556,129.4175,109 F,18,125489,125690,0.9,0.6 V,18,125489,125690,32.5,624,25,480 MX,0,125556,125690,109,196 MX,0,125690,125756,196,276.2318 F,19,125690,125757,0.6,0.9 V,19,125690,125757,25,480,32.5,624 MX,0,125756,125824,276.2318,334 F,18,125757,125824,0.9,0.6 V,18,125757,125824,32.5,624,25,480 MX,0,125824,125890,334,272.9827 F,19,125824,125958,0.6,0.9 V,19,125824,125958,25,480,32.5,624 MX,0,125890,125957,272.9827,214.2142 MX,0,125957,126024,214.2142,195.7387 F,18,125958,126092,0.9,0.6 V,18,125958,126092,32.5,624,25,480 MX,0,126024,126092,195.7387,276 MX,0,126092,126158,276,293.919 F,19,126092,126226,0.6,0.9 V,19,126092,126226,25,480,32.5,624 MX,0,126158,126225,293.919,257.7476 MX,0,126225,126292,257.7476,259.6257 F,18,126226,126360,0.9,0.6 V,18,126226,126360,32.5,624,25,480 MX,0,126292,126360,259.6257,237 MX,0,126360,126426,237,254.1121 F,19,126360,126561,0.6,0.9 V,19,126360,126561,25,480,32.5,624 MX,0,126426,126493,254.1121,315.9026 MX,0,126493,126560,315.9026,366.2741 MX,0,126560,126627,366.2741,431.5562 F,18,126561,126762,0.9,0.6 V,18,126561,126762,32.5,624,25,480 MX,0,126627,126762,431.5562,519 MX,0,126762,126828,519,455.3662 F,19,126762,126963,0.6,0.9 V,19,126762,126963,25,480,32.5,624 MX,0,126828,126895,455.3662,476.2639 MX,0,126895,126962,476.2639,455.3662 MX,0,126962,127029,455.3662,519 F,18,126963,127164,0.9,0.6 V,18,126963,127164,32.5,624,25,480 MX,0,127029,127164,519,566 MX,0,127164,127230,566,550.4204 F,19,127164,127298,0.6,0.9 V,19,127164,127298,25,480,32.5,624 MX,0,127230,127297,550.4204,538 MX,0,127297,127432,538,443 F,18,127298,127432,0.9,0.6 V,18,127298,127432,32.5,624,25,480 F,19,127432,127498,0.6,0.9 V,19,127432,127498,25,480,37.5,720 MX,0,127432,127565,443,397 F,18,127498,127565,0.9,0.6 V,18,127498,127565,37.5,720,25,480 F,19,127565,127699,0.6,0.9 V,19,127565,127699,25,480,37.5,720 MX,0,127565,127833,397,383 F,18,127699,127833,0.9,0.6 V,18,127699,127833,37.5,720,25,480 MX,0,127833,127899,383,448.0695 F,19,127833,127900,0.6,0.9 V,19,127833,127900,25,480,32.5,624 MX,0,127899,127967,448.0695,514 F,18,127900,127967,0.9,0.6 V,18,127900,127967,32.5,624,25,480 MX,0,127967,128033,514,449.8591 F,19,127967,128101,0.6,0.9 V,19,127967,128101,25,480,32.5,624 MX,0,128033,128100,449.8591,383.2509 MX,0,128100,128235,383.2509,262 F,18,128101,128235,0.9,0.6 V,18,128101,128235,32.5,624,25,480 MX,0,128235,128301,262,288.483 F,19,128235,128335,0.6,0.9 V,19,128235,128335,25,480,32.5,624 MX,0,128301,128368,288.483,303.9432 F,18,128335,128436,0.9,0.6 V,18,128335,128436,32.5,624,25,480 MX,0,128368,128436,303.9432,233 F,19,128436,128469,0.6,0.9 V,19,128436,128469,25,480,37.5,720 MX,0,128436,128503,233 F,18,128469,128503,0.9,0.6 V,18,128469,128503,37.5,720,25,480 MX,0,128503,128569,233,291.2596 F,19,128503,128637,0.6,0.9 V,19,128503,128637,25,480,32.5,624 MX,0,128569,128636,291.2596,348.7738 MX,0,128636,128703,348.7738,405 F,18,128637,128771,0.9,0.6 V,18,128637,128771,32.5,624,25,480 MX,0,128703,128771,405,403 MX,0,128771,128837,403,445.614 F,19,128771,128905,0.6,0.9 V,19,128771,128905,25,480,32.5,624 MX,0,128837,128904,445.614,428.5292 MX,0,128904,129039,428.5292,445 F,18,128905,129039,0.9,0.6 V,18,128905,129039,32.5,624,25,480 F,19,129039,129072,0.6,0.9 V,19,129039,129072,25,480,37.5,720 MX,0,129039,129106,445 F,18,129072,129106,0.9,0.6 V,18,129072,129106,37.5,720,25,480 F,19,129106,129139,0.6,0.9 V,19,129106,129139,25,480,37.5,720 MX,0,129106,129173,445 F,18,129139,129173,0.9,0.6 V,18,129139,129173,37.5,720,25,480 MX,0,129173,129239,445,404 F,19,129173,129240,0.6,0.9 V,19,129173,129240,25,480,32.5,624 MX,0,129239,129307,404,303 F,18,129240,129307,0.9,0.6 V,18,129240,129307,32.5,624,25,480 MX,0,129307,129373,303,269.5091 F,19,129307,129440,0.6,0.9 V,19,129307,129440,25,480,32.5,624 MX,0,129373,129440,269.5091,300 F,18,129440,129574,0.9,0.6 MX,0,129440,129574,300,480 V,18,129440,129574,32.5,624,25,480 MX,0,129574,129640,480,445.5823 MX,0,129640,129707,445.5823,402.8018 MX,0,129707,129774,402.8018,359.0148 MX,0,129774,129841,359.0148,321.6469 MX,0,129841,129908,321.6469,287.0831 MX,0,129908,129975,287.0831,246.3703 MX,0,129975,130042,246.3703,201.8398 MX,0,130042,130109,201.8398,163.0315 MX,0,130109,130176,163.0315,201.8398 MX,0,130176,130243,201.8398,246.3703 MX,0,130243,130310,246.3703,287.0831 MX,0,130310,130377,287.0831,321.6469 MX,0,130377,130444,321.6469,359.0148 MX,0,130444,130511,359.0148,402.8018 MX,0,130511,130578,402.8018,445.5823 MX,0,130578,130645,445.5823,480
Sprite,Background,Centre,"sb\dot.png",0,240 F,0,113353,,0.6 C,0,113353,,0,200,0 V,0,113353,,25,480 P,0,113353,,A F,19,113503,,0.6,0.9 F,18,113503,,0.9,0.6 V,19,113503,,25,480,32.5,624 V,18,113503,,32.5,624,25,480 MX,0,113503,113569,340.3642,334.1716 F,19,113503,113637,0.6,0.9 V,19,113503,113637,25,480,32.5,624 MX,0,113569,113636,334.1716,352.9303 MX,0,113636,113703,352.9303,340.3642 F,18,113637,113771,0.9,0.6 V,18,113637,113771,32.5,624,25,480 MX,0,113703,113503,340.3642,350 MX,0,113703,113771,340.3642,340 MX,0,113771,113837,340,355.4113 F,19,113771,113972,0.6,0.9 V,19,113771,113972,25,480,32.5,624 MX,0,113837,113904,355.4113,352.7316 MX,0,113904,113971,352.7316,355.4113 MX,0,113971,114038,355.4113,340 F,18,113972,114173,0.9,0.6 V,18,113972,114173,32.5,624,25,480 MX,0,114038,114173,340,133 MX,0,114173,114239,133,191.1326 F,19,114173,114373,0.6,0.9 V,19,114173,114373,25,480,32.5,624 MX,0,114239,114306,191.1326,257.8483 MX,0,114306,114373,257.8483,191.1326 MX,0,114373,114440,191.1326,133 F,18,114373,114574,0.9,0.6 V,18,114373,114574,32.5,624,25,480 MX,0,114440,114574,133,225 MX,0,114574,114640,225,173.9748 F,19,114574,114641,0.6,0.9 V,19,114574,114641,25,480,32.5,624 MX,0,114640,114708,173.9748,197 F,18,114641,114708,0.9,0.6 V,18,114641,114708,32.5,624,25,480 MX,0,114708,114774,197,263.6456 F,19,114708,114842,0.6,0.9 V,19,114708,114842,25,480,32.5,624 MX,0,114774,114841,263.6456,320.3066 MX,0,114841,114908,320.3066,351.8127 F,18,114842,114976,0.9,0.6 V,18,114842,114976,32.5,624,25,480 MX,0,114908,114976,351.8127,337 F,19,114976,115043,0.6,0.9 V,19,114976,115043,25,480,37.5,720 MX,0,114976,115110,337,516 F,18,115043,115110,0.9,0.6 V,18,115043,115110,37.5,720,25,480 F,19,115110,115244,0.6,0.9 V,19,115110,115244,25,480,37.5,720 MX,0,115110,115378,516,532 F,18,115244,115378,0.9,0.6 V,18,115244,115378,37.5,720,25,480 MX,0,115378,115444,532,537.0999 F,19,115378,115512,0.6,0.9 V,19,115378,115512,25,480,32.5,624 MX,0,115444,115511,537.0999,502.1279 MX,0,115511,115578,502.1279,492.3327 F,18,115512,115646,0.9,0.6 V,18,115512,115646,32.5,624,25,480 MX,0,115578,115646,492.3327,516 MX,0,115646,115712,516,523.4388 F,19,115646,115847,0.6,0.9 V,19,115646,115847,25,480,32.5,624 MX,0,115712,115779,523.4388,490.1938 MX,0,115779,115846,490.1938,436.4217 MX,0,115846,115913,436.4217,421.6109 F,18,115847,116048,0.9,0.6 V,18,115847,116048,32.5,624,25,480 MX,0,115913,116048,421.6109,393 MX,0,116048,116114,393,412.7164 F,19,116048,116248,0.6,0.9 V,19,116048,116248,25,480,32.5,624 MX,0,116114,116181,412.7164,404.3487 MX,0,116181,116449,404.3487,404 F,18,116248,116449,0.9,0.6 V,18,116248,116449,32.5,624,25,480 MX,0,116449,116515,404,384.2836 F,19,116449,116583,0.6,0.9 V,19,116449,116583,25,480,32.5,624 MX,0,116515,116582,384.2836,392.6513 MX,0,116582,116717,392.6513,474 F,18,116583,116717,0.9,0.6 V,18,116583,116717,32.5,624,25,480 MX,0,116717,116783,474,388.2524 F,19,116717,116918,0.6,0.9 V,19,116717,116918,25,480,32.5,624 MX,0,116783,116850,388.2524,302.2973 MX,0,116850,116917,302.2973,388.2524 MX,0,116917,116984,388.2524,474 F,18,116918,117119,0.9,0.6 V,18,116918,117119,32.5,624,25,480 MX,0,116984,117119,474,222 MX,0,117119,117185,222,190.9341 F,19,117119,117186,0.6,0.9 V,19,117119,117186,25,480,32.5,624 MX,0,117185,117253,190.9341,267 F,18,117186,117253,0.9,0.6 V,18,117186,117253,32.5,624,25,480 MX,0,117253,117319,267,223.0112 F,19,117253,117387,0.6,0.9 V,19,117253,117387,25,480,32.5,624 MX,0,117319,117386,223.0112,206.6225 MX,0,117386,117453,206.6225,221 F,18,117387,117521,0.9,0.6 V,18,117387,117521,32.5,624,25,480 MX,0,117453,117521,221,302 MX,0,117521,117587,302,332.2468 F,19,117521,117655,0.6,0.9 V,19,117521,117655,25,480,32.5,624 MX,0,117587,117654,332.2468,344.7885 MX,0,117654,117721,344.7885,307.2006 F,18,117655,117789,0.9,0.6 V,18,117655,117789,32.5,624,25,480 MX,0,117721,117789,307.2006,279 MX,0,117789,117855,279,335.219 F,19,117789,117989,0.6,0.9 V,19,117789,117989,25,480,32.5,624 MX,0,117855,117922,335.219,379.1036 MX,0,117922,117989,379.1036,390.0675 MX,0,117989,118056,390.0675,385.5543 F,18,117989,118190,0.9,0.6 V,18,117989,118190,32.5,624,25,480 MX,0,118056,118190,385.5543,545 MX,0,118190,118256,545,480.1123 F,19,118190,118391,0.6,0.9 V,19,118190,118391,25,480,32.5,624 MX,0,118256,118323,480.1123,438.5496 MX,0,118323,118390,438.5496,480.1123 MX,0,118390,118457,480.1123,545 F,18,118391,118592,0.9,0.6 V,18,118391,118592,32.5,624,25,480 MX,0,118457,118592,545,263 MX,0,118592,118658,263,318.874 F,19,118592,118726,0.6,0.9 V,19,118592,118726,25,480,32.5,624 MX,0,118658,118725,318.874,385.1873 MX,0,118725,118860,385.1873,422 F,18,118726,118860,0.9,0.6 V,18,118726,118860,32.5,624,25,480 F,19,118860,118927,0.6,0.9 V,19,118860,118927,25,480,37.5,720 MX,0,118860,118994,422,172 F,18,118927,118994,0.9,0.6 V,18,118927,118994,37.5,720,25,480 F,19,118994,119128,0.6,0.9 V,19,118994,119128,25,480,37.5,720 MX,0,118994,119262,172,186 F,18,119128,119262,0.9,0.6 V,18,119128,119262,37.5,720,25,480 MX,0,119262,119328,186,179 F,19,119262,119329,0.6,0.9 V,19,119262,119329,25,480,32.5,624 MX,0,119328,119396,179,209 F,18,119329,119396,0.9,0.6 V,18,119329,119396,32.5,624,25,480 MX,0,119396,119462,209,142.5573 F,19,119396,119530,0.6,0.9 V,19,119396,119530,25,480,32.5,624 MX,0,119462,119529,142.5573,77.34613 MX,0,119529,119664,77.34613,288 F,18,119530,119664,0.9,0.6 V,18,119530,119664,32.5,624,25,480 MX,0,119664,119730,288,301.508 F,19,119664,119764,0.6,0.9 V,19,119664,119764,25,480,32.5,624 MX,0,119730,119797,301.508,313.9503 F,18,119764,119865,0.9,0.6 V,18,119764,119865,32.5,624,25,480 MX,0,119797,119865,313.9503,300 F,19,119865,119898,0.6,0.9 V,19,119865,119898,25,480,37.5,720 MX,0,119865,119932,300 F,18,119898,119932,0.9,0.6 V,18,119898,119932,37.5,720,25,480 MX,0,119932,119998,300,237.0582 F,19,119932,120065,0.6,0.9 V,19,119932,120065,25,480,32.5,624 MX,0,119998,120065,237.0582,168.7067 MX,0,120065,120132,168.7067,95.46904 F,18,120065,120199,0.9,0.6 V,18,120065,120199,32.5,624,25,480 MX,0,120132,120199,95.46904,78 MX,0,120199,120265,78,55.14287 F,19,120199,120333,0.6,0.9 V,19,120199,120333,25,480,32.5,624 MX,0,120265,120332,55.14287,72.97034 MX,0,120332,120467,72.97034,372 F,18,120333,120467,0.9,0.6 V,18,120333,120467,32.5,624,25,480 F,19,120467,120500,0.6,0.9 V,19,120467,120500,25,480,37.5,720 MX,0,120467,120534,372 F,18,120500,120534,0.9,0.6 V,18,120500,120534,37.5,720,25,480 F,19,120534,120567,0.6,0.9 V,19,120534,120567,25,480,37.5,720 MX,0,120534,120601,372 F,18,120567,120601,0.9,0.6 V,18,120567,120601,37.5,720,25,480 MX,0,120601,120667,372,431.609 F,19,120601,120668,0.6,0.9 V,19,120601,120668,25,480,32.5,624 MX,0,120667,120735,431.609,494 F,18,120668,120735,0.9,0.6 V,18,120668,120735,32.5,624,25,480 MX,0,120735,120801,494,516.8571 F,19,120735,120869,0.6,0.9 V,19,120735,120869,25,480,32.5,624 MX,0,120801,120868,516.8571,499.0297 MX,0,120868,121003,499.0297,287 F,18,120869,121003,0.9,0.6 V,18,120869,121003,32.5,624,25,480 MX,0,121003,121069,287,226.1672 F,19,121003,121070,0.6,0.9 V,19,121003,121070,25,480,32.5,624 MX,0,121069,121137,226.1672,156 F,18,121070,121137,0.9,0.6 V,18,121070,121137,32.5,624,25,480 MX,0,121137,121203,156,126.778 F,19,121137,121271,0.6,0.9 V,19,121137,121271,25,480,32.5,624 MX,0,121203,121270,126.778,157.0559 MX,0,121270,121337,157.0559,148.0213 F,18,121271,121405,0.9,0.6 V,18,121271,121405,32.5,624,25,480 MX,0,121337,121405,148.0213,226 MX,0,121405,121471,226,289 F,19,121405,121472,0.6,0.9 V,19,121405,121472,25,480,32.5,624 MX,0,121471,121539,289,389 F,18,121472,121539,0.9,0.6 V,18,121472,121539,32.5,624,25,480 MX,0,121539,121605,389,453.2624 F,19,121539,121673,0.6,0.9 V,19,121539,121673,25,480,32.5,624 MX,0,121605,121672,453.2624,514 MX,0,121672,121807,514,282 F,18,121673,121807,0.9,0.6 V,18,121673,121807,32.5,624,25,480 F,19,121807,121873,0.6,0.9 MX,0,121807,121873,282,267 V,19,121807,121873,25,480,32.5,624 F,18,121873,121940,0.9,0.6 MX,0,121873,121940,267,373 V,18,121873,121940,32.5,624,25,480 MX,0,121940,122006,373,387.0031 F,19,121940,122007,0.6,0.9 V,19,121940,122007,25,480,32.5,624 MX,0,122006,122074,387.0031,387 F,18,122007,122074,0.9,0.6 V,18,122007,122074,32.5,624,25,480 MX,0,122074,122140,387,320.6339 F,19,122074,122208,0.6,0.9 V,19,122074,122208,25,480,32.5,624 MX,0,122140,122207,320.6339,267.5688 MX,0,122207,122342,267.5688,159 F,18,122208,122342,0.9,0.6 V,18,122208,122342,32.5,624,25,480 MX,0,122342,122408,159,131.8196 F,19,122342,122543,0.6,0.9 V,19,122342,122543,25,480,32.5,624 MX,0,122408,122475,131.8196,170.803 MX,0,122475,122542,170.803,131.8196 MX,0,122542,122609,131.8196,159 F,18,122543,122744,0.9,0.6 V,18,122543,122744,32.5,624,25,480 MX,0,122609,122744,159,316 F,19,122744,122811,0.6,0.9 V,19,122744,122811,25,480,37.5,720 MX,0,122744,122878,316,189 F,18,122811,122878,0.9,0.6 V,18,122811,122878,37.5,720,25,480 MX,0,122878,122944,189,255.0093 F,19,122878,123012,0.6,0.9 V,19,122878,123012,25,480,32.5,624 MX,0,122944,123011,255.0093,303 MX,0,123011,123146,303,520 F,18,123012,123146,0.9,0.6 V,18,123012,123146,32.5,624,25,480 MX,0,123146,123212,520,498.0202 F,19,123146,123213,0.6,0.9 V,19,123146,123213,25,480,32.5,624 MX,0,123212,123280,498.0202,485 F,18,123213,123280,0.9,0.6 V,18,123213,123280,32.5,624,25,480 MX,0,123280,123346,485,475.1953 F,19,123280,123414,0.6,0.9 V,19,123280,123414,25,480,32.5,624 MX,0,123346,123413,475.1953,430.6275 MX,0,123413,123480,430.6275,411.2412 F,18,123414,123548,0.9,0.6 V,18,123414,123548,32.5,624,25,480 MX,0,123480,123548,411.2412,398 F,19,123548,123615,0.6,0.9 V,19,123548,123615,25,480,37.5,720 MX,0,123548,123682,398,392 F,18,123615,123682,0.9,0.6 V,18,123615,123682,37.5,720,25,480 F,19,123682,123815,0.6,0.9 V,19,123682,123815,25,480,37.5,720 MX,0,123682,123949,392,403 F,18,123815,123949,0.9,0.6 V,18,123815,123949,37.5,720,25,480 MX,0,123949,124015,403,429.7455 F,19,123949,124083,0.6,0.9 V,19,123949,124083,25,480,32.5,624 MX,0,124015,124082,429.7455,388.6628 MX,0,124082,124149,388.6628,327.339 F,18,124083,124217,0.9,0.6 V,18,124083,124217,32.5,624,25,480 MX,0,124149,124217,327.339,223 MX,0,124217,124283,223,206.6576 F,19,124217,124418,0.6,0.9 V,19,124217,124418,25,480,32.5,624 MX,0,124283,124350,206.6576,242.9012 MX,0,124350,124417,242.9012,298.8103 MX,0,124417,124484,298.8103,311.7299 F,18,124418,124619,0.9,0.6 V,18,124418,124619,32.5,624,25,480 MX,0,124484,124619,311.7299,69 MX,0,124619,124685,69,128.6166 F,19,124619,124820,0.6,0.9 V,19,124619,124820,25,480,32.5,624 MX,0,124685,124752,128.6166,195.5079 MX,0,124752,125021,195.5079,195 F,18,124820,125021,0.9,0.6 V,18,124820,125021,32.5,624,25,480 MX,0,125021,125087,195,135.3834 F,19,125021,125155,0.6,0.9 V,19,125021,125155,25,480,32.5,624 MX,0,125087,125154,135.3834,68.49207 MX,0,125154,125289,68.49207,114 F,18,125155,125289,0.9,0.6 V,18,125155,125289,32.5,624,25,480 MX,0,125289,125355,114,134.4175 F,19,125289,125489,0.6,0.9 V,19,125289,125489,25,480,32.5,624 MX,0,125355,125422,134.4175,151.1257 MX,0,125422,125489,151.1257,134.4175 MX,0,125489,125556,134.4175,114 F,18,125489,125690,0.9,0.6 V,18,125489,125690,32.5,624,25,480 MX,0,125556,125690,114,201 MX,0,125690,125756,201,281.2318 F,19,125690,125757,0.6,0.9 V,19,125690,125757,25,480,32.5,624 MX,0,125756,125824,281.2318,339 F,18,125757,125824,0.9,0.6 V,18,125757,125824,32.5,624,25,480 MX,0,125824,125890,339,277.9827 F,19,125824,125958,0.6,0.9 V,19,125824,125958,25,480,32.5,624 MX,0,125890,125957,277.9827,219.2142 MX,0,125957,126024,219.2142,200.7387 F,18,125958,126092,0.9,0.6 V,18,125958,126092,32.5,624,25,480 MX,0,126024,126092,200.7387,281 MX,0,126092,126158,281,298.919 F,19,126092,126226,0.6,0.9 V,19,126092,126226,25,480,32.5,624 MX,0,126158,126225,298.919,262.7476 MX,0,126225,126292,262.7476,264.6257 F,18,126226,126360,0.9,0.6 V,18,126226,126360,32.5,624,25,480 MX,0,126292,126360,264.6257,242 MX,0,126360,126426,242,259.1121 F,19,126360,126561,0.6,0.9 V,19,126360,126561,25,480,32.5,624 MX,0,126426,126493,259.1121,320.9026 MX,0,126493,126560,320.9026,371.2741 MX,0,126560,126627,371.2741,436.5562 F,18,126561,126762,0.9,0.6 V,18,126561,126762,32.5,624,25,480 MX,0,126627,126762,436.5562,524 MX,0,126762,126828,524,460.3662 F,19,126762,126963,0.6,0.9 V,19,126762,126963,25,480,32.5,624 MX,0,126828,126895,460.3662,481.2639 MX,0,126895,126962,481.2639,460.3662 MX,0,126962,127029,460.3662,524 F,18,126963,127164,0.9,0.6 V,18,126963,127164,32.5,624,25,480 MX,0,127029,127164,524,571 MX,0,127164,127230,571,555.4204 F,19,127164,127298,0.6,0.9 V,19,127164,127298,25,480,32.5,624 MX,0,127230,127297,555.4204,543 MX,0,127297,127432,543,448 F,18,127298,127432,0.9,0.6 V,18,127298,127432,32.5,624,25,480 F,19,127432,127498,0.6,0.9 V,19,127432,127498,25,480,37.5,720 MX,0,127432,127565,448,402 F,18,127498,127565,0.9,0.6 V,18,127498,127565,37.5,720,25,480 F,19,127565,127699,0.6,0.9 V,19,127565,127699,25,480,37.5,720 MX,0,127565,127833,402,388 F,18,127699,127833,0.9,0.6 V,18,127699,127833,37.5,720,25,480 MX,0,127833,127899,388,453.0695 F,19,127833,127900,0.6,0.9 V,19,127833,127900,25,480,32.5,624 MX,0,127899,127967,453.0695,519 F,18,127900,127967,0.9,0.6 V,18,127900,127967,32.5,624,25,480 MX,0,127967,128033,519,454.8591 F,19,127967,128101,0.6,0.9 V,19,127967,128101,25,480,32.5,624 MX,0,128033,128100,454.8591,388.2509 MX,0,128100,128235,388.2509,267 F,18,128101,128235,0.9,0.6 V,18,128101,128235,32.5,624,25,480 MX,0,128235,128301,267,293.483 F,19,128235,128335,0.6,0.9 V,19,128235,128335,25,480,32.5,624 MX,0,128301,128368,293.483,308.9432 F,18,128335,128436,0.9,0.6 V,18,128335,128436,32.5,624,25,480 MX,0,128368,128436,308.9432,238 F,19,128436,128469,0.6,0.9 V,19,128436,128469,25,480,37.5,720 MX,0,128436,128503,238 F,18,128469,128503,0.9,0.6 V,18,128469,128503,37.5,720,25,480 MX,0,128503,128569,238,296.2596 F,19,128503,128637,0.6,0.9 V,19,128503,128637,25,480,32.5,624 MX,0,128569,128636,296.2596,353.7738 MX,0,128636,128703,353.7738,410 F,18,128637,128771,0.9,0.6 V,18,128637,128771,32.5,624,25,480 MX,0,128703,128771,410,408 MX,0,128771,128837,408,450.614 F,19,128771,128905,0.6,0.9 V,19,128771,128905,25,480,32.5,624 MX,0,128837,128904,450.614,433.5292 MX,0,128904,129039,433.5292,450 F,18,128905,129039,0.9,0.6 V,18,128905,129039,32.5,624,25,480 F,19,129039,129072,0.6,0.9 V,19,129039,129072,25,480,37.5,720 MX,0,129039,129106,450 F,18,129072,129106,0.9,0.6 V,18,129072,129106,37.5,720,25,480 F,19,129106,129139,0.6,0.9 V,19,129106,129139,25,480,37.5,720 MX,0,129106,129173,450 F,18,129139,129173,0.9,0.6 V,18,129139,129173,37.5,720,25,480 MX,0,129173,129239,450,409 F,19,129173,129240,0.6,0.9 V,19,129173,129240,25,480,32.5,624 MX,0,129239,129307,409,308 F,18,129240,129307,0.9,0.6 V,18,129240,129307,32.5,624,25,480 MX,0,129307,129373,308,274.5091 F,19,129307,129440,0.6,0.9 V,19,129307,129440,25,480,32.5,624 MX,0,129373,129440,274.5091,305 F,18,129440,129574,0.9,0.6 MX,0,129440,129574,305,485 V,18,129440,129574,32.5,624,25,480 MX,0,129574,129640,485,450.5823 MX,0,129640,129707,450.5823,407.8018 MX,0,129707,129774,407.8018,364.0148 MX,0,129774,129841,364.0148,326.6469 MX,0,129841,129908,326.6469,292.0831 MX,0,129908,129975,292.0831,251.3703 MX,0,129975,130042,251.3703,206.8398 MX,0,130042,130109,206.8398,168.0315 MX,0,130109,130176,168.0315,206.8398 MX,0,130176,130243,206.8398,251.3703 MX,0,130243,130310,251.3703,292.0831 MX,0,130310,130377,292.0831,326.6469 MX,0,130377,130444,326.6469,364.0148 MX,0,130444,130511,364.0148,407.8018 MX,0,130511,130578,407.8018,450.5823 MX,0,130578,130645,450.5823,485
Sprite,Background,Centre,"sb\dot.png",0,240 F,0,113353,,0.6 C,0,113353,,0,0,200 V,0,113353,,25,480 P,0,113353,,A F,19,113503,,0.6,0.9 F,18,113503,,0.9,0.6 V,19,113503,,25,480,32.5,624 V,18,113503,,32.5,624,25,480 MX,0,113503,113569,345.3642,339.1716 F,19,113503,113637,0.6,0.9 V,19,113503,113637,25,480,32.5,624 MX,0,113569,113636,339.1716,357.9303 MX,0,113636,113703,357.9303,345.3642 F,18,113637,113771,0.9,0.6 V,18,113637,113771,32.5,624,25,480 MX,0,113703,113503,345.3642,355 MX,0,113703,113771,345.3642,345 MX,0,113771,113837,345,360.4113 F,19,113771,113972,0.6,0.9 V,19,113771,113972,25,480,32.5,624 MX,0,113837,113904,360.4113,357.7316 MX,0,113904,113971,357.7316,360.4113 MX,0,113971,114038,360.4113,345 F,18,113972,114173,0.9,0.6 V,18,113972,114173,32.5,624,25,480 MX,0,114038,114173,345,138 MX,0,114173,114239,138,196.1326 F,19,114173,114373,0.6,0.9 V,19,114173,114373,25,480,32.5,624 MX,0,114239,114306,196.1326,262.8483 MX,0,114306,114373,262.8483,196.1326 MX,0,114373,114440,196.1326,138 F,18,114373,114574,0.9,0.6 V,18,114373,114574,32.5,624,25,480 MX,0,114440,114574,138,230 MX,0,114574,114640,230,178.9748 F,19,114574,114641,0.6,0.9 V,19,114574,114641,25,480,32.5,624 MX,0,114640,114708,178.9748,202 F,18,114641,114708,0.9,0.6 V,18,114641,114708,32.5,624,25,480 MX,0,114708,114774,202,268.6456 F,19,114708,114842,0.6,0.9 V,19,114708,114842,25,480,32.5,624 MX,0,114774,114841,268.6456,325.3066 MX,0,114841,114908,325.3066,356.8127 F,18,114842,114976,0.9,0.6 V,18,114842,114976,32.5,624,25,480 MX,0,114908,114976,356.8127,342 F,19,114976,115043,0.6,0.9 V,19,114976,115043,25,480,37.5,720 MX,0,114976,115110,342,521 F,18,115043,115110,0.9,0.6 V,18,115043,115110,37.5,720,25,480 F,19,115110,115244,0.6,0.9 V,19,115110,115244,25,480,37.5,720 MX,0,115110,115378,521,537 F,18,115244,115378,0.9,0.6 V,18,115244,115378,37.5,720,25,480 MX,0,115378,115444,537,542.0999 F,19,115378,115512,0.6,0.9 V,19,115378,115512,25,480,32.5,624 MX,0,115444,115511,542.0999,507.1279 MX,0,115511,115578,507.1279,497.3327 F,18,115512,115646,0.9,0.6 V,18,115512,115646,32.5,624,25,480 MX,0,115578,115646,497.3327,521 MX,0,115646,115712,521,528.4388 F,19,115646,115847,0.6,0.9 V,19,115646,115847,25,480,32.5,624 MX,0,115712,115779,528.4388,495.1938 MX,0,115779,115846,495.1938,441.4217 MX,0,115846,115913,441.4217,426.6109 F,18,115847,116048,0.9,0.6 V,18,115847,116048,32.5,624,25,480 MX,0,115913,116048,426.6109,398 MX,0,116048,116114,398,417.7164 F,19,116048,116248,0.6,0.9 V,19,116048,116248,25,480,32.5,624 MX,0,116114,116181,417.7164,409.3487 MX,0,116181,116449,409.3487,409 F,18,116248,116449,0.9,0.6 V,18,116248,116449,32.5,624,25,480 MX,0,116449,116515,409,389.2836 F,19,116449,116583,0.6,0.9 V,19,116449,116583,25,480,32.5,624 MX,0,116515,116582,389.2836,397.6513 MX,0,116582,116717,397.6513,479 F,18,116583,116717,0.9,0.6 V,18,116583,116717,32.5,624,25,480 MX,0,116717,116783,479,393.2524 F,19,116717,116918,0.6,0.9 V,19,116717,116918,25,480,32.5,624 MX,0,116783,116850,393.2524,307.2973 MX,0,116850,116917,307.2973,393.2524 MX,0,116917,116984,393.2524,479 F,18,116918,117119,0.9,0.6 V,18,116918,117119,32.5,624,25,480 MX,0,116984,117119,479,227 MX,0,117119,117185,227,195.9341 F,19,117119,117186,0.6,0.9 V,19,117119,117186,25,480,32.5,624 MX,0,117185,117253,195.9341,272 F,18,117186,117253,0.9,0.6 V,18,117186,117253,32.5,624,25,480 MX,0,117253,117319,272,228.0112 F,19,117253,117387,0.6,0.9 V,19,117253,117387,25,480,32.5,624 MX,0,117319,117386,228.0112,211.6225 MX,0,117386,117453,211.6225,226 F,18,117387,117521,0.9,0.6 V,18,117387,117521,32.5,624,25,480 MX,0,117453,117521,226,307 MX,0,117521,117587,307,337.2468 F,19,117521,117655,0.6,0.9 V,19,117521,117655,25,480,32.5,624 MX,0,117587,117654,337.2468,349.7885 MX,0,117654,117721,349.7885,312.2006 F,18,117655,117789,0.9,0.6 V,18,117655,117789,32.5,624,25,480 MX,0,117721,117789,312.2006,284 MX,0,117789,117855,284,340.219 F,19,117789,117989,0.6,0.9 V,19,117789,117989,25,480,32.5,624 MX,0,117855,117922,340.219,384.1036 MX,0,117922,117989,384.1036,395.0675 MX,0,117989,118056,395.0675,390.5543 F,18,117989,118190,0.9,0.6 V,18,117989,118190,32.5,624,25,480 MX,0,118056,118190,390.5543,550 MX,0,118190,118256,550,485.1123 F,19,118190,118391,0.6,0.9 V,19,118190,118391,25,480,32.5,624 MX,0,118256,118323,485.1123,443.5496 MX,0,118323,118390,443.5496,485.1123 MX,0,118390,118457,485.1123,550 F,18,118391,118592,0.9,0.6 V,18,118391,118592,32.5,624,25,480 MX,0,118457,118592,550,268 MX,0,118592,118658,268,323.874 F,19,118592,118726,0.6,0.9 V,19,118592,118726,25,480,32.5,624 MX,0,118658,118725,323.874,390.1873 MX,0,118725,118860,390.1873,427 F,18,118726,118860,0.9,0.6 V,18,118726,118860,32.5,624,25,480 F,19,118860,118927,0.6,0.9 V,19,118860,118927,25,480,37.5,720 MX,0,118860,118994,427,177 F,18,118927,118994,0.9,0.6 V,18,118927,118994,37.5,720,25,480 F,19,118994,119128,0.6,0.9 V,19,118994,119128,25,480,37.5,720 MX,0,118994,119262,177,191 F,18,119128,119262,0.9,0.6 V,18,119128,119262,37.5,720,25,480 MX,0,119262,119328,191,184 F,19,119262,119329,0.6,0.9 V,19,119262,119329,25,480,32.5,624 MX,0,119328,119396,184,214 F,18,119329,119396,0.9,0.6 V,18,119329,119396,32.5,624,25,480 MX,0,119396,119462,214,147.5573 F,19,119396,119530,0.6,0.9 V,19,119396,119530,25,480,32.5,624 MX,0,119462,119529,147.5573,82.34613 MX,0,119529,119664,82.34613,293 F,18,119530,119664,0.9,0.6 V,18,119530,119664,32.5,624,25,480 MX,0,119664,119730,293,306.508 F,19,119664,119764,0.6,0.9 V,19,119664,119764,25,480,32.5,624 MX,0,119730,119797,306.508,318.9503 F,18,119764,119865,0.9,0.6 V,18,119764,119865,32.5,624,25,480 MX,0,119797,119865,318.9503,305 F,19,119865,119898,0.6,0.9 V,19,119865,119898,25,480,37.5,720 MX,0,119865,119932,305 F,18,119898,119932,0.9,0.6 V,18,119898,119932,37.5,720,25,480 MX,0,119932,119998,305,242.0582 F,19,119932,120065,0.6,0.9 V,19,119932,120065,25,480,32.5,624 MX,0,119998,120065,242.0582,173.7067 MX,0,120065,120132,173.7067,100.469 F,18,120065,120199,0.9,0.6 V,18,120065,120199,32.5,624,25,480 MX,0,120132,120199,100.469,83 MX,0,120199,120265,83,60.14287 F,19,120199,120333,0.6,0.9 V,19,120199,120333,25,480,32.5,624 MX,0,120265,120332,60.14287,77.97034 MX,0,120332,120467,77.97034,377 F,18,120333,120467,0.9,0.6 V,18,120333,120467,32.5,624,25,480 F,19,120467,120500,0.6,0.9 V,19,120467,120500,25,480,37.5,720 MX,0,120467,120534,377 F,18,120500,120534,0.9,0.6 V,18,120500,120534,37.5,720,25,480 F,19,120534,120567,0.6,0.9 V,19,120534,120567,25,480,37.5,720 MX,0,120534,120601,377 F,18,120567,120601,0.9,0.6 V,18,120567,120601,37.5,720,25,480 MX,0,120601,120667,377,436.609 F,19,120601,120668,0.6,0.9 V,19,120601,120668,25,480,32.5,624 MX,0,120667,120735,436.609,499 F,18,120668,120735,0.9,0.6 V,18,120668,120735,32.5,624,25,480 MX,0,120735,120801,499,521.8571 F,19,120735,120869,0.6,0.9 V,19,120735,120869,25,480,32.5,624 MX,0,120801,120868,521.8571,504.0297 MX,0,120868,121003,504.0297,292 F,18,120869,121003,0.9,0.6 V,18,120869,121003,32.5,624,25,480 MX,0,121003,121069,292,231.1672 F,19,121003,121070,0.6,0.9 V,19,121003,121070,25,480,32.5,624 MX,0,121069,121137,231.1672,161 F,18,121070,121137,0.9,0.6 V,18,121070,121137,32.5,624,25,480 MX,0,121137,121203,161,131.778 F,19,121137,121271,0.6,0.9 V,19,121137,121271,25,480,32.5,624 MX,0,121203,121270,131.778,162.0559 MX,0,121270,121337,162.0559,153.0213 F,18,121271,121405,0.9,0.6 V,18,121271,121405,32.5,624,25,480 MX,0,121337,121405,153.0213,231 MX,0,121405,121471,231,294 F,19,121405,121472,0.6,0.9 V,19,121405,121472,25,480,32.5,624 MX,0,121471,121539,294,394 F,18,121472,121539,0.9,0.6 V,18,121472,121539,32.5,624,25,480 MX,0,121539,121605,394,458.2624 F,19,121539,121673,0.6,0.9 V,19,121539,121673,25,480,32.5,624 MX,0,121605,121672,458.2624,519 MX,0,121672,121807,519,287 F,18,121673,121807,0.9,0.6 V,18,121673,121807,32.5,624,25,480 F,19,121807,121873,0.6,0.9 MX,0,121807,121873,287,272 V,19,121807,121873,25,480,32.5,624 F,18,121873,121940,0.9,0.6 MX,0,121873,121940,272,378 V,18,121873,121940,32.5,624,25,480 MX,0,121940,122006,378,392.0031 F,19,121940,122007,0.6,0.9 V,19,121940,122007,25,480,32.5,624 MX,0,122006,122074,392.0031,392 F,18,122007,122074,0.9,0.6 V,18,122007,122074,32.5,624,25,480 MX,0,122074,122140,392,325.6339 F,19,122074,122208,0.6,0.9 V,19,122074,122208,25,480,32.5,624 MX,0,122140,122207,325.6339,272.5688 MX,0,122207,122342,272.5688,164 F,18,122208,122342,0.9,0.6 V,18,122208,122342,32.5,624,25,480 MX,0,122342,122408,164,136.8196 F,19,122342,122543,0.6,0.9 V,19,122342,122543,25,480,32.5,624 MX,0,122408,122475,136.8196,175.803 MX,0,122475,122542,175.803,136.8196 MX,0,122542,122609,136.8196,164 F,18,122543,122744,0.9,0.6 V,18,122543,122744,32.5,624,25,480 MX,0,122609,122744,164,321 F,19,122744,122811,0.6,0.9 V,19,122744,122811,25,480,37.5,720 MX,0,122744,122878,321,194 F,18,122811,122878,0.9,0.6 V,18,122811,122878,37.5,720,25,480 MX,0,122878,122944,194,260.0093 F,19,122878,123012,0.6,0.9 V,19,122878,123012,25,480,32.5,624 MX,0,122944,123011,260.0093,308 MX,0,123011,123146,308,525 F,18,123012,123146,0.9,0.6 V,18,123012,123146,32.5,624,25,480 MX,0,123146,123212,525,503.0202 F,19,123146,123213,0.6,0.9 V,19,123146,123213,25,480,32.5,624 MX,0,123212,123280,503.0202,490 F,18,123213,123280,0.9,0.6 V,18,123213,123280,32.5,624,25,480 MX,0,123280,123346,490,480.1953 F,19,123280,123414,0.6,0.9 V,19,123280,123414,25,480,32.5,624 MX,0,123346,123413,480.1953,435.6275 MX,0,123413,123480,435.6275,416.2412 F,18,123414,123548,0.9,0.6 V,18,123414,123548,32.5,624,25,480 MX,0,123480,123548,416.2412,403 F,19,123548,123615,0.6,0.9 V,19,123548,123615,25,480,37.5,720 MX,0,123548,123682,403,397 F,18,123615,123682,0.9,0.6 V,18,123615,123682,37.5,720,25,480 F,19,123682,123815,0.6,0.9 V,19,123682,123815,25,480,37.5,720 MX,0,123682,123949,397,408 F,18,123815,123949,0.9,0.6 V,18,123815,123949,37.5,720,25,480 MX,0,123949,124015,408,434.7455 F,19,123949,124083,0.6,0.9 V,19,123949,124083,25,480,32.5,624 MX,0,124015,124082,434.7455,393.6628 MX,0,124082,124149,393.6628,332.339 F,18,124083,124217,0.9,0.6 V,18,124083,124217,32.5,624,25,480 MX,0,124149,124217,332.339,228 MX,0,124217,124283,228,211.6576 F,19,124217,124418,0.6,0.9 V,19,124217,124418,25,480,32.5,624 MX,0,124283,124350,211.6576,247.9012 MX,0,124350,124417,247.9012,303.8103 MX,0,124417,124484,303.8103,316.7299 F,18,124418,124619,0.9,0.6 V,18,124418,124619,32.5,624,25,480 MX,0,124484,124619,316.7299,74 MX,0,124619,124685,74,133.6166 F,19,124619,124820,0.6,0.9 V,19,124619,124820,25,480,32.5,624 MX,0,124685,124752,133.6166,200.5079 MX,0,124752,125021,200.5079,200 F,18,124820,125021,0.9,0.6 V,18,124820,125021,32.5,624,25,480 MX,0,125021,125087,200,140.3834 F,19,125021,125155,0.6,0.9 V,19,125021,125155,25,480,32.5,624 MX,0,125087,125154,140.3834,73.49207 MX,0,125154,125289,73.49207,119 F,18,125155,125289,0.9,0.6 V,18,125155,125289,32.5,624,25,480 MX,0,125289,125355,119,139.4175 F,19,125289,125489,0.6,0.9 V,19,125289,125489,25,480,32.5,624 MX,0,125355,125422,139.4175,156.1257 MX,0,125422,125489,156.1257,139.4175 MX,0,125489,125556,139.4175,119 F,18,125489,125690,0.9,0.6 V,18,125489,125690,32.5,624,25,480 MX,0,125556,125690,119,206 MX,0,125690,125756,206,286.2318 F,19,125690,125757,0.6,0.9 V,19,125690,125757,25,480,32.5,624 MX,0,125756,125824,286.2318,344 F,18,125757,125824,0.9,0.6 V,18,125757,125824,32.5,624,25,480 MX,0,125824,125890,344,282.9827 F,19,125824,125958,0.6,0.9 V,19,125824,125958,25,480,32.5,624 MX,0,125890,125957,282.9827,224.2142 MX,0,125957,126024,224.2142,205.7387 F,18,125958,126092,0.9,0.6 V,18,125958,126092,32.5,624,25,480 MX,0,126024,126092,205.7387,286 MX,0,126092,126158,286,303.919 F,19,126092,126226,0.6,0.9 V,19,126092,126226,25,480,32.5,624 MX,0,126158,126225,303.919,267.7476 MX,0,126225,126292,267.7476,269.6257 F,18,126226,126360,0.9,0.6 V,18,126226,126360,32.5,624,25,480 MX,0,126292,126360,269.6257,247 MX,0,126360,126426,247,264.1121 F,19,126360,126561,0.6,0.9 V,19,126360,126561,25,480,32.5,624 MX,0,126426,126493,264.1121,325.9026 MX,0,126493,126560,325.9026,376.2741 MX,0,126560,126627,376.2741,441.5562 F,18,126561,126762,0.9,0.6 V,18,126561,126762,32.5,624,25,480 MX,0,126627,126762,441.5562,529 MX,0,126762,126828,529,465.3662 F,19,126762,126963,0.6,0.9 V,19,126762,126963,25,480,32.5,624 MX,0,126828,126895,465.3662,486.2639 MX,0,126895,126962,486.2639,465.3662 MX,0,126962,127029,465.3662,529 F,18,126963,127164,0.9,0.6 V,18,126963,127164,32.5,624,25,480 MX,0,127029,127164,529,576 MX,0,127164,127230,576,560.4204 F,19,127164,127298,0.6,0.9 V,19,127164,127298,25,480,32.5,624 MX,0,127230,127297,560.4204,548 MX,0,127297,127432,548,453 F,18,127298,127432,0.9,0.6 V,18,127298,127432,32.5,624,25,480 F,19,127432,127498,0.6,0.9 V,19,127432,127498,25,480,37.5,720 MX,0,127432,127565,453,407 F,18,127498,127565,0.9,0.6 V,18,127498,127565,37.5,720,25,480 F,19,127565,127699,0.6,0.9 V,19,127565,127699,25,480,37.5,720 MX,0,127565,127833,407,393 F,18,127699,127833,0.9,0.6 V,18,127699,127833,37.5,720,25,480 MX,0,127833,127899,393,458.0695 F,19,127833,127900,0.6,0.9 V,19,127833,127900,25,480,32.5,624 MX,0,127899,127967,458.0695,524 F,18,127900,127967,0.9,0.6 V,18,127900,127967,32.5,624,25,480 MX,0,127967,128033,524,459.8591 F,19,127967,128101,0.6,0.9 V,19,127967,128101,25,480,32.5,624 MX,0,128033,128100,459.8591,393.2509 MX,0,128100,128235,393.2509,272 F,18,128101,128235,0.9,0.6 V,18,128101,128235,32.5,624,25,480 MX,0,128235,128301,272,298.483 F,19,128235,128335,0.6,0.9 V,19,128235,128335,25,480,32.5,624 MX,0,128301,128368,298.483,313.9432 F,18,128335,128436,0.9,0.6 V,18,128335,128436,32.5,624,25,480 MX,0,128368,128436,313.9432,243 F,19,128436,128469,0.6,0.9 V,19,128436,128469,25,480,37.5,720 MX,0,128436,128503,243 F,18,128469,128503,0.9,0.6 V,18,128469,128503,37.5,720,25,480 MX,0,128503,128569,243,301.2596 F,19,128503,128637,0.6,0.9 V,19,128503,128637,25,480,32.5,624 MX,0,128569,128636,301.2596,358.7738 MX,0,128636,128703,358.7738,415 F,18,128637,128771,0.9,0.6 V,18,128637,128771,32.5,624,25,480 MX,0,128703,128771,415,413 MX,0,128771,128837,413,455.614 F,19,128771,128905,0.6,0.9 V,19,128771,128905,25,480,32.5,624 MX,0,128837,128904,455.614,438.5292 MX,0,128904,129039,438.5292,455 F,18,128905,129039,0.9,0.6 V,18,128905,129039,32.5,624,25,480 F,19,129039,129072,0.6,0.9 V,19,129039,129072,25,480,37.5,720 MX,0,129039,129106,455 F,18,129072,129106,0.9,0.6 V,18,129072,129106,37.5,720,25,480 F,19,129106,129139,0.6,0.9 V,19,129106,129139,25,480,37.5,720 MX,0,129106,129173,455 F,18,129139,129173,0.9,0.6 V,18,129139,129173,37.5,720,25,480 MX,0,129173,129239,455,414 F,19,129173,129240,0.6,0.9 V,19,129173,129240,25,480,32.5,624 MX,0,129239,129307,414,313 F,18,129240,129307,0.9,0.6 V,18,129240,129307,32.5,624,25,480 MX,0,129307,129373,313,279.5091 F,19,129307,129440,0.6,0.9 V,19,129307,129440,25,480,32.5,624 MX,0,129373,129440,279.5091,310 F,18,129440,129574,0.9,0.6 MX,0,129440,129574,310,490 V,18,129440,129574,32.5,624,25,480 MX,0,129574,129640,490,455.5823 MX,0,129640,129707,455.5823,412.8018 MX,0,129707,129774,412.8018,369.0148 MX,0,129774,129841,369.0148,331.6469 MX,0,129841,129908,331.6469,297.0831 MX,0,129908,129975,297.0831,256.3704 MX,0,129975,130042,256.3704,211.8398 MX,0,130042,130109,211.8398,173.0315 MX,0,130109,130176,173.0315,211.8398 MX,0,130176,130243,211.8398,256.3704 MX,0,130243,130310,256.3704,297.0831 MX,0,130310,130377,297.0831,331.6469 MX,0,130377,130444,331.6469,369.0148 MX,0,130444,130511,369.0148,412.8018 MX,0,130511,130578,412.8018,455.5823 MX,0,130578,130645,455.5823,490
//Storyboard Layer 1 (Fail)
//Storyboard Layer 2 (Pass)
//Storyboard Layer 3 (Foreground)
Sprite,Foreground,Centre,"sb\Credits\_000.png",320,240 S,0,175716,,0.3 F,0,175716,176251,1
Sprite,Foreground,Centre,"sb\Credits\_001.png",320,240 S,0,176251,,0.3 F,0,176251,176787,1
Sprite,Foreground,Centre,"sb\Credits\_002.png",320,240 S,0,176787,,0.3 F,0,176787,177323,1
Sprite,Foreground,Centre,"sb\Credits\_195.png",320,240 S,0,177323,,0.3 F,0,177323,177858,1
Sprite,Foreground,Centre,"sb\Credits\_004.png",320,240 S,0,177858,,0.3 F,0,177858,178394,1
Sprite,Foreground,Centre,"sb\Credits\_000.png",320,240 S,0,178394,,0.3 F,0,178394,178930,1
Sprite,Foreground,Centre,"sb\Credits\_001.png",320,240 S,0,178930,,0.3 F,0,178930,179466,1
Sprite,Foreground,Centre,"sb\Credits\_002.png",320,240 S,0,179466,,0.3 F,0,179466,180001,1
Sprite,Foreground,Centre,"sb\Credits\_195.png",320,240 S,0,180001,,0.3 F,0,180001,180269,1
Sprite,Foreground,Centre,"sb\Credits\_004.png",320,240 S,0,180269,,0.3 F,0,180269,180537,1
Sprite,Foreground,Centre,"sb\Credits\_000.png",320,240 S,0,180537,,0.3 F,0,180537,180805,1
Sprite,Foreground,Centre,"sb\Credits\_001.png",320,240 S,0,180805,,0.3 F,0,180805,181073,1
Sprite,Foreground,Centre,"sb\Credits\_002.png",320,240 S,0,181073,,0.3 F,0,181073,181341,1
Sprite,Foreground,Centre,"sb\Credits\_195.png",320,240 S,0,181341,,0.3 F,0,181341,181608,1
Sprite,Foreground,Centre,"sb\Credits\_004.png",320,240 S,0,181608,,0.3 F,0,181608,181876,1
Sprite,Foreground,Centre,"sb\Credits\_25e.png",320,240 S,0,181876,,0.3 F,0,181876,182143,1
Sprite,Foreground,Centre,"sb\Credits\_25f.png",320,240 S,0,182144,,0.3 F,0,182144,182277,1
Sprite,Foreground,Centre,"sb\Credits\_260.png",320,240 S,0,182277,,0.3 F,0,182277,182411,1
Sprite,Foreground,Centre,"sb\Credits\_261.png",320,240 S,0,182411,,0.3 F,0,182411,182545,1
Sprite,Foreground,Centre,"sb\Credits\_262.png",320,240 S,0,182545,,0.3 F,0,182545,182679,1
Sprite,Foreground,Centre,"sb\Credits\_263.png",320,240 S,0,182679,,0.3 F,0,182679,182813,1
Sprite,Foreground,Centre,"sb\Credits\_264.png",320,240 S,0,182813,,0.3 F,0,182813,182947,1
Sprite,Foreground,Centre,"sb\Credits\_265.png",320,240 S,0,182947,,0.3 F,0,182947,183081,1
Sprite,Foreground,Centre,"sb\Credits\_266.png",320,240 S,0,183081,,0.3 F,0,183081,183215,1
Sprite,Foreground,Centre,"sb\Credits\_267.png",320,240 S,0,183215,,0.3 F,0,183215,183349,1
Sprite,Foreground,Centre,"sb\Credits\_00f.png",320,240 S,0,183350,,0.3 F,0,183350,183617,1
Sprite,Foreground,Centre,"sb\Credits\_010.png",320,240 S,0,183617,,0.3 F,0,183617,183885,1
Sprite,Foreground,Centre,"sb\Credits\_011.png",320,240 S,0,183885,,0.3 F,0,183885,184019,1
Sprite,Foreground,Centre,"sb\Credits\_012.png",320,240 S,0,184019,,0.3 F,0,184019,184153,1
Sprite,Foreground,Centre,"sb\Credits\_013.png",320,240 S,0,184153,,0.3 F,0,184153,184287,1
Sprite,Foreground,Centre,"sb\Credits\_014.png",320,240 S,0,184287,,0.3 F,0,184287,186430,1
//Storyboard Layer 4 (Overlay)
//Storyboard Sound Samples

[TimingPoints]
-68,535.714285714286,4,2,1,41,1,0
1003,-62.5,4,2,1,41,0,0
2074,-100,4,2,1,41,0,0
2610,-62.5,4,2,1,41,0,0
3146,-100,4,2,1,41,0,0
3682,-62.5,4,2,1,41,0,0
4217,-100,4,2,1,41,0,0
4753,-62.5,4,2,1,41,0,0
5289,-100,4,2,1,41,0,0
5824,-62.5,4,2,1,41,0,0
6292,-62.5,4,2,1,5,0,0
6360,-100,4,2,1,41,0,0
6896,-62.5,4,2,1,41,0,0
7565,-100,4,2,1,41,0,0
7967,-62.5,4,2,1,41,0,0
10578,-62.5,4,2,1,5,0,0
10646,-62.5,4,2,1,51,0,0
18146,-50,4,2,1,51,0,0
19217,-50,4,2,1,41,0,0
23503,-50,4,2,1,51,0,0
23771,-47.6190476190476,4,2,1,51,0,0
24039,-45.4545454545455,4,2,1,61,0,0
24307,-43.4782608695652,4,2,1,61,0,0
24574,-41.6666666666667,4,2,1,71,0,0
24842,-40,4,2,1,71,0,0
25110,-38.4615384615385,4,2,1,81,0,0
25378,-37.0370370370371,4,2,1,81,0,0
26717,-100,4,2,1,81,0,0
27789,-33.3333333333334,4,2,1,91,0,0
28257,-33.3333333333334,4,2,1,5,0,0
28324,-50,4,2,1,71,0,0
28860,-33.3333333333334,4,2,1,71,0,0
29062,-33.3333333333334,4,2,1,5,0,0
29127,-33.3333333333334,4,2,1,71,0,0
29864,-33.3333333333334,4,2,1,5,0,0
29932,-41.6666666666667,4,2,1,71,0,0
30467,-33.3333333333334,4,2,1,71,0,0
31204,-33.3333333333334,4,2,1,5,0,0
31270,-33.3333333333334,4,2,1,71,0,0
31539,-50,4,2,1,71,0,0
31807,-33.3333333333334,4,2,1,71,0,0
32007,-33.3333333333334,4,2,1,5,0,0
32074,-33.3333333333334,4,2,1,91,0,0
32542,-33.3333333333334,4,2,1,5,0,0
32610,-33.3333333333334,4,2,1,71,0,0
33347,-33.3333333333334,4,2,1,5,0,0
33413,-33.3333333333334,4,2,1,71,0,0
34149,-33.3333333333334,4,2,1,5,0,0
34217,-41.6666666666667,4,2,1,71,0,0
34753,-33.3333333333334,4,2,1,71,0,0
35490,-33.3333333333334,4,2,1,5,0,0
35556,-33.3333333333334,4,2,1,71,0,0
35824,-41.6666666666667,4,2,1,71,0,0
36024,-41.6666666666667,4,2,1,5,0,0
36092,-33.3333333333334,4,2,1,71,0,0
36292,-33.3333333333334,4,2,1,5,0,0
36360,-33.3333333333334,4,2,1,81,0,0
36828,-33.3333333333334,4,2,1,5,0,0
36896,-62.5,4,2,1,71,0,0
37432,-50,4,2,1,71,0,0
37632,-50,4,2,1,5,0,0
37699,-33.3333333333334,4,2,1,71,0,0
38503,-33.3333333333334,4,2,1,81,0,0
39039,-33.3333333333334,4,2,1,71,0,0
40578,-33.3333333333334,4,2,1,5,0,0
40646,-100,4,2,1,71,0,0
40914,-50,4,2,1,71,0,0
41182,-100,4,2,1,71,0,0
41449,-50,4,2,1,71,0,0
41717,-100,4,2,1,71,0,0
41985,-41.6666666666667,4,2,1,71,0,0
42185,-41.6666666666667,4,2,1,5,0,0
42253,-50,4,2,1,71,0,0
42789,-50,4,2,1,81,0,0
43860,-50,4,2,1,91,0,0
44262,-50,4,2,2,91,0,0
44396,-50,4,2,1,91,0,0
44462,-50,4,2,1,5,0,0
44530,-50,4,2,2,91,0,0
44730,-50,4,2,2,5,0,0
44798,-50,4,2,2,91,0,0
44864,-50,4,2,2,5,0,0
44932,-33.3333333333334,4,2,3,81,0,0
45266,-33.3333333333334,4,2,3,5,0,0
45333,-50,4,2,3,81,0,0
46003,-41.6666666666667,4,2,3,81,0,0
46337,-41.6666666666667,4,2,3,5,0,0
46405,-50,4,2,3,81,0,0
47007,-50,4,2,3,5,0,0
47074,-41.6666666666667,4,2,3,81,0,0
47408,-41.6666666666667,4,2,3,5,0,0
47476,-50,4,2,3,81,0,0
48078,-50,4,2,3,5,0,0
48146,-50,4,2,3,81,0,0
48480,-50,4,2,3,5,0,0
48548,-50,4,2,3,81,0,0
48881,-50,4,2,3,5,0,0
48949,-50,4,2,3,81,0,0
49217,-41.6666666666667,4,2,3,81,0,0
49551,-41.6666666666667,4,2,3,5,0,0
49619,-50,4,2,3,81,0,0
49953,-50,4,2,3,5,0,0
50021,-41.6666666666667,4,2,3,81,0,0
50221,-41.6666666666667,4,2,3,5,0,0
50289,-38.4615384615385,4,2,3,81,0,0
50623,-38.4615384615385,4,2,3,5,0,0
50690,-50,4,2,3,81,0,0
50824,-33.3333333333334,4,2,3,81,0,0
51024,-33.3333333333334,4,2,3,5,0,0
51092,-33.3333333333334,4,2,3,81,0,0
51292,-33.3333333333334,4,2,3,5,0,0
51360,-33.3333333333334,4,2,3,81,0,0
51694,-33.3333333333334,4,2,3,5,0,0
51762,-50,4,2,3,81,0,0
52364,-50,4,2,3,5,0,0
52432,-50,4,2,3,81,0,0
52565,-41.6666666666667,4,2,3,81,0,0
52765,-41.6666666666667,4,2,3,5,0,0
52833,-41.6666666666667,4,2,3,81,0,0
52967,-33.3333333333334,4,2,3,81,0,0
53167,-33.3333333333334,4,2,3,5,0,0
53235,-33.3333333333334,4,2,3,81,0,0
53503,-41.6666666666667,4,2,3,81,0,0
55578,-41.6666666666667,4,2,3,5,0,0
55646,-50,4,2,3,81,0,0
55847,-50,4,2,3,5,0,0
55914,-50,4,2,3,81,0,0
56717,-41.6666666666667,4,2,3,81,0,0
57521,-35.7142857142857,4,2,3,81,0,0
57655,-31.25,4,2,3,81,0,0
57789,-38.4615384615385,4,2,3,81,0,0
58190,-41.6666666666667,4,2,3,81,0,0
59329,-41.6666666666667,4,2,3,5,0,0
59395,-41.6666666666667,4,2,3,81,0,0
59864,-41.6666666666667,4,2,3,5,0,0
59932,-41.6666666666667,4,2,3,81,0,0
60333,-50,4,2,3,81,0,0
60735,-62.5,4,2,3,81,0,0
61204,-62.5,4,2,3,5,0,0
61270,-62.5,4,2,3,81,0,0
61807,-50,4,2,3,81,0,0
62074,-50,4,2,1,51,0,0
62745,-50,4,2,1,41,0,0
66360,-50,4,2,1,51,0,0
66628,-47.6190476190476,4,2,1,51,0,0
66896,-47.6190476190476,4,2,1,61,0,0
67164,-45.4545454545455,4,2,1,61,0,0
67432,-43.4782608695652,4,2,1,71,0,0
67699,-41.6666666666667,4,2,1,71,0,0
67967,-40,4,2,1,81,0,0
68235,-38.4615384615385,4,2,1,81,0,0
68771,-37.0370370370371,4,2,1,81,0,0
69440,-37.0370370370371,4,2,2,81,0,0
69708,-33.3333333333334,4,2,2,81,0,0
69908,-33.3333333333334,4,2,2,5,0,0
69976,-33.3333333333334,4,2,2,81,0,0
70444,-33.3333333333334,4,2,2,5,0,0
70512,-33.3333333333334,4,2,2,81,0,0
70578,-33.3333333333334,4,2,2,5,0,0
70646,-33.3333333333334,4,2,1,91,0,0
71114,-33.3333333333334,4,2,1,5,0,0
71182,-50,4,2,1,71,0,0
71717,-33.3333333333334,4,2,1,71,0,0
72721,-33.3333333333334,4,2,1,5,0,0
72789,-41.6666666666667,4,2,1,71,0,0
73324,-33.3333333333334,4,2,1,71,0,0
74061,-33.3333333333334,4,2,1,5,0,0
74127,-33.3333333333334,4,2,1,71,0,0
74396,-50,4,2,1,71,0,0
74664,-33.3333333333334,4,2,1,71,0,0
74864,-33.3333333333334,4,2,1,5,0,0
74932,-33.3333333333334,4,2,1,91,0,0
75400,-33.3333333333334,4,2,1,5,0,0
75467,-33.3333333333334,4,2,1,71,0,0
75735,-50,4,2,1,71,0,0
76003,-33.3333333333334,4,2,1,71,0,0
76204,-33.3333333333334,4,2,1,5,0,0
76270,-33.3333333333334,4,2,1,71,0,0
77007,-33.3333333333334,4,2,1,5,0,0
77074,-41.6666666666667,4,2,1,71,0,0
77610,-33.3333333333334,4,2,1,71,0,0
78347,-33.3333333333334,4,2,1,5,0,0
78413,-33.3333333333334,4,2,1,71,0,0
78682,-41.6666666666667,4,2,1,71,0,0
78882,-41.6666666666667,4,2,1,5,0,0
78949,-33.3333333333334,4,2,1,71,0,0
79149,-33.3333333333334,4,2,1,5,0,0
79217,-33.3333333333334,4,2,1,81,0,0
79685,-33.3333333333334,4,2,1,5,0,0
79753,-62.5,4,2,1,71,0,0
80289,-50,4,2,1,71,0,0
80489,-50,4,2,1,5,0,0
80557,-33.3333333333334,4,2,1,71,0,0
81360,-33.3333333333334,4,2,1,81,0,0
81896,-33.3333333333334,4,2,1,71,0,0
83435,-33.3333333333334,4,2,1,5,0,0
83503,-100,4,2,1,71,0,0
83771,-50,4,2,1,71,0,0
84039,-100,4,2,1,71,0,0
84307,-50,4,2,1,71,0,0
84574,-100,4,2,1,71,0,0
84842,-41.6666666666667,4,2,1,71,0,0
85042,-41.6666666666667,4,2,1,5,0,0
85110,-50,4,2,1,71,0,0
85646,-50,4,2,1,81,0,0
86717,-50,4,2,1,91,0,0
87119,-50,4,2,2,91,0,0
87254,-50,4,2,1,91,0,0
87319,-50,4,2,1,5,0,0
87387,-50,4,2,2,91,0,0
87587,-50,4,2,2,5,0,0
87655,-50,4,2,2,91,0,0
87721,-50,4,2,2,5,0,0
87789,-33.3333333333334,4,2,3,81,0,0
88123,-33.3333333333334,4,2,3,5,0,0
88190,-50,4,2,3,81,0,0
88524,-50,4,2,3,5,0,0
88592,-50,4,2,3,81,0,0
88860,-41.6666666666667,4,2,3,81,0,0
89194,-41.6666666666667,4,2,3,5,0,0
89262,-50,4,2,3,81,0,0
89328,-50,4,2,3,5,0,0
89396,-50,4,2,3,81,0,0
89864,-50,4,2,3,5,0,0
89932,-41.6666666666667,4,2,3,81,0,0
90266,-41.6666666666667,4,2,3,5,0,0
90333,-50,4,2,3,81,0,0
91405,-33.3333333333334,4,2,3,81,0,0
91739,-33.3333333333334,4,2,3,5,0,0
91807,-50,4,2,3,81,0,0
92074,-41.6666666666667,4,2,3,81,0,0
92276,-41.6666666666667,4,2,3,5,0,0
92343,-41.6666666666667,4,2,3,81,0,0
92408,-41.6666666666667,4,2,3,5,0,0
92476,-50,4,2,3,81,0,0
92542,-50,4,2,3,5,0,0
92610,-50,4,2,3,81,0,0
92810,-50,4,2,3,5,0,0
92878,-41.6666666666667,4,2,3,81,0,0
93078,-41.6666666666667,4,2,3,5,0,0
93146,-38.4615384615385,4,2,3,81,0,0
93480,-38.4615384615385,4,2,3,5,0,0
93548,-50,4,2,3,81,0,0
93682,-33.3333333333334,4,2,3,81,0,0
93882,-33.3333333333334,4,2,3,5,0,0
93949,-33.3333333333334,4,2,3,81,0,0
94149,-33.3333333333334,4,2,3,5,0,0
94217,-33.3333333333334,4,2,3,81,0,0
94551,-33.3333333333334,4,2,3,5,0,0
94619,-50,4,2,3,81,0,0
94753,-35.7142857142857,4,2,3,81,0,0
94953,-35.7142857142857,4,2,3,5,0,0
95021,-35.7142857142857,4,2,3,81,0,0
95221,-35.7142857142857,4,2,3,5,0,0
95289,-35.7142857142857,4,2,3,81,0,0
95423,-41.6666666666667,4,2,3,81,0,0
95623,-41.6666666666667,4,2,3,5,0,0
95690,-41.6666666666667,4,2,3,81,0,0
95824,-33.3333333333334,4,2,3,81,0,0
96024,-33.3333333333334,4,2,3,5,0,0
96092,-33.3333333333334,4,2,3,81,0,0
96360,-41.6666666666667,4,2,3,81,0,0
97632,-41.6666666666667,4,2,3,5,0,0
97699,-41.6666666666667,4,2,3,81,0,0
98503,-50,4,2,3,81,0,0
98837,-50,4,2,3,5,0,0
98905,-50,4,2,3,81,0,0
99574,-41.6666666666667,4,2,3,81,0,0
99774,-41.6666666666667,4,2,3,5,0,0
99842,-41.6666666666667,4,2,3,81,0,0
100042,-41.6666666666667,4,2,3,5,0,0
100110,-41.6666666666667,4,2,3,81,0,0
100378,-35.7142857142857,4,2,3,81,0,0
100512,-31.25,4,2,3,81,0,0
100646,-38.4615384615385,4,2,3,81,0,0
101048,-41.6666666666667,4,2,3,81,0,0
101649,-41.6666666666667,4,2,3,5,0,0
101717,-41.6666666666667,4,2,3,81,0,0
102185,-41.6666666666667,4,2,3,5,0,0
102252,-41.6666666666667,4,2,3,81,0,0
102721,-41.6666666666667,4,2,3,5,0,0
102789,-41.6666666666667,4,2,3,81,0,0
103190,-50,4,2,3,81,0,0
103592,-62.5,4,2,3,81,0,0
104060,-62.5,4,2,3,5,0,0
104127,-62.5,4,2,3,81,0,0
104664,-50,4,2,3,81,0,0
104932,-50,4,2,1,51,0,0
105602,-50,4,2,1,41,0,0
109217,-50,4,2,1,51,0,0
109485,-47.6190476190476,4,2,1,51,0,0
109753,-45.4545454545455,4,2,1,61,0,0
110289,-43.4782608695652,4,2,1,71,0,0
110557,-41.6666666666667,4,2,1,71,0,0
110824,-40,4,2,1,81,0,0
111092,-38.4615384615385,4,2,1,81,0,0
111628,-66.6666666666665,4,2,1,81,0,0
112298,-37.0370370370371,4,2,2,81,0,0
112765,-37.0370370370371,4,2,2,5,0,0
112833,-37.0370370370371,4,2,2,81,0,0
113033,-37.0370370370371,4,2,2,5,0,0
113101,-37.0370370370371,4,2,2,81,0,0
113301,-37.0370370370371,4,2,2,5,0,0
113369,-35.7142857142857,4,2,2,81,0,0
113435,-35.7142857142857,4,2,2,5,0,0
113503,-33.3333333333334,4,2,3,81,0,1
113703,-33.3333333333334,4,2,3,5,0,1
113771,-25,4,2,3,81,0,1
114173,-33.3333333333334,4,2,3,81,0,1
114908,-33.3333333333334,4,2,3,5,0,1
114976,-33.3333333333334,4,2,3,81,0,1
115578,-33.3333333333334,4,2,3,5,0,1
115646,-33.3333333333334,4,2,3,81,0,1
115847,-33.3333333333334,4,2,3,5,0,1
115913,-33.3333333333334,4,2,3,81,0,1
116717,-25,4,2,3,81,0,1
117253,-33.3333333333334,4,2,3,81,0,1
117453,-33.3333333333334,4,2,3,5,0,1
117521,-50,4,2,3,81,0,1
117721,-50,4,2,3,5,0,1
117789,-33.3333333333334,4,2,3,81,0,1
117990,-33.3333333333334,4,2,3,5,0,1
118056,-33.3333333333334,4,2,3,81,0,1
119932,-25,4,2,3,81,0,1
120132,-25,4,2,3,5,0,1
120199,-50,4,2,3,81,0,1
120601,-33.3333333333334,4,2,3,81,0,1
120667,-33.3333333333334,4,2,3,5,0,1
120735,-50,4,2,3,81,0,1
121003,-33.3333333333334,4,2,3,81,0,1
121337,-33.3333333333334,4,2,3,5,0,1
121405,-33.3333333333334,4,2,3,81,0,1
122342,-25,4,2,3,81,0,1
122878,-33.3333333333334,4,2,3,81,0,1
123480,-33.3333333333334,4,2,3,5,0,1
123548,-33.3333333333334,4,2,3,81,0,1
124149,-33.3333333333334,4,2,3,5,0,1
124217,-33.3333333333334,4,2,3,81,0,1
125289,-25,4,2,3,81,0,1
125824,-33.3333333333334,4,2,3,81,0,1
126024,-33.3333333333334,4,2,3,5,0,1
126092,-50,4,2,3,81,0,1
126360,-33.3333333333334,4,2,3,81,0,1
128503,-25,4,2,3,81,0,1
128703,-25,4,2,3,5,0,1
128771,-50,4,2,3,81,0,1
129173,-33.3333333333334,4,2,3,81,0,1
129239,-33.3333333333334,4,2,3,5,0,1
129307,-50,4,2,3,81,0,1
129574,-50,4,2,1,81,0,1
130109,-50,4,2,1,71,0,1
130379,-50,4,2,1,61,0,1
130646,-50,4,2,1,51,0,0
131717,-100,4,2,1,51,0,0
136539,-50,4,2,3,61,0,0
137007,-50,4,2,3,5,0,0
137074,-50,4,2,3,81,0,0
137208,-25,4,2,3,81,0,0
140221,-25,4,2,3,5,0,0
140557,-200,4,2,3,81,0,0
141092,-200,4,2,3,5,0,0
141360,-33.3333333333334,4,2,3,81,0,0
141694,-33.3333333333334,4,2,3,5,0,0
141761,-33.3333333333334,4,2,3,81,0,0
141896,-50,4,2,3,81,0,0
142096,-50,4,2,3,5,0,0
142164,-50,4,2,3,81,0,0
142432,-41.6666666666667,4,2,3,81,0,0
142766,-41.6666666666667,4,2,3,5,0,0
142833,-50,4,2,3,81,0,0
142899,-50,4,2,3,5,0,0
142967,-50,4,2,3,81,0,0
143435,-50,4,2,3,5,0,0
143503,-41.6666666666667,4,2,3,81,0,0
143837,-41.6666666666667,4,2,3,5,0,0
143905,-50,4,2,3,81,0,0
144507,-50,4,2,3,5,0,0
144574,-50,4,2,3,81,0,0
144908,-50,4,2,3,5,0,0
144976,-33.3333333333334,4,2,3,81,0,0
145310,-33.3333333333334,4,2,3,5,0,0
145378,-33.3333333333334,4,2,3,81,0,0
145646,-41.6666666666667,4,2,3,81,0,0
145980,-41.6666666666667,4,2,3,5,0,0
146048,-50,4,2,3,81,0,0
146382,-50,4,2,3,5,0,0
146449,-35.7142857142857,4,2,3,81,0,0
146649,-35.7142857142857,4,2,3,5,0,0
146717,-38.4615384615385,4,2,3,81,0,0
147051,-38.4615384615385,4,2,3,5,0,0
147119,-50,4,2,3,81,0,0
147253,-33.3333333333334,4,2,3,81,0,0
147453,-33.3333333333334,4,2,3,5,0,0
147521,-33.3333333333334,4,2,3,81,0,0
147721,-33.3333333333334,4,2,3,5,0,0
147789,-33.3333333333334,4,2,3,81,0,0
148123,-33.3333333333334,4,2,3,5,0,0
148190,-50,4,2,3,81,0,0
148324,-35.7142857142857,4,2,3,81,0,0
148524,-35.7142857142857,4,2,3,5,0,0
148592,-35.7142857142857,4,2,3,81,0,0
148792,-35.7142857142857,4,2,3,5,0,0
148860,-35.7142857142857,4,2,3,81,0,0
148994,-41.6666666666667,4,2,3,81,0,0
149194,-41.6666666666667,4,2,3,5,0,0
149262,-41.6666666666667,4,2,3,81,0,0
149396,-33.3333333333334,4,2,3,81,0,0
149596,-33.3333333333334,4,2,3,5,0,0
149664,-33.3333333333334,4,2,3,81,0,0
150266,-33.3333333333334,4,2,3,5,0,0
150333,-41.6666666666667,4,2,3,81,0,0
150667,-41.6666666666667,4,2,3,5,0,0
150735,-41.6666666666667,4,2,3,81,0,0
151003,-38.4615384615385,4,2,3,81,0,0
151337,-38.4615384615385,4,2,3,5,0,0
151405,-41.6666666666667,4,2,3,81,0,0
151471,-41.6666666666667,4,2,3,5,0,0
151539,-41.6666666666667,4,2,3,81,0,0
152007,-41.6666666666667,4,2,3,5,0,0
152074,-33.3333333333334,4,2,3,81,0,0
152408,-33.3333333333334,4,2,3,5,0,0
152476,-50,4,2,3,81,0,0
153146,-31.25,4,2,3,81,0,0
153882,-31.25,4,2,3,5,0,0
153949,-50,4,2,3,81,0,0
154217,-33.3333333333334,4,2,3,81,0,0
154551,-33.3333333333334,4,2,3,5,0,0
154619,-41.6666666666667,4,2,3,81,0,0
154953,-41.6666666666667,4,2,3,5,0,0
155021,-41.6666666666667,4,2,3,81,0,0
155221,-41.6666666666667,4,2,3,5,0,0
155289,-38.4615384615385,4,2,3,81,0,0
155623,-38.4615384615385,4,2,3,5,0,0
155690,-38.4615384615385,4,2,3,81,0,0
155824,-33.3333333333334,4,2,3,81,0,0
156024,-33.3333333333334,4,2,3,5,0,0
156092,-33.3333333333334,4,2,3,81,0,0
156292,-33.3333333333334,4,2,3,5,0,0
156360,-33.3333333333334,4,2,3,81,0,0
156562,-33.3333333333334,4,2,3,5,0,0
156629,-33.3333333333334,4,2,3,81,0,0
156896,-29.4117647058824,4,2,3,81,0,0
157096,-29.4117647058824,4,2,3,5,0,0
157164,-29.4117647058824,4,2,3,81,0,0
157298,-29.4117647058824,4,2,2,71,0,0
157432,-33.3333333333334,4,2,2,71,0,0
157565,-38.4615384615385,4,2,2,71,0,0
157699,-38.4615384615385,4,2,3,71,0,0
157765,-38.4615384615385,4,2,3,5,0,0
157833,-33.3333333333334,4,2,2,71,0,0
158235,-33.3333333333334,4,2,2,71,0,0
158301,-33.3333333333334,4,2,2,5,0,0
158369,-33.3333333333334,4,2,2,71,0,0
158435,-33.3333333333334,4,2,2,5,0,0
158503,-29.4117647058824,4,2,3,81,0,0
158905,-41.6666666666667,4,2,3,81,0,0
159039,-35.7142857142857,4,2,3,81,0,0
159239,-35.7142857142857,4,2,3,5,0,0
159307,-35.7142857142857,4,2,3,81,0,0
159908,-35.7142857142857,4,2,3,5,0,0
159976,-35.7142857142857,4,2,3,81,0,0
160042,-35.7142857142857,4,2,3,5,0,0
160110,-35.7142857142857,4,2,3,81,0,0
160578,-35.7142857142857,4,2,3,5,0,0
160646,-35.7142857142857,4,2,3,81,0,0
160980,-35.7142857142857,4,2,3,5,0,0
161048,-35.7142857142857,4,2,3,81,0,0
161449,-29.4117647058824,4,2,3,81,0,0
161717,-50,4,2,3,81,0,0
162119,-33.3333333333334,4,2,3,81,0,0
162453,-33.3333333333334,4,2,3,5,0,0
162521,-50,4,2,3,81,0,0
162789,-33.3333333333334,4,2,3,81,0,0
162990,-33.3333333333334,4,2,3,5,0,0
163057,-33.3333333333334,4,2,3,81,0,0
163123,-33.3333333333334,4,2,3,5,0,0
163190,-41.6666666666667,4,2,3,81,0,0
163256,-41.6666666666667,4,2,3,5,0,0
163324,-41.6666666666667,4,2,3,81,0,0
163524,-41.6666666666667,4,2,3,5,0,0
163592,-41.6666666666667,4,2,3,81,0,0
163792,-41.6666666666667,4,2,3,5,0,0
163860,-35.7142857142857,4,2,3,81,0,0
164194,-35.7142857142857,4,2,3,5,0,0
164262,-35.7142857142857,4,2,3,81,0,0
164396,-31.25,4,2,3,81,0,0
164596,-31.25,4,2,3,5,0,0
164664,-27.7777777777778,4,2,3,81,0,0
164864,-27.7777777777778,4,2,3,5,0,0
164932,-33.3333333333334,4,2,3,81,0,0
165266,-33.3333333333334,4,2,3,5,0,0
165333,-33.3333333333334,4,2,3,81,0,0
165667,-33.3333333333334,4,2,3,5,0,0
165735,-33.3333333333334,4,2,3,81,0,0
165935,-33.3333333333334,4,2,3,5,0,0
166003,-33.3333333333334,4,2,3,81,0,0
166337,-33.3333333333334,4,2,3,5,0,0
166405,-33.3333333333334,4,2,3,81,0,0
166739,-33.3333333333334,4,2,3,5,0,0
166807,-33.3333333333334,4,2,3,81,0,0
167074,-41.6666666666667,4,2,3,81,0,0
168348,-41.6666666666667,4,2,3,5,0,0
168413,-41.6666666666667,4,2,3,81,0,0
169551,-41.6666666666667,4,2,3,5,0,0
169619,-50,4,2,3,81,0,0
170289,-41.6666666666667,4,2,3,81,0,0
170489,-41.6666666666667,4,2,3,5,0,0
170557,-41.6666666666667,4,2,3,81,0,0
170757,-41.6666666666667,4,2,3,5,0,0
170824,-41.6666666666667,4,2,3,81,0,0
171092,-35.7142857142857,4,2,3,81,0,0
171226,-31.25,4,2,3,81,0,0
171360,-38.4615384615385,4,2,3,81,0,0
172901,-38.4615384615385,4,2,3,5,0,0
172966,-38.4615384615385,4,2,3,81,0,0
173435,-38.4615384615385,4,2,3,5,0,0
173503,-41.6666666666667,4,2,3,81,0,0
173905,-50,4,2,3,81,0,0
174307,-62.5,4,2,3,81,0,0
174776,-62.5,4,2,3,5,0,0
174842,-62.5,4,2,3,81,0,0
175378,-50,4,2,3,81,0,0
175646,-50,4,2,1,51,0,0
176315,-50,4,2,1,41,0,0
179932,-50,4,2,1,51,0,0
180199,-47.6190476190476,4,2,1,51,0,0
180467,-45.4545454545455,4,2,1,61,0,0
180735,-43.4782608695652,4,2,1,61,0,0
181003,-41.6666666666667,4,2,1,71,0,0
181271,-40,4,2,1,71,0,0
181539,-38.4615384615385,4,2,1,81,0,0
181807,-37.0370370370371,4,2,1,81,0,0
183012,-37.0370370370371,4,2,2,81,0,0
183480,-37.0370370370371,4,2,2,5,0,0
183548,-33.3333333333334,4,2,2,81,0,0
183748,-33.3333333333334,4,2,2,5,0,0
183815,-33.3333333333334,4,2,2,81,0,0
184015,-33.3333333333334,4,2,2,5,0,0
184083,-27.7777777777778,4,2,2,81,0,0
184149,-27.7777777777778,4,2,2,5,0,0
184217,-27.7777777777778,4,2,1,100,0,0

[Colours]
Combo1 : 255,94,55
Combo2 : 173,255,95
Combo3 : 255,88,100
Combo4 : 17,254,176

[HitObjects]
33,302,1003,6,0,B|108:311|141:225|141:225|142:317|234:334,1,288,0|0,2:0|2:0,2:0:0:0:
219,330,2074,6,0,P|165:331|127:364,1,90,0|0,2:0|2:0,2:0:0:0:
352,354,2610,2,0,P|303:352|232:259,1,144,8|0,2:1|2:0,2:0:0:0:
72,163,3146,6,0,P|70:211|63:252,1,90,0|0,2:0|2:0,2:0:0:0:
7,315,3548,1,0,2:0:0:0:
159,153,3682,2,0,P|144:109|40:84,1,144,8|0,2:1|2:0,2:0:0:0:
165,158,4083,1,0,2:0:0:0:
292,154,4217,6,0,P|360:146|425:134,1,135,0|0,2:0|2:0,2:0:0:0:
465,226,4753,2,0,P|471:209|481:194,1,36,0|0,2:0|2:0,2:0:0:0:
476,67,4887,2,0,P|446:26|339:34,1,144,0|0,2:0|2:0,2:0:0:0:
242,249,5289,6,0,P|175:235|108:228,1,135,0|0,2:0|2:0,2:0:0:0:
41,291,5824,2,0,P|68:330|116:335,1,72,8|0,2:1|2:0,2:0:0:0:
190,191,6092,2,0,B|183:135|183:135|184:130|184:130|176:65,1,108,0|0,2:0|2:0,2:0:0:0:
182,79,6360,6,0,P|156:47|98:43,1,90,0|0,2:0|2:0,2:0:0:0:
331,60,6896,2,0,P|305:100|208:105,1,144,8|0,2:1|2:0,2:0:0:0:
490,156,7432,5,0,2:0:0:0:
395,249,7565,2,0,P|396:204|406:160,1,90,0|0,2:0|2:0,2:0:0:0:
435,329,7967,2,0,B|318:361|327:249|223:271,1,216,8|0,2:1|2:0,2:0:0:0:
11,344,8503,6,0,P|74:332|143:190,1,216,0|0,2:0|2:0,2:0:0:0:
230,31,9039,2,0,P|241:64|247:100,1,72,8|0,2:1|2:0,2:0:0:0:
59,198,9307,2,0,P|69:164|74:129,1,72,0|0,2:0|2:0,2:0:0:0:
0,44,9574,5,0,2:0:0:0:
161,86,9708,1,0,2:0:0:0:
156,93,10110,2,0,B|282:78|282:78|288:80|288:80|436:64,1,252,8|0,2:1|2:0,2:0:0:0:
480,341,10646,6,0,P|439:354|352:277,1,144,0|0,3:0|2:0,2:0:0:0:
359,304,11182,1,8,2:1:0:0:
217,364,11449,2,0,L|306:351,1,72,0|0,3:0|2:0,2:0:0:0:
436,270,11717,6,0,B|449:160|449:160|447:152|447:152|459:55,1,216,0|0,2:0|2:0,2:0:0:0:
485,87,12253,2,0,L|388:99,1,72,8|0,2:1|2:0,2:0:0:0:
131,40,12521,2,0,P|148:40|164:48,1,36,2|2,2:3|2:3,2:0:0:0:
64,86,12655,1,2,2:3:0:0:
278,60,12789,6,0,P|177:70|63:85,1,216,0|0,3:0|3:0,2:0:0:0:
93,306,13324,1,8,2:1:0:0:
93,306,13592,6,0,P|131:299|163:247,1,72,0|0,3:0|2:0,2:0:0:0:
168,55,13860,2,0,L|181:146,1,72,0|0,2:0|2:0,2:0:0:0:
272,368,14128,6,0,P|247:343|189:339,1,72,0|0,3:0|2:0,2:0:0:0:
15,221,14396,2,0,L|86:228,1,72,8|0,2:1|2:0,2:0:0:0:
315,155,14664,6,0,L|280:163,1,36,2|2,2:3|2:3,2:0:0:0:
389,195,14798,1,2,2:3:0:0:
272,248,14932,6,0,P|319:196|389:195,1,144,0|0,3:0|2:0,2:0:0:0:
389,195,15467,1,8,2:1:0:0:
403,37,15735,2,0,P|382:66|372:100,1,72,0|0,3:0|2:0,2:0:0:0:
355,275,16003,5,0,2:0:0:0:
193,228,16137,1,0,2:0:0:0:
186,233,16539,2,0,L|171:149,1,72,8|0,2:1|2:0,2:0:0:0:
287,100,16807,2,0,L|268:165,1,36,2|2,2:3|2:3,2:0:0:0:
243,27,16940,1,2,2:3:0:0:
428,84,17074,6,0,P|324:94|243:27,1,216,0|0,3:0|3:0,2:0:0:0:
34,148,17610,2,0,P|70:124|131:123,1,72,8|0,2:1|2:0,2:0:0:0:
290,313,17878,2,0,P|285:277|266:247,1,72,0|0,3:0|2:0,2:0:0:0:
142,313,18146,6,0,B|163:228|163:228|166:225|166:225|191:117,2,180,0|0|8,2:0|3:0|2:1,2:0:0:0:
145,320,18949,2,0,L|86:339,1,45,2|2,2:3|2:3,2:0:0:0:
26,298,19083,1,2,2:3:0:0:
288,359,19217,6,0,P|156:328|25:297,1,270,8|0,2:0|2:0,2:0:0:0:
221,309,19753,2,0,B|133:192|304:178|203:57,1,270,8|0,2:0|2:0,2:0:0:0:
246,228,20289,2,0,P|385:198|511:177,1,270,8|0,2:0|2:0,2:0:0:0:
152,0,20824,2,0,B|80:47|113:135|124:108|167:198|77:248,1,270,8|0,2:0|2:0,2:0:0:0:
443,278,21360,6,0,B|479:158|347:106|347:106|382:131|387:173,1,270,8|0,2:0|2:0,2:0:0:0:
248,364,21896,2,0,B|155:277|263:163|353:232|295:313,1,270,8|0,2:0|2:0,2:0:0:0:
76,201,22432,2,0,B|55:101|156:32|156:32|109:73|106:122,1,270,8|0,2:0|2:0,2:0:0:0:
367,372,22967,2,0,B|229:419|226:285|84:371,1,270,8|0,2:0|2:0,2:0:0:0:
315,292,23503,6,0,P|320:248|331:180,1,90,8|0,2:0|2:0,2:0:0:0:
62,292,23771,2,0,P|89:263|177:266,1,94.5,8|0,2:0|2:0,2:0:0:0:
200,82,24039,2,0,P|210:132|215:179,1,98.9999999999999,8|0,2:0|2:0,2:0:0:0:
470,123,24307,2,0,P|435:85|385:78,1,103.5,8|0,2:0|2:0,2:0:0:0:
32,181,24574,6,0,P|87:172|124:114,1,108,8|0,2:0|2:0,2:0:0:0:
314,7,24842,2,0,P|303:68|296:118,1,112.5,8|0,2:0|2:0,2:0:0:0:
481,313,25110,2,0,P|420:314|382:232,1,117,8|0,2:0|2:0,2:0:0:0:
208,194,25378,2,0,P|222:252|229:313,1,121.5,8|0,2:0|2:0,2:0:0:0:
36,319,25646,5,8,2:0:0:0:
26,303,25713,1,8,2:0:0:0:
26,284,25780,1,8,2:0:0:0:
32,267,25847,1,8,2:0:0:0:
44,255,25914,2,0,P|78:248|104:264,3,60.7499999999999,8|8|8|8,2:0|2:0|2:0|2:0,2:0:0:0:
128,280,26182,5,8,2:0:0:0:
169,283,26248,1,8,2:0:0:0:
193,249,26315,1,8,2:0:0:0:
189,211,26382,1,8,2:0:0:0:
154,191,26449,1,8,2:0:0:0:
115,165,26516,1,8,2:0:0:0:
113,119,26583,1,8,2:0:0:0:
150,90,26650,1,8,2:0:0:0:
158,103,26717,6,0,L|129:280,1,180,4|0,2:3|2:0,2:0:0:0:
129,281,27789,6,0,B|184:284|206:279|220:334|220:334|140:280|187:170|285:154|328:215|328:215|295:250|310:310,1,472.499999999999,8|0,2:3|2:0,2:0:0:0:
437,301,28324,6,0,P|416:281|388:273,1,60,8|0,2:1|2:0,2:0:0:0:
302,363,28503,1,0,2:0:0:0:
309,369,28592,6,0,P|332:366|351:356,2,45,0|0|0,3:0|3:0|3:0,2:0:0:0:
37,310,28860,6,0,B|163:294|163:294|170:296|170:296|351:275,1,270,8|0,2:3|2:0,2:0:0:0:
234,58,29262,2,0,B|203:117|203:117|197:121|197:121|163:176|163:176|274:197|274:197|249:152,1,270,8|0,2:3|2:0,2:0:0:0:
265,180,29664,2,0,B|254:169|254:169|85:145|85:145|72:135,1,202.5,8|0,2:3|2:0,2:0:0:0:
46,244,29932,6,0,P|35:134|14:14,1,216,0|0,3:0|2:0,2:0:0:0:
12,36,30467,6,0,P|33:64|108:59,1,89.9999999999998,8|0,2:1|2:0,2:0:0:0:
148,153,30646,2,0,P|194:141|235:133,1,89.9999999999998,0|0,2:0|3:0,2:0:0:0:
89,304,30824,2,0,P|108:270|197:275,1,89.9999999999998,0|0,2:0|2:0,2:0:0:0:
154,253,31003,6,0,B|238:339|365:222|315:144|228:156|269:253,1,270,8|0,2:0|3:0,2:0:0:0:
495,97,31539,2,0,P|456:119|412:124,1,90,8|0,2:1|2:0,2:0:0:0:
326,359,31807,2,0,B|296:329|245:336|245:336|345:310|385:390,1,202.5,0|0,3:0|2:0,2:0:0:0:
307,375,32074,6,0,B|230:253|420:236|306:93|306:93|258:102|225:129|225:129|221:184|277:196,1,472.499999999999,8|0,2:3|2:0,2:0:0:0:
420,269,32610,5,8,2:1:0:0:
456,272,32677,1,0,2:0:0:0:
461,232,32744,1,0,2:0:0:0:
424,228,32811,1,0,2:0:0:0:
444,252,32878,5,0,3:0:0:0:
444,252,32945,1,0,3:0:0:0:
444,252,33012,2,0,L|432:177,1,67.4999999999999,0|0,3:0|2:0,2:0:0:0:
507,113,33146,6,0,B|384:90|384:90|378:86|378:86|242:60,1,270,8|0,2:3|2:0,2:0:0:0:
195,270,33548,2,0,B|257:281|304:230|304:230|282:158|207:146|207:146|234:176,1,270,8|0,2:3|2:0,2:0:0:0:
215,155,33949,2,0,B|231:178|231:178|219:326|219:326|238:352,1,202.5,8|0,2:3|2:0,2:0:0:0:
135,353,34217,6,0,P|216:330|361:305,1,216,0|0,3:0|2:0,2:0:0:0:
341,302,34753,6,0,P|346:261|355:214,1,90.0000034332277,8|0,2:1|2:0,2:0:0:0:
420,107,34932,2,0,P|448:141|449:185,1,89.9999999999998,0|0,2:0|3:0,2:0:0:0:
269,142,35110,2,0,P|291:104|333:89,1,89.9999999999998,0|0,2:0|2:0,2:0:0:0:
412,117,35289,6,0,B|302:163|213:60|235:8|304:6|278:77,1,270,8|0,2:0|3:0,2:0:0:0:
120,285,35824,2,0,P|156:302|164:209,1,162,8|0,2:1|2:0,2:0:0:0:
70,122,36092,2,0,B|158:192|-14:249|145:319,1,202.5,0|0,3:0|2:0,2:0:0:0:
22,340,36360,6,0,B|163:203|368:268|368:268|287:247|232:336,1,472.500018024445,8|0,3:0|2:0,2:0:0:0:
274,294,36896,2,0,P|290:336|352:344,2,96,8|0|0,2:1|2:0|2:0,2:0:0:0:
346,103,37432,6,0,B|338:168|338:168|342:173|342:173|329:267,1,135,8|0,2:3|2:0,2:0:0:0:
334,236,37699,6,0,P|414:220|369:69,1,270,0|0,3:0|2:0,2:0:0:0:
251,135,38101,2,0,P|260:217|428:237,1,270,0|0,3:0|2:0,2:0:0:0:
396,43,38503,6,0,P|215:144|351:299,1,472.499999999999,0|0,3:0|2:0,2:0:0:0:
361,306,39039,6,0,L|346:181,1,89.9999999999998,8|0,2:1|2:0,2:0:0:0:
266,151,39217,2,0,B|253:145|253:145|139:159,1,89.9999999999998,0|0,2:0|3:0,2:0:0:0:
82,122,39396,2,0,B|73:111|73:111|90:-7,1,89.9999999999998,0|0,2:0|2:0,2:0:0:0:
94,32,39574,6,0,L|77:156,1,89.9999999999998,8|0,2:3|2:0,2:0:0:0:
14,194,39753,2,0,B|44:229|44:229|86:218,1,89.9999999999998,0|0,2:0|3:0,2:0:0:0:
179,253,39932,2,0,B|184:244|184:244|167:140,1,89.9999999999998,0|0,2:0|2:0,2:0:0:0:
177,154,40110,6,0,L|189:221,1,67.4999999999999,8|0,2:1|2:0,2:0:0:0:
128,330,40244,2,0,B|72:285|9:355|100:474|233:252|350:264|290:414|220:339,1,337.499999999999,0|0,3:0|2:0,2:0:0:0:
235,351,40646,6,0,L|242:301,1,45,8|0,2:0|2:0,2:0:0:0:
446,372,40914,2,0,L|357:358,1,90,0|0,3:0|2:0,2:0:0:0:
262,210,41182,6,0,L|254:157,1,45,8|0,2:0|2:0,2:0:0:0:
64,254,41449,2,0,L|151:235,1,90,0|0,3:0|2:0,2:0:0:0:
243,76,41717,6,0,L|251:20,1,45,8|0,2:0|2:0,2:0:0:0:
496,123,41985,2,0,B|425:113|425:113|415:114|415:114|333:102,1,162,0|0,3:0|2:0,2:0:0:0:
335,102,42253,6,0,B|380:111|380:111|331:129,1,90,8|0,2:0|2:0,2:0:0:0:
103,304,42521,2,0,B|120:286|120:286|96:147,1,135,0|0,3:0|2:0,2:0:0:0:
101,177,42789,6,0,L|36:160,1,45,8|0,2:0|2:0,2:0:0:0:
200,202,42923,2,0,L|243:213,1,45,8|0,2:0|2:0,2:0:0:0:
167,79,43057,6,0,L|133:21,1,45,8|0,2:0|2:0,2:0:0:0:
219,164,43190,2,0,L|241:202,1,45,8|0,2:0|2:0,2:0:0:0:
282,63,43324,6,0,L|299:-2,1,45,8|0,2:0|2:0,2:0:0:0:
258,149,43458,2,0,L|246:192,1,45,8|0,2:0|2:0,2:0:0:0:
365,116,43592,6,0,L|422:82,1,45,8|0,2:0|2:0,2:0:0:0:
295,161,43726,2,0,L|256:183,1,45,8|0,2:0|2:0,2:0:0:0:
387,214,43860,5,8,2:0:0:0:
403,222,43927,1,8,2:0:0:0:
420,224,43994,5,8,2:0:0:0:
415,276,44061,1,8,2:0:0:0:
377,305,44128,1,8,2:0:0:0:
326,296,44195,1,8,2:0:0:0:
278,281,44262,6,0,B|226:292|222:323|222:323|236:296|282:280,1,135,8|0,2:0|2:0,2:0:0:0:
89,237,44530,1,8,2:0:0:0:
81,247,44597,1,8,2:0:0:0:
69,249,44664,6,0,P|26:236|-5:224,1,45,8|0,2:0|2:0,2:0:0:0:
141,305,44798,2,0,P|126:321|105:328,1,45,8|0,2:0|2:0,2:0:0:0:
35,138,44932,6,0,B|151:212|184:38|283:120|280:142|280:142|275:172|273:125|218:124,1,337.499999999999,4|0,3:0|2:0,2:0:0:0:
155,95,45333,2,0,P|153:72|148:50,1,45,8|0,2:3|2:0,2:0:0:0:
269,236,45467,2,0,P|261:302|239:366,1,135,8|0,2:0|2:0,2:0:0:0:
224,354,45735,2,0,B|291:325|290:405|371:366,1,135,2|2,1:2|2:0,2:0:0:0:
497,279,46003,6,0,B|404:202|265:325|393:390|422:365|446:317,1,270,0|0,3:0|2:0,2:0:0:0:
433,337,46405,2,0,L|422:286,1,45,8|0,2:3|2:0,2:0:0:0:
346,202,46539,1,8,2:0:0:0:
498,29,46807,2,0,P|484:97|481:168,1,135,0|0,1:0|2:0,2:0:0:0:
497,157,47074,6,0,P|474:238|320:212,1,270,0|0,3:0|2:0,2:0:0:0:
346,202,47476,2,0,L|358:136,1,45,8|0,2:3|2:0,2:0:0:0:
267,82,47610,1,8,2:0:0:0:
172,329,47878,2,0,B|269:348|269:348|305:380,1,135,0|0,1:0|2:0,2:0:0:0:
258,384,48146,6,0,B|245:279|245:279|251:269|251:269|234:138,1,225,0|0,3:0|2:0,2:0:0:0:
219,157,48548,2,0,P|218:134|223:112,1,45,8|0,2:3|2:0,2:0:0:0:
305,102,48682,6,0,P|302:79|289:61,1,45,8|0,2:0|2:0,2:0:0:0:
151,72,48815,2,0,P|163:53|181:40,1,45,0|0,2:0|2:0,2:0:0:0:
201,240,48949,1,2,1:2:0:0:
186,228,49217,6,0,B|174:207|153:198|153:198|245:180|245:180|207:256|229:312,1,270,0|0,3:0|2:0,2:0:0:0:
226,306,49619,2,0,L|290:324,1,45,8|0,2:3|2:0,2:0:0:0:
464,267,49753,2,0,B|489:250|495:218|495:218|498:268|461:282,1,135,8|0,2:0|2:0,2:0:0:0:
451,360,50021,2,0,P|445:299|401:199,1,162,0|0,1:0|2:0,2:0:0:0:
346,145,50289,6,0,B|320:57|404:-1|473:32|473:32|407:53|417:135,1,292.5,0|0,3:0|2:0,2:0:0:0:
421,102,50690,2,0,P|433:124|467:141,1,45,8|0,2:3|2:0,2:0:0:0:
464,251,50824,2,0,P|391:204|255:209,1,202.5,8|0,2:0|2:0,2:0:0:0:
98,224,51092,2,0,P|170:265|159:175,1,202.5,0|0,1:0|2:0,2:0:0:0:
114,343,51360,6,0,B|149:318|149:318|96:81|96:81|144:40,1,337.499999999999,0|0,3:0|2:0,2:0:0:0:
153,61,51762,2,0,L|138:132,1,45,8|0,2:3|2:0,2:0:0:0:
84,237,51896,1,8,2:0:0:0:
221,19,52164,2,0,P|182:81|155:136,1,135,0|0,1:0|2:0,2:0:0:0:
84,237,52432,6,0,L|112:308,1,45,0|0,3:0|2:0,2:0:0:0:
38,336,52565,2,0,P|108:296|183:266,1,162,0|0,1:0|2:0,2:0:0:0:
232,194,52833,6,0,L|278:223,1,54,8|0,2:3|2:0,2:0:0:0:
416,340,52967,2,0,B|363:311|298:303|298:303|350:289|362:229,1,202.5,8|0,2:0|2:0,2:0:0:0:
372,238,53235,6,0,P|366:201|361:168,1,67.4999999999999,8|0,2:3|2:0,2:0:0:0:
284,114,53369,2,0,P|292:82|299:49,1,67.4999999999999,8|0,2:3|2:0,2:0:0:0:
507,32,53503,6,0,B|392:42|454:170|345:174,1,216,0|0,3:0|2:0,2:0:0:0:
104,196,53905,2,0,B|160:200|206:159|206:159|217:223|259:245,1,216,0|0,3:0|2:0,2:0:0:0:
348,219,54307,1,0,3:0:0:0:
348,219,54373,1,0,3:0:0:0:
348,219,54440,2,0,P|337:194|317:176,1,54,0|0,3:0|2:0,2:0:0:0:
160,289,54574,6,0,P|211:304|246:344,1,108,8|0,2:3|2:0,2:0:0:0:
233,359,54842,2,0,B|213:252|213:252|215:247|215:247|198:142,1,216,0|0,3:0|2:0,2:0:0:0:
325,65,55244,2,0,P|290:141|119:182,1,270,0|0,3:0|2:0,2:0:0:0:
66,246,55646,6,0,P|186:236|171:116,2,270,0|0|2,3:0|3:0|3:2,2:0:0:0:
396,327,56717,2,0,P|351:322|299:283,1,108,8|0,2:3|2:0,2:0:0:0:
218,7,56985,2,0,P|139:77|120:182,1,216,0|0,3:0|2:0,2:0:0:0:
120,182,57387,6,0,P|147:181|169:166,1,54,0|0,3:0|2:0,2:0:0:0:
339,108,57521,2,0,P|316:89|279:81,1,63,8|0,2:3|2:0,2:0:0:0:
249,225,57655,2,0,P|260:191|251:156,1,72,8|0,2:3|2:0,2:0:0:0:
218,7,57789,6,0,B|101:-18|140:106|-2:74,1,234,0|0,3:0|2:0,2:0:0:0:
124,246,58190,2,0,B|190:302|284:255|259:173|203:184|211:250,1,216,0|0,3:0|2:0,2:0:0:0:
46,201,58592,1,0,3:0:0:0:
46,201,58659,1,0,3:0:0:0:
46,201,58726,2,0,P|68:174|123:162,1,54,0|0,3:0|2:0,2:0:0:0:
189,72,58860,6,0,P|145:40|92:34,1,108,8|0,2:3|2:0,2:0:0:0:
84,49,59128,2,0,B|185:35|185:35|193:37|193:37|327:17,1,216,0|8,3:0|1:0,2:0:0:0:
231,178,59530,2,0,P|268:98|442:51,1,270,0|0,3:0|2:0,2:0:0:0:
416,34,59932,6,0,B|348:138|474:141|387:248,1,216,0|0,3:0|2:0,2:0:0:0:
224,31,60333,2,0,B|245:142|314:84|315:206,1,180,0|0,3:0|2:0,2:0:0:0:
66,113,60735,2,0,B|126:163|136:104|213:192,2,144,2|8|0,3:2|2:3|3:0,2:0:0:0:
28,243,61539,2,0,P|60:229|98:226,1,72,8|0,1:0|3:0,2:0:0:0:
198,369,61807,6,0,L|211:325,1,45,8|0,2:3|2:0,2:0:0:0:
265,260,61940,2,0,P|282:275|289:296,1,45,8|0,2:3|2:0,2:0:0:0:
115,351,62074,6,0,P|242:334|382:315,1,270,8|0,2:0|2:0,2:0:0:0:
274,118,62610,2,0,B|239:114|213:91|213:91|139:108|128:209|186:256,1,270,8|0,2:0|2:0,2:0:0:0:
328,214,63146,2,0,P|194:187|61:169,1,270,8|0,2:0|2:0,2:0:0:0:
286,36,63682,2,0,B|309:32|333:19|333:19|404:43|436:117|403:186|349:203,1,270,8|0,2:0|2:0,2:0:0:0:
89,299,64217,6,0,B|20:175|182:165|124:42,1,270,8|0,2:0|2:0,2:0:0:0:
283,301,64753,2,0,B|311:389|151:384|153:270|244:199,1,270,8|0,2:0|2:0,2:0:0:0:
385,3,65289,2,0,B|322:120|476:110|408:254,1,270,8|0,2:0|2:0,2:0:0:0:
169,215,65824,2,0,B|225:186|239:108|239:108|266:188|346:195,1,270,8|0,2:0|2:0,2:0:0:0:
449,82,66360,6,0,P|405:90|339:100,1,90,8|0,2:0|2:0,2:0:0:0:
306,274,66628,2,0,P|317:325|387:355,1,94.5,8|0,2:0|2:0,2:0:0:0:
169,215,66896,2,0,P|122:206|76:200,1,94.5,8|0,2:0|2:0,2:0:0:0:
194,6,67164,2,0,P|160:41|152:90,1,98.9999999999999,8|0,2:0|2:0,2:0:0:0:
57,344,67432,6,0,P|15:313|15:231,1,103.5,8|0,2:0|2:0,2:0:0:0:
268,90,67699,2,0,P|257:143|247:196,1,108,8|0,2:0|2:0,2:0:0:0:
499,122,67967,2,0,P|495:68|453:33,1,112.5,8|0,2:0|2:0,2:0:0:0:
208,179,68235,2,0,P|219:237|228:295,1,117,8|0,2:0|2:0,2:0:0:0:
16,86,68503,5,8,2:0:0:0:
2,81,68570,1,8,2:0:0:0:
0,67,68637,1,8,2:0:0:0:
11,52,68704,1,8,2:0:0:0:
41,54,68771,2,0,P|61:87|43:132,3,60.7499999999999,8|8|8|8,2:0|2:0|2:0|2:0,2:0:0:0:
34,149,69039,5,8,2:0:0:0:
26,191,69106,1,8,2:0:0:0:
48,226,69173,1,8,2:0:0:0:
91,235,69240,1,8,2:0:0:0:
131,218,69307,1,8,2:0:0:0:
151,181,69373,1,8,2:0:0:0:
143,150,69440,5,8,2:0:0:0:
146,135,69507,1,8,2:0:0:0:
160,126,69574,2,0,L|219:139,1,60.7499999999999,8|0,2:0|2:0,2:0:0:0:
379,195,69708,2,0,B|403:214|403:214|283:241|283:241|293:182,1,202.5,8|0,2:0|2:0,2:0:0:0:
302,83,69976,6,0,B|307:114|307:114|310:115|310:115|316:147,1,67.4999999999999,8|0,2:0|2:0,2:0:0:0:
351,340,70110,2,0,B|365:354|371:369|371:369|369:354|375:320,1,67.4999999999999,0|0,2:0|2:0,2:0:0:0:
341,255,70244,5,8,2:0:0:0:
341,255,70311,1,8,2:0:0:0:
341,255,70378,2,0,P|303:235|238:254,1,67.4999999999999,8|0,2:0|2:0,2:0:0:0:
389,212,70512,2,0,P|361:230|344:259,1,67.4999999999999,8|0,2:0|2:0,2:0:0:0:
152,356,70646,6,0,B|61:360|10:202|107:168|239:149|203:58|125:37|75:46|48:104|108:163,1,472.499999999999,8|0,2:3|2:0,2:0:0:0:
162,275,71182,6,0,P|192:271|217:255,1,60,8|0,2:1|2:0,2:0:0:0:
265,95,71360,1,0,2:0:0:0:
192,138,71449,6,0,P|181:160|188:210,2,45,0|0|0,3:0|3:0|3:0,2:0:0:0:
345,71,71717,6,0,B|458:93|458:93|463:100|463:100|442:229|442:229|425:234,1,270,8|0,2:3|2:0,2:0:0:0:
286,328,72119,2,0,B|228:344|228:344|205:268|205:268|292:246|292:246|279:207,1,270,8|0,2:3|2:0,2:0:0:0:
279,207,72521,2,0,B|172:237|172:237|168:245|168:245|190:323,1,202.5,8|0,2:3|2:0,2:0:0:0:
128,374,72789,6,0,P|141:262|145:158,1,216,0|0,3:0|2:0,2:0:0:0:
152,153,73324,6,0,P|116:134|42:155,1,89.9999999999998,8|0,2:1|2:0,2:0:0:0:
269,227,73503,2,0,P|243:190|239:146,1,89.9999999999998,0|0,2:0|3:0,2:0:0:0:
237,0,73682,2,0,P|224:42|195:76,1,89.9999999999998,0|0,2:0|2:0,2:0:0:0:
63,148,73860,6,0,B|142:119|265:201|193:270|138:245|171:153,1,270,8|0,2:0|3:0,2:0:0:0:
405,50,74396,2,0,P|385:106|390:155,1,90,8|0,2:1|2:0,2:0:0:0:
242,311,74664,2,0,B|244:271|204:233|204:233|269:272|247:354,1,202.5,0|0,3:0|2:0,2:0:0:0:
335,314,74932,6,0,B|262:250|170:299|203:320|95:375|48:289|48:289|25:242|101:242|69:343|162:324|194:282,1,472.499999999999,8|0,2:3|2:0,2:0:0:0:
173,294,75467,6,0,B|164:257|164:257|165:252|165:252|152:206,1,89.9999999999998,8|0,2:1|2:0,2:0:0:0:
115,53,75646,1,0,2:0:0:0:
69,122,75735,6,0,P|87:134|109:137,2,45,0|0|0,3:0|3:0|3:0,2:0:0:0:
289,40,76003,6,0,B|377:104|302:213|259:132|182:220|278:295,1,270,8|0,2:3|2:0,2:0:0:0:
442,335,76405,2,0,B|525:278|413:194|307:299|379:374|477:334,1,270,8|0,2:3|2:0,2:0:0:0:
456,340,76807,2,0,B|516:280|455:236|408:257|398:178|435:154,1,202.5,8|0,2:3|2:0,2:0:0:0:
505,161,77074,6,0,P|427:184|266:187,1,216,0|0,3:0|2:0,2:0:0:0:
286,197,77610,6,0,P|279:154|335:96,1,89.9999999999998,8|0,2:1|2:0,2:0:0:0:
144,286,77789,2,0,P|157:246|166:198,1,89.9999999999998,0|0,2:0|3:0,2:0:0:0:
66,67,77967,2,0,P|63:111|29:152,1,89.9999999999998,0|0,2:0|2:0,2:0:0:0:
27,145,78146,6,0,B|17:238|92:279|175:243|175:243|164:220|165:199,1,270,8|0,2:0|3:0,2:0:0:0:
373,44,78682,2,0,P|301:36|299:108,1,162,8|0,2:1|2:0,2:0:0:0:
383,218,78949,2,0,B|332:126|446:123|386:25,1,202.5,0|0,3:0|2:0,2:0:0:0:
369,232,79217,6,0,B|415:307|520:278|535:182|466:141|466:141|548:243|422:246|464:329|519:367,1,472.499999999999,8|0,3:0|2:0,2:0:0:0:
475,352,79753,2,0,P|428:359|381:351,2,96,8|0|0,2:1|2:0|2:0,2:0:0:0:
277,242,80289,6,0,B|269:179|269:179|273:173|273:173|264:90,1,135,8|0,2:3|2:0,2:0:0:0:
267,110,80557,6,0,P|347:126|302:277,1,270,0|0,3:0|2:0,2:0:0:0:
185,210,80958,2,0,P|194:128|362:108,1,270,0|0,3:0|2:0,2:0:0:0:
330,302,81360,6,0,P|149:201|285:46,1,472.499999999999,0|0,3:0|2:0,2:0:0:0:
293,38,81896,6,0,L|423:62,1,89.9999999999998,8|0,2:1|2:0,2:0:0:0:
475,109,82074,2,0,B|458:152|458:152|390:168,1,89.9999999999998,0|0,2:0|3:0,2:0:0:0:
315,186,82253,2,0,B|300:201|300:201|291:269,1,89.9999999999998,0|0,2:0|2:0,2:0:0:0:
303,276,82432,6,0,L|315:187,1,89.9999999999998,8|0,2:3|2:0,2:0:0:0:
230,132,82610,2,0,B|218:123|218:123|143:134,1,89.9999999999998,0|0,2:0|3:0,2:0:0:0:
94,220,82789,2,0,B|99:256|99:256|103:261|103:261|110:307,1,89.9999999999998,0|0,2:0|2:0,2:0:0:0:
97,320,82967,6,0,B|68:302|68:302|83:272,1,67.4999999999999,8|0,2:1|2:0,2:0:0:0:
40,85,83101,2,0,B|86:43|137:73|137:73|141:71|141:71|184:103|179:149|138:202|86:192|109:179|109:179|153:161|141:108,1,337.499999999999,0|0,3:0|2:0,2:0:0:0:
142,125,83503,6,0,L|206:115,1,45,8|0,2:0|2:0,2:0:0:0:
84,273,83771,2,0,L|60:385,1,90,0|0,3:0|2:0,2:0:0:0:
270,154,84039,6,0,L|332:167,1,45,8|0,2:0|2:0,2:0:0:0:
138,258,84307,2,0,L|99:339,1,90,0|0,3:0|2:0,2:0:0:0:
362,240,84574,6,0,L|417:264,1,45,8|0,2:0|2:0,2:0:0:0:
194,259,84842,2,0,B|126:334|126:334|164:332|208:382,1,162,0|0,3:0|2:0,2:0:0:0:
181,355,85110,6,0,P|198:322|160:323,1,90,8|0,2:0|2:0,2:0:0:0:
418,158,85378,2,0,B|408:95|408:95|409:88|409:88|399:24,1,135,0|0,3:0|2:0,2:0:0:0:
400,25,85646,6,0,L|452:38,1,45,8|0,2:0|2:0,2:0:0:0:
273,72,85780,2,0,L|211:99,1,45,8|0,2:0|2:0,2:0:0:0:
434,119,85914,6,0,L|485:146,1,45,8|0,2:0|2:0,2:0:0:0:
304,154,86048,2,0,L|260:165,1,45,8|0,2:0|2:0,2:0:0:0:
436,216,86182,6,0,L|480:263,1,45,8|0,2:0|2:0,2:0:0:0:
317,243,86315,2,0,L|257:247,1,45,8|0,2:0|2:0,2:0:0:0:
410,308,86449,6,0,L|424:350,1,45,8|0,2:0|2:0,2:0:0:0:
309,333,86583,2,0,L|264:328,1,45,8|0,2:0|2:0,2:0:0:0:
90,334,86717,5,8,2:0:0:0:
72,345,86784,1,8,2:0:0:0:
64,361,86851,5,8,2:0:0:0:
38,328,86918,1,8,2:0:0:0:
47,281,86985,1,8,2:0:0:0:
87,257,87052,1,8,2:0:0:0:
134,259,87119,6,0,B|175:282|167:323|167:323|166:291|139:272,1,135,8|0,2:0|2:0,2:0:0:0:
211,211,87387,1,8,2:0:0:0:
219,202,87454,1,8,2:0:0:0:
230,196,87521,6,0,P|252:191|274:191,1,45,8|0,2:0|2:0,2:0:0:0:
290,311,87655,2,0,P|273:295|250:291,1,45,8|0,2:0|2:0,2:0:0:0:
118,175,87789,6,0,B|89:150|98:105|98:105|116:59|117:-11|-2:21|-41:53|24:86|123:45|74:171,1,337.499999999999,4|0,3:0|2:0,2:0:0:0:
55,228,88190,2,0,P|72:243|93:252,1,45,8|0,2:3|2:0,2:0:0:0:
230,196,88324,2,0,P|243:129|240:62,1,135,8|0,2:0|2:0,2:0:0:0:
226,48,88592,2,0,B|298:29|272:88|376:72,1,135,2|2,1:2|2:0,2:0:0:0:
489,137,88860,6,0,B|434:128|401:176|401:176|354:134|384:54|458:54,1,270,0|0,3:0|2:0,2:0:0:0:
449,54,89262,2,0,L|454:116,1,45,8|0,2:3|2:0,2:0:0:0:
476,224,89396,1,8,2:0:0:0:
284,339,89664,2,0,P|284:277|260:175,1,135,0|0,1:0|2:0,2:0:0:0:
287,222,89932,6,0,B|251:281|192:257|192:257|187:260|187:260|147:229|150:173|196:152|196:152|197:176|188:191,1,270,0|0,3:0|2:0,2:0:0:0:
205,190,90333,2,0,L|197:248,1,45,8|0,2:3|2:0,2:0:0:0:
133,330,90467,1,8,2:0:0:0:
56,89,90735,2,0,B|74:96|74:96|169:66|169:66|184:70,1,135,0|0,1:0|2:0,2:0:0:0:
157,9,91003,6,0,L|162:53,1,45,0|0,3:0|2:0,2:0:0:0:
270,109,91137,2,0,P|275:87|285:67,1,45,0|0,2:0|2:0,2:0:0:0:
51,100,91271,2,0,P|66:116|75:136,1,45,0|0,2:0|2:0,2:0:0:0:
206,200,91405,6,0,B|186:197|173:185|173:185|165:200|148:204,1,67.4999999999999,8|0,2:3|2:0,2:0:0:0:
185,283,91539,2,0,B|111:186|243:193|138:55,1,202.5,8|0,2:0|2:0,2:0:0:0:
88,143,91807,6,0,P|84:121|73:102,1,45,0|0,1:0|2:0,2:0:0:0:
260,73,91940,2,0,P|256:95|257:118,1,45,0|0,2:0|2:0,2:0:0:0:
115,349,92074,6,0,B|199:255|363:308|316:384|279:367|272:301,1,270,0|0,3:0|2:0,2:0:0:0:
274,314,92476,2,0,L|289:242,1,45,8|0,2:3|2:0,2:0:0:0:
397,166,92610,2,0,B|403:119|450:125|450:125|417:134|400:168,1,135,8|0,2:0|2:0,2:0:0:0:
474,204,92878,2,0,P|381:181|280:194,1,162,0|0,1:0|2:0,2:0:0:0:
193,161,93146,6,0,B|163:222|214:318|314:274|314:274|254:273|236:208,1,292.5,0|0,3:0|2:0,2:0:0:0:
240,232,93548,2,0,P|228:212|222:191,1,45,8|0,2:3|2:0,2:0:0:0:
181,33,93682,2,0,B|150:168|150:168|84:203,1,202.5,8|0,2:0|2:0,2:0:0:0:
61,293,93949,2,0,B|38:263|38:263|157:236|157:236|146:278,1,202.5,0|0,1:0|2:0,2:0:0:0:
117,363,94217,6,0,B|133:309|133:309|35:117|35:117|52:53,1,337.499999999999,0|0,3:0|2:0,2:0:0:0:
133,67,94619,2,0,L|114:133,1,45,8|0,2:3|2:0,2:0:0:0:
36,311,94753,6,0,P|128:327|222:340,1,189,8|0,2:0|2:0,2:0:0:0:
299,379,95021,2,0,B|350:289|232:299|309:188,1,189,0|0,1:0|2:0,2:0:0:0:
320,211,95289,6,0,P|313:181|309:149,1,63,0|0,3:0|2:0,2:0:0:0:
448,32,95423,2,0,P|425:101|357:75,1,162,0|0,1:0|2:0,2:0:0:0:
320,6,95690,6,0,P|316:32|309:58,1,54,8|0,2:3|2:0,2:0:0:0:
482,291,95824,2,0,B|461:165|536:223|505:76,1,202.5,8|0,2:0|2:0,2:0:0:0:
509,97,96092,6,0,P|484:121|452:128,1,67.4999999999999,8|0,2:3|2:0,2:0:0:0:
355,210,96226,2,0,P|322:206|297:185,1,67.4999999999999,8|0,2:3|2:0,2:0:0:0:
177,55,96360,6,0,B|46:-2|2:100|33:123|78:93|84:41,1,216,0|0,3:0|2:0,2:0:0:0:
185,284,96762,2,0,B|130:282|95:335|95:335|94:268|42:244,1,216,0|0,3:0|2:0,2:0:0:0:
149,145,97164,1,0,3:0:0:0:
149,145,97231,1,0,3:0:0:0:
149,145,97298,2,0,P|138:169|135:196,1,54,0|0,3:0|3:0,2:0:0:0:
177,370,97432,6,0,P|273:344|387:326,1,216,8|0,2:0|3:0,2:0:0:0:
389,326,97967,1,8,1:0:0:0:
437,239,98101,1,0,3:0:0:0:
384,314,98235,1,2,2:0:0:0:
302,269,98369,1,2,2:0:0:0:
350,187,98503,6,0,B|337:78|430:56|430:56|418:88|383:96,1,225,0|0,3:0|2:0,2:0:0:0:
394,93,98905,2,0,P|356:67|312:62,1,90,0|8,3:0|1:0,2:0:0:0:
218,80,99173,1,0,2:0:0:0:
255,252,99307,2,0,P|222:210|215:150,1,90,2|2,3:2|2:0,2:0:0:0:
77,42,99574,6,0,B|72:14|144:-11|208:96,1,162,8|0,2:3|2:0,2:0:0:0:
218,80,99842,2,0,B|211:169|140:132|133:235,1,162,0|0,3:0|2:0,2:0:0:0:
119,226,100110,1,8,1:0:0:0:
307,228,100244,6,0,P|281:238|255:241,1,54,0|0,3:0|2:0,2:0:0:0:
372,288,100378,2,0,P|346:306|316:315,1,63,8|0,2:3|2:0,2:0:0:0:
456,319,100512,2,0,P|437:349|407:369,1,72,8|0,2:3|2:0,2:0:0:0:
213,317,100646,6,0,B|353:310|272:205|398:202,1,234,0|0,3:0|2:0,2:0:0:0:
410,79,101048,2,0,B|341:33|263:70|251:124|251:124|288:163,1,216,0|0,3:0|2:0,2:0:0:0:
502,216,101449,1,0,3:0:0:0:
502,216,101516,1,0,2:0:0:0:
501,216,101583,2,0,P|500:189|491:163,1,54,0|0,2:0|2:0,2:0:0:0:
339,12,101717,5,8,2:0:0:0:
325,23,101985,2,0,B|228:11|228:11|222:15|222:15|111:0,1,216,0|8,3:0|1:0,2:0:0:0:
2,170,102387,2,0,P|89:70|220:54,1,270,0|0,3:0|2:0,2:0:0:0:
206,43,102789,6,0,B|110:133|224:148|122:240,1,216,0|0,3:0|2:0,2:0:0:0:
366,97,103190,2,0,B|277:138|348:185|235:232,1,180,0|0,3:0|2:0,2:0:0:0:
481,232,103592,2,0,B|400:214|432:290|321:264,2,144,2|8|0,3:2|2:3|3:0,2:0:0:0:
458,381,104396,2,0,P|422:376|390:359,1,72,8|0,1:0|3:0,2:0:0:0:
268,226,104664,6,0,L|256:167,1,45,8|0,2:3|2:0,2:0:0:0:
305,111,104798,2,0,P|322:96|343:91,1,45,8|0,2:3|2:0,2:0:0:0:
421,142,104932,6,0,B|259:100|297:179|129:141,1,270,8|0,2:0|2:0,2:0:0:0:
65,361,105467,2,0,P|57:236|177:204,1,270,8|0,2:0|2:0,2:0:0:0:
279,7,106003,2,0,B|224:156|336:139|261:302,1,270,8|0,2:0|2:0,2:0:0:0:
512,243,106539,2,0,P|511:141|357:92,1,270,8|0,2:0|2:0,2:0:0:0:
295,384,107074,6,0,B|385:394|421:305|377:168,1,270,8|0,2:0|2:0,2:0:0:0:
87,75,107610,2,0,B|52:138|90:205|90:205|166:189|174:102,1,270,8|0,2:0|2:0,2:0:0:0:
405,85,108146,2,0,B|329:34|259:100|241:243,1,270,8|0,2:0|2:0,2:0:0:0:
59,323,108682,2,0,B|184:379|188:233|322:289,1,270,8|0,2:0|2:0,2:0:0:0:
111,237,109217,6,0,P|105:195|94:148,1,90,8|0,2:0|2:0,2:0:0:0:
163,19,109485,2,0,P|209:21|246:50,1,94.5,8|0,2:0|2:0,2:0:0:0:
417,313,109753,2,0,P|425:264|439:216,1,98.9999999999999,8|0,2:0|2:0,2:0:0:0:
342,144,110021,2,0,P|293:150|258:183,1,98.9999999999999,8|0,2:0|2:0,2:0:0:0:
105,344,110289,6,0,P|152:341|201:274,1,103.5,8|0,2:0|2:0,2:0:0:0:
129,112,110557,2,0,P|137:169|148:218,1,108,8|0,2:0|2:0,2:0:0:0:
424,91,110824,2,0,P|392:46|338:39,1,112.5,8|0,2:0|2:0,2:0:0:0:
318,359,111092,2,0,P|325:301|338:244,1,117,8|0,2:0|2:0,2:0:0:0:
235,10,111360,5,8,2:0:0:0:
236,25,111427,1,8,2:0:0:0:
237,40,111494,1,8,2:0:0:0:
239,55,111561,1,8,2:0:0:0:
240,70,111628,2,0,L|243:122,3,33.7500000000001,8|8|8|8,2:0|2:0|2:0|2:0,2:0:0:0:
246,130,111896,5,8,2:0:0:0:
257,155,111963,1,8,2:0:0:0:
247,176,112030,1,8,2:0:0:0:
258,195,112097,1,8,2:0:0:0:
251,219,112164,1,8,2:0:0:0:
266,241,112231,1,8,2:0:0:0:
260,278,112298,2,0,P|266:310|265:338,1,60.7499999999999,8|8,2:0|2:0,2:0:0:0:
119,305,112432,6,0,P|149:304|174:320,1,60.7499999999999,8|0,2:0|2:0,2:0:0:0:
350,312,112565,2,0,B|355:281|435:247|440:340|513:308,1,182.25,8|0,2:0|2:0,2:0:0:0:
512,290,112833,6,0,B|434:269|444:362|360:341|350:311,1,182.25,8|0,2:0|2:0,2:0:0:0:
179,323,113101,1,8,2:0:0:0:
179,323,113168,1,8,2:0:0:0:
179,322,113235,2,0,P|153:339|124:343,1,60.7499999999999,8|0,2:0|2:0,2:0:0:0:
118,281,113369,2,0,P|149:280|175:296,1,63,8|0,2:0|2:0,2:0:0:0:
281,371,113503,6,0,B|222:270|348:261|239:130,1,202.5,4|0,3:0|2:0,2:0:0:0:
271,176,113771,2,0,P|287:117|281:178,2,180,0|8|8,2:0|2:3|2:0,2:0:0:0:
64,101,114173,2,0,P|122:68|189:67,2,135,0|0|0,2:0|1:0|2:0,2:0:0:0:
156,298,114574,6,0,P|134:271|104:257,1,67.4999999999999,0|0,3:0|2:0,2:0:0:0:
128,170,114708,2,0,P|202:174|284:271,1,202.5,0|0,2:0|2:0,2:0:0:0:
268,281,114976,1,8,2:3:0:0:
447,334,115110,1,8,2:0:0:0:
463,346,115378,2,0,B|503:220|373:245|438:124,1,202.5,0|0,1:0|2:0,2:0:0:0:
447,70,115646,6,0,B|475:133|424:192|424:192|335:158|356:67,1,270,0|0,3:0|2:0,2:0:0:0:
324,378,116048,2,0,P|344:311|330:234,1,135,8|8,2:3|2:0,2:0:0:0:
335,247,116449,2,0,P|315:314|329:391,1,135,0|0,1:0|2:0,2:0:0:0:
405,315,116717,6,0,B|313:277|330:368|221:309,2,180,0|0|0,3:0|2:0|2:0,2:0:0:0:
153,258,117119,2,0,P|158:215|121:194,1,90,8|0,2:3|2:0,2:0:0:0:
198,76,117253,2,0,P|142:157|152:256,1,202.5,8|0,2:0|2:0,2:0:0:0:
233,315,117521,6,0,P|278:327|238:301,1,135,0|0,1:0|2:0,2:0:0:0:
210,324,117789,6,0,B|246:386|349:358|314:154,1,270,0|0,3:0|2:0,2:0:0:0:
476,119,118190,2,0,P|402:118|372:30,2,135,8|8|0,2:3|2:0|2:0,2:0:0:0:
194,215,118592,2,0,P|250:178|317:170,1,135,2|2,1:2|2:0,2:0:0:0:
353,266,118860,5,2,3:2:0:0:
103,149,118994,1,0,2:0:0:0:
117,134,119262,2,0,P|122:166|110:197,1,67.4999999999999,8|0,2:3|2:0,2:0:0:0:
140,230,119396,6,0,B|73:242|73:242|70:245|70:245|-6:259,1,135,8|0,2:0|2:0,2:0:0:0:
219,147,119664,2,0,B|230:84|230:84|233:81|233:81|245:15,1,135,2|2,1:2|2:0,2:0:0:0:
231,237,119865,1,2,2:0:0:0:
231,237,119932,6,0,P|117:128|25:61,1,270,0|0,3:0|2:0,2:0:0:0:
9,66,120199,2,0,B|-21:87|-12:109|-12:109|-6:84|11:67,1,90,0|8,2:0|2:3,2:0:0:0:
303,186,120467,5,8,2:0:0:0:
303,186,120534,1,0,2:0:0:0:
303,186,120601,2,0,P|343:163|401:143,1,67.4999999999999,0|0,2:0|2:0,2:0:0:0:
425,90,120735,2,0,B|455:111|446:133|446:133|440:108|423:91,1,90,0|0,1:0|2:0,2:0:0:0:
218,259,121003,6,0,P|184:273|157:288,1,67.4999999999999,0|0,3:0|2:0,2:0:0:0:
87,341,121137,2,0,B|32:290|64:226|106:218|106:218|71:243|75:302,1,202.5,0|0,1:0|2:0,2:0:0:0:
157,287,121405,2,0,P|189:295|220:308,1,67.4999999999999,8|0,2:3|2:0,2:0:0:0:
320,361,121539,6,0,P|383:341|445:312,1,135,8|0,2:0|2:0,2:0:0:0:
213,94,121807,2,0,P|198:124|198:157,1,67.4999999999999,8|0,2:3|2:0,2:0:0:0:
304,179,121940,2,0,P|318:148|318:115,1,67.4999999999999,8|0,2:3|2:0,2:0:0:0:
318,115,122074,6,0,P|254:117|189:173,1,135,0|0,3:0|2:0,2:0:0:0:
90,340,122342,2,0,P|66:283|100:334,2,180,0|8|8,2:0|2:3|2:0,2:0:0:0:
247,313,122744,1,0,2:0:0:0:
120,244,122878,2,0,P|186:249|234:294,1,135,0|0,1:0|2:0,2:0:0:0:
451,322,123146,6,0,P|435:292|429:259,1,67.4999999999999,0|0,3:0|2:0,2:0:0:0:
416,87,123280,2,0,B|428:202|327:171|344:283,1,202.5,0|0,2:0|2:0,2:0:0:0:
329,282,123548,1,8,2:3:0:0:
323,61,123682,1,8,2:0:0:0:
334,48,123949,2,0,P|359:115|247:121,1,202.5,0|0,1:0|2:0,2:0:0:0:
154,253,124217,6,0,B|111:184|175:133|175:133|270:155|233:280,1,270,0|0,3:0|2:0,2:0:0:0:
0,90,124619,2,0,P|51:118|149:116,1,135,8|8,2:3|2:0,2:0:0:0:
126,122,125021,2,0,P|75:94|-23:96,1,135,0|0,1:0|2:0,2:0:0:0:
45,175,125289,6,0,B|27:118|69:79|71:100|107:54|78:0,2,180,0|0|0,3:0|2:0|2:0,2:0:0:0:
132,280,125690,2,0,P|163:256|237:259,1,90,8|0,2:3|2:0,2:0:0:0:
270,347,125824,2,0,P|199:370|134:267,1,202.5,8|0,2:0|2:0,2:0:0:0:
212,154,126092,6,0,P|212:202|201:155,1,135,0|0,1:0|2:0,2:0:0:0:
173,204,126360,6,0,B|140:121|277:93|265:200|292:256|418:189,1,270,0|0,3:0|2:0,2:0:0:0:
455,33,126762,2,0,B|390:56|390:56|419:137,2,135,8|8|0,2:3|2:0|2:0,2:0:0:0:
502,171,127164,2,0,B|486:235|486:235|488:242|488:242|474:301,1,135,2|2,1:2|2:0,2:0:0:0:
379,365,127432,5,2,3:2:0:0:
333,162,127565,1,0,2:0:0:0:
319,176,127833,2,0,L|406:200,1,67.4999999999999,8|0,2:3|2:0,2:0:0:0:
450,144,127967,6,0,B|386:165|386:165|319:176,1,135,8|0,2:0|2:0,2:0:0:0:
198,371,128235,2,0,B|224:311|224:311|240:243,1,135,0|0,1:0|2:0,2:0:0:0:
169,79,128436,1,0,2:0:0:0:
169,79,128503,6,0,P|256:182|341:286,1,270,0|0,3:0|2:0,2:0:0:0:
339,308,128771,2,0,B|395:289|395:289|364:284,1,90,0|8,2:0|2:3,2:0:0:0:
381,60,129039,5,8,2:0:0:0:
381,60,129106,1,0,2:0:0:0:
381,60,129173,2,0,L|340:113,1,67.4999999999999,0|0,2:0|2:0,2:0:0:0:
239,243,129307,2,0,B|200:208|200:208|236:217,1,90,0|0,1:0|2:0,2:0:0:0:
416,182,129574,6,0,B|333:85|219:164|272:212|164:258|99:197,2,360,4|2|2,2:3|2:0|2:0,2:0:0:0:
362,244,130914,1,0,2:0:0:0:
421,203,131182,1,0,2:0:0:0:
383,245,131449,1,0,2:0:0:0:
419,239,131717,6,0,P|464:289|503:343,2,135,2|0|2,2:0|2:0|2:0,2:0:0:0:
298,137,132789,5,0,2:0:0:0:
301,55,133057,1,0,2:0:0:0:
382,38,133324,1,0,2:0:0:0:
419,109,133592,1,0,2:0:0:0:
369,171,133860,6,0,P|301:112|224:64,2,180,2|2|2,2:0|2:0|2:0,2:0:0:0:
320,232,135199,1,0,2:0:0:0:
249,186,135467,1,0,2:0:0:0:
196,259,135735,1,0,2:0:0:0:
133,163,136003,1,2,2:0:0:0:
78,307,136271,1,0,2:0:0:0:
37,94,136539,6,0,B|55:62|106:32|205:107|114:228|-38:163|38:49,1,315,2|0,2:3|2:0,2:0:0:0:
123,23,137074,5,8,2:3:0:0:
78,307,137208,2,0,P|108:274|150:261,1,90,8|0,2:3|2:0,2:0:0:0:
103,111,137878,5,8,2:3:0:0:
153,347,138012,2,0,P|110:336|77:306,1,90,8|0,2:3|2:0,2:0:0:0:
77,306,138414,5,0,2:0:0:0:
153,347,138682,1,0,2:0:0:0:
267,361,138949,1,0,2:0:0:0:
414,336,139217,5,8,2:3:0:0:
369,52,139351,2,0,P|399:84|441:97,1,90,8|0,2:3|2:0,2:0:0:0:
378,251,140021,5,8,2:3:0:0:
444,11,140155,2,0,P|401:21|369:52,1,90,8|0,2:3|2:0,2:0:0:0:
443,97,140557,6,0,P|454:53|443:10,1,90,0|0,2:0|2:0,2:0:0:0:
443,10,141360,6,0,B|380:76|418:147|494:106|526:222|454:246|454:246|435:244|422:218|432:206|471:217,1,337.499999999999,4|0,3:0|2:0,2:0:0:0:
464,220,141762,2,0,P|485:246|466:297,1,67.5000025749208,8|0,2:3|2:0,2:0:0:0:
396,348,141896,2,0,P|336:322|328:258,1,135,8|0,2:0|2:0,2:0:0:0:
345,268,142164,2,0,B|279:275|279:275|275:280|275:280|213:288,1,135,2|2,1:2|2:0,2:0:0:0:
123,357,142432,6,0,B|32:303|94:178|183:179|172:268|69:231,1,270,0|0,3:0|2:0,2:0:0:0:
54,226,142833,2,0,P|40:207|34:186,1,45,8|0,2:3|2:0,2:0:0:0:
119,50,142967,1,8,2:0:0:0:
183,299,143235,2,0,B|179:276|145:258|152:273|125:339|46:312,1,135,0|0,1:0|2:0,2:0:0:0:
1,282,143503,6,0,B|121:260|142:384|256:377,1,270,0|0,3:0|2:0,2:0:0:0:
263,371,143905,2,0,P|278:354|287:333,1,45,8|0,2:3|2:0,2:0:0:0:
204,202,144039,1,8,2:0:0:0:
464,69,144307,2,0,P|424:133|354:124,1,135,0|0,1:0|2:0,2:0:0:0:
299,25,144574,6,0,B|345:44|411:53|411:53|423:67|430:127|370:134,1,225,0|0,3:0|2:0,2:0:0:0:
318,201,144976,2,0,P|294:174|288:141,1,67.5000025749208,8|0,2:3|2:0,2:0:0:0:
456,14,145110,6,0,P|466:45|461:79,1,67.4999999999999,8|0,2:0|2:0,2:0:0:0:
373,136,145244,2,0,P|340:128|313:110,1,67.4999999999999,0|0,2:0|2:0,2:0:0:0:
381,54,145378,1,2,1:2:0:0:
381,54,145646,6,0,B|344:141|344:141|346:149|346:149|310:242|310:242|301:244|301:244|273:308,1,270,0|0,3:0|2:0,2:0:0:0:
291,307,146048,2,0,B|319:294|319:294|311:282,1,45,8|0,2:3|2:0,2:0:0:0:
220,34,146182,2,0,B|231:81|194:120|194:120|214:93|243:92,1,135,8|0,2:0|2:0,2:0:0:0:
313,110,146449,2,0,P|231:63|137:54,1,189,0|0,1:0|2:0,2:0:0:0:
0,90,146717,6,0,B|91:82|110:182|110:182|134:144|25:106|117:30,1,292.5,0|0,3:0|2:0,2:0:0:0:
100,49,147119,2,0,P|122:47|133:65,1,45,8|0,2:3|2:0,2:0:0:0:
56,293,147253,2,0,P|17:222|108:241,1,202.5,8|0,2:0|2:0,2:0:0:0:
0,366,147521,2,0,P|83:310|183:302,1,202.5,0|0,1:0|2:0,2:0:0:0:
424,337,147789,6,0,B|286:428|170:333|190:215|283:203,1,337.499999999999,0|0,3:0|2:0,2:0:0:0:
357,186,148190,2,0,P|378:192|393:209,1,45,8|0,2:3|2:0,2:0:0:0:
275,305,148324,6,0,P|272:210|242:121,1,189,8|0,2:0|2:0,2:0:0:0:
429,100,148592,2,0,B|339:123|279:47|342:-3,1,189,0|0,1:0|2:0,2:0:0:0:
350,0,148860,6,0,P|373:21|371:52,1,63,0|0,3:0|2:0,2:0:0:0:
246,216,148994,2,0,B|164:176|163:275|70:214,1,162,0|0,1:0|2:0,2:0:0:0:
78,213,149262,6,0,P|94:193|120:192,1,54,8|0,2:3|2:0,2:0:0:0:
387,349,149396,2,0,B|445:297|405:223|405:223|376:206|376:206|358:208|350:220,1,202.5,8|0,2:0|2:0,2:0:0:0:
273,259,149664,6,0,P|307:257|335:239,1,67.4999999999999,8|0,2:3|2:0,2:0:0:0:
206,138,149798,2,0,P|174:126|153:100,1,67.4999999999999,8|0,2:3|2:0,2:0:0:0:
362,29,149932,6,0,B|417:4|471:38|471:38|396:-26|286:2|285:106,1,337.499999999999,4|0,3:0|2:0,2:0:0:0:
288,90,150333,2,0,P|292:116|308:138,1,54,8|0,2:3|2:0,2:0:0:0:
403,174,150467,2,0,P|409:98|335:15,1,162,8|0,2:0|2:0,2:0:0:0:
206,138,150735,2,0,P|248:205|323:230,1,162,2|2,1:2|2:0,2:0:0:0:
487,330,151003,6,0,B|398:251|337:381|275:305|275:305|311:320|338:313,1,292.5,0|0,3:0|2:0,2:0:0:0:
352,311,151405,2,0,P|376:298|392:276,1,54,8|0,2:3|2:0,2:0:0:0:
288,90,151539,1,8,2:0:0:0:
82,99,151807,2,0,P|118:134|239:143,1,162,0|0,1:0|2:0,2:0:0:0:
288,90,152074,6,0,B|185:56|128:160|127:238|203:329,1,337.499999999999,0|0,3:0|2:0,2:0:0:0:
210,325,152476,2,0,P|231:322|239:302,1,45,8|0,2:3|2:0,2:0:0:0:
115,185,152610,1,8,2:0:0:0:
371,144,152878,2,0,B|371:162|371:162|340:87|255:86,1,135,2|2,1:2|2:0,2:0:0:0:
249,167,153146,6,0,B|235:99|235:99|237:94|237:94|222:21,2,144,0|0|0,3:0|2:0|2:0,2:0:0:0:
40,276,153548,2,0,P|57:246|91:247,1,72,8|0,2:3|2:0,2:0:0:0:
271,254,153682,2,0,B|216:268|144:218|189:203|138:136|46:170,1,216,8|0,2:0|2:0,2:0:0:0:
41,276,153949,2,0,P|90:303|92:247,1,135,2|2,1:2|2:0,2:0:0:0:
28,296,154217,6,0,B|76:370|197:292|125:218|45:187|-3:138|69:51,1,337.499999999999,0|0,3:0|2:0,2:0:0:0:
59,75,154619,2,0,P|84:76|90:100,1,54,8|0,2:3|2:0,2:0:0:0:
15,193,154753,2,0,P|84:151|163:140,1,162,8|0,2:0|2:0,2:0:0:0:
265,222,155021,2,0,P|259:297|186:316,1,162,0|0,1:0|2:0,2:0:0:0:
157,334,155289,6,0,B|104:267|136:176|227:169|227:169|264:193|266:230,1,292.5,0|0,3:0|2:0,2:0:0:0:
252,238,155690,2,0,P|231:219|231:179,1,58.4999999999999,8|0,2:3|2:0,2:0:0:0:
392,27,155824,2,0,B|436:111|338:158|313:115|313:115|330:111|339:118,1,202.5,8|0,2:0|2:0,2:0:0:0:
302,26,156092,2,0,P|370:99|400:195,1,202.5,0|0,1:0|2:0,2:0:0:0:
421,368,156360,6,0,B|432:357|454:351|454:351|445:291|443:219|443:219|402:279|355:323|355:323|365:337|371:351,1,337.499999999999,0|0,3:0|2:0,2:0:0:0:
395,369,156762,2,0,B|410:332|390:358|412:304,1,67.4999999999999,8|0,2:3|2:0,2:0:0:0:
512,179,156896,6,0,B|401:210|401:210|398:215|398:215|293:243,1,229.5,8|0,2:0|2:0,2:0:0:0:
139,37,157164,2,0,B|135:45|128:57|128:57|164:87|189:125|189:125|185:79|191:38|191:38|176:34|164:25,1,229.5,0|8,1:0|2:0,2:0:0:0:
81,135,157432,6,0,P|114:136|142:118,1,67.4999999999999,8|0,2:0|2:0,2:0:0:0:
228,91,157565,2,0,B|298:52|313:143|387:119|386:88,1,175.5,8|0,2:0|2:0,2:0:0:0:
385,91,157833,6,0,P|352:84|324:105,1,67.4999999999999,8|0,2:0|2:0,2:0:0:0:
256,167,157967,2,0,B|266:213|251:187|263:233,1,67.4999999999999,0|0,2:0|2:0,2:0:0:0:
284,323,158101,5,8,2:0:0:0:
284,323,158168,1,8,2:0:0:0:
284,323,158235,2,0,P|317:305|333:278,1,67.4999999999999,8|0,2:0|2:0,2:0:0:0:
202,290,158369,2,0,P|224:315|256:324,1,67.4999999999999,8|0,2:0|2:0,2:0:0:0:
300,54,158503,6,0,B|191:122|330:167|262:215|262:215|183:181|308:111|192:62,1,382.499999999999,4|0,3:0|2:0,2:0:0:0:
195,41,158905,2,0,P|221:50|240:69,1,54,8|0,2:3|2:0,2:0:0:0:
365,209,159039,2,0,P|274:231|201:290,1,189,8|0,2:0|2:0,2:0:0:0:
61,173,159307,2,0,P|53:247|111:201,1,189,2|2,1:2|2:0,2:0:0:0:
197,172,159574,6,0,B|175:98|51:82|16:173|32:221|32:221|0:199|15:134,1,315,0|0,3:0|2:0,2:0:0:0:
12,157,159976,2,0,P|20:126|41:104,1,63,8|0,2:3|2:0,2:0:0:0:
206,197,160110,1,8,2:0:0:0:
80,289,160244,1,0,2:0:0:0:
14,27,160378,2,0,B|70:4|134:44|79:71|150:105|195:89,1,189,0|0,1:0|2:0,2:0:0:0:
265,34,160646,6,0,B|125:156|152:314|252:250|205:196,1,315,0|0,3:0|2:0,2:0:0:0:
187,182,161048,2,0,P|157:172|126:175,1,63,8|0,2:3|2:0,2:0:0:0:
3,320,161182,2,0,B|99:301|99:301|124:253,1,126,8|0,2:0|2:0,2:0:0:0:
280,151,161449,2,0,B|440:189|440:189|452:252,1,229.5,0|0,1:0|2:0,2:0:0:0:
440,266,161717,6,0,L|430:221,1,45,0|0,3:0|2:0,2:0:0:0:
432,118,161851,2,0,P|419:136|400:148,1,45,0|0,2:0|2:0,2:0:0:0:
453,372,161985,2,0,P|436:357|415:350,1,45,0|0,2:0|2:0,2:0:0:0:
298,239,162119,6,0,B|306:256|318:266|318:266|310:279|311:300,1,67.4999999999999,8|0,2:3|2:0,2:0:0:0:
220,283,162253,2,0,B|317:268|317:268|322:263|322:263|431:249,1,202.5,8|0,2:0|2:0,2:0:0:0:
438,132,162521,6,0,P|420:138|400:156,1,45,0|0,1:0|2:0,2:0:0:0:
420,345,162655,2,0,P|438:357|460:360,1,45,0|0,2:0|2:0,2:0:0:0:
419,250,162789,6,0,B|320:237|320:237|312:239|312:239|214:230|214:230|243:165|243:165|258:203|282:214,1,337.499999999999,0|0,3:0|2:0,2:0:0:0:
339,282,163190,2,0,L|286:293,1,54,8|0,2:3|2:0,2:0:0:0:
143,362,163324,2,0,B|131:287|131:287|127:279|127:279|115:202,1,162,8|0,2:0|2:0,2:0:0:0:
106,67,163592,2,0,B|109:161|25:115|34:221,1,162,0|0,1:0|2:0,2:0:0:0:
33,202,163860,6,0,B|-1:190|-25:194|-25:194|93:77|253:157,1,315,0|0,3:0|2:0,2:0:0:0:
243,220,164262,2,0,P|218:199|209:168,1,63,8|0,2:3|2:0,2:0:0:0:
329,16,164396,6,0,P|270:105|257:211,1,216,8|0,2:0|2:0,2:0:0:0:
399,324,164664,2,0,B|424:249|374:198|374:198|312:177|260:211,1,243,0|0,1:0|2:0,2:0:0:0:
212,339,164932,6,0,B|294:389|375:334|375:334|407:250|347:211|347:211|315:229,1,337.499999999999,0|0,3:0|2:0,2:0:0:0:
314,237,165333,2,0,P|280:234|257:211,1,67.4999999999999,8|0,2:3|2:0,2:0:0:0:
411,65,165467,6,0,P|458:149|409:232,1,202.5,8|0,2:0|2:0,2:0:0:0:
199,142,165735,2,0,P|225:48|320:28,1,202.5,0|0,1:0|2:0,2:0:0:0:
319,27,166003,6,0,B|334:50|334:50|295:62,1,67.4999999999999,0|0,3:0|2:0,2:0:0:0:
257,211,166137,2,0,B|155:178|155:178|151:172|151:172|65:148,1,202.5,0|0,1:0|2:0,2:0:0:0:
65,148,166405,6,0,B|47:173|47:173|90:187,1,67.4999999999999,8|0,2:3|2:0,2:0:0:0:
244,325,166539,2,0,B|375:295|375:295|361:228,1,202.5,8|0,2:0|2:0,2:0:0:0:
380,236,166807,6,0,P|383:205|390:169,1,67.4999999999999,8|0,2:3|2:0,2:0:0:0:
209,41,166940,2,0,P|218:74|222:107,1,67.4999999999999,8|0,2:3|2:0,2:0:0:0:
396,87,167074,6,0,B|293:76|322:201|205:189,1,216,0|0,3:0|2:0,2:0:0:0:
76,329,167476,2,0,B|96:403|210:300|136:194|91:245,1,216,0|0,3:0|2:0,2:0:0:0:
298,349,167878,1,0,3:0:0:0:
298,349,167945,1,0,3:0:0:0:
298,349,168012,2,0,P|271:348|246:339,1,54,0|0,3:0|3:0,2:0:0:0:
76,329,168146,6,0,P|183:302|284:273,1,216,8|0,2:0|3:0,2:0:0:0:
284,273,168682,1,8,1:0:0:0:
225,210,168815,1,0,3:0:0:0:
266,364,168949,1,2,2:0:0:0:
373,257,169083,1,2,2:0:0:0:
266,364,169217,6,0,B|337:278|258:157|258:157|233:195,1,270,0|0,3:0|2:0,2:0:0:0:
232,195,169619,2,0,P|284:191|309:154,1,90,0|8,3:0|1:0,2:0:0:0:
167,133,169887,1,0,2:0:0:0:
64,246,170021,2,0,P|75:297|119:317,1,90,2|2,3:2|2:0,2:0:0:0:
104,315,170289,6,0,B|91:242|91:242|94:235|94:235|81:156,1,162,8|0,2:3|2:0,2:0:0:0:
19,113,170557,2,0,P|103:134|177:150,1,162,0|0,3:0|2:0,2:0:0:0:
183,137,170824,1,8,1:0:0:0:
293,61,170958,6,0,L|242:77,1,54,0|0,3:0|2:0,2:0:0:0:
142,0,171092,2,0,L|159:61,1,63,8|0,2:3|2:0,2:0:0:0:
31,140,171226,2,0,L|100:119,1,72,8|0,2:3|2:0,2:0:0:0:
183,137,171360,6,0,B|210:213|155:256|142:226|82:283|129:367,1,234,0|0,3:0|2:0,2:0:0:0:
380,370,171762,2,0,P|271:362|246:256,1,234,0|0,3:0|2:0,2:0:0:0:
373,186,172164,1,0,3:0:0:0:
373,186,172231,1,0,3:0:0:0:
373,186,172298,2,0,P|400:196|413:222,1,58.4999999999999,0|0,3:0|3:0,2:0:0:0:
325,294,172432,5,8,2:0:0:0:
330,306,172699,2,0,B|398:285|422:194|316:66,1,234,0|8,3:0|1:0,2:0:0:0:
188,21,173101,2,0,B|96:38|74:124|112:210|179:279,1,292.5,0|0,3:0|2:0,2:0:0:0:
46,309,173503,6,0,B|146:235|158:355|264:273,1,216,0|0,3:0|2:0,2:0:0:0:
62,107,173905,2,0,B|165:115|89:208|222:225,1,180,0|0,3:0|2:0,2:0:0:0:
204,1,174307,2,0,B|247:67|164:77|226:158,2,144,2|8|0,3:2|2:3|3:0,2:0:0:0:
333,47,175110,2,0,P|306:70|289:102,1,72,8|0,1:0|3:0,2:0:0:0:
375,272,175378,6,0,P|397:269|417:259,1,45,8|0,2:3|2:0,2:0:0:0:
444,178,175512,2,0,P|438:157|424:140,1,45,8|0,2:3|2:0,2:0:0:0:
368,195,175646,6,0,B|395:275|423:369|423:369|444:329|480:303,1,270,8|0,2:0|2:0,2:0:0:0:
507,132,176182,2,0,P|379:172|248:207,1,270,8|0,2:0|2:0,2:0:0:0:
75,182,176717,2,0,B|99:101|122:11|122:11|148:58|174:88,1,270,8|0,2:0|2:0,2:0:0:0:
14,28,177253,2,0,P|158:60|277:90,1,270,8|0,2:0|2:0,2:0:0:0:
226,326,177789,6,0,B|120:328|118:198|187:154|187:154|171:175|167:198,1,270,8|0,2:0|2:0,2:0:0:0:
32,328,178324,2,0,B|169:285|239:266|239:266|244:241|251:213,1,270,8|0,2:0|2:0,2:0:0:0:
247,23,178860,2,0,B|236:46|225:65|225:65|257:96|288:134|288:134|302:89|315:51|315:51|298:36|284:21,1,270,8|0,2:0|2:0,2:0:0:0:
406,148,179396,2,0,B|308:121|208:92|208:92|187:119|165:140,1,270,8|0,2:0|2:0,2:0:0:0:
88,100,179932,6,0,P|79:59|67:12,1,90,8|0,2:0|2:0,2:0:0:0:
177,229,180199,2,0,P|149:266|104:277,1,94.5,8|0,2:0|2:0,2:0:0:0:
377,297,180467,2,0,P|383:248|394:200,1,98.9999999999999,8|0,2:0|2:0,2:0:0:0:
276,44,180735,2,0,P|310:7|360:7,1,103.5,8|0,2:0|2:0,2:0:0:0:
503,139,181003,6,0,P|470:180|418:180,1,108,8|0,2:0|2:0,2:0:0:0:
255,251,181271,2,0,P|266:197|283:142,1,112.5,8|0,2:0|2:0,2:0:0:0:
52,318,181539,2,0,P|86:273|143:273,1,117,8|0,2:0|2:0,2:0:0:0:
238,79,181807,2,0,P|261:135|278:194,1,121.5,8|0,2:0|2:0,2:0:0:0:
398,362,182074,5,8,2:0:0:0:
380,375,182141,1,8,2:0:0:0:
356,376,182208,1,8,2:0:0:0:
336,358,182275,1,8,2:0:0:0:
327,340,182342,2,0,P|328:304|353:282,3,60.7499999999999,8|8|8|8,2:0|2:0|2:0|2:0,2:0:0:0:
399,231,182610,5,8,2:0:0:0:
409,209,182677,1,8,2:0:0:0:
402,178,182744,1,8,2:0:0:0:
371,155,182811,1,8,2:0:0:0:
324,168,182878,1,8,2:0:0:0:
304,209,182945,1,8,2:0:0:0:
331,255,183012,1,8,2:0:0:0:
387,260,183079,1,8,2:0:0:0:
435,209,183146,6,0,P|435:179|418:154,1,60.7499999999999,8|0,2:0|2:0,2:0:0:0:
190,144,183280,2,0,P|160:226|211:297,1,182.25,8|0,2:0|2:0,2:0:0:0:
198,311,183548,6,0,P|140:233|169:139,1,202.5,8|0,2:0|2:0,2:0:0:0:
433,148,183815,1,8,2:0:0:0:
433,148,183882,1,8,2:0:0:0:
433,148,183949,2,0,P|447:178|447:212,1,67.4999999999999,8|0,2:0|2:0,2:0:0:0:
304,209,184083,6,0,B|286:131,1,80.9999975280763,8|0,2:0|2:0,2:0:0:0:
262,37,184217,1,4,2:1:0:0:
