osu file format v14

[General]
AudioFilename: audio.mp3
AudioLeadIn: 0
PreviewTime: 113504
Countdown: 0
SampleSet: Soft
StackLeniency: 0.7
Mode: 0
LetterboxInBreaks: 0
EpilepsyWarning: 1
WidescreenStoryboard: 1
SamplesMatchPlaybackRate: 1

[Editor]
Bookmarks: 19218,27789,44932,62075,70646,87789,104932,113504,130646,141361,175646,184218
DistanceSpacing: 1
BeatDivisor: 6
GridSize: 32
TimelineZoom: 3.199999

[Metadata]
Title:Marunouchi Sadistic (neetskills remix)
TitleUnicode:丸ノ内サディスティック (neetskills remix)
Artist:Sheena Ringo
ArtistUnicode:椎名林檎
Creator:-Mikan
Version:Pentori's Extreme
Source:
Tags:Pentori toybot vikala Sing Axarious Djulus -MikanMyMommy MikanMyMommy Ducky- MRL Yumiko Shiina Shina 椎名 裕美子 Tokyo Jihen Incidents 東京事変 tech japanese english jazz woob electronic jpop pop
BeatmapID:2466971
BeatmapSetID:1125370

[Difficulty]
HPDrainRate:6
CircleSize:4.3
OverallDifficulty:8.5
ApproachRate:9.5
SliderMultiplier:1.9
SliderTickRate:1

[Events]
//Background and Video events
0,0,"main_visual_momoco-ex-pc.jpg",0,0
//Break Periods
//Storyboard Layer 0 (Background)
Sprite,Background,Centre,"sb\dot.png",0,240 F,0,113353,,0.6 C,0,113353,,200,0,0 V,0,113353,,25,480 P,0,113353,,A F,18,113503,,0.9,0.6 F,19,113503,,0.6,0.9 V,18,113503,,32.5,624,25,480 V,19,113503,,25,480,32.5,624 MX,0,113503,113569,200.7161,341.778 F,19,113503,113637,0.6,0.9 V,19,113503,113637,25,480,32.5,624 MX,0,113569,113636,341.778,271.4736 MX,0,113636,113703,271.4736,200.7161 F,18,113637,113771,0.9,0.6 V,18,113637,113771,32.5,624,25,480 MX,0,113703,113503,200.7161,345 MX,0,113703,113771,200.7161,243 MX,0,113771,113837,243,251.8375 F,19,113771,113838,0.6,0.9 V,19,113771,113838,25,480,32.5,624 MX,0,113837,113905,251.8375,262 F,18,113838,113905,0.9,0.6 V,18,113838,113905,32.5,624,25,480 MX,0,113905,113971,262,253.04 F,19,113905,113972,0.6,0.9 V,19,113905,113972,25,480,32.5,624 MX,0,113971,114039,253.04,334 F,18,113972,114039,0.9,0.6 V,18,113972,114039,32.5,624,25,480 F,19,114039,114106,0.6,0.9 V,19,114039,114106,25,480,37.5,720 MX,0,114039,114173,334,97 F,18,114106,114173,0.9,0.6 V,18,114106,114173,37.5,720,25,480 MX,0,114173,114239,97,126.5588 F,19,114173,114373,0.6,0.9 V,19,114173,114373,25,480,32.5,624 MX,0,114239,114306,126.5588,112.2729 MX,0,114306,114373,112.2729,126.5588 MX,0,114373,114440,126.5588,97 F,18,114373,114574,0.9,0.6 V,18,114373,114574,32.5,624,25,480 MX,0,114440,114574,97,121 F,19,114574,114641,0.6,0.9 V,19,114574,114641,25,480,37.5,720 MX,0,114574,114708,121,262 F,18,114641,114708,0.9,0.6 V,18,114641,114708,37.5,720,25,480 MX,0,114708,114774,262,332 F,19,114708,114842,0.6,0.9 V,19,114708,114842,25,480,32.5,624 MX,0,114774,114841,332,262 MX,0,114841,114976,262,112 F,18,114842,114976,0.9,0.6 V,18,114842,114976,32.5,624,25,480 F,19,114976,115043,0.6,0.9 V,19,114976,115043,25,480,37.5,720 MX,0,114976,115110,112,298 F,18,115043,115110,0.9,0.6 V,18,115043,115110,37.5,720,25,480 MX,0,115110,115176,298,368.0476 F,19,115110,115244,0.6,0.9 V,19,115110,115244,25,480,32.5,624 MX,0,115176,115243,368.0476,438.7973 MX,0,115243,115310,438.7973,451.2021 F,18,115244,115378,0.9,0.6 V,18,115244,115378,32.5,624,25,480 MX,0,115310,115378,451.2021,386 F,19,115378,115512,0.6,0.9 V,19,115378,115512,25,480,37.5,720 MX,0,115378,115646,386,500 F,18,115512,115646,0.9,0.6 V,18,115512,115646,37.5,720,25,480 MX,0,115646,115712,500,534.0745 F,19,115646,115780,0.6,0.9 V,19,115646,115780,25,480,32.5,624 MX,0,115712,115779,534.0745,541.2913 MX,0,115779,115846,541.2913,514.2584 F,18,115780,115914,0.9,0.6 V,18,115780,115914,32.5,624,25,480 MX,0,115846,115914,514.2584,367 MX,0,115914,115980,367,432.513 F,19,115914,115981,0.6,0.9 V,19,115914,115981,25,480,32.5,624 MX,0,115980,116048,432.513,433 F,18,115981,116048,0.9,0.6 V,18,115981,116048,32.5,624,25,480 MX,0,116048,116114,433,368 F,19,116048,116115,0.6,0.9 V,19,116048,116115,25,480,32.5,624 MX,0,116114,116182,368,283 F,18,116115,116182,0.9,0.6 V,18,116115,116182,32.5,624,25,480 MX,0,116182,116248,283,212.236 F,19,116182,116315,0.6,0.9 V,19,116182,116315,25,480,32.5,624 MX,0,116248,116315,212.236,141.3979 F,18,116315,116449,0.9,0.6 MX,0,116315,116449,141.3979,257 V,18,116315,116449,32.5,624,25,480 MX,0,116449,116515,257,249.3746 F,19,116449,116583,0.6,0.9 V,19,116449,116583,25,480,32.5,624 MX,0,116515,116582,249.3746,245.8529 MX,0,116582,116649,245.8529,284.6583 F,18,116583,116717,0.9,0.6 V,18,116583,116717,32.5,624,25,480 MX,0,116649,116717,284.6583,155 MX,0,116717,116783,155,71.62657 F,19,116717,116918,0.6,0.9 V,19,116717,116918,25,480,32.5,624 MX,0,116783,116850,71.62657,41 MX,0,116850,116917,41,71.62657 MX,0,116917,116984,71.62657,155 F,18,116918,117119,0.9,0.6 V,18,116918,117119,32.5,624,25,480 MX,0,116984,117119,155,352 F,19,117119,117186,0.6,0.9 V,19,117119,117186,25,480,37.5,720 MX,0,117119,117253,352,419 F,18,117186,117253,0.9,0.6 V,18,117186,117253,37.5,720,25,480 MX,0,117253,117319,419,354.5776 F,19,117253,117387,0.6,0.9 V,19,117253,117387,25,480,32.5,624 MX,0,117319,117386,354.5776,284.3463 MX,0,117386,117521,284.3463,442 F,18,117387,117521,0.9,0.6 V,18,117387,117521,32.5,624,25,480 MX,0,117521,117587,442,506.4224 F,19,117521,117655,0.6,0.9 V,19,117521,117655,25,480,32.5,624 MX,0,117587,117654,506.4224,576.6537 MX,0,117654,117789,576.6537,326 F,18,117655,117789,0.9,0.6 V,18,117655,117789,32.5,624,25,480 F,19,117789,117856,0.6,0.9 V,19,117789,117856,25,480,37.5,720 MX,0,117789,117923,326,534 F,18,117856,117923,0.9,0.6 V,18,117856,117923,37.5,720,25,480 MX,0,117923,117989,534,530.7329 F,19,117923,118056,0.6,0.9 V,19,117923,118056,25,480,32.5,624 MX,0,117989,118056,530.7329,519.9208 MX,0,118056,118123,519.9208,467.7289 F,18,118056,118190,0.9,0.6 V,18,118056,118190,32.5,624,25,480 MX,0,118123,118190,467.7289,356 MX,0,118190,118256,356,426.1428 F,19,118190,118257,0.6,0.9 V,19,118190,118257,25,480,32.5,624 MX,0,118256,118324,426.1428,438 F,18,118257,118324,0.9,0.6 V,18,118257,118324,32.5,624,25,480 MX,0,118324,118390,438,367.8572 F,19,118324,118391,0.6,0.9 V,19,118324,118391,25,480,32.5,624 MX,0,118390,118458,367.8572,384 F,18,118391,118458,0.9,0.6 V,18,118391,118458,32.5,624,25,480 F,19,118458,118525,0.6,0.9 V,19,118458,118525,25,480,37.5,720 MX,0,118458,118592,384,101 F,18,118525,118592,0.9,0.6 V,18,118525,118592,37.5,720,25,480 MX,0,118592,118658,101,171.764 F,19,118592,118726,0.6,0.9 V,19,118592,118726,25,480,32.5,624 MX,0,118658,118725,171.764,242.6021 MX,0,118725,118860,242.6021,273 F,18,118726,118860,0.9,0.6 V,18,118726,118860,32.5,624,25,480 F,19,118860,118927,0.6,0.9 V,19,118860,118927,25,480,37.5,720 MX,0,118860,118994,273,384 F,18,118927,118994,0.9,0.6 V,18,118927,118994,37.5,720,25,480 MX,0,118994,119060,384,313.236 F,19,118994,119128,0.6,0.9 V,19,118994,119128,25,480,32.5,624 MX,0,119060,119127,313.236,242.3979 MX,0,119127,119262,242.3979,496 F,18,119128,119262,0.9,0.6 V,18,119128,119262,32.5,624,25,480 F,19,119262,119329,0.6,0.9 V,19,119262,119329,25,480,37.5,720 MX,0,119262,119396,496,242 F,18,119329,119396,0.9,0.6 V,18,119329,119396,37.5,720,25,480 MX,0,119396,119462,242,262.2113 F,19,119396,119530,0.6,0.9 V,19,119396,119530,25,480,32.5,624 MX,0,119462,119529,262.2113,265.1353 MX,0,119529,119596,265.1353,273.1725 F,18,119530,119664,0.9,0.6 V,18,119530,119664,32.5,624,25,480 MX,0,119596,119664,273.1725,282 MX,0,119664,119730,282,211.8572 F,19,119664,119731,0.6,0.9 V,19,119664,119731,25,480,32.5,624 MX,0,119730,119798,211.8572,422 F,18,119731,119798,0.9,0.6 V,18,119731,119798,32.5,624,25,480 MX,0,119798,119864,422,351.7518 F,19,119798,119865,0.6,0.9 V,19,119798,119865,25,480,32.5,624 MX,0,119864,119932,351.7518,124 F,18,119865,119932,0.9,0.6 V,18,119865,119932,32.5,624,25,480 MX,0,119932,119998,124,140.5064 F,19,119932,120065,0.6,0.9 V,19,119932,120065,25,480,32.5,624 MX,0,119998,120065,140.5064,210.6577 MX,0,120065,120132,210.6577,241.4823 F,18,120065,120199,0.9,0.6 V,18,120065,120199,32.5,624,25,480 MX,0,120132,120199,241.4823,162 MX,0,120199,120265,162,232 F,19,120199,120266,0.6,0.9 V,19,120199,120266,25,480,32.5,624 MX,0,120265,120333,232,242 F,18,120266,120333,0.9,0.6 V,18,120266,120333,32.5,624,25,480 MX,0,120333,120399,242,171.3156 F,19,120333,120400,0.6,0.9 V,19,120333,120400,25,480,32.5,624 MX,0,120399,120467,171.3156,373 F,18,120400,120467,0.9,0.6 V,18,120400,120467,32.5,624,25,480 MX,0,120467,120533,373,389.5064 F,19,120467,120601,0.6,0.9 V,19,120467,120601,25,480,32.5,624 MX,0,120533,120600,389.5064,459.6577 MX,0,120600,120667,459.6577,490.0886 F,18,120601,120735,0.9,0.6 V,18,120601,120735,32.5,624,25,480 MX,0,120667,120735,490.0886,441 MX,0,120735,120801,441,449.325 F,19,120735,120869,0.6,0.9 V,19,120735,120869,25,480,32.5,624 MX,0,120801,120868,449.325,453.8616 MX,0,120868,120935,453.8616,461.8091 F,18,120869,121003,0.9,0.6 V,18,120869,121003,32.5,624,25,480 MX,0,120935,121003,461.8091,379 F,19,121003,121070,0.6,0.9 V,19,121003,121070,25,480,37.5,720 MX,0,121003,121137,379,555 F,18,121070,121137,0.9,0.6 V,18,121070,121137,37.5,720,25,480 MX,0,121137,121203,555,547.3071 F,19,121137,121271,0.6,0.9 V,19,121137,121271,25,480,32.5,624 MX,0,121203,121270,547.3071,541.0428 MX,0,121270,121405,541.0428,356 F,18,121271,121405,0.9,0.6 V,18,121271,121405,32.5,624,25,480 F,19,121405,121472,0.6,0.9 V,19,121405,121472,25,480,37.5,720 MX,0,121405,121539,356,411 F,18,121472,121539,0.9,0.6 V,18,121472,121539,37.5,720,25,480 MX,0,121539,121605,411,427.1123 F,19,121539,121673,0.6,0.9 V,19,121539,121673,25,480,32.5,624 MX,0,121605,121672,427.1123,356.4679 MX,0,121672,121739,356.4679,286 F,18,121673,121807,0.9,0.6 V,18,121673,121807,32.5,624,25,480 MX,0,121739,121807,286,281 F,19,121807,121873,0.6,0.9 MX,0,121807,121873,281,291.1113 V,19,121807,121873,25,480,32.5,624 F,18,121873,121940,0.9,0.6 MX,0,121873,121940,291.1113,64 V,18,121873,121940,32.5,624,25,480 MX,0,121940,122006,64,53.88869 F,19,121940,122007,0.6,0.9 V,19,121940,122007,25,480,32.5,624 MX,0,122006,122074,53.88869,179 F,18,122007,122074,0.9,0.6 V,18,122007,122074,32.5,624,25,480 MX,0,122074,122140,179,182 F,19,122074,122141,0.6,0.9 V,19,122074,122141,25,480,32.5,624 MX,0,122140,122208,182,167 F,18,122141,122208,0.9,0.6 V,18,122141,122208,32.5,624,25,480 MX,0,122208,122274,167,164 F,19,122208,122275,0.6,0.9 V,19,122208,122275,25,480,32.5,624 MX,0,122274,122342,164,379 F,18,122275,122342,0.9,0.6 V,18,122275,122342,32.5,624,25,480 F,19,122342,122409,0.6,0.9 V,19,122342,122409,25,480,37.5,720 MX,0,122342,122476,379,208 F,18,122409,122476,0.9,0.6 V,18,122409,122476,37.5,720,25,480 MX,0,122476,122542,208,278.1428 F,19,122476,122543,0.6,0.9 V,19,122476,122543,25,480,32.5,624 MX,0,122542,122610,278.1428,548 F,18,122543,122610,0.9,0.6 V,18,122543,122610,32.5,624,25,480 MX,0,122610,122676,548,477.2616 F,19,122610,122744,0.6,0.9 V,19,122610,122744,25,480,32.5,624 MX,0,122676,122743,477.2616,408.3708 MX,0,122743,122810,408.3708,337.7534 F,18,122744,122878,0.9,0.6 V,18,122744,122878,32.5,624,25,480 MX,0,122810,122878,337.7534,240 MX,0,122878,122944,240,243 F,19,122878,123012,0.6,0.9 V,19,122878,123012,25,480,32.5,624 MX,0,122944,123011,243,240 MX,0,123011,123146,240,443 F,18,123012,123146,0.9,0.6 V,18,123012,123146,32.5,624,25,480 MX,0,123146,123212,443,425 F,19,123146,123213,0.6,0.9 V,19,123146,123213,25,480,32.5,624 MX,0,123212,123280,425,424 F,18,123213,123280,0.9,0.6 V,18,123213,123280,32.5,624,25,480 MX,0,123280,123346,424,442 F,19,123280,123347,0.6,0.9 V,19,123280,123347,25,480,32.5,624 MX,0,123346,123414,442,418 F,18,123347,123414,0.9,0.6 V,18,123347,123414,32.5,624,25,480 F,19,123414,123481,0.6,0.9 V,19,123414,123481,25,480,37.5,720 MX,0,123414,123548,418,197 F,18,123481,123548,0.9,0.6 V,18,123481,123548,37.5,720,25,480 MX,0,123548,123614,197,200 F,19,123548,123615,0.6,0.9 V,19,123548,123615,25,480,32.5,624 MX,0,123614,123682,200,304 F,18,123615,123682,0.9,0.6 V,18,123615,123682,32.5,624,25,480 MX,0,123682,123748,304,315.1483 F,19,123682,123815,0.6,0.9 V,19,123682,123815,25,480,32.5,624 MX,0,123748,123815,315.1483,319.533 MX,0,123815,123882,319.533,287.8562 F,18,123815,123949,0.9,0.6 V,18,123815,123949,32.5,624,25,480 MX,0,123882,123949,287.8562,210 MX,0,123949,124015,210,139.1618 F,19,123949,124083,0.6,0.9 V,19,123949,124083,25,480,32.5,624 MX,0,124015,124082,139.1618,68.39745 MX,0,124082,124217,68.39745,203 F,18,124083,124217,0.9,0.6 V,18,124083,124217,32.5,624,25,480 MX,0,124217,124283,203,194.1625 F,19,124217,124284,0.6,0.9 V,19,124217,124284,25,480,32.5,624 MX,0,124283,124351,194.1625,184 F,18,124284,124351,0.9,0.6 V,18,124284,124351,32.5,624,25,480 MX,0,124351,124417,184,192.96 F,19,124351,124418,0.6,0.9 V,19,124351,124418,25,480,32.5,624 MX,0,124417,124485,192.96,288 F,18,124418,124485,0.9,0.6 V,18,124418,124485,32.5,624,25,480 F,19,124485,124552,0.6,0.9 V,19,124485,124552,25,480,37.5,720 MX,0,124485,124619,288,475 F,18,124552,124619,0.9,0.6 V,18,124552,124619,37.5,720,25,480 MX,0,124619,124685,475,409.432 F,19,124619,124686,0.6,0.9 V,19,124619,124686,25,480,32.5,624 MX,0,124685,124753,409.432,428 F,18,124686,124753,0.9,0.6 V,18,124686,124753,32.5,624,25,480 MX,0,124753,124819,428,435.7722 F,19,124753,124887,0.6,0.9 V,19,124753,124887,25,480,32.5,624 MX,0,124819,124886,435.7722,504.724 MX,0,124886,124953,504.724,575.1397 F,18,124887,125021,0.9,0.6 V,18,124887,125021,32.5,624,25,480 MX,0,124953,125021,575.1397,548 MX,0,125021,125087,548,522.6273 F,19,125021,125155,0.6,0.9 V,19,125021,125155,25,480,32.5,624 MX,0,125087,125154,522.6273,534.8633 MX,0,125154,125289,534.8633,443 F,18,125155,125289,0.9,0.6 V,18,125155,125289,32.5,624,25,480 MX,0,125289,125355,443,413.4412 F,19,125289,125489,0.6,0.9 V,19,125289,125489,25,480,32.5,624 MX,0,125355,125422,413.4412,427.7271 MX,0,125422,125489,427.7271,413.4412 MX,0,125489,125556,413.4412,443 F,18,125489,125690,0.9,0.6 V,18,125489,125690,32.5,624,25,480 MX,0,125556,125690,443,279 F,19,125690,125757,0.6,0.9 V,19,125690,125757,25,480,37.5,720 MX,0,125690,125824,279,193 F,18,125757,125824,0.9,0.6 V,18,125757,125824,37.5,720,25,480 MX,0,125824,125890,193,263.764 F,19,125824,125958,0.6,0.9 V,19,125824,125958,25,480,32.5,624 MX,0,125890,125957,263.764,334.6021 MX,0,125957,126092,334.6021,174 F,18,125958,126092,0.9,0.6 V,18,125958,126092,32.5,624,25,480 MX,0,126092,126158,174,103.2829 F,19,126092,126226,0.6,0.9 V,19,126092,126226,25,480,32.5,624 MX,0,126158,126225,103.2829,67.97229 MX,0,126225,126360,67.97229,99 F,18,126226,126360,0.9,0.6 V,18,126226,126360,32.5,624,25,480 F,19,126360,126427,0.6,0.9 V,19,126360,126427,25,480,37.5,720 MX,0,126360,126494,99,279 F,18,126427,126494,0.9,0.6 V,18,126427,126494,37.5,720,25,480 MX,0,126494,126560,279,275.7329 F,19,126494,126628,0.6,0.9 V,19,126494,126628,25,480,32.5,624 MX,0,126560,126627,275.7329,264.9208 MX,0,126627,126694,264.9208,212.7289 F,18,126628,126762,0.9,0.6 V,18,126628,126762,32.5,624,25,480 MX,0,126694,126762,212.7289,393 MX,0,126762,126828,393,384 F,19,126762,126829,0.6,0.9 V,19,126762,126829,25,480,32.5,624 MX,0,126828,126896,384,370 F,18,126829,126896,0.9,0.6 V,18,126829,126896,32.5,624,25,480 MX,0,126896,126962,370,379.7492 F,19,126896,126963,0.6,0.9 V,19,126896,126963,25,480,32.5,624 MX,0,126962,127030,379.7492,411 F,18,126963,127030,0.9,0.6 V,18,126963,127030,32.5,624,25,480 F,19,127030,127097,0.6,0.9 V,19,127030,127097,25,480,37.5,720 MX,0,127030,127164,411,137 F,18,127097,127164,0.9,0.6 V,18,127097,127164,37.5,720,25,480 MX,0,127164,127230,137,197.4755 F,19,127164,127298,0.6,0.9 V,19,127164,127298,25,480,32.5,624 MX,0,127230,127297,197.4755,265.6746 MX,0,127297,127432,265.6746,370 F,18,127298,127432,0.9,0.6 V,18,127298,127432,32.5,624,25,480 F,19,127432,127498,0.6,0.9 V,19,127432,127498,25,480,37.5,720 MX,0,127432,127565,370,199 F,18,127498,127565,0.9,0.6 V,18,127498,127565,37.5,720,25,480 MX,0,127565,127631,199,206.6929 F,19,127565,127699,0.6,0.9 V,19,127565,127699,25,480,32.5,624 MX,0,127631,127698,206.6929,212.9572 MX,0,127698,127833,212.9572,86 F,18,127699,127833,0.9,0.6 V,18,127699,127833,32.5,624,25,480 F,19,127833,127900,0.6,0.9 V,19,127833,127900,25,480,37.5,720 MX,0,127833,127967,86,302 F,18,127900,127967,0.9,0.6 V,18,127900,127967,37.5,720,25,480 MX,0,127967,128033,302,315.5931 F,19,127967,128101,0.6,0.9 V,19,127967,128101,25,480,32.5,624 MX,0,128033,128100,315.5931,385.7181 MX,0,128100,128167,385.7181,402.4105 F,18,128101,128235,0.9,0.6 V,18,128101,128235,32.5,624,25,480 MX,0,128167,128235,402.4105,415 MX,0,128235,128301,415,404.1071 F,19,128235,128302,0.6,0.9 V,19,128235,128302,25,480,32.5,624 MX,0,128301,128369,404.1071,307 F,18,128302,128369,0.9,0.6 V,18,128302,128369,32.5,624,25,480 MX,0,128369,128435,307,317.8929 F,19,128369,128436,0.6,0.9 V,19,128369,128436,25,480,32.5,624 MX,0,128435,128503,317.8929,539 F,18,128436,128503,0.9,0.6 V,18,128436,128503,32.5,624,25,480 MX,0,128503,128569,539,581.0958 F,19,128503,128637,0.6,0.9 V,19,128503,128637,25,480,32.5,624 MX,0,128569,128636,581.0958,575.9688 MX,0,128636,128703,575.9688,557.4056 F,18,128637,128771,0.9,0.6 V,18,128637,128771,32.5,624,25,480 MX,0,128703,128771,557.4056,405 MX,0,128771,128837,405,475 F,19,128771,128838,0.6,0.9 V,19,128771,128838,25,480,32.5,624 MX,0,128837,128905,475,485 F,18,128838,128905,0.9,0.6 V,18,128838,128905,32.5,624,25,480 MX,0,128905,128971,485,414.3156 F,19,128905,128972,0.6,0.9 V,19,128905,128972,25,480,32.5,624 MX,0,128971,129039,414.3156,180 F,18,128972,129039,0.9,0.6 V,18,128972,129039,32.5,624,25,480 MX,0,129039,129105,180,221.9841 F,19,129039,129173,0.6,0.9 V,19,129039,129173,25,480,32.5,624 MX,0,129105,129172,221.9841,216.8333 MX,0,129172,129239,216.8333,199 F,18,129173,129307,0.9,0.6 V,18,129173,129307,32.5,624,25,480 MX,0,129239,129307,199,130 MX,0,129307,129373,130,199.969 F,19,129307,129440,0.6,0.9 V,19,129307,129440,25,480,32.5,624 MX,0,129373,129440,199.969,270.6566 MX,0,129440,129507,270.6566,293.7817 F,18,129440,129574,0.9,0.6 V,18,129440,129574,32.5,624,25,480 MX,0,129507,129574,293.7817,275 MX,0,129574,129640,275,283.8022 F,19,129574,130110,0.6,0.9 V,19,129574,130110,25,480,32.5,624 MX,0,129640,129707,283.8022,293.0496 MX,0,129707,129774,293.0496,302.4692 MX,0,129774,129841,302.4692,311.7835 MX,0,129841,129908,311.7835,320.7188 MX,0,129908,129975,320.7188,329.0127 MX,0,129975,130042,329.0127,336.4217 MX,0,130042,130109,336.4217,343 MX,0,130109,130646,343,517 F,18,130110,130646,0.9,0.6 V,18,130110,130646,32.5,624,25,480 MX,0,130646,130712,517,502.6735 MX,0,130712,130779,502.6735,485.1804 MX,0,130779,130846,485.1804,466.3903 MX,0,130846,130913,466.3903,448.4232
Sprite,Background,Centre,"sb\dot.png",0,240 F,0,113353,,0.6 C,0,113353,,0,200,0 V,0,113353,,25,480 P,0,113353,,A F,18,113503,,0.9,0.6 F,19,113503,,0.6,0.9 V,18,113503,,32.5,624,25,480 V,19,113503,,25,480,32.5,624 MX,0,113503,113569,205.7161,346.778 F,19,113503,113637,0.6,0.9 V,19,113503,113637,25,480,32.5,624 MX,0,113569,113636,346.778,276.4736 MX,0,113636,113703,276.4736,205.7161 F,18,113637,113771,0.9,0.6 V,18,113637,113771,32.5,624,25,480 MX,0,113703,113503,205.7161,350 MX,0,113703,113771,205.7161,248 MX,0,113771,113837,248,256.8375 F,19,113771,113838,0.6,0.9 V,19,113771,113838,25,480,32.5,624 MX,0,113837,113905,256.8375,267 F,18,113838,113905,0.9,0.6 V,18,113838,113905,32.5,624,25,480 MX,0,113905,113971,267,258.04 F,19,113905,113972,0.6,0.9 V,19,113905,113972,25,480,32.5,624 MX,0,113971,114039,258.04,339 F,18,113972,114039,0.9,0.6 V,18,113972,114039,32.5,624,25,480 F,19,114039,114106,0.6,0.9 V,19,114039,114106,25,480,37.5,720 MX,0,114039,114173,339,102 F,18,114106,114173,0.9,0.6 V,18,114106,114173,37.5,720,25,480 MX,0,114173,114239,102,131.5588 F,19,114173,114373,0.6,0.9 V,19,114173,114373,25,480,32.5,624 MX,0,114239,114306,131.5588,117.2729 MX,0,114306,114373,117.2729,131.5588 MX,0,114373,114440,131.5588,102 F,18,114373,114574,0.9,0.6 V,18,114373,114574,32.5,624,25,480 MX,0,114440,114574,102,126 F,19,114574,114641,0.6,0.9 V,19,114574,114641,25,480,37.5,720 MX,0,114574,114708,126,267 F,18,114641,114708,0.9,0.6 V,18,114641,114708,37.5,720,25,480 MX,0,114708,114774,267,337 F,19,114708,114842,0.6,0.9 V,19,114708,114842,25,480,32.5,624 MX,0,114774,114841,337,267 MX,0,114841,114976,267,117 F,18,114842,114976,0.9,0.6 V,18,114842,114976,32.5,624,25,480 F,19,114976,115043,0.6,0.9 V,19,114976,115043,25,480,37.5,720 MX,0,114976,115110,117,303 F,18,115043,115110,0.9,0.6 V,18,115043,115110,37.5,720,25,480 MX,0,115110,115176,303,373.0476 F,19,115110,115244,0.6,0.9 V,19,115110,115244,25,480,32.5,624 MX,0,115176,115243,373.0476,443.7973 MX,0,115243,115310,443.7973,456.2021 F,18,115244,115378,0.9,0.6 V,18,115244,115378,32.5,624,25,480 MX,0,115310,115378,456.2021,391 F,19,115378,115512,0.6,0.9 V,19,115378,115512,25,480,37.5,720 MX,0,115378,115646,391,505 F,18,115512,115646,0.9,0.6 V,18,115512,115646,37.5,720,25,480 MX,0,115646,115712,505,539.0745 F,19,115646,115780,0.6,0.9 V,19,115646,115780,25,480,32.5,624 MX,0,115712,115779,539.0745,546.2913 MX,0,115779,115846,546.2913,519.2584 F,18,115780,115914,0.9,0.6 V,18,115780,115914,32.5,624,25,480 MX,0,115846,115914,519.2584,372 MX,0,115914,115980,372,437.513 F,19,115914,115981,0.6,0.9 V,19,115914,115981,25,480,32.5,624 MX,0,115980,116048,437.513,438 F,18,115981,116048,0.9,0.6 V,18,115981,116048,32.5,624,25,480 MX,0,116048,116114,438,373 F,19,116048,116115,0.6,0.9 V,19,116048,116115,25,480,32.5,624 MX,0,116114,116182,373,288 F,18,116115,116182,0.9,0.6 V,18,116115,116182,32.5,624,25,480 MX,0,116182,116248,288,217.236 F,19,116182,116315,0.6,0.9 V,19,116182,116315,25,480,32.5,624 MX,0,116248,116315,217.236,146.3979 F,18,116315,116449,0.9,0.6 MX,0,116315,116449,146.3979,262 V,18,116315,116449,32.5,624,25,480 MX,0,116449,116515,262,254.3746 F,19,116449,116583,0.6,0.9 V,19,116449,116583,25,480,32.5,624 MX,0,116515,116582,254.3746,250.8529 MX,0,116582,116649,250.8529,289.6583 F,18,116583,116717,0.9,0.6 V,18,116583,116717,32.5,624,25,480 MX,0,116649,116717,289.6583,160 MX,0,116717,116783,160,76.62657 F,19,116717,116918,0.6,0.9 V,19,116717,116918,25,480,32.5,624 MX,0,116783,116850,76.62657,46 MX,0,116850,116917,46,76.62657 MX,0,116917,116984,76.62657,160 F,18,116918,117119,0.9,0.6 V,18,116918,117119,32.5,624,25,480 MX,0,116984,117119,160,357 F,19,117119,117186,0.6,0.9 V,19,117119,117186,25,480,37.5,720 MX,0,117119,117253,357,424 F,18,117186,117253,0.9,0.6 V,18,117186,117253,37.5,720,25,480 MX,0,117253,117319,424,359.5776 F,19,117253,117387,0.6,0.9 V,19,117253,117387,25,480,32.5,624 MX,0,117319,117386,359.5776,289.3463 MX,0,117386,117521,289.3463,447 F,18,117387,117521,0.9,0.6 V,18,117387,117521,32.5,624,25,480 MX,0,117521,117587,447,511.4224 F,19,117521,117655,0.6,0.9 V,19,117521,117655,25,480,32.5,624 MX,0,117587,117654,511.4224,581.6537 MX,0,117654,117789,581.6537,331 F,18,117655,117789,0.9,0.6 V,18,117655,117789,32.5,624,25,480 F,19,117789,117856,0.6,0.9 V,19,117789,117856,25,480,37.5,720 MX,0,117789,117923,331,539 F,18,117856,117923,0.9,0.6 V,18,117856,117923,37.5,720,25,480 MX,0,117923,117989,539,535.7329 F,19,117923,118056,0.6,0.9 V,19,117923,118056,25,480,32.5,624 MX,0,117989,118056,535.7329,524.9208 MX,0,118056,118123,524.9208,472.7289 F,18,118056,118190,0.9,0.6 V,18,118056,118190,32.5,624,25,480 MX,0,118123,118190,472.7289,361 MX,0,118190,118256,361,431.1428 F,19,118190,118257,0.6,0.9 V,19,118190,118257,25,480,32.5,624 MX,0,118256,118324,431.1428,443 F,18,118257,118324,0.9,0.6 V,18,118257,118324,32.5,624,25,480 MX,0,118324,118390,443,372.8572 F,19,118324,118391,0.6,0.9 V,19,118324,118391,25,480,32.5,624 MX,0,118390,118458,372.8572,389 F,18,118391,118458,0.9,0.6 V,18,118391,118458,32.5,624,25,480 F,19,118458,118525,0.6,0.9 V,19,118458,118525,25,480,37.5,720 MX,0,118458,118592,389,106 F,18,118525,118592,0.9,0.6 V,18,118525,118592,37.5,720,25,480 MX,0,118592,118658,106,176.764 F,19,118592,118726,0.6,0.9 V,19,118592,118726,25,480,32.5,624 MX,0,118658,118725,176.764,247.6021 MX,0,118725,118860,247.6021,278 F,18,118726,118860,0.9,0.6 V,18,118726,118860,32.5,624,25,480 F,19,118860,118927,0.6,0.9 V,19,118860,118927,25,480,37.5,720 MX,0,118860,118994,278,389 F,18,118927,118994,0.9,0.6 V,18,118927,118994,37.5,720,25,480 MX,0,118994,119060,389,318.236 F,19,118994,119128,0.6,0.9 V,19,118994,119128,25,480,32.5,624 MX,0,119060,119127,318.236,247.3979 MX,0,119127,119262,247.3979,501 F,18,119128,119262,0.9,0.6 V,18,119128,119262,32.5,624,25,480 F,19,119262,119329,0.6,0.9 V,19,119262,119329,25,480,37.5,720 MX,0,119262,119396,501,247 F,18,119329,119396,0.9,0.6 V,18,119329,119396,37.5,720,25,480 MX,0,119396,119462,247,267.2113 F,19,119396,119530,0.6,0.9 V,19,119396,119530,25,480,32.5,624 MX,0,119462,119529,267.2113,270.1353 MX,0,119529,119596,270.1353,278.1725 F,18,119530,119664,0.9,0.6 V,18,119530,119664,32.5,624,25,480 MX,0,119596,119664,278.1725,287 MX,0,119664,119730,287,216.8572 F,19,119664,119731,0.6,0.9 V,19,119664,119731,25,480,32.5,624 MX,0,119730,119798,216.8572,427 F,18,119731,119798,0.9,0.6 V,18,119731,119798,32.5,624,25,480 MX,0,119798,119864,427,356.7518 F,19,119798,119865,0.6,0.9 V,19,119798,119865,25,480,32.5,624 MX,0,119864,119932,356.7518,129 F,18,119865,119932,0.9,0.6 V,18,119865,119932,32.5,624,25,480 MX,0,119932,119998,129,145.5064 F,19,119932,120065,0.6,0.9 V,19,119932,120065,25,480,32.5,624 MX,0,119998,120065,145.5064,215.6577 MX,0,120065,120132,215.6577,246.4823 F,18,120065,120199,0.9,0.6 V,18,120065,120199,32.5,624,25,480 MX,0,120132,120199,246.4823,167 MX,0,120199,120265,167,237 F,19,120199,120266,0.6,0.9 V,19,120199,120266,25,480,32.5,624 MX,0,120265,120333,237,247 F,18,120266,120333,0.9,0.6 V,18,120266,120333,32.5,624,25,480 MX,0,120333,120399,247,176.3156 F,19,120333,120400,0.6,0.9 V,19,120333,120400,25,480,32.5,624 MX,0,120399,120467,176.3156,378 F,18,120400,120467,0.9,0.6 V,18,120400,120467,32.5,624,25,480 MX,0,120467,120533,378,394.5064 F,19,120467,120601,0.6,0.9 V,19,120467,120601,25,480,32.5,624 MX,0,120533,120600,394.5064,464.6577 MX,0,120600,120667,464.6577,495.0886 F,18,120601,120735,0.9,0.6 V,18,120601,120735,32.5,624,25,480 MX,0,120667,120735,495.0886,446 MX,0,120735,120801,446,454.325 F,19,120735,120869,0.6,0.9 V,19,120735,120869,25,480,32.5,624 MX,0,120801,120868,454.325,458.8616 MX,0,120868,120935,458.8616,466.8091 F,18,120869,121003,0.9,0.6 V,18,120869,121003,32.5,624,25,480 MX,0,120935,121003,466.8091,384 F,19,121003,121070,0.6,0.9 V,19,121003,121070,25,480,37.5,720 MX,0,121003,121137,384,560 F,18,121070,121137,0.9,0.6 V,18,121070,121137,37.5,720,25,480 MX,0,121137,121203,560,552.3071 F,19,121137,121271,0.6,0.9 V,19,121137,121271,25,480,32.5,624 MX,0,121203,121270,552.3071,546.0428 MX,0,121270,121405,546.0428,361 F,18,121271,121405,0.9,0.6 V,18,121271,121405,32.5,624,25,480 F,19,121405,121472,0.6,0.9 V,19,121405,121472,25,480,37.5,720 MX,0,121405,121539,361,416 F,18,121472,121539,0.9,0.6 V,18,121472,121539,37.5,720,25,480 MX,0,121539,121605,416,432.1123 F,19,121539,121673,0.6,0.9 V,19,121539,121673,25,480,32.5,624 MX,0,121605,121672,432.1123,361.4679 MX,0,121672,121739,361.4679,291 F,18,121673,121807,0.9,0.6 V,18,121673,121807,32.5,624,25,480 MX,0,121739,121807,291,286 F,19,121807,121873,0.6,0.9 MX,0,121807,121873,286,296.1113 V,19,121807,121873,25,480,32.5,624 F,18,121873,121940,0.9,0.6 MX,0,121873,121940,296.1113,69 V,18,121873,121940,32.5,624,25,480 MX,0,121940,122006,69,58.88869 F,19,121940,122007,0.6,0.9 V,19,121940,122007,25,480,32.5,624 MX,0,122006,122074,58.88869,184 F,18,122007,122074,0.9,0.6 V,18,122007,122074,32.5,624,25,480 MX,0,122074,122140,184,187 F,19,122074,122141,0.6,0.9 V,19,122074,122141,25,480,32.5,624 MX,0,122140,122208,187,172 F,18,122141,122208,0.9,0.6 V,18,122141,122208,32.5,624,25,480 MX,0,122208,122274,172,169 F,19,122208,122275,0.6,0.9 V,19,122208,122275,25,480,32.5,624 MX,0,122274,122342,169,384 F,18,122275,122342,0.9,0.6 V,18,122275,122342,32.5,624,25,480 F,19,122342,122409,0.6,0.9 V,19,122342,122409,25,480,37.5,720 MX,0,122342,122476,384,213 F,18,122409,122476,0.9,0.6 V,18,122409,122476,37.5,720,25,480 MX,0,122476,122542,213,283.1428 F,19,122476,122543,0.6,0.9 V,19,122476,122543,25,480,32.5,624 MX,0,122542,122610,283.1428,553 F,18,122543,122610,0.9,0.6 V,18,122543,122610,32.5,624,25,480 MX,0,122610,122676,553,482.2616 F,19,122610,122744,0.6,0.9 V,19,122610,122744,25,480,32.5,624 MX,0,122676,122743,482.2616,413.3708 MX,0,122743,122810,413.3708,342.7534 F,18,122744,122878,0.9,0.6 V,18,122744,122878,32.5,624,25,480 MX,0,122810,122878,342.7534,245 MX,0,122878,122944,245,248 F,19,122878,123012,0.6,0.9 V,19,122878,123012,25,480,32.5,624 MX,0,122944,123011,248,245 MX,0,123011,123146,245,448 F,18,123012,123146,0.9,0.6 V,18,123012,123146,32.5,624,25,480 MX,0,123146,123212,448,430 F,19,123146,123213,0.6,0.9 V,19,123146,123213,25,480,32.5,624 MX,0,123212,123280,430,429 F,18,123213,123280,0.9,0.6 V,18,123213,123280,32.5,624,25,480 MX,0,123280,123346,429,447 F,19,123280,123347,0.6,0.9 V,19,123280,123347,25,480,32.5,624 MX,0,123346,123414,447,423 F,18,123347,123414,0.9,0.6 V,18,123347,123414,32.5,624,25,480 F,19,123414,123481,0.6,0.9 V,19,123414,123481,25,480,37.5,720 MX,0,123414,123548,423,202 F,18,123481,123548,0.9,0.6 V,18,123481,123548,37.5,720,25,480 MX,0,123548,123614,202,205 F,19,123548,123615,0.6,0.9 V,19,123548,123615,25,480,32.5,624 MX,0,123614,123682,205,309 F,18,123615,123682,0.9,0.6 V,18,123615,123682,32.5,624,25,480 MX,0,123682,123748,309,320.1483 F,19,123682,123815,0.6,0.9 V,19,123682,123815,25,480,32.5,624 MX,0,123748,123815,320.1483,324.533 MX,0,123815,123882,324.533,292.8562 F,18,123815,123949,0.9,0.6 V,18,123815,123949,32.5,624,25,480 MX,0,123882,123949,292.8562,215 MX,0,123949,124015,215,144.1618 F,19,123949,124083,0.6,0.9 V,19,123949,124083,25,480,32.5,624 MX,0,124015,124082,144.1618,73.39745 MX,0,124082,124217,73.39745,208 F,18,124083,124217,0.9,0.6 V,18,124083,124217,32.5,624,25,480 MX,0,124217,124283,208,199.1625 F,19,124217,124284,0.6,0.9 V,19,124217,124284,25,480,32.5,624 MX,0,124283,124351,199.1625,189 F,18,124284,124351,0.9,0.6 V,18,124284,124351,32.5,624,25,480 MX,0,124351,124417,189,197.96 F,19,124351,124418,0.6,0.9 V,19,124351,124418,25,480,32.5,624 MX,0,124417,124485,197.96,293 F,18,124418,124485,0.9,0.6 V,18,124418,124485,32.5,624,25,480 F,19,124485,124552,0.6,0.9 V,19,124485,124552,25,480,37.5,720 MX,0,124485,124619,293,480 F,18,124552,124619,0.9,0.6 V,18,124552,124619,37.5,720,25,480 MX,0,124619,124685,480,414.432 F,19,124619,124686,0.6,0.9 V,19,124619,124686,25,480,32.5,624 MX,0,124685,124753,414.432,433 F,18,124686,124753,0.9,0.6 V,18,124686,124753,32.5,624,25,480 MX,0,124753,124819,433,440.7722 F,19,124753,124887,0.6,0.9 V,19,124753,124887,25,480,32.5,624 MX,0,124819,124886,440.7722,509.724 MX,0,124886,124953,509.724,580.1397 F,18,124887,125021,0.9,0.6 V,18,124887,125021,32.5,624,25,480 MX,0,124953,125021,580.1397,553 MX,0,125021,125087,553,527.6273 F,19,125021,125155,0.6,0.9 V,19,125021,125155,25,480,32.5,624 MX,0,125087,125154,527.6273,539.8633 MX,0,125154,125289,539.8633,448 F,18,125155,125289,0.9,0.6 V,18,125155,125289,32.5,624,25,480 MX,0,125289,125355,448,418.4412 F,19,125289,125489,0.6,0.9 V,19,125289,125489,25,480,32.5,624 MX,0,125355,125422,418.4412,432.7271 MX,0,125422,125489,432.7271,418.4412 MX,0,125489,125556,418.4412,448 F,18,125489,125690,0.9,0.6 V,18,125489,125690,32.5,624,25,480 MX,0,125556,125690,448,284 F,19,125690,125757,0.6,0.9 V,19,125690,125757,25,480,37.5,720 MX,0,125690,125824,284,198 F,18,125757,125824,0.9,0.6 V,18,125757,125824,37.5,720,25,480 MX,0,125824,125890,198,268.764 F,19,125824,125958,0.6,0.9 V,19,125824,125958,25,480,32.5,624 MX,0,125890,125957,268.764,339.6021 MX,0,125957,126092,339.6021,179 F,18,125958,126092,0.9,0.6 V,18,125958,126092,32.5,624,25,480 MX,0,126092,126158,179,108.2829 F,19,126092,126226,0.6,0.9 V,19,126092,126226,25,480,32.5,624 MX,0,126158,126225,108.2829,72.97229 MX,0,126225,126360,72.97229,104 F,18,126226,126360,0.9,0.6 V,18,126226,126360,32.5,624,25,480 F,19,126360,126427,0.6,0.9 V,19,126360,126427,25,480,37.5,720 MX,0,126360,126494,104,284 F,18,126427,126494,0.9,0.6 V,18,126427,126494,37.5,720,25,480 MX,0,126494,126560,284,280.7329 F,19,126494,126628,0.6,0.9 V,19,126494,126628,25,480,32.5,624 MX,0,126560,126627,280.7329,269.9208 MX,0,126627,126694,269.9208,217.7289 F,18,126628,126762,0.9,0.6 V,18,126628,126762,32.5,624,25,480 MX,0,126694,126762,217.7289,398 MX,0,126762,126828,398,389 F,19,126762,126829,0.6,0.9 V,19,126762,126829,25,480,32.5,624 MX,0,126828,126896,389,375 F,18,126829,126896,0.9,0.6 V,18,126829,126896,32.5,624,25,480 MX,0,126896,126962,375,384.7492 F,19,126896,126963,0.6,0.9 V,19,126896,126963,25,480,32.5,624 MX,0,126962,127030,384.7492,416 F,18,126963,127030,0.9,0.6 V,18,126963,127030,32.5,624,25,480 F,19,127030,127097,0.6,0.9 V,19,127030,127097,25,480,37.5,720 MX,0,127030,127164,416,142 F,18,127097,127164,0.9,0.6 V,18,127097,127164,37.5,720,25,480 MX,0,127164,127230,142,202.4755 F,19,127164,127298,0.6,0.9 V,19,127164,127298,25,480,32.5,624 MX,0,127230,127297,202.4755,270.6746 MX,0,127297,127432,270.6746,375 F,18,127298,127432,0.9,0.6 V,18,127298,127432,32.5,624,25,480 F,19,127432,127498,0.6,0.9 V,19,127432,127498,25,480,37.5,720 MX,0,127432,127565,375,204 F,18,127498,127565,0.9,0.6 V,18,127498,127565,37.5,720,25,480 MX,0,127565,127631,204,211.6929 F,19,127565,127699,0.6,0.9 V,19,127565,127699,25,480,32.5,624 MX,0,127631,127698,211.6929,217.9572 MX,0,127698,127833,217.9572,91 F,18,127699,127833,0.9,0.6 V,18,127699,127833,32.5,624,25,480 F,19,127833,127900,0.6,0.9 V,19,127833,127900,25,480,37.5,720 MX,0,127833,127967,91,307 F,18,127900,127967,0.9,0.6 V,18,127900,127967,37.5,720,25,480 MX,0,127967,128033,307,320.5931 F,19,127967,128101,0.6,0.9 V,19,127967,128101,25,480,32.5,624 MX,0,128033,128100,320.5931,390.7181 MX,0,128100,128167,390.7181,407.4105 F,18,128101,128235,0.9,0.6 V,18,128101,128235,32.5,624,25,480 MX,0,128167,128235,407.4105,420 MX,0,128235,128301,420,409.1071 F,19,128235,128302,0.6,0.9 V,19,128235,128302,25,480,32.5,624 MX,0,128301,128369,409.1071,312 F,18,128302,128369,0.9,0.6 V,18,128302,128369,32.5,624,25,480 MX,0,128369,128435,312,322.8929 F,19,128369,128436,0.6,0.9 V,19,128369,128436,25,480,32.5,624 MX,0,128435,128503,322.8929,544 F,18,128436,128503,0.9,0.6 V,18,128436,128503,32.5,624,25,480 MX,0,128503,128569,544,586.0958 F,19,128503,128637,0.6,0.9 V,19,128503,128637,25,480,32.5,624 MX,0,128569,128636,586.0958,580.9688 MX,0,128636,128703,580.9688,562.4056 F,18,128637,128771,0.9,0.6 V,18,128637,128771,32.5,624,25,480 MX,0,128703,128771,562.4056,410 MX,0,128771,128837,410,480 F,19,128771,128838,0.6,0.9 V,19,128771,128838,25,480,32.5,624 MX,0,128837,128905,480,490 F,18,128838,128905,0.9,0.6 V,18,128838,128905,32.5,624,25,480 MX,0,128905,128971,490,419.3156 F,19,128905,128972,0.6,0.9 V,19,128905,128972,25,480,32.5,624 MX,0,128971,129039,419.3156,185 F,18,128972,129039,0.9,0.6 V,18,128972,129039,32.5,624,25,480 MX,0,129039,129105,185,226.9841 F,19,129039,129173,0.6,0.9 V,19,129039,129173,25,480,32.5,624 MX,0,129105,129172,226.9841,221.8333 MX,0,129172,129239,221.8333,204 F,18,129173,129307,0.9,0.6 V,18,129173,129307,32.5,624,25,480 MX,0,129239,129307,204,135 MX,0,129307,129373,135,204.969 F,19,129307,129440,0.6,0.9 V,19,129307,129440,25,480,32.5,624 MX,0,129373,129440,204.969,275.6566 MX,0,129440,129507,275.6566,298.7817 F,18,129440,129574,0.9,0.6 V,18,129440,129574,32.5,624,25,480 MX,0,129507,129574,298.7817,280 MX,0,129574,129640,280,288.8022 F,19,129574,130110,0.6,0.9 V,19,129574,130110,25,480,32.5,624 MX,0,129640,129707,288.8022,298.0496 MX,0,129707,129774,298.0496,307.4692 MX,0,129774,129841,307.4692,316.7835 MX,0,129841,129908,316.7835,325.7188 MX,0,129908,129975,325.7188,334.0127 MX,0,129975,130042,334.0127,341.4217 MX,0,130042,130109,341.4217,348 MX,0,130109,130646,348,522 F,18,130110,130646,0.9,0.6 V,18,130110,130646,32.5,624,25,480 MX,0,130646,130712,522,507.6735 MX,0,130712,130779,507.6735,490.1804 MX,0,130779,130846,490.1804,471.3903 MX,0,130846,130913,471.3903,453.4232
Sprite,Background,Centre,"sb\dot.png",0,240 F,0,113353,,0.6 C,0,113353,,0,0,200 V,0,113353,,25,480 P,0,113353,,A F,18,113503,,0.9,0.6 F,19,113503,,0.6,0.9 V,18,113503,,32.5,624,25,480 V,19,113503,,25,480,32.5,624 MX,0,113503,113569,210.7161,351.778 F,19,113503,113637,0.6,0.9 V,19,113503,113637,25,480,32.5,624 MX,0,113569,113636,351.778,281.4736 MX,0,113636,113703,281.4736,210.7161 F,18,113637,113771,0.9,0.6 V,18,113637,113771,32.5,624,25,480 MX,0,113703,113503,210.7161,355 MX,0,113703,113771,210.7161,253 MX,0,113771,113837,253,261.8375 F,19,113771,113838,0.6,0.9 V,19,113771,113838,25,480,32.5,624 MX,0,113837,113905,261.8375,272 F,18,113838,113905,0.9,0.6 V,18,113838,113905,32.5,624,25,480 MX,0,113905,113971,272,263.04 F,19,113905,113972,0.6,0.9 V,19,113905,113972,25,480,32.5,624 MX,0,113971,114039,263.04,344 F,18,113972,114039,0.9,0.6 V,18,113972,114039,32.5,624,25,480 F,19,114039,114106,0.6,0.9 V,19,114039,114106,25,480,37.5,720 MX,0,114039,114173,344,107 F,18,114106,114173,0.9,0.6 V,18,114106,114173,37.5,720,25,480 MX,0,114173,114239,107,136.5588 F,19,114173,114373,0.6,0.9 V,19,114173,114373,25,480,32.5,624 MX,0,114239,114306,136.5588,122.2729 MX,0,114306,114373,122.2729,136.5588 MX,0,114373,114440,136.5588,107 F,18,114373,114574,0.9,0.6 V,18,114373,114574,32.5,624,25,480 MX,0,114440,114574,107,131 F,19,114574,114641,0.6,0.9 V,19,114574,114641,25,480,37.5,720 MX,0,114574,114708,131,272 F,18,114641,114708,0.9,0.6 V,18,114641,114708,37.5,720,25,480 MX,0,114708,114774,272,342 F,19,114708,114842,0.6,0.9 V,19,114708,114842,25,480,32.5,624 MX,0,114774,114841,342,272 MX,0,114841,114976,272,122 F,18,114842,114976,0.9,0.6 V,18,114842,114976,32.5,624,25,480 F,19,114976,115043,0.6,0.9 V,19,114976,115043,25,480,37.5,720 MX,0,114976,115110,122,308 F,18,115043,115110,0.9,0.6 V,18,115043,115110,37.5,720,25,480 MX,0,115110,115176,308,378.0476 F,19,115110,115244,0.6,0.9 V,19,115110,115244,25,480,32.5,624 MX,0,115176,115243,378.0476,448.7973 MX,0,115243,115310,448.7973,461.2021 F,18,115244,115378,0.9,0.6 V,18,115244,115378,32.5,624,25,480 MX,0,115310,115378,461.2021,396 F,19,115378,115512,0.6,0.9 V,19,115378,115512,25,480,37.5,720 MX,0,115378,115646,396,510 F,18,115512,115646,0.9,0.6 V,18,115512,115646,37.5,720,25,480 MX,0,115646,115712,510,544.0745 F,19,115646,115780,0.6,0.9 V,19,115646,115780,25,480,32.5,624 MX,0,115712,115779,544.0745,551.2913 MX,0,115779,115846,551.2913,524.2584 F,18,115780,115914,0.9,0.6 V,18,115780,115914,32.5,624,25,480 MX,0,115846,115914,524.2584,377 MX,0,115914,115980,377,442.513 F,19,115914,115981,0.6,0.9 V,19,115914,115981,25,480,32.5,624 MX,0,115980,116048,442.513,443 F,18,115981,116048,0.9,0.6 V,18,115981,116048,32.5,624,25,480 MX,0,116048,116114,443,378 F,19,116048,116115,0.6,0.9 V,19,116048,116115,25,480,32.5,624 MX,0,116114,116182,378,293 F,18,116115,116182,0.9,0.6 V,18,116115,116182,32.5,624,25,480 MX,0,116182,116248,293,222.236 F,19,116182,116315,0.6,0.9 V,19,116182,116315,25,480,32.5,624 MX,0,116248,116315,222.236,151.3979 F,18,116315,116449,0.9,0.6 MX,0,116315,116449,151.3979,267 V,18,116315,116449,32.5,624,25,480 MX,0,116449,116515,267,259.3746 F,19,116449,116583,0.6,0.9 V,19,116449,116583,25,480,32.5,624 MX,0,116515,116582,259.3746,255.8529 MX,0,116582,116649,255.8529,294.6583 F,18,116583,116717,0.9,0.6 V,18,116583,116717,32.5,624,25,480 MX,0,116649,116717,294.6583,165 MX,0,116717,116783,165,81.62657 F,19,116717,116918,0.6,0.9 V,19,116717,116918,25,480,32.5,624 MX,0,116783,116850,81.62657,51 MX,0,116850,116917,51,81.62657 MX,0,116917,116984,81.62657,165 F,18,116918,117119,0.9,0.6 V,18,116918,117119,32.5,624,25,480 MX,0,116984,117119,165,362 F,19,117119,117186,0.6,0.9 V,19,117119,117186,25,480,37.5,720 MX,0,117119,117253,362,429 F,18,117186,117253,0.9,0.6 V,18,117186,117253,37.5,720,25,480 MX,0,117253,117319,429,364.5776 F,19,117253,117387,0.6,0.9 V,19,117253,117387,25,480,32.5,624 MX,0,117319,117386,364.5776,294.3463 MX,0,117386,117521,294.3463,452 F,18,117387,117521,0.9,0.6 V,18,117387,117521,32.5,624,25,480 MX,0,117521,117587,452,516.4224 F,19,117521,117655,0.6,0.9 V,19,117521,117655,25,480,32.5,624 MX,0,117587,117654,516.4224,586.6537 MX,0,117654,117789,586.6537,336 F,18,117655,117789,0.9,0.6 V,18,117655,117789,32.5,624,25,480 F,19,117789,117856,0.6,0.9 V,19,117789,117856,25,480,37.5,720 MX,0,117789,117923,336,544 F,18,117856,117923,0.9,0.6 V,18,117856,117923,37.5,720,25,480 MX,0,117923,117989,544,540.7329 F,19,117923,118056,0.6,0.9 V,19,117923,118056,25,480,32.5,624 MX,0,117989,118056,540.7329,529.9208 MX,0,118056,118123,529.9208,477.7289 F,18,118056,118190,0.9,0.6 V,18,118056,118190,32.5,624,25,480 MX,0,118123,118190,477.7289,366 MX,0,118190,118256,366,436.1428 F,19,118190,118257,0.6,0.9 V,19,118190,118257,25,480,32.5,624 MX,0,118256,118324,436.1428,448 F,18,118257,118324,0.9,0.6 V,18,118257,118324,32.5,624,25,480 MX,0,118324,118390,448,377.8572 F,19,118324,118391,0.6,0.9 V,19,118324,118391,25,480,32.5,624 MX,0,118390,118458,377.8572,394 F,18,118391,118458,0.9,0.6 V,18,118391,118458,32.5,624,25,480 F,19,118458,118525,0.6,0.9 V,19,118458,118525,25,480,37.5,720 MX,0,118458,118592,394,111 F,18,118525,118592,0.9,0.6 V,18,118525,118592,37.5,720,25,480 MX,0,118592,118658,111,181.764 F,19,118592,118726,0.6,0.9 V,19,118592,118726,25,480,32.5,624 MX,0,118658,118725,181.764,252.6021 MX,0,118725,118860,252.6021,283 F,18,118726,118860,0.9,0.6 V,18,118726,118860,32.5,624,25,480 F,19,118860,118927,0.6,0.9 V,19,118860,118927,25,480,37.5,720 MX,0,118860,118994,283,394 F,18,118927,118994,0.9,0.6 V,18,118927,118994,37.5,720,25,480 MX,0,118994,119060,394,323.236 F,19,118994,119128,0.6,0.9 V,19,118994,119128,25,480,32.5,624 MX,0,119060,119127,323.236,252.3979 MX,0,119127,119262,252.3979,506 F,18,119128,119262,0.9,0.6 V,18,119128,119262,32.5,624,25,480 F,19,119262,119329,0.6,0.9 V,19,119262,119329,25,480,37.5,720 MX,0,119262,119396,506,252 F,18,119329,119396,0.9,0.6 V,18,119329,119396,37.5,720,25,480 MX,0,119396,119462,252,272.2113 F,19,119396,119530,0.6,0.9 V,19,119396,119530,25,480,32.5,624 MX,0,119462,119529,272.2113,275.1353 MX,0,119529,119596,275.1353,283.1725 F,18,119530,119664,0.9,0.6 V,18,119530,119664,32.5,624,25,480 MX,0,119596,119664,283.1725,292 MX,0,119664,119730,292,221.8572 F,19,119664,119731,0.6,0.9 V,19,119664,119731,25,480,32.5,624 MX,0,119730,119798,221.8572,432 F,18,119731,119798,0.9,0.6 V,18,119731,119798,32.5,624,25,480 MX,0,119798,119864,432,361.7518 F,19,119798,119865,0.6,0.9 V,19,119798,119865,25,480,32.5,624 MX,0,119864,119932,361.7518,134 F,18,119865,119932,0.9,0.6 V,18,119865,119932,32.5,624,25,480 MX,0,119932,119998,134,150.5064 F,19,119932,120065,0.6,0.9 V,19,119932,120065,25,480,32.5,624 MX,0,119998,120065,150.5064,220.6577 MX,0,120065,120132,220.6577,251.4823 F,18,120065,120199,0.9,0.6 V,18,120065,120199,32.5,624,25,480 MX,0,120132,120199,251.4823,172 MX,0,120199,120265,172,242 F,19,120199,120266,0.6,0.9 V,19,120199,120266,25,480,32.5,624 MX,0,120265,120333,242,252 F,18,120266,120333,0.9,0.6 V,18,120266,120333,32.5,624,25,480 MX,0,120333,120399,252,181.3156 F,19,120333,120400,0.6,0.9 V,19,120333,120400,25,480,32.5,624 MX,0,120399,120467,181.3156,383 F,18,120400,120467,0.9,0.6 V,18,120400,120467,32.5,624,25,480 MX,0,120467,120533,383,399.5064 F,19,120467,120601,0.6,0.9 V,19,120467,120601,25,480,32.5,624 MX,0,120533,120600,399.5064,469.6577 MX,0,120600,120667,469.6577,500.0886 F,18,120601,120735,0.9,0.6 V,18,120601,120735,32.5,624,25,480 MX,0,120667,120735,500.0886,451 MX,0,120735,120801,451,459.325 F,19,120735,120869,0.6,0.9 V,19,120735,120869,25,480,32.5,624 MX,0,120801,120868,459.325,463.8616 MX,0,120868,120935,463.8616,471.8091 F,18,120869,121003,0.9,0.6 V,18,120869,121003,32.5,624,25,480 MX,0,120935,121003,471.8091,389 F,19,121003,121070,0.6,0.9 V,19,121003,121070,25,480,37.5,720 MX,0,121003,121137,389,565 F,18,121070,121137,0.9,0.6 V,18,121070,121137,37.5,720,25,480 MX,0,121137,121203,565,557.3071 F,19,121137,121271,0.6,0.9 V,19,121137,121271,25,480,32.5,624 MX,0,121203,121270,557.3071,551.0428 MX,0,121270,121405,551.0428,366 F,18,121271,121405,0.9,0.6 V,18,121271,121405,32.5,624,25,480 F,19,121405,121472,0.6,0.9 V,19,121405,121472,25,480,37.5,720 MX,0,121405,121539,366,421 F,18,121472,121539,0.9,0.6 V,18,121472,121539,37.5,720,25,480 MX,0,121539,121605,421,437.1123 F,19,121539,121673,0.6,0.9 V,19,121539,121673,25,480,32.5,624 MX,0,121605,121672,437.1123,366.4679 MX,0,121672,121739,366.4679,296 F,18,121673,121807,0.9,0.6 V,18,121673,121807,32.5,624,25,480 MX,0,121739,121807,296,291 F,19,121807,121873,0.6,0.9 MX,0,121807,121873,291,301.1113 V,19,121807,121873,25,480,32.5,624 F,18,121873,121940,0.9,0.6 MX,0,121873,121940,301.1113,74 V,18,121873,121940,32.5,624,25,480 MX,0,121940,122006,74,63.88869 F,19,121940,122007,0.6,0.9 V,19,121940,122007,25,480,32.5,624 MX,0,122006,122074,63.88869,189 F,18,122007,122074,0.9,0.6 V,18,122007,122074,32.5,624,25,480 MX,0,122074,122140,189,192 F,19,122074,122141,0.6,0.9 V,19,122074,122141,25,480,32.5,624 MX,0,122140,122208,192,177 F,18,122141,122208,0.9,0.6 V,18,122141,122208,32.5,624,25,480 MX,0,122208,122274,177,174 F,19,122208,122275,0.6,0.9 V,19,122208,122275,25,480,32.5,624 MX,0,122274,122342,174,389 F,18,122275,122342,0.9,0.6 V,18,122275,122342,32.5,624,25,480 F,19,122342,122409,0.6,0.9 V,19,122342,122409,25,480,37.5,720 MX,0,122342,122476,389,218 F,18,122409,122476,0.9,0.6 V,18,122409,122476,37.5,720,25,480 MX,0,122476,122542,218,288.1428 F,19,122476,122543,0.6,0.9 V,19,122476,122543,25,480,32.5,624 MX,0,122542,122610,288.1428,558 F,18,122543,122610,0.9,0.6 V,18,122543,122610,32.5,624,25,480 MX,0,122610,122676,558,487.2616 F,19,122610,122744,0.6,0.9 V,19,122610,122744,25,480,32.5,624 MX,0,122676,122743,487.2616,418.3708 MX,0,122743,122810,418.3708,347.7534 F,18,122744,122878,0.9,0.6 V,18,122744,122878,32.5,624,25,480 MX,0,122810,122878,347.7534,250 MX,0,122878,122944,250,253 F,19,122878,123012,0.6,0.9 V,19,122878,123012,25,480,32.5,624 MX,0,122944,123011,253,250 MX,0,123011,123146,250,453 F,18,123012,123146,0.9,0.6 V,18,123012,123146,32.5,624,25,480 MX,0,123146,123212,453,435 F,19,123146,123213,0.6,0.9 V,19,123146,123213,25,480,32.5,624 MX,0,123212,123280,435,434 F,18,123213,123280,0.9,0.6 V,18,123213,123280,32.5,624,25,480 MX,0,123280,123346,434,452 F,19,123280,123347,0.6,0.9 V,19,123280,123347,25,480,32.5,624 MX,0,123346,123414,452,428 F,18,123347,123414,0.9,0.6 V,18,123347,123414,32.5,624,25,480 F,19,123414,123481,0.6,0.9 V,19,123414,123481,25,480,37.5,720 MX,0,123414,123548,428,207 F,18,123481,123548,0.9,0.6 V,18,123481,123548,37.5,720,25,480 MX,0,123548,123614,207,210 F,19,123548,123615,0.6,0.9 V,19,123548,123615,25,480,32.5,624 MX,0,123614,123682,210,314 F,18,123615,123682,0.9,0.6 V,18,123615,123682,32.5,624,25,480 MX,0,123682,123748,314,325.1483 F,19,123682,123815,0.6,0.9 V,19,123682,123815,25,480,32.5,624 MX,0,123748,123815,325.1483,329.533 MX,0,123815,123882,329.533,297.8562 F,18,123815,123949,0.9,0.6 V,18,123815,123949,32.5,624,25,480 MX,0,123882,123949,297.8562,220 MX,0,123949,124015,220,149.1618 F,19,123949,124083,0.6,0.9 V,19,123949,124083,25,480,32.5,624 MX,0,124015,124082,149.1618,78.39745 MX,0,124082,124217,78.39745,213 F,18,124083,124217,0.9,0.6 V,18,124083,124217,32.5,624,25,480 MX,0,124217,124283,213,204.1625 F,19,124217,124284,0.6,0.9 V,19,124217,124284,25,480,32.5,624 MX,0,124283,124351,204.1625,194 F,18,124284,124351,0.9,0.6 V,18,124284,124351,32.5,624,25,480 MX,0,124351,124417,194,202.96 F,19,124351,124418,0.6,0.9 V,19,124351,124418,25,480,32.5,624 MX,0,124417,124485,202.96,298 F,18,124418,124485,0.9,0.6 V,18,124418,124485,32.5,624,25,480 F,19,124485,124552,0.6,0.9 V,19,124485,124552,25,480,37.5,720 MX,0,124485,124619,298,485 F,18,124552,124619,0.9,0.6 V,18,124552,124619,37.5,720,25,480 MX,0,124619,124685,485,419.432 F,19,124619,124686,0.6,0.9 V,19,124619,124686,25,480,32.5,624 MX,0,124685,124753,419.432,438 F,18,124686,124753,0.9,0.6 V,18,124686,124753,32.5,624,25,480 MX,0,124753,124819,438,445.7722 F,19,124753,124887,0.6,0.9 V,19,124753,124887,25,480,32.5,624 MX,0,124819,124886,445.7722,514.724 MX,0,124886,124953,514.724,585.1397 F,18,124887,125021,0.9,0.6 V,18,124887,125021,32.5,624,25,480 MX,0,124953,125021,585.1397,558 MX,0,125021,125087,558,532.6273 F,19,125021,125155,0.6,0.9 V,19,125021,125155,25,480,32.5,624 MX,0,125087,125154,532.6273,544.8633 MX,0,125154,125289,544.8633,453 F,18,125155,125289,0.9,0.6 V,18,125155,125289,32.5,624,25,480 MX,0,125289,125355,453,423.4412 F,19,125289,125489,0.6,0.9 V,19,125289,125489,25,480,32.5,624 MX,0,125355,125422,423.4412,437.7271 MX,0,125422,125489,437.7271,423.4412 MX,0,125489,125556,423.4412,453 F,18,125489,125690,0.9,0.6 V,18,125489,125690,32.5,624,25,480 MX,0,125556,125690,453,289 F,19,125690,125757,0.6,0.9 V,19,125690,125757,25,480,37.5,720 MX,0,125690,125824,289,203 F,18,125757,125824,0.9,0.6 V,18,125757,125824,37.5,720,25,480 MX,0,125824,125890,203,273.764 F,19,125824,125958,0.6,0.9 V,19,125824,125958,25,480,32.5,624 MX,0,125890,125957,273.764,344.6021 MX,0,125957,126092,344.6021,184 F,18,125958,126092,0.9,0.6 V,18,125958,126092,32.5,624,25,480 MX,0,126092,126158,184,113.2829 F,19,126092,126226,0.6,0.9 V,19,126092,126226,25,480,32.5,624 MX,0,126158,126225,113.2829,77.97229 MX,0,126225,126360,77.97229,109 F,18,126226,126360,0.9,0.6 V,18,126226,126360,32.5,624,25,480 F,19,126360,126427,0.6,0.9 V,19,126360,126427,25,480,37.5,720 MX,0,126360,126494,109,289 F,18,126427,126494,0.9,0.6 V,18,126427,126494,37.5,720,25,480 MX,0,126494,126560,289,285.7329 F,19,126494,126628,0.6,0.9 V,19,126494,126628,25,480,32.5,624 MX,0,126560,126627,285.7329,274.9208 MX,0,126627,126694,274.9208,222.7289 F,18,126628,126762,0.9,0.6 V,18,126628,126762,32.5,624,25,480 MX,0,126694,126762,222.7289,403 MX,0,126762,126828,403,394 F,19,126762,126829,0.6,0.9 V,19,126762,126829,25,480,32.5,624 MX,0,126828,126896,394,380 F,18,126829,126896,0.9,0.6 V,18,126829,126896,32.5,624,25,480 MX,0,126896,126962,380,389.7492 F,19,126896,126963,0.6,0.9 V,19,126896,126963,25,480,32.5,624 MX,0,126962,127030,389.7492,421 F,18,126963,127030,0.9,0.6 V,18,126963,127030,32.5,624,25,480 F,19,127030,127097,0.6,0.9 V,19,127030,127097,25,480,37.5,720 MX,0,127030,127164,421,147 F,18,127097,127164,0.9,0.6 V,18,127097,127164,37.5,720,25,480 MX,0,127164,127230,147,207.4755 F,19,127164,127298,0.6,0.9 V,19,127164,127298,25,480,32.5,624 MX,0,127230,127297,207.4755,275.6746 MX,0,127297,127432,275.6746,380 F,18,127298,127432,0.9,0.6 V,18,127298,127432,32.5,624,25,480 F,19,127432,127498,0.6,0.9 V,19,127432,127498,25,480,37.5,720 MX,0,127432,127565,380,209 F,18,127498,127565,0.9,0.6 V,18,127498,127565,37.5,720,25,480 MX,0,127565,127631,209,216.6929 F,19,127565,127699,0.6,0.9 V,19,127565,127699,25,480,32.5,624 MX,0,127631,127698,216.6929,222.9572 MX,0,127698,127833,222.9572,96 F,18,127699,127833,0.9,0.6 V,18,127699,127833,32.5,624,25,480 F,19,127833,127900,0.6,0.9 V,19,127833,127900,25,480,37.5,720 MX,0,127833,127967,96,312 F,18,127900,127967,0.9,0.6 V,18,127900,127967,37.5,720,25,480 MX,0,127967,128033,312,325.5931 F,19,127967,128101,0.6,0.9 V,19,127967,128101,25,480,32.5,624 MX,0,128033,128100,325.5931,395.7181 MX,0,128100,128167,395.7181,412.4105 F,18,128101,128235,0.9,0.6 V,18,128101,128235,32.5,624,25,480 MX,0,128167,128235,412.4105,425 MX,0,128235,128301,425,414.1071 F,19,128235,128302,0.6,0.9 V,19,128235,128302,25,480,32.5,624 MX,0,128301,128369,414.1071,317 F,18,128302,128369,0.9,0.6 V,18,128302,128369,32.5,624,25,480 MX,0,128369,128435,317,327.8929 F,19,128369,128436,0.6,0.9 V,19,128369,128436,25,480,32.5,624 MX,0,128435,128503,327.8929,549 F,18,128436,128503,0.9,0.6 V,18,128436,128503,32.5,624,25,480 MX,0,128503,128569,549,591.0958 F,19,128503,128637,0.6,0.9 V,19,128503,128637,25,480,32.5,624 MX,0,128569,128636,591.0958,585.9688 MX,0,128636,128703,585.9688,567.4056 F,18,128637,128771,0.9,0.6 V,18,128637,128771,32.5,624,25,480 MX,0,128703,128771,567.4056,415 MX,0,128771,128837,415,485 F,19,128771,128838,0.6,0.9 V,19,128771,128838,25,480,32.5,624 MX,0,128837,128905,485,495 F,18,128838,128905,0.9,0.6 V,18,128838,128905,32.5,624,25,480 MX,0,128905,128971,495,424.3156 F,19,128905,128972,0.6,0.9 V,19,128905,128972,25,480,32.5,624 MX,0,128971,129039,424.3156,190 F,18,128972,129039,0.9,0.6 V,18,128972,129039,32.5,624,25,480 MX,0,129039,129105,190,231.9841 F,19,129039,129173,0.6,0.9 V,19,129039,129173,25,480,32.5,624 MX,0,129105,129172,231.9841,226.8333 MX,0,129172,129239,226.8333,209 F,18,129173,129307,0.9,0.6 V,18,129173,129307,32.5,624,25,480 MX,0,129239,129307,209,140 MX,0,129307,129373,140,209.969 F,19,129307,129440,0.6,0.9 V,19,129307,129440,25,480,32.5,624 MX,0,129373,129440,209.969,280.6566 MX,0,129440,129507,280.6566,303.7817 F,18,129440,129574,0.9,0.6 V,18,129440,129574,32.5,624,25,480 MX,0,129507,129574,303.7817,285 MX,0,129574,129640,285,293.8022 F,19,129574,130110,0.6,0.9 V,19,129574,130110,25,480,32.5,624 MX,0,129640,129707,293.8022,303.0496 MX,0,129707,129774,303.0496,312.4692 MX,0,129774,129841,312.4692,321.7835 MX,0,129841,129908,321.7835,330.7188 MX,0,129908,129975,330.7188,339.0127 MX,0,129975,130042,339.0127,346.4217 MX,0,130042,130109,346.4217,353 MX,0,130109,130646,353,527 F,18,130110,130646,0.9,0.6 V,18,130110,130646,32.5,624,25,480 MX,0,130646,130712,527,512.6735 MX,0,130712,130779,512.6735,495.1804 MX,0,130779,130846,495.1804,476.3903 MX,0,130846,130913,476.3903,458.4232
//Storyboard Layer 1 (Fail)
//Storyboard Layer 2 (Pass)
//Storyboard Layer 3 (Foreground)
Sprite,Foreground,Centre,"sb\Credits\_000.png",320,240 S,0,175716,,0.3 F,0,175716,176251,1
Sprite,Foreground,Centre,"sb\Credits\_001.png",320,240 S,0,176251,,0.3 F,0,176251,176787,1
Sprite,Foreground,Centre,"sb\Credits\_002.png",320,240 S,0,176787,,0.3 F,0,176787,177323,1
Sprite,Foreground,Centre,"sb\Credits\_180.png",320,240 S,0,177323,,0.3 F,0,177323,177858,1
Sprite,Foreground,Centre,"sb\Credits\_004.png",320,240 S,0,177858,,0.3 F,0,177858,178394,1
Sprite,Foreground,Centre,"sb\Credits\_000.png",320,240 S,0,178394,,0.3 F,0,178394,178930,1
Sprite,Foreground,Centre,"sb\Credits\_001.png",320,240 S,0,178930,,0.3 F,0,178930,179466,1
Sprite,Foreground,Centre,"sb\Credits\_002.png",320,240 S,0,179466,,0.3 F,0,179466,180001,1
Sprite,Foreground,Centre,"sb\Credits\_180.png",320,240 S,0,180001,,0.3 F,0,180001,180269,1
Sprite,Foreground,Centre,"sb\Credits\_004.png",320,240 S,0,180269,,0.3 F,0,180269,180537,1
Sprite,Foreground,Centre,"sb\Credits\_000.png",320,240 S,0,180537,,0.3 F,0,180537,180805,1
Sprite,Foreground,Centre,"sb\Credits\_001.png",320,240 S,0,180805,,0.3 F,0,180805,181073,1
Sprite,Foreground,Centre,"sb\Credits\_002.png",320,240 S,0,181073,,0.3 F,0,181073,181341,1
Sprite,Foreground,Centre,"sb\Credits\_180.png",320,240 S,0,181341,,0.3 F,0,181341,181608,1
Sprite,Foreground,Centre,"sb\Credits\_004.png",320,240 S,0,181608,,0.3 F,0,181608,181876,1
Sprite,Foreground,Centre,"sb\Credits\_240.png",320,240 S,0,181876,,0.3 F,0,181876,182143,1
Sprite,Foreground,Centre,"sb\Credits\_241.png",320,240 S,0,182144,,0.3 F,0,182144,182277,1
Sprite,Foreground,Centre,"sb\Credits\_242.png",320,240 S,0,182277,,0.3 F,0,182277,182411,1
Sprite,Foreground,Centre,"sb\Credits\_243.png",320,240 S,0,182411,,0.3 F,0,182411,182545,1
Sprite,Foreground,Centre,"sb\Credits\_244.png",320,240 S,0,182545,,0.3 F,0,182545,182679,1
Sprite,Foreground,Centre,"sb\Credits\_245.png",320,240 S,0,182679,,0.3 F,0,182679,182813,1
Sprite,Foreground,Centre,"sb\Credits\_246.png",320,240 S,0,182813,,0.3 F,0,182813,182947,1
Sprite,Foreground,Centre,"sb\Credits\_247.png",320,240 S,0,182947,,0.3 F,0,182947,183081,1
Sprite,Foreground,Centre,"sb\Credits\_248.png",320,240 S,0,183081,,0.3 F,0,183081,183215,1
Sprite,Foreground,Centre,"sb\Credits\_249.png",320,240 S,0,183215,,0.3 F,0,183215,183349,1
Sprite,Foreground,Centre,"sb\Credits\_00f.png",320,240 S,0,183350,,0.3 F,0,183350,183617,1
Sprite,Foreground,Centre,"sb\Credits\_010.png",320,240 S,0,183617,,0.3 F,0,183617,183885,1
Sprite,Foreground,Centre,"sb\Credits\_011.png",320,240 S,0,183885,,0.3 F,0,183885,184019,1
Sprite,Foreground,Centre,"sb\Credits\_012.png",320,240 S,0,184019,,0.3 F,0,184019,184153,1
Sprite,Foreground,Centre,"sb\Credits\_013.png",320,240 S,0,184153,,0.3 F,0,184153,184287,1
Sprite,Foreground,Centre,"sb\Credits\_014.png",320,240 S,0,184287,,0.3 F,0,184287,186430,1
//Storyboard Layer 4 (Overlay)
//Storyboard Sound Samples

[TimingPoints]
-68,535.714285714286,4,2,1,41,1,0
7967,-150.15015015015,4,2,1,41,0,0
8503,-62.5,4,2,1,41,0,0
8905,-100,4,2,1,41,0,0
10646,-71.4285714285715,4,2,1,51,0,0
11649,-71.4285714285715,4,2,1,5,0,0
11717,-55.5555555555555,4,2,1,51,0,0
12119,-71.4285714285715,4,2,1,51,0,0
12789,-55.5555555555555,4,2,1,51,0,0
13792,-55.5555555555555,4,2,1,5,0,0
13860,-71.4285714285715,4,2,1,51,0,0
14062,-71.4285714285715,4,2,1,5,0,0
14127,-71.4285714285715,4,2,1,51,0,0
16137,-55.5555555555555,4,2,1,51,0,0
16539,-71.4285714285715,4,2,1,51,0,0
17074,-55.5555555555555,4,2,1,51,0,0
19217,-55.5555555555555,4,2,1,41,0,0
19351,-100,4,2,1,41,0,0
23503,-71.4285714285715,4,2,1,51,0,0
24039,-71.4285714285715,4,2,1,61,0,0
24574,-55.5555555555555,4,2,1,71,0,0
25110,-55.5555555555555,4,2,1,81,0,0
27789,-41.6666666666667,4,2,1,91,0,0
28257,-41.6666666666667,4,2,1,5,0,0
28324,-41.6666666666667,4,2,1,71,0,0
28524,-41.6666666666667,4,2,1,5,0,0
28592,-41.6666666666667,4,2,1,71,0,0
29060,-41.6666666666667,4,2,1,5,0,0
29128,-41.6666666666667,4,2,1,71,0,0
29262,-55.5555555555555,4,2,1,71,0,0
29596,-55.5555555555555,4,2,1,5,0,0
29664,-41.6666666666667,4,2,1,71,0,0
29864,-41.6666666666667,4,2,1,5,0,0
29932,-62.5,4,2,1,71,0,0
30467,-41.6666666666667,4,2,1,71,0,0
31203,-41.6666666666667,4,2,1,5,0,0
31271,-71.4285714285715,4,2,1,71,0,0
31471,-71.4285714285715,4,2,1,5,0,0
31539,-41.6666666666667,4,2,1,71,0,0
31739,-41.6666666666667,4,2,1,5,0,0
31807,-125,4,2,1,71,0,0
32007,-125,4,2,1,5,0,0
32074,-41.6666666666667,4,2,1,91,0,0
32542,-41.6666666666667,4,2,1,5,0,0
32610,-41.6666666666667,4,2,1,71,0,0
33346,-41.6666666666667,4,2,1,5,0,0
33414,-41.6666666666667,4,2,1,71,0,0
33548,-55.5555555555555,4,2,1,71,0,0
33882,-55.5555555555555,4,2,1,5,0,0
33949,-41.6666666666667,4,2,1,71,0,0
34149,-41.6666666666667,4,2,1,5,0,0
34217,-62.5,4,2,1,71,0,0
34753,-41.6666666666667,4,2,1,71,0,0
35489,-41.6666666666667,4,2,1,5,0,0
35557,-71.4285714285715,4,2,1,71,0,0
35757,-71.4285714285715,4,2,1,5,0,0
35824,-41.6666666666667,4,2,1,71,0,0
36024,-41.6666666666667,4,2,1,5,0,0
36092,-125,4,2,1,71,0,0
36292,-125,4,2,1,5,0,0
36360,-41.6666666666667,4,2,1,81,0,0
36828,-41.6666666666667,4,2,1,5,0,0
36896,-41.6666666666667,4,2,1,71,0,0
37699,-55.5555555555555,4,2,1,71,0,0
38033,-55.5555555555555,4,2,1,5,0,0
38101,-55.5555555555555,4,2,1,71,0,0
38503,-41.6666666666667,4,2,1,81,0,0
39039,-41.6666666666667,4,2,1,71,0,0
39842,-71.4285714285715,4,2,1,71,0,0
40578,-71.4285714285715,4,2,1,5,0,0
40646,-62.5,4,2,1,71,0,0
42789,-62.5,4,2,1,81,0,0
43324,-50,4,2,1,81,0,0
43860,-50,4,2,1,91,0,0
44262,-41.6666666666667,4,2,2,91,0,0
44395,-41.6666666666667,4,2,1,91,0,0
44530,-41.6666666666667,4,2,2,91,0,0
44730,-41.6666666666667,4,2,2,5,0,0
44798,-41.6666666666667,4,2,2,91,0,0
44864,-41.6666666666667,4,2,2,5,0,0
44932,-55.5555555555555,4,2,3,81,0,1
45467,-41.6666666666667,4,2,3,81,0,1
45735,-71.4285714285715,4,2,3,81,0,1
46003,-55.5555555555555,4,2,3,81,0,1
46539,-41.6666666666667,4,2,3,81,0,1
46807,-71.4285714285715,4,2,3,81,0,1
47007,-71.4285714285715,4,2,3,5,0,1
47074,-55.5555555555555,4,2,3,81,0,1
47610,-41.6666666666667,4,2,3,81,0,1
47878,-71.4285714285715,4,2,3,81,0,1
48078,-71.4285714285715,4,2,3,5,0,1
48146,-55.5555555555555,4,2,3,81,0,1
48682,-41.6666666666667,4,2,3,81,0,1
48882,-41.6666666666667,4,2,3,5,0,1
48949,-41.6666666666667,4,2,3,81,0,1
49217,-55.5555555555555,4,2,3,81,0,1
49753,-41.6666666666667,4,2,3,81,0,1
49953,-41.6666666666667,4,2,3,5,0,1
50021,-71.4285714285715,4,2,3,81,0,1
50221,-71.4285714285715,4,2,3,5,0,1
50289,-71.4285714285715,4,2,3,81,0,1
50423,-41.6666666666667,4,2,3,81,0,1
51024,-41.6666666666667,4,2,3,5,0,1
51092,-71.4285714285715,4,2,3,81,0,1
51292,-71.4285714285715,4,2,3,5,0,1
51360,-50,4,2,3,81,0,1
51694,-50,4,2,3,5,0,1
51762,-41.6666666666667,4,2,3,81,0,1
52164,-71.4285714285715,4,2,3,81,0,1
52565,-41.6666666666667,4,2,3,81,0,1
53167,-41.6666666666667,4,2,3,5,0,1
53235,-41.6666666666667,4,2,3,81,0,1
53503,-71.4285714285715,4,2,3,81,0,1
53837,-71.4285714285715,4,2,3,5,0,1
53905,-100,4,2,3,81,0,1
54574,-71.4285714285715,4,2,3,81,0,1
54774,-71.4285714285715,4,2,3,5,0,1
54842,-71.4285714285715,4,2,3,81,0,1
55176,-71.4285714285715,4,2,3,5,0,1
55244,-71.4285714285715,4,2,3,81,0,1
55578,-71.4285714285715,4,2,3,5,0,1
55646,-55.5555555555555,4,2,3,81,0,1
55847,-55.5555555555555,4,2,3,5,0,1
55913,-55.5555555555555,4,2,3,81,0,1
56449,-71.4285714285715,4,2,3,81,0,1
56717,-55.5555555555555,4,2,3,81,0,1
56917,-55.5555555555555,4,2,3,5,0,1
56985,-55.5555555555555,4,2,3,81,0,1
57319,-55.5555555555555,4,2,3,5,0,1
57387,-55.5555555555555,4,2,3,81,0,1
57521,-41.6666666666667,4,2,3,81,0,1
57789,-71.4285714285715,4,2,3,81,0,1
58123,-71.4285714285715,4,2,3,5,0,1
58190,-100,4,2,3,81,0,1
58860,-55.5555555555555,4,2,3,81,0,1
59060,-55.5555555555555,4,2,3,5,0,1
59128,-53.763440860215,4,2,3,81,0,1
59328,-53.763440860215,4,2,3,5,0,1
59396,-53.763440860215,4,2,3,81,0,1
59530,-71.4285714285715,4,2,3,81,0,1
59864,-71.4285714285715,4,2,3,5,0,1
59932,-55.5555555555555,4,2,3,81,0,1
60266,-55.5555555555555,4,2,3,5,0,1
60333,-55.5555555555555,4,2,3,81,0,1
60667,-55.5555555555555,4,2,3,5,0,1
60735,-55.5555555555555,4,2,3,81,0,1
61203,-55.5555555555555,4,2,3,5,0,1
61271,-55.5555555555555,4,2,3,81,0,1
61472,-55.5555555555555,4,2,3,5,0,1
61538,-55.5555555555555,4,2,3,81,0,1
61807,-41.6666666666667,4,2,3,81,0,1
62074,-41.6666666666667,4,2,1,51,0,0
62208,-100,4,2,1,51,0,0
62744,-100,4,2,1,41,0,0
66360,-71.4285714285715,4,2,1,51,0,0
66896,-71.4285714285715,4,2,1,61,0,0
67432,-55.5555555555555,4,2,1,71,0,0
67967,-55.5555555555555,4,2,1,81,0,0
69440,-41.6666666666667,4,2,2,81,0,0
69708,-55.5555555555555,4,2,2,81,0,0
70378,-41.6666666666667,4,2,2,81,0,0
70444,-41.6666666666667,4,2,2,5,0,0
70512,-41.6666666666667,4,2,2,81,0,0
70578,-41.6666666666667,4,2,2,5,0,0
70646,-41.6666666666667,4,2,1,91,0,0
71114,-41.6666666666667,4,2,1,5,0,0
71182,-41.6666666666667,4,2,1,71,0,0
71382,-41.6666666666667,4,2,1,5,0,0
71449,-41.6666666666667,4,2,1,71,0,0
72051,-41.6666666666667,4,2,1,5,0,0
72119,-55.5555555555555,4,2,1,71,0,0
72453,-55.5555555555555,4,2,1,5,0,0
72521,-41.6666666666667,4,2,1,71,0,0
72721,-41.6666666666667,4,2,1,5,0,0
72789,-62.5,4,2,1,71,0,0
73324,-41.6666666666667,4,2,1,71,0,0
74060,-41.6666666666667,4,2,1,5,0,0
74128,-71.4285714285715,4,2,1,71,0,0
74328,-71.4285714285715,4,2,1,5,0,0
74396,-41.6666666666667,4,2,1,71,0,0
74596,-41.6666666666667,4,2,1,5,0,0
74664,-125,4,2,1,71,0,0
74864,-125,4,2,1,5,0,0
74932,-41.6666666666667,4,2,1,91,0,0
75400,-41.6666666666667,4,2,1,5,0,0
75467,-41.6666666666667,4,2,1,71,0,0
76203,-41.6666666666667,4,2,1,5,0,0
76271,-41.6666666666667,4,2,1,71,0,0
76405,-55.5555555555555,4,2,1,71,0,0
76739,-55.5555555555555,4,2,1,5,0,0
76807,-41.6666666666667,4,2,1,71,0,0
77007,-41.6666666666667,4,2,1,5,0,0
77074,-62.5,4,2,1,71,0,0
77610,-41.6666666666667,4,2,1,71,0,0
78346,-41.6666666666667,4,2,1,5,0,0
78414,-71.4285714285715,4,2,1,71,0,0
78614,-71.4285714285715,4,2,1,5,0,0
78682,-41.6666666666667,4,2,1,71,0,0
78882,-41.6666666666667,4,2,1,5,0,0
78949,-125,4,2,1,71,0,0
79149,-125,4,2,1,5,0,0
79217,-41.6666666666667,4,2,1,81,0,0
79685,-41.6666666666667,4,2,1,5,0,0
79753,-41.6666666666667,4,2,1,71,0,0
80557,-55.5555555555555,4,2,1,71,0,0
80891,-55.5555555555555,4,2,1,5,0,0
80958,-55.5555555555555,4,2,1,71,0,0
81360,-41.6666666666667,4,2,1,81,0,0
81896,-41.6666666666667,4,2,1,71,0,0
83101,-71.4285714285714,4,2,1,71,0,0
83435,-71.4285714285714,4,2,1,5,0,0
83503,-62.5,4,2,1,71,0,0
85646,-62.5,4,2,1,81,0,0
86182,-50,4,2,1,81,0,0
86717,-50,4,2,1,91,0,0
87119,-41.6666666666667,4,2,2,91,0,0
87252,-41.6666666666667,4,2,1,91,0,0
87387,-41.6666666666667,4,2,2,91,0,0
87587,-41.6666666666667,4,2,2,5,0,0
87655,-41.6666666666667,4,2,2,91,0,0
87721,-41.6666666666667,4,2,2,5,0,0
87789,-55.5555555555555,4,2,3,81,0,1
88324,-41.6666666666667,4,2,3,81,0,1
88524,-41.6666666666667,4,2,3,5,0,1
88592,-71.4285714285715,4,2,3,81,0,1
88860,-55.5555555555555,4,2,3,81,0,1
89328,-55.5555555555555,4,2,3,5,0,1
89396,-41.6666666666667,4,2,3,81,0,1
89596,-41.6666666666667,4,2,3,5,0,1
89664,-71.4285714285715,4,2,3,81,0,1
89864,-71.4285714285715,4,2,3,5,0,1
89932,-55.5555555555555,4,2,3,81,0,1
90467,-41.6666666666667,4,2,3,81,0,1
90735,-71.4285714285715,4,2,3,81,0,1
91003,-35.7142857142857,4,2,3,81,0,1
91405,-41.6666666666667,4,2,3,81,0,1
91739,-41.6666666666667,4,2,3,5,0,1
91807,-41.6666666666667,4,2,3,81,0,1
92208,-55.5555555555555,4,2,3,81,0,1
92276,-55.5555555555555,4,2,3,5,0,1
92343,-55.5555555555555,4,2,3,81,0,1
92542,-55.5555555555555,4,2,3,5,0,1
92610,-41.6666666666667,4,2,3,81,0,1
92810,-41.6666666666667,4,2,3,5,0,1
92878,-71.4285714285715,4,2,3,81,0,1
93078,-71.4285714285715,4,2,3,5,0,1
93146,-71.4285714285715,4,2,3,81,0,1
93280,-41.6666666666667,4,2,3,81,0,1
93882,-41.6666666666667,4,2,3,5,0,1
93949,-71.4285714285715,4,2,3,81,0,1
94149,-71.4285714285715,4,2,3,5,0,1
94217,-50,4,2,3,81,0,1
94551,-50,4,2,3,5,0,1
94619,-41.6666666666667,4,2,3,81,0,1
95021,-71.4285714285715,4,2,3,81,0,1
95423,-41.6666666666667,4,2,3,81,0,1
96024,-41.6666666666667,4,2,3,5,0,1
96092,-41.6666666666667,4,2,3,81,0,1
96360,-71.4285714285715,4,2,3,81,0,1
96694,-71.4285714285715,4,2,3,5,0,1
96762,-100,4,2,3,81,0,1
97096,-100,4,2,3,5,0,1
97164,-100,4,2,3,81,0,1
97432,-71.4285714285715,4,2,3,81,0,1
97632,-71.4285714285715,4,2,3,5,0,1
97699,-71.4285714285715,4,2,3,81,0,1
97899,-71.4285714285715,4,2,3,5,0,1
97967,-41.6666666666667,4,2,3,81,0,1
98503,-55.5555555555555,4,2,3,81,0,1
98837,-55.5555555555555,4,2,3,5,0,1
98905,-55.5555555555555,4,2,3,81,0,1
99239,-55.5555555555555,4,2,3,5,0,1
99307,-71.4285714285715,4,2,3,81,0,1
99574,-55.5555555555555,4,2,3,81,0,1
99774,-55.5555555555555,4,2,3,5,0,1
99842,-55.5555555555555,4,2,3,81,0,1
100044,-55.5555555555555,4,2,3,5,0,1
100109,-55.5555555555555,4,2,3,81,0,1
100378,-41.6666666666667,4,2,3,81,0,1
100646,-71.4285714285715,4,2,3,81,0,1
100980,-71.4285714285715,4,2,3,5,0,1
101048,-100,4,2,3,81,0,1
101382,-100,4,2,3,5,0,1
101449,-100,4,2,3,81,0,1
101649,-100,4,2,3,5,0,1
101717,-55.5555555555555,4,2,3,81,0,1
101985,-53.763440860215,4,2,3,81,0,1
102185,-53.763440860215,4,2,3,5,0,1
102253,-53.763440860215,4,2,3,81,0,1
102387,-71.4285714285715,4,2,3,81,0,1
102721,-71.4285714285715,4,2,3,5,0,1
102789,-55.5555555555555,4,2,3,81,0,1
103123,-55.5555555555555,4,2,3,5,0,1
103190,-55.5555555555555,4,2,3,81,0,1
103524,-55.5555555555555,4,2,3,5,0,1
103592,-55.5555555555555,4,2,3,81,0,1
104060,-55.5555555555555,4,2,3,5,0,1
104128,-55.5555555555555,4,2,3,81,0,1
104329,-55.5555555555555,4,2,3,5,0,1
104395,-55.5555555555555,4,2,3,81,0,1
104664,-41.6666666666667,4,2,3,81,0,1
104932,-41.6666666666667,4,2,1,51,0,0
105065,-100,4,2,1,51,0,0
105601,-100,4,2,1,41,0,0
109217,-71.4285714285715,4,2,1,51,0,0
109753,-71.4285714285715,4,2,1,61,0,0
110289,-55.5555555555555,4,2,1,71,0,0
110824,-55.5555555555555,4,2,1,81,0,0
112298,-41.6666666666667,4,2,2,81,0,0
112565,-55.5555555555555,4,2,2,81,0,0
113235,-41.6666666666667,4,2,2,81,0,0
113301,-41.6666666666667,4,2,2,5,0,0
113369,-41.6666666666667,4,2,2,81,0,0
113435,-41.6666666666667,4,2,2,5,0,0
113503,-33.3333333333334,4,2,3,81,0,1
113703,-33.3333333333334,4,2,3,5,0,1
113771,-33.3333333333334,4,2,3,81,0,1
114173,-27.7777777777778,4,2,3,81,0,1
114708,-33.3333333333334,4,2,3,81,0,1
115578,-33.3333333333334,4,2,3,5,0,1
115646,-33.3333333333334,4,2,3,81,0,1
115846,-33.3333333333334,4,2,3,5,0,1
115914,-33.3333333333334,4,2,3,81,0,1
116649,-33.3333333333334,4,2,3,5,0,1
116717,-27.7777777777778,4,2,3,81,0,1
117253,-33.3333333333334,4,2,3,81,0,1
117721,-33.3333333333334,4,2,3,5,0,1
117789,-33.3333333333334,4,2,3,81,0,1
117990,-33.3333333333334,4,2,3,5,0,1
118057,-33.3333333333334,4,2,3,81,0,1
118157,-33.3333333333334,4,2,3,5,0,1
118190,-33.3333333333334,4,2,3,81,0,1
118524,-33.3333333333334,4,2,3,5,0,1
118592,-33.3333333333334,4,2,3,81,0,1
119596,-33.3333333333334,4,2,3,5,0,1
119664,-33.3333333333334,4,2,3,81,0,1
120132,-33.3333333333334,4,2,3,5,0,1
120199,-33.3333333333334,4,2,3,81,0,1
120667,-33.3333333333334,4,2,3,5,0,1
120735,-33.3333333333334,4,2,3,81,0,1
121739,-33.3333333333334,4,2,3,5,0,1
121807,-33.3333333333334,4,2,3,81,0,1
122810,-33.3333333333334,4,2,3,5,0,1
122878,-33.3333333333334,4,2,3,81,0,1
123078,-33.3333333333334,4,2,3,5,0,1
123146,-33.3333333333334,4,2,3,81,0,1
123882,-33.3333333333334,4,2,3,5,0,1
123949,-33.3333333333334,4,2,3,81,0,1
124149,-33.3333333333334,4,2,3,5,0,1
124217,-33.3333333333334,4,2,3,81,0,1
124953,-33.3333333333334,4,2,3,5,0,1
125021,-33.3333333333334,4,2,3,81,0,1
125221,-33.3333333333334,4,2,3,5,0,1
125289,-27.7777777777778,4,2,3,81,0,1
125824,-33.3333333333334,4,2,3,81,0,1
126024,-33.3333333333334,4,2,3,5,0,1
126092,-33.3333333333334,4,2,3,81,0,1
127096,-33.3333333333334,4,2,3,5,0,1
127164,-33.3333333333334,4,2,3,81,0,1
128167,-33.3333333333334,4,2,3,5,0,1
128235,-33.3333333333334,4,2,3,81,0,1
128703,-33.3333333333334,4,2,3,5,0,1
128771,-33.3333333333334,4,2,3,81,0,1
129239,-33.3333333333334,4,2,3,5,0,1
129307,-33.3333333333334,4,2,3,81,0,1
129574,-250,4,2,1,81,0,0
130109,-250,4,2,1,71,0,0
130646,-125,4,2,1,51,0,0
136539,-100,4,2,3,61,0,0
137007,-100,4,2,3,5,0,0
137074,-100,4,2,3,81,0,0
139083,-41.6666666666667,4,2,1,31,0,0
139216,-41.6666666666667,4,2,1,81,0,0
139954,-41.6666666666667,4,2,1,31,0,0
140021,-41.6666666666667,4,2,1,81,0,0
141360,-55.5555555555555,4,2,3,81,0,1
141896,-41.6666666666667,4,2,3,81,0,1
142096,-41.6666666666667,4,2,3,5,0,1
142164,-71.4285714285715,4,2,3,81,0,1
142432,-55.5555555555555,4,2,3,81,0,1
142967,-41.6666666666667,4,2,3,81,0,1
143167,-41.6666666666667,4,2,3,5,0,1
143235,-71.4285714285715,4,2,3,81,0,1
143435,-71.4285714285715,4,2,3,5,0,1
143503,-55.5555555555555,4,2,3,81,0,1
144039,-41.6666666666667,4,2,3,81,0,1
144307,-71.4285714285715,4,2,3,81,0,1
144507,-71.4285714285715,4,2,3,5,0,1
144574,-55.5555555555555,4,2,3,81,0,1
145110,-41.6666666666667,4,2,3,81,0,1
145310,-41.6666666666667,4,2,3,5,0,1
145378,-41.6666666666667,4,2,3,81,0,1
145646,-55.5555555555555,4,2,3,81,0,1
146182,-41.6666666666667,4,2,3,81,0,1
146382,-41.6666666666667,4,2,3,5,0,1
146449,-71.4285714285715,4,2,3,81,0,1
146649,-71.4285714285715,4,2,3,5,0,1
146717,-71.4285714285715,4,2,3,81,0,1
146851,-41.6666666666667,4,2,3,81,0,1
147453,-41.6666666666667,4,2,3,5,0,1
147521,-71.4285714285715,4,2,3,81,0,1
147721,-71.4285714285715,4,2,3,5,0,1
147789,-50,4,2,3,81,0,1
148123,-50,4,2,3,5,0,1
148190,-41.6666666666667,4,2,3,81,0,1
148592,-71.4285714285715,4,2,3,81,0,1
148994,-41.6666666666667,4,2,3,81,0,1
149596,-41.6666666666667,4,2,3,5,0,1
149664,-41.6666666666667,4,2,3,81,0,1
149932,-55.5555555555555,4,2,3,81,0,1
150467,-41.6666666666667,4,2,3,81,0,1
150667,-41.6666666666667,4,2,3,5,0,1
150735,-71.4285714285715,4,2,3,81,0,1
151003,-55.5555555555555,4,2,3,81,0,1
151539,-41.6666666666667,4,2,3,81,0,1
151807,-71.4285714285715,4,2,3,81,0,1
152007,-71.4285714285715,4,2,3,5,0,1
152074,-55.5555555555555,4,2,3,81,0,1
152610,-41.6666666666667,4,2,3,81,0,1
152878,-71.4285714285715,4,2,3,81,0,1
153146,-55.5555555555555,4,2,3,81,0,1
153682,-41.6666666666667,4,2,3,81,0,1
153882,-41.6666666666667,4,2,3,5,0,1
153949,-41.6666666666667,4,2,3,81,0,1
154217,-55.5555555555555,4,2,3,81,0,1
154753,-41.6666666666667,4,2,3,81,0,1
154953,-41.6666666666667,4,2,3,5,0,1
155021,-71.4285714285715,4,2,3,81,0,1
155221,-71.4285714285715,4,2,3,5,0,1
155289,-71.4285714285715,4,2,3,81,0,1
155423,-41.6666666666667,4,2,3,81,0,1
156024,-41.6666666666667,4,2,3,5,0,1
156092,-71.4285714285715,4,2,3,81,0,1
156292,-71.4285714285715,4,2,3,5,0,1
156360,-50,4,2,3,81,0,1
156562,-50,4,2,3,5,0,1
156629,-50,4,2,3,81,0,1
156762,-41.6666666666667,4,2,3,81,0,1
157096,-41.6666666666667,4,2,3,5,0,1
157164,-71.4285714285715,4,2,3,81,0,1
157298,-71.4285714285715,4,2,2,71,0,1
157432,-71.4285714285715,4,2,2,71,0,0
157699,-71.4285714285715,4,2,2,71,0,0
157833,-71.4285714285715,4,2,2,71,0,0
158235,-71.4285714285715,4,2,2,71,0,0
158301,-71.4285714285715,4,2,2,5,0,0
158369,-71.4285714285715,4,2,2,71,0,0
158435,-71.4285714285715,4,2,2,5,0,0
158503,-55.5555555555555,4,2,3,81,0,1
159039,-41.6666666666667,4,2,3,81,0,1
159239,-41.6666666666667,4,2,3,5,0,1
159307,-71.4285714285715,4,2,3,81,0,1
159574,-55.5555555555555,4,2,3,81,0,1
160042,-55.5555555555555,4,2,3,5,0,1
160110,-41.6666666666667,4,2,3,81,0,1
160310,-41.6666666666667,4,2,3,5,0,1
160378,-71.4285714285715,4,2,3,81,0,1
160578,-71.4285714285715,4,2,3,5,0,1
160646,-55.5555555555555,4,2,3,81,0,1
161182,-41.6666666666667,4,2,3,81,0,1
161449,-71.4285714285715,4,2,3,81,0,1
161717,-35.7142857142858,4,2,3,81,0,1
162119,-41.6666666666667,4,2,3,81,0,1
162453,-41.6666666666667,4,2,3,5,0,1
162521,-41.6666666666667,4,2,3,81,0,1
162923,-55.5555555555555,4,2,3,81,0,1
162990,-55.5555555555555,4,2,3,5,0,1
163057,-55.5555555555555,4,2,3,81,0,1
163256,-55.5555555555555,4,2,3,5,0,1
163324,-41.6666666666667,4,2,3,81,0,1
163524,-41.6666666666667,4,2,3,5,0,1
163592,-71.4285714285715,4,2,3,81,0,1
163792,-71.4285714285715,4,2,3,5,0,1
163860,-71.4285714285715,4,2,3,81,0,1
163994,-41.6666666666667,4,2,3,81,0,1
164596,-41.6666666666667,4,2,3,5,0,1
164664,-71.4285714285715,4,2,3,81,0,1
164864,-71.4285714285715,4,2,3,5,0,1
164932,-50,4,2,3,81,0,1
165266,-50,4,2,3,5,0,1
165333,-41.6666666666667,4,2,3,81,0,1
165735,-71.4285714285715,4,2,3,81,0,1
166137,-41.6666666666667,4,2,3,81,0,1
166739,-41.6666666666667,4,2,3,5,0,1
166807,-41.6666666666667,4,2,3,81,0,1
167074,-71.4285714285715,4,2,3,81,0,1
167408,-71.4285714285715,4,2,3,5,0,1
167476,-100,4,2,3,81,0,1
167810,-100,4,2,3,5,0,1
167878,-100,4,2,3,81,0,1
168146,-71.4285714285715,4,2,3,81,0,1
168346,-71.4285714285715,4,2,3,5,0,1
168414,-71.4285714285715,4,2,3,81,0,1
168614,-71.4285714285715,4,2,3,5,0,1
168682,-41.6666666666667,4,2,3,81,0,1
169217,-55.5555555555555,4,2,3,81,0,1
169551,-55.5555555555555,4,2,3,5,0,1
169619,-55.5555555555555,4,2,3,81,0,1
169953,-55.5555555555555,4,2,3,5,0,1
170021,-71.4285714285715,4,2,3,81,0,1
170289,-55.5555555555555,4,2,3,81,0,1
170489,-55.5555555555555,4,2,3,5,0,1
170557,-55.5555555555555,4,2,3,81,0,1
170758,-55.5555555555555,4,2,3,5,0,1
170824,-55.5555555555555,4,2,3,81,0,1
171092,-41.6666666666667,4,2,3,81,0,1
171360,-71.4285714285715,4,2,3,81,0,1
171694,-71.4285714285715,4,2,3,5,0,1
171762,-100,4,2,3,81,0,1
172096,-100,4,2,3,5,0,1
172164,-100,4,2,3,81,0,1
172432,-55.5555555555555,4,2,3,81,0,1
172699,-53.763440860215,4,2,3,81,0,1
172899,-53.763440860215,4,2,3,5,0,1
172967,-53.763440860215,4,2,3,81,0,1
173101,-71.4285714285715,4,2,3,81,0,1
173435,-71.4285714285715,4,2,3,5,0,1
173503,-55.5555555555555,4,2,3,81,0,1
173837,-55.5555555555555,4,2,3,5,0,1
173905,-55.5555555555555,4,2,3,81,0,1
174239,-55.5555555555555,4,2,3,5,0,1
174307,-55.5555555555555,4,2,3,81,0,1
174774,-55.5555555555555,4,2,3,5,0,1
174842,-55.5555555555555,4,2,3,81,0,1
175044,-55.5555555555555,4,2,3,5,0,1
175109,-55.5555555555555,4,2,3,81,0,1
175378,-41.6666666666667,4,2,3,81,0,1
175646,-41.6666666666667,4,2,1,51,0,0
175780,-100,4,2,1,51,0,0
176315,-100,4,2,1,41,0,0
179932,-71.4285714285715,4,2,1,51,0,0
180467,-71.4285714285715,4,2,1,61,0,0
181003,-55.5555555555555,4,2,1,71,0,0
181539,-55.5555555555555,4,2,1,81,0,0
183012,-41.6666666666667,4,2,2,81,0,0
183280,-55.5555555555555,4,2,2,81,0,0
183949,-41.6666666666667,4,2,2,81,0,0
184015,-41.6666666666667,4,2,2,5,0,0
184083,-41.6666666666667,4,2,2,81,0,0
184149,-41.6666666666667,4,2,2,5,0,0
184217,-41.6666666666667,4,2,1,100,0,0

[Colours]
Combo1 : 255,187,119
Combo2 : 159,255,159
Combo3 : 255,255,155

[HitObjects]
255,80,1003,6,0,P|204:61|172:174,1,190,0|0,2:0|2:0,0:0:0:0:
160,161,2074,5,0,2:0:0:0:
133,248,2208,2,0,B|194:239|194:239|211:227|211:227|278:218,1,142.5,0|8,2:0|2:1,2:0:0:0:
275,205,2744,2,0,L|223:212,1,47.5,0|0,0:0|2:0,0:0:0:0:
435,247,3146,5,0,2:0:0:0:
364,291,3280,2,0,B|346:262|346:262|362:193,1,95,0|0,2:0|2:0,2:0:0:0:
264,295,3682,2,0,B|282:324|282:324|268:383,1,95,8|0,2:1|2:0,0:0:0:0:
193,339,4083,1,0,2:0:0:0:
112,368,4217,6,0,P|65:372|30:343,1,95,0|0,2:0|2:0,2:0:0:0:
16,347,4619,2,0,P|29:366|50:376,1,47.5,0|0,2:0|0:0,2:0:0:0:
145,257,4887,1,0,2:0:0:0:
137,269,5021,2,0,P|117:282|94:284,1,47.5,0|0,2:0|2:0,2:0:0:0:
15,198,5289,6,0,L|28:99,1,95,0|0,2:0|2:0,2:0:0:0:
40,98,5690,2,0,L|33:145,1,47.5,0|8,2:0|2:1,0:0:0:0:
123,76,5958,2,0,L|116:128,2,47.5,0|0|0,2:0|2:0|2:0,2:0:0:0:
193,166,6360,5,0,2:0:0:0:
270,130,6494,2,0,P|330:166|324:233,1,142.5,0|8,2:0|2:1,2:0:0:0:
333,242,7030,2,0,P|347:204|343:185,2,47.5,0|0|0,0:0|2:0|2:0,0:0:0:0:
453,75,7432,5,0,2:0:0:0:
511,17,7565,2,0,B|474:-10|474:-10|426:-1,1,95,0|0,2:0|2:0,2:0:0:0:
395,133,7967,2,0,B|431:160|431:160|479:151,1,94.9050000000001,8|0,2:1|2:0,2:0:0:0:
453,75,8503,6,0,L|292:96,1,152,0|0,2:0|0:0,2:0:0:0:
289,88,8905,2,0,L|336:81,1,47.5,0|8,2:0|2:1,0:0:0:0:
162,163,9173,1,0,2:0:0:0:
241,176,9307,2,0,L|288:183,1,47.5,0|0,2:0|0:0,0:0:0:0:
18,28,9574,5,0,2:0:0:0:
90,73,9708,2,0,P|136:77|172:47,1,95,0|0,2:0|2:0,2:0:0:0:
244,189,10110,2,0,P|208:159|161:163,1,95,8|0,2:1|2:0,2:0:0:0:
89,208,10512,1,0,2:0:0:0:
197,376,10646,6,0,L|176:215,2,133,0|0|8,3:0|2:0|2:1,2:0:0:0:
436,158,11449,2,0,P|418:192|425:227,1,66.4999999999999,0|0,3:0|0:0,2:0:0:0:
439,298,11717,6,0,B|345:317|381:237|277:262,1,171,0|0,2:0|0:0,2:0:0:0:
266,246,12119,2,0,P|298:247|326:231,1,66.4999999999999,0|8,2:0|2:1,0:0:0:0:
231,10,12521,2,0,L|227:43,2,33.25,2|2|2,2:3|2:3|2:3,0:0:0:0:
162,95,12789,6,0,P|226:84|267:184,1,171,0|0,3:0|2:0,2:0:0:0:
485,0,13190,2,0,P|421:-11|380:89,1,171,0|0,3:0|2:0,2:0:0:0:
487,267,13592,2,0,B|494:214|494:214|505:199|505:199|512:142,1,128.25,0|0,3:0|2:0,2:0:0:0:
511,143,13860,6,0,B|476:143|452:116|452:116|437:146|401:154,1,133,0|0,2:0|3:0,2:0:0:0:
263,59,14396,2,0,B|298:66|314:96|314:96|337:69|372:70,1,133,8|2,2:1|2:3,2:0:0:0:
372,64,14731,1,2,2:3:0:0:
370,57,14798,1,2,2:3:0:0:
232,149,14932,6,0,P|171:162|121:114,2,133,0|0|8,3:0|2:0|2:1,0:0:0:0:
155,356,15735,2,0,P|156:323|140:295,1,66.4999999999999,0|0,3:0|0:0,0:0:0:0:
8,262,16003,5,0,2:0:0:0:
63,342,16137,2,0,L|39:164,1,171,0|0,2:0|2:0,2:0:0:0:
122,117,16539,2,0,P|176:152|159:221,1,133,8|2,2:1|2:3,2:0:0:0:
174,211,16873,1,2,2:3:0:0:
180,209,16940,1,2,2:3:0:0:
384,20,17074,6,0,B|284:-5|316:75|226:60,1,171,0|0,3:0|2:0,2:0:0:0:
356,106,17476,1,0,3:0:0:0:
458,68,17610,2,0,P|478:30|468:-11,1,85.5000000000001,8|0,2:1|0:0,2:0:0:0:
356,106,17878,2,0,L|367:190,1,85.5000000000001,0|0,3:0|2:0,0:0:0:0:
267,167,18146,5,0,2:0:0:0:
267,167,18280,1,0,2:0:0:0:
467,213,18414,2,0,P|403:202|362:302,1,171,0|8,3:0|2:1,2:0:0:0:
151,103,18949,5,2,2:3:0:0:
152,111,19016,1,2,2:3:0:0:
153,119,19083,1,2,2:3:0:0:
52,152,19217,5,8,2:0:0:0:
55,225,19351,2,0,L|61:177,2,47.5,0|0|0,2:0|2:0|2:0,2:0:0:0:
153,119,19753,1,8,2:0:0:0:
156,192,19887,2,0,L|162:144,2,47.5,0|0|0,2:0|2:0|2:0,2:0:0:0:
254,86,20289,5,8,2:0:0:0:
257,159,20423,2,0,L|263:111,2,47.5,0|0|0,2:0|2:0|2:0,2:0:0:0:
355,53,20824,1,8,2:0:0:0:
358,126,20958,2,0,L|364:78,2,47.5,0|0|0,2:0|2:0|2:0,2:0:0:0:
459,159,21360,5,8,2:0:0:0:
456,232,21494,2,0,L|450:184,2,47.5,0|0|0,2:0|2:0|2:0,2:0:0:0:
358,126,21896,1,8,2:0:0:0:
355,199,22030,2,0,L|349:151,2,47.5,0|0|0,2:0|2:0|2:0,2:0:0:0:
257,93,22432,5,8,2:0:0:0:
254,166,22565,2,0,L|248:118,2,47.5,0|0|0,2:0|2:0|2:0,2:0:0:0:
156,60,22967,1,8,2:0:0:0:
153,133,23101,2,0,L|147:85,2,47.5,0|0|0,2:0|2:0|2:0,2:0:0:0:
313,149,23503,6,0,P|271:151|245:182,1,66.4999999999999,8|0,2:0|2:0,2:0:0:0:
279,238,23771,2,0,P|320:235|346:204,1,66.4999999999999,8|0,2:0|2:0,2:0:0:0:
362,84,24039,6,0,P|325:66|287:79,1,66.4999999999999,8|0,2:0|2:0,2:0:0:0:
230,303,24307,2,0,P|267:321|305:308,1,66.4999999999999,8|0,2:0|2:0,2:0:0:0:
154,134,24574,6,0,L|69:123,1,85.5000000000001,8|0,2:0|2:0,2:0:0:0:
414,265,24842,2,0,L|498:275,1,85.5000000000001,8|0,2:0|2:0,2:0:0:0:
133,242,25110,6,0,L|48:253,1,85.5000000000001,8|0,2:0|2:0,2:0:0:0:
435,157,25378,2,0,L|520:146,1,85.5000000000001,8|0,2:0|2:0,2:0:0:0:
211,7,25646,5,8,2:0:0:0:
209,17,25713,1,8,2:0:0:0:
208,27,25780,1,8,2:0:0:0:
207,38,25847,1,8,2:0:0:0:
205,48,25914,5,8,2:0:0:0:
234,35,25981,1,8,2:0:0:0:
266,42,26048,1,8,2:0:0:0:
287,67,26115,1,8,2:0:0:0:
284,77,26182,5,8,2:0:0:0:
314,90,26248,1,8,2:0:0:0:
346,83,26315,1,8,2:0:0:0:
367,58,26382,1,8,2:0:0:0:
364,48,26449,5,8,2:0:0:0:
393,25,26516,1,8,2:0:0:0:
436,20,26583,1,8,2:0:0:0:
480,46,26650,1,8,2:0:0:0:
496,107,26717,5,4,2:3:0:0:
144,218,27789,6,0,B|159:142|159:142|63:191|63:191|81:273|81:273|92:287|92:287|109:367,1,342,8|0,2:3|0:0,2:0:0:0:
374,212,28324,2,0,B|247:197|247:197|258:251,1,171,8|0,2:1|2:0,2:0:0:0:
270,326,28592,1,0,3:0:0:0:
278,325,28659,1,0,3:0:0:0:
286,324,28726,1,0,3:0:0:0:
436,60,28860,6,0,P|381:115|287:84,1,171,8|0,2:3|2:0,2:0:0:0:
282,104,29128,2,0,L|273:44,1,57,0|0,2:0|2:0,2:0:0:0:
44,65,29262,2,0,P|123:44|183:101,1,171,8|0,2:3|0:0,2:0:0:0:
125,308,29664,6,0,B|163:333|163:333|145:209,1,171,8|0,2:3|2:0,2:0:0:0:
102,135,29932,6,0,B|229:92|194:217|317:180,1,228,0|0,3:0|2:0,2:0:0:0:
299,35,30467,6,0,P|277:71|293:120,1,75.9999999999999,8|0,2:1|2:0,2:0:0:0:
414,167,30646,2,0,P|397:133|363:117,1,75.9999999999999,0|0,2:0|3:0,2:0:0:0:
246,203,30824,2,0,P|284:206|314:185,1,75.9999999999999,0|0,2:0|2:0,2:0:0:0:
313,185,31003,6,0,L|287:354,1,171,8|0,2:0|2:0,2:0:0:0:
199,384,31271,2,0,B|181:338|181:338|207:295,1,99.7499999999999,0|0,3:0|2:0,2:0:0:0:
287,354,31539,2,0,B|358:344|358:344|379:329|379:329|452:320,1,171,8|0,2:1|2:0,2:0:0:0:
460,308,31807,6,0,L|403:316,1,57,0|0,3:0|2:0,2:0:0:0:
259,207,32074,6,0,B|224:174|172:171|133:199|117:237|117:237|117:237|117:237|163:224|191:180|187:132|162:99,1,342,8|0,2:3|0:0,2:0:0:0:
221,376,32610,2,0,P|280:387|293:281,1,171,8|0,2:1|0:0,2:0:0:0:
222,280,32878,1,0,3:0:0:0:
223,288,32945,1,0,3:0:0:0:
224,296,33012,1,0,3:0:0:0:
302,124,33146,6,0,B|256:115|240:71|240:71|203:107|138:97,1,171,8|0,2:3|2:0,2:0:0:0:
146,92,33414,2,0,P|132:123|136:149,1,57,0|0,2:0|2:0,2:0:0:0:
326,36,33548,2,0,B|367:28|404:64|404:64|420:20|466:11,1,171,8|0,2:3|0:0,2:0:0:0:
511,243,33949,6,0,P|452:254|439:148,1,171,8|0,2:3|2:0,2:0:0:0:
489,90,34217,6,0,B|324:70|324:70|338:140,1,228,0|0,3:0|2:0,2:0:0:0:
224,237,34753,6,0,B|230:194|230:194|202:230,1,75.9999999999999,8|0,2:1|2:0,2:0:0:0:
372,281,34932,2,0,B|331:297|331:297|364:301,1,75.9999999999999,0|0,2:0|3:0,2:0:0:0:
337,131,35110,2,0,B|371:157|371:157|358:127,1,75.9999999999999,0|0,2:0|2:0,2:0:0:0:
311,215,35289,6,0,L|285:46,1,171,8|0,2:0|2:0,2:0:0:0:
195,7,35557,2,0,P|162:51|170:94,1,99.7499999999999,0|0,3:0|2:0,2:0:0:0:
189,182,35824,2,0,B|95:201|131:121|27:146,1,171,8|0,2:1|2:0,2:0:0:0:
19,135,36092,6,0,P|59:128|89:138,1,57,0|0,3:0|2:0,2:0:0:0:
52,245,36360,6,0,B|44:313|44:313|131:302|131:302|155:284|155:284|238:272|238:272|228:343,1,342,8|0,3:0|0:0,2:0:0:0:
244,70,36896,6,0,P|183:109|190:183,2,152,8|0|0,2:1|2:0|2:0,2:0:0:0:
437,194,37432,5,8,2:3:0:0:
436,193,37699,2,0,B|445:266|445:266|460:287|460:287|471:358,1,171,0|0,3:0|0:0,2:0:0:0:
321,219,38101,2,0,B|331:148|331:148|346:127|346:127|355:54,1,171,0|0,3:0|2:0,2:0:0:0:
178,89,38503,6,0,L|223:81,12,28.5,0|0|0|0|0|0|0|0|0|0|0|0|0,3:0|2:0|2:0|2:0|2:0|2:0|2:0|2:0|2:0|2:0|2:0|2:0|2:0,2:0:0:0:
86,102,39039,6,0,L|10:113,1,75.9999999999999,8|0,2:1|2:0,2:0:0:0:
121,16,39217,2,0,L|45:4,1,75.9999999999999,0|0,2:0|3:0,2:0:0:0:
144,173,39396,2,0,L|75:206,1,75.9999999999999,0|0,2:0|2:0,2:0:0:0:
297,104,39574,6,0,L|271:269,1,151.999995361328,8|0,2:3|0:0,2:0:0:0:
232,322,39842,2,0,P|278:277|341:288,1,133,0|8,3:0|2:1,0:0:0:0:
512,173,40244,2,0,P|449:184|403:139,1,133,0|0,3:0|0:0,2:0:0:0:
467,32,40646,6,0,B|487:66|487:66|478:101,1,76,8|0,2:0|2:0,0:0:0:0:
324,187,40914,2,0,B|304:153|304:153|312:117,1,76,0|0,3:0|2:0,2:0:0:0:
403,139,41182,6,0,L|421:259,1,114,8|0,2:0|0:0,0:0:0:0:
415,268,41449,2,0,L|490:279,1,76,0|0,3:0|2:0,2:0:0:0:
220,267,41717,6,0,P|183:288|143:279,1,76,8|0,2:0|2:0,0:0:0:0:
114,143,41985,2,0,P|151:122|191:131,1,76,0|0,3:0|2:0,2:0:0:0:
167,205,42253,6,0,L|54:188,1,114,8|0,2:0|2:0,0:0:0:0:
39,179,42521,2,0,L|50:254,1,76,0|0,3:0|2:0,0:0:0:0:
212,45,42789,6,0,L|220:-15,1,38,8|0,2:0|2:0,2:0:0:0:
127,59,42923,2,0,L|135:-1,1,38,8|0,2:0|2:0,2:0:0:0:
267,140,43057,6,0,L|275:200,1,38,8|0,2:0|2:0,2:0:0:0:
182,126,43190,2,0,L|190:186,1,38,8|0,2:0|2:0,2:0:0:0:
498,145,43324,6,0,L|491:97,1,47.5,8|0,2:0|2:0,2:0:0:0:
413,131,43458,2,0,L|406:83,1,47.5,8|0,2:0|2:0,2:0:0:0:
443,212,43592,6,0,L|436:259,1,47.5,8|0,2:0|2:0,2:0:0:0:
358,226,43726,2,0,L|351:273,1,47.5,8|0,2:0|2:0,2:0:0:0:
507,316,43860,5,8,2:0:0:0:
483,300,43927,1,8,2:0:0:0:
455,297,43994,1,8,2:0:0:0:
428,307,44061,1,8,2:0:0:0:
410,328,44128,1,8,2:0:0:0:
402,356,44195,1,8,2:0:0:0:
408,383,44262,2,0,L|466:374,2,57,8|8|0,2:0|2:0|3:0,0:0:0:0:
136,202,44530,5,8,2:0:0:0:
136,202,44597,1,8,2:0:0:0:
136,202,44664,2,0,P|121:235|132:273,1,57,8|0,2:0|2:0,2:0:0:0:
279,142,44798,2,0,P|264:109|275:71,1,57,8|0,2:0|2:0,2:0:0:0:
207,245,44932,6,0,P|285:246|295:324,1,171,4|0,3:0|2:0,2:0:0:0:
23,21,45333,1,8,2:3:0:0:
146,79,45467,2,0,P|224:78|234:0,1,171,8|0,2:0|2:0,2:0:0:0:
266,89,45735,6,0,L|364:74,1,99.7499999999999,2|2,1:2|2:0,0:0:0:0:
512,121,46003,6,0,B|412:96|444:176|354:161,1,171,0|0,3:0|2:0,2:0:0:0:
506,361,46405,1,8,2:3:0:0:
383,329,46539,2,0,B|289:348|325:268|221:293,1,171,8|0,2:0|0:0,2:0:0:0:
124,278,46807,6,0,P|80:311|37:303,1,99.7499999999999,0|0,1:0|2:0,2:0:0:0:
42,126,47074,6,0,B|80:101|80:101|62:225,1,171,0|0,3:0|2:0,2:0:0:0:
355,161,47476,1,8,2:3:0:0:
451,250,47610,2,0,B|489:274|489:274|471:150,1,171,8|0,2:0|0:0,2:0:0:0:
418,48,47878,6,0,L|516:63,1,99.7499999999999,0|0,1:0|2:0,2:0:0:0:
355,161,48146,6,0,P|275:181|216:125,1,171,0|0,3:0|2:0,2:0:0:0:
372,384,48548,1,8,2:3:0:0:
270,307,48682,2,0,P|190:286|131:342,1,171,8|0,2:0|2:0,2:0:0:0:
97,233,48949,6,0,L|105:176,3,57,2|2|2|2,1:2|2:0|2:0|2:0,2:0:0:0:
33,384,49217,6,0,B|23:313|23:313|8:292|8:292|-1:219,1,171,0|0,3:0|2:0,2:0:0:0:
337,95,49619,1,8,2:3:0:0:
225,25,49753,2,0,B|216:98|216:98|201:119|201:119|191:190,1,171,8|0,2:0|2:0,2:0:0:0:
275,235,50021,6,0,B|317:208|317:208|363:226,1,99.7499999999999,0|0,1:0|2:0,2:0:0:0:
474,266,50289,5,0,3:0:0:0:
327,309,50423,2,0,B|427:284|395:364|485:349,1,171
496,361,50690,1,8,2:3:0:0:
237,384,50824,2,0,P|177:328|98:349,1,171,8|0,2:0|2:0,2:0:0:0:
20,288,51092,6,0,P|-7:247|2:200,1,99.7499999999999,0|0,1:0|2:0,2:0:0:0:
99,69,51360,6,0,B|72:97|82:137|82:137|180:150|180:150|201:183|188:215,1,237.5,0|0,3:0|2:0,2:0:0:0:
298,196,51762,2,0,P|311:171|312:143,1,57,8|0,2:3|2:0,2:0:0:0:
393,299,51896,2,0,P|315:300|305:378,1,171,8|0,2:0|0:0,2:0:0:0:
392,384,52164,6,0,B|436:379|436:379|448:372|448:372|490:367,1,99.7499999999999,0|0,1:0|0:0,0:0:0:0:
455,165,52432,5,0,3:0:0:0:
512,276,52565,2,0,B|394:246|394:246|317:283,1,171,0|0,1:0|0:0,2:0:0:0:
334,258,52833,1,8,2:3:0:0:
143,69,52967,2,0,P|202:124|281:103,1,171,8|0,2:0|2:0,2:0:0:0:
295,112,53235,6,0,L|303:169,1,57,8|0,2:3|2:0,2:0:0:0:
203,312,53369,2,0,L|211:369,1,57,8|0,2:3|2:0,2:0:0:0:
334,258,53503,6,0,B|262:249|262:249|242:234|242:234|173:224,1,166.25,0|0,3:0|2:0,2:0:0:0:
89,222,53905,6,0,L|182:207,1,95,0|0,3:0|2:0,2:0:0:0:
106,321,54307,1,0,3:0:0:0:
98,320,54373,1,0,3:0:0:0:
90,319,54440,1,0,3:0:0:0:
6,112,54574,6,0,L|110:128,1,99.7499999999999,8|0,2:3|2:0,2:0:0:0:
170,56,54842,6,0,B|206:48|221:18|221:18|245:45|280:45,1,133,0|0,3:0|0:0,2:0:0:0:
292,182,55244,2,0,B|256:190|241:220|241:220|217:193|182:193,1,133,0|0,3:0|0:0,2:0:0:0:
231,119,55646,6,0,B|331:94|299:174|389:159,1,171,0|0,3:0|2:0,2:0:0:0:
124,309,56048,1,0,3:0:0:0:
66,229,56182,2,0,L|82:125,1,85.5000000000001,0|0,0:0|2:0,0:0:0:0:
257,200,56449,2,0,P|290:244|282:287,1,99.7499999999999,2|2,3:2|2:0,0:0:0:0:
295,373,56717,6,0,L|210:359,1,85.5000000000001,8|0,2:3|0:0,2:0:0:0:
483,265,56985,2,0,B|500:389|500:389|462:364,1,171,0|0,3:0|0:0,2:0:0:0:
381,258,57387,5,0,3:0:0:0:
493,126,57521,2,0,P|464:126|440:112,1,57,8|0,2:3|2:0,2:0:0:0:
265,176,57655,2,0,P|289:162|317:162,1,57,8|0,2:3|2:0,2:0:0:0:
381,258,57789,6,0,L|355:89,1,166.25,0|0,3:0|2:0,2:0:0:0:
279,48,58190,6,0,P|314:79|361:77,1,95,0|0,3:0|2:0,2:0:0:0:
482,19,58592,1,0,3:0:0:0:
481,27,58659,1,0,3:0:0:0:
480,35,58726,1,0,3:0:0:0:
381,258,58860,6,0,P|340:223|264:246,1,128.25,8|0,2:3|2:0,2:0:0:0:
228,155,59128,6,0,B|171:190|171:190|110:166,1,132.525,0|0,3:0|2:0,2:0:0:0:
95,176,59396,1,8,1:0:0:0:
100,37,59530,2,0,B|156:1|156:1|217:25,1,133,0|0,3:0|0:0,2:0:0:0:
164,96,59932,6,0,L|-5:70,1,171,0|0,3:0|0:0,2:0:0:0:
110,316,60333,1,0,3:0:0:0:
274,266,60467,2,0,P|293:218|277:180,1,85.5000000000001,8|0,1:0|0:0,2:0:0:0:
28,262,60735,2,0,B|13:345|13:345|43:377,1,128.25,2|2,3:2|2:0,2:0:0:0:
110,316,61003,6,0,L|195:302,1,85.5000000000001,8|0,2:3|0:0,2:0:0:0:
476,384,61271,2,0,B|382:403|418:323|314:348,1,171,0|8,3:0|1:0,2:0:0:0:
380,247,61673,5,0,3:0:0:0:
457,303,61807,2,0,P|470:278|471:250,1,57,8|0,2:3|2:0,2:0:0:0:
303,191,61940,2,0,P|290:216|289:244,1,57,8|0,2:3|2:0,2:0:0:0:
468,158,62074,5,8,2:0:0:0:
395,155,62208,2,0,L|443:149,2,47.5,0|0|0,2:0|2:0|2:0,2:0:0:0:
230,194,62610,1,8,2:0:0:0:
303,191,62744,2,0,L|255:185,2,47.5,0|0|0,2:0|2:0|2:0,2:0:0:0:
432,66,63146,5,8,2:0:0:0:
359,63,63280,2,0,L|407:57,2,47.5,0|0|0,2:0|2:0|2:0,2:0:0:0:
194,102,63682,1,8,2:0:0:0:
267,99,63815,2,0,L|219:93,2,47.5,0|0|0,2:0|2:0|2:0,2:0:0:0:
323,277,64217,5,8,2:0:0:0:
250,274,64351,2,0,L|298:268,2,47.5,0|0|0,2:0|2:0|2:0,2:0:0:0:
85,313,64753,1,8,2:0:0:0:
158,310,64887,2,0,L|110:304,2,47.5,0|0|0,2:0|2:0|2:0,2:0:0:0:
287,185,65289,5,8,2:0:0:0:
214,182,65423,2,0,L|262:176,2,47.5,0|0|0,2:0|2:0|2:0,2:0:0:0:
49,221,65824,1,8,2:0:0:0:
122,218,65958,2,0,L|74:212,2,47.5,0|0|0,2:0|2:0|2:0,2:0:0:0:
295,119,66360,6,0,L|287:185,1,66.4999999999999,8|0,2:0|2:0,2:0:0:0:
360,217,66628,2,0,L|368:151,1,66.4999999999999,8|0,2:0|2:0,2:0:0:0:
194,175,66896,6,0,L|202:241,1,66.4999999999999,8|0,2:0|2:0,2:0:0:0:
461,161,67164,2,0,L|453:95,1,66.4999999999999,8|0,2:0|2:0,2:0:0:0:
288,286,67432,6,0,P|269:334|285:372,1,85.5000000000001,8|0,2:0|2:0,2:0:0:0:
364,70,67699,2,0,P|383:22|367:-16,1,85.5000000000001,8|0,2:0|2:0,2:0:0:0:
393,275,67967,6,0,P|424:315|419:356,1,85.5000000000001,8|0,2:0|2:0,2:0:0:0:
259,81,68235,2,0,P|227:40|232:0,1,85.5000000000001,8|0,2:0|2:0,2:0:0:0:
231,328,68503,5,8,2:0:0:0:
241,330,68570,1,8,2:0:0:0:
251,331,68637,1,8,2:0:0:0:
262,332,68704,1,8,2:0:0:0:
272,334,68771,5,8,2:0:0:0:
245,291,68838,1,8,2:0:0:0:
197,278,68905,1,8,2:0:0:0:
153,301,68972,1,8,2:0:0:0:
148,291,69039,5,8,2:0:0:0:
121,334,69106,1,8,2:0:0:0:
73,347,69173,1,8,2:0:0:0:
29,324,69240,1,8,2:0:0:0:
24,334,69307,5,8,2:0:0:0:
13,278,69373,1,8,2:0:0:0:
0,202,69440,2,0,L|56:209,2,57,8|8|8,2:0|2:0|2:0,0:0:0:0:
243,78,69708,6,0,B|189:85|189:85|173:96|173:96|118:103,1,128.25,8|0,2:0|0:0,0:0:0:0:
41,113,69976,1,8,2:0:0:0:
312,246,70244,5,8,2:0:0:0:
312,246,70311,1,8,2:0:0:0:
312,246,70378,2,0,P|325:221|325:193,1,57,8|0,2:0|2:0,2:0:0:0:
230,170,70512,2,0,P|216:194|216:222,1,57,8|0,2:0|2:0,2:0:0:0:
418,200,70646,6,0,B|403:132|403:132|392:118|392:118|374:38|374:38|477:-14|477:-14|461:67,1,342,8|0,2:3|0:0,2:0:0:0:
451,282,71182,2,0,P|396:227|302:258,1,171,8|0,2:1|2:0,2:0:0:0:
373,326,71449,1,0,3:0:0:0:
372,318,71516,1,0,3:0:0:0:
371,310,71583,1,0,3:0:0:0:
153,122,71717,6,0,L|322:96,1,171,8|0,2:3|0:0,2:0:0:0:
305,91,71985,2,0,L|296:147,1,57,0|0,0:0|2:0,0:0:0:0:
263,343,72119,2,0,L|94:317,1,171,8|0,2:3|0:0,2:0:0:0:
153,122,72521,6,0,P|94:111|81:217,1,171,8|0,2:3|2:0,2:0:0:0:
153,212,72789,6,0,B|133:47|133:47|191:8,1,228,0|0,3:0|2:0,2:0:0:0:
376,118,73324,6,0,P|375:80|337:39,1,75.9999999999999,8|0,2:1|2:0,2:0:0:0:
224,89,73503,2,0,P|261:86|294:104,1,75.9999999999999,0|0,2:0|3:0,2:0:0:0:
404,196,73682,2,0,P|437:176|453:142,1,75.9999999999999,0|0,2:0|2:0,2:0:0:0:
244,171,73860,6,0,B|254:243|254:243|245:268|245:268|253:339,1,171,8|0,2:0|2:0,2:0:0:0:
417,323,74128,2,0,P|375:284|326:299,1,99.7499999999999,0|0,3:0|2:0,2:0:0:0:
253,339,74396,2,0,P|174:360|114:303,1,171,8|0,2:1|2:0,2:0:0:0:
100,299,74664,6,0,P|113:332|129:346,1,57,0|0,3:0|2:0,2:0:0:0:
103,192,74932,6,0,B|118:187|137:191|152:203|152:203|152:203|152:203|183:155|162:83|87:64|40:103|40:103|59:88|69:66|64:39,1,342,8|0,2:3|0:0,2:0:0:0:
271,134,75467,2,0,B|365:153|329:73|433:98,1,171,8|0,2:1|0:0,2:0:0:0:
405,195,75735,1,0,3:0:0:0:
404,187,75802,1,0,3:0:0:0:
403,179,75869,1,0,3:0:0:0:
283,50,76003,6,0,B|249:19|210:14|210:14|172:29|152:78,1,171,8|0,2:3|2:0,2:0:0:0:
135,72,76271,2,0,L|195:63,1,57,0|0,2:0|2:0,2:0:0:0:
373,0,76405,2,0,B|392:49|430:64|430:64|469:59|503:28,1,171,8|0,2:3|0:0,2:0:0:0:
387,327,76807,6,0,B|367:210|367:210|402:171,1,171,8|0,2:3|2:0,2:0:0:0:
464,237,77074,6,0,B|303:213|303:213|286:216|286:216|208:205,1,228,0|0,3:0|2:0,2:0:0:0:
95,256,77610,6,0,B|124:231|124:231|161:236,1,75.9999999999999,8|0,2:1|2:0,2:0:0:0:
238,209,77789,2,0,B|224:173|224:173|188:159,1,75.9999999999999,0|0,2:0|3:0,2:0:0:0:
129,384,77967,2,0,B|121:345|121:345|146:316,1,75.9999999999999,0|0,2:0|2:0,2:0:0:0:
383,343,78146,6,0,L|214:369,1,171,8|0,2:0|2:0,2:0:0:0:
145,317,78414,2,0,L|243:332,1,99.7499999999999,0|0,3:0|2:0,2:0:0:0:
152,230,78682,2,0,B|110:222|73:258|73:258|57:214|11:205,1,171,8|0,2:1|2:0,2:0:0:0:
9,220,78949,6,0,P|42:233|55:258,1,57,0|0,3:0|2:0,2:0:0:0:
228,171,79217,6,0,B|242:125|289:99|337:107|367:136|367:136|367:136|367:136|321:121|302:84|316:55|316:55|341:32|336:-2,1,342,8|0,3:0|0:0,2:0:0:0:
103,33,79753,6,0,B|167:23|167:23|186:12|186:12|249:2,2,152,8|0|0,2:1|2:0|2:0,2:0:0:0:
314,205,80289,5,8,2:3:0:0:
314,205,80557,2,0,P|393:184|453:241,1,171,0|0,3:0|0:0,2:0:0:0:
228,120,80958,2,0,P|168:176|89:155,1,171,0|0,3:0|2:0,2:0:0:0:
259,332,81360,6,0,L|251:287,12,28.5,0|0|0|0|0|0|0|0|0|0|0|0|0,3:0|2:0|2:0|2:0|2:0|2:0|2:0|2:0|2:0|2:0|2:0|2:0|2:0,2:0:0:0:
348,171,81896,6,0,P|325:207|341:256,1,75.9999999999999,8|0,2:1|2:0,2:0:0:0:
129,206,82074,2,0,P|161:233|160:284,1,75.9999999999999,0|0,2:0|3:0,2:0:0:0:
228,120,82253,2,0,L|244:217,1,75.9999999999999,0|0,2:0|2:0,2:0:0:0:
511,333,82432,6,0,P|488:297|504:248,1,75.9999999999999,8|0,2:3|2:0,2:0:0:0:
292,298,82610,2,0,P|324:271|323:220,1,75.9999999999999,0|0,2:0|3:0,2:0:0:0:
391,384,82789,2,0,L|407:287,1,75.9999999999999,0|0,2:0|2:0,2:0:0:0:
375,176,82967,5,8,2:1:0:0:
433,24,83101,2,0,P|477:69|466:132,1,133,0|0,3:0|0:0,2:0:0:0:
375,176,83503,6,0,L|299:164,1,76,8|0,2:0|2:0,0:0:0:0:
268,0,83771,2,0,L|343:11,1,76,0|0,3:0|2:0,2:0:0:0:
299,84,84039,6,0,B|251:91|251:91|237:101|237:101|186:109,1,114,8|0,2:0|0:0,0:0:0:0:
186,125,84307,2,0,P|149:104|109:113,1,76,0|0,3:0|2:0,2:0:0:0:
30,151,84574,6,0,B|10:185|10:185|19:220,1,76,8|0,2:0|2:0,0:0:0:0:
211,338,84842,2,0,B|220:303|220:303|200:269,1,76,0|0,3:0|2:0,2:0:0:0:
102,202,85110,6,0,L|119:314,1,114,8|0,2:0|2:0,0:0:0:0:
103,309,85378,2,0,L|92:384,1,76,0|0,3:0|2:0,0:0:0:0:
337,209,85646,6,0,P|348:238|343:261,1,38,8|0,2:0|2:0,2:0:0:0:
345,127,85780,2,0,P|375:131|393:147,1,38,8|0,2:0|2:0,2:0:0:0:
473,287,85914,6,0,P|462:316|467:339,1,38,8|0,2:0|2:0,2:0:0:0:
465,205,86048,2,0,P|434:209|416:225,1,38,8|0,2:0|2:0,2:0:0:0:
256,254,86182,6,0,P|245:283|250:306,1,47.5,8|0,2:0|2:0,2:0:0:0:
248,172,86315,2,0,P|217:176|199:192,1,47.5,8|0,2:0|2:0,2:0:0:0:
107,332,86449,6,0,P|118:361|113:384,1,47.5,8|0,2:0|2:0,2:0:0:0:
115,250,86583,2,0,P|145:254|163:270,1,47.5,8|0,2:0|2:0,2:0:0:0:
13,362,86717,5,8,2:0:0:0:
15,342,86784,1,8,2:0:0:0:
18,322,86851,1,8,2:0:0:0:
21,302,86918,1,8,2:0:0:0:
24,283,86985,1,8,2:0:0:0:
27,263,87052,1,8,2:0:0:0:
30,243,87119,2,0,L|-26:251,2,57,8|8|0,2:0|2:0|3:0,0:0:0:0:
238,78,87387,5,8,2:0:0:0:
238,78,87454,1,8,2:0:0:0:
238,78,87521,2,0,L|246:22,1,57,8|0,2:0|2:0,2:0:0:0:
415,164,87655,2,0,L|407:220,1,57,8|0,2:0|2:0,2:0:0:0:
173,131,87789,6,0,L|342:105,1,171,4|0,3:0|2:0,2:0:0:0:
216,310,88190,1,8,2:3:0:0:
336,254,88324,2,0,L|505:280,1,171,8|0,2:0|2:0,2:0:0:0:
500,190,88592,6,0,P|462:158|414:164,1,99.7499999999999,2|2,1:2|2:0,0:0:0:0:
311,342,88860,6,0,B|265:333|249:289|249:289|212:325|147:315,1,171,0|0,3:0|2:0,2:0:0:0:
0,41,89262,1,8,2:3:0:0:
122,78,89396,2,0,B|168:69|184:25|184:25|221:61|286:51,1,171,8|0,2:0|2:0,2:0:0:0:
335,109,89664,6,0,B|362:67|362:67|344:21,1,99.7499999999999,0|0,1:0|2:0,2:0:0:0:
207,132,89932,6,0,B|227:249|227:249|192:288,1,171,0|0,3:0|2:0,2:0:0:0:
478,113,90333,1,8,2:3:0:0:
423,229,90467,2,0,B|403:346|403:346|438:385,1,171,8|0,2:0|0:0,2:0:0:0:
493,321,90735,6,0,L|395:336,1,99.7499999999999,0|0,1:0|2:0,2:0:0:0:
192,287,91003,6,0,P|254:302|302:260,2,133,0|0|0,3:0|2:0|2:0,2:0:0:0:
77,375,91405,6,0,P|108:361|134:365,1,57,8|0,2:3|2:0,2:0:0:0:
261,384,91539,2,0,L|235:215,1,171,8|0,2:0|2:0,2:0:0:0:
72,93,91807,6,0,B|58:120|58:120|66:158,1,57,0|0,1:0|2:0,2:0:0:0:
154,162,91940,2,0,B|168:135|168:135|160:97,1,57,0|0,2:0|2:0,2:0:0:0:
131,23,92074,5,0,3:0:0:0:
96,252,92208,2,0,P|155:195|235:215,1,171,0|8,0:0|2:3,0:0:0:0:
481,29,92610,2,0,P|422:85|342:66,1,171,8|0,2:0|2:0,2:0:0:0:
315,163,92878,6,0,L|413:178,1,99.7499999999999,0|0,1:0|2:0,2:0:0:0:
336,267,93146,5,0,3:0:0:0:
177,99,93280,2,0,B|248:89|248:89|269:74|269:74|342:65,1,171
347,48,93548,1,8,2:3:0:0:
5,110,93682,2,0,P|14:32|92:30,1,171,8|0,2:0|2:0,2:0:0:0:
177,99,93949,6,0,B|204:141|204:141|186:187,1,99.7499999999999,0|0,1:0|2:0,2:0:0:0:
59,249,94217,6,0,B|3:213|3:213|17:304|17:304|15:321|15:321|20:335|20:335|27:383,1,237.5,0|0,3:0|2:0,2:0:0:0:
175,332,94619,2,0,L|119:324,1,57,8|0,2:3|2:0,2:0:0:0:
279,285,94753,2,0,B|379:260|347:340|437:325,1,171,8|0,2:0|0:0,2:0:0:0:
512,208,95021,6,0,P|475:239|426:234,1,99.7499999999999,0|0,1:0|0:0,0:0:0:0:
313,42,95289,5,0,3:0:0:0:
447,154,95423,2,0,L|278:128,1,171,0|0,1:0|0:0,2:0:0:0:
282,144,95690,1,8,2:3:0:0:
15,32,95824,2,0,P|93:33|102:111,1,171,8|0,2:0|2:0,2:0:0:0:
112,125,96092,6,0,P|143:111|169:115,1,57,8|0,2:3|2:0,2:0:0:0:
276,1,96226,2,0,P|303:20|313:45,1,57,8|0,2:3|2:0,2:0:0:0:
266,280,96360,6,0,B|246:163|246:163|281:124,1,166.25,0|0,3:0|2:0,2:0:0:0:
312,41,96762,6,0,B|307:82|307:82|300:93|300:93|296:132,1,95,0|0,3:0|0:0,2:0:0:0:
387,153,97164,1,0,3:0:0:0:
386,145,97231,1,0,3:0:0:0:
385,137,97298,1,0,3:0:0:0:
198,112,97432,6,0,B|203:156|203:156|210:168|210:168|215:210,1,99.7499999999999,8|0,2:0|2:0,2:0:0:0:
113,272,97699,2,0,L|12:256,1,99.7499999999999,0|0,3:0|2:0,2:0:0:0:
2,269,97967,6,0,P|3:240|-9:215,1,57,8|0,1:0|2:0,2:0:0:0:
130,220,98101,2,0,P|128:248|113:271,1,57,0|0,3:0|2:0,2:0:0:0:
205,328,98235,2,0,P|230:315|245:291,1,57,2|0,2:0|2:0,2:0:0:0:
227,195,98369,5,2,2:0:0:0:
115,367,98503,2,0,B|-9:349|-9:349|15:387,1,171,0|0,3:0|0:0,2:0:0:0:
245,291,98905,1,0,3:0:0:0:
130,220,99039,2,0,P|111:172|127:134,1,85.5000000000001,8|0,1:0|0:0,2:0:0:0:
328,36,99307,2,0,L|312:134,1,99.7499999999999,2|2,3:2|2:0,0:0:0:0:
227,195,99574,6,0,L|213:110,1,85.5000000000001,8|0,2:3|0:0,2:0:0:0:
404,159,99842,2,0,P|460:218|441:298,1,171,0|8,3:0|1:0,2:0:0:0:
273,383,100244,5,0,3:0:0:0:
374,241,100378,2,0,L|318:233,1,57,8|0,2:3|2:0,2:0:0:0:
471,384,100512,2,0,L|415:376,1,57,8|0,2:3|2:0,2:0:0:0:
235,293,100646,6,0,B|146:310|177:238|79:258,1,166.25,0|0,3:0|2:0,2:0:0:0:
12,178,101048,6,0,P|58:179|93:148,1,95,0|0,3:0|0:0,2:0:0:0:
26,85,101449,1,0,3:0:0:0:
27,93,101516,1,0,0:0:0:0:
28,101,101583,1,0,0:0:0:0:
203,37,101717,6,0,P|263:25|309:66,1,128.25,8|0,2:0|0:0,0:0:0:0:
370,146,101985,6,0,L|500:166,1,132.525,0|0,3:0|2:0,2:0:0:0:
505,183,102253,1,8,1:0:0:0:
512,20,102387,2,0,L|381:0,1,133,0|0,3:0|0:0,2:0:0:0:
310,67,102789,6,0,B|330:184|330:184|295:223,1,171,0|0,3:0|0:0,2:0:0:0:
494,367,103190,1,0,3:0:0:0:
417,304,103324,2,0,P|376:294|338:312,1,85.5000000000001,8|0,1:0|0:0,2:0:0:0:
188,193,103592,2,0,P|248:181|294:222,1,128.25,2|2,3:2|2:0,2:0:0:0:
238,304,103860,6,0,L|153:290,1,85.5000000000001,8|0,2:3|0:0,2:0:0:0:
0,95,104128,2,0,B|72:85|72:85|97:94|97:94|168:86,1,171,0|8,3:0|1:0,2:0:0:0:
345,134,104530,5,0,3:0:0:0:
263,80,104664,2,0,L|255:136,1,57,8|0,2:3|2:0,2:0:0:0:
427,188,104798,2,0,L|435:132,1,57,8|0,2:3|2:0,2:0:0:0:
194,237,104932,5,8,2:0:0:0:
265,236,105065,2,0,P|243:225|220:226,2,47.5,0|0|0,2:0|2:0|2:0,2:0:0:0:
343,369,105467,1,8,2:0:0:0:
344,298,105601,2,0,P|354:319|353:342,2,47.5,0|0|0,2:0|2:0|2:0,2:0:0:0:
277,127,106003,5,8,2:0:0:0:
348,126,106137,2,0,P|326:115|303:116,2,47.5,0|0|0,2:0|2:0|2:0,2:0:0:0:
426,259,106539,1,8,2:0:0:0:
427,188,106673,2,0,P|437:209|436:232,2,47.5,0|0|0,2:0|2:0|2:0,2:0:0:0:
304,225,107074,5,8,2:0:0:0:
233,224,107208,2,0,P|255:213|278:214,2,47.5,0|0|0,2:0|2:0|2:0,2:0:0:0:
155,357,107610,1,8,2:0:0:0:
154,286,107744,2,0,P|144:307|145:330,2,47.5,0|0|0,2:0|2:0|2:0,2:0:0:0:
221,115,108146,5,8,2:0:0:0:
150,114,108280,2,0,P|172:103|195:104,2,47.5,0|0|0,2:0|2:0|2:0,2:0:0:0:
72,247,108682,1,8,2:0:0:0:
71,176,108815,2,0,P|61:197|62:220,2,47.5,0|0|0,2:0|2:0|2:0,2:0:0:0:
64,9,109217,6,0,L|56:75,1,66.4999999999999,8|0,2:0|2:0,2:0:0:0:
71,176,109485,2,0,L|63:242,1,66.4999999999999,8|0,2:0|2:0,2:0:0:0:
175,67,109753,6,0,L|182:133,1,66.4999999999999,8|0,2:0|2:0,2:0:0:0:
162,252,110021,2,0,L|170:318,1,66.4999999999999,8|0,2:0|2:0,2:0:0:0:
297,184,110289,6,0,L|308:87,1,85.5000000000001,8|0,2:0|2:0,2:0:0:0:
301,369,110557,2,0,L|311:284,1,85.5000000000001,8|0,2:0|2:0,2:0:0:0:
452,116,110824,6,0,L|441:32,1,85.5000000000001,8|0,2:0|2:0,2:0:0:0:
443,318,111092,2,0,L|432:233,1,85.5000000000001,8|0,2:0|2:0,2:0:0:0:
227,117,111360,5,8,2:0:0:0:
217,115,111427,1,8,2:0:0:0:
207,114,111494,1,8,2:0:0:0:
196,113,111561,1,8,2:0:0:0:
185,112,111628,5,8,2:0:0:0:
189,145,111695,1,8,2:0:0:0:
193,179,111762,1,8,2:0:0:0:
198,213,111829,1,8,2:0:0:0:
187,210,111896,5,8,2:0:0:0:
152,234,111963,1,8,2:0:0:0:
139,274,112030,1,8,2:0:0:0:
152,314,112097,1,8,2:0:0:0:
149,325,112164,5,8,2:0:0:0:
205,314,112231,1,8,2:0:0:0:
281,301,112298,2,0,L|274:357,2,57,8|8|8,2:0|2:0|2:0,0:0:0:0:
414,199,112565,6,0,P|422:137|378:93,1,128.25,8|0,2:0|0:0,0:0:0:0:
342,165,112833,1,8,2:0:0:0:
444,375,113101,5,8,2:0:0:0:
444,375,113168,1,8,2:0:0:0:
444,375,113235,2,0,B|471:389|471:389|498:384,1,57,8|0,2:0|2:0,2:0:0:0:
512,290,113369,2,0,B|485:276|485:276|459:282,1,57,8|0,2:0|2:0,2:0:0:0:
281,301,113503,6,0,B|313:285|313:285|221:274|221:274|207:278|207:278|121:268,1,213.75,4|0,3:0|2:0,2:0:0:0:
179,111,113771,6,0,L|188:183,1,71.2499999999999,0|0,2:0|2:0,2:0:0:0:
198,191,113905,2,0,L|189:120,1,71.2499999999999,8|0,2:3|2:0,2:0:0:0:
270,19,114039,1,8,2:0:0:0:
33,5,114173,6,0,B|68:44|68:44|61:86|61:86|63:105|63:105|55:121|55:121|48:161,2,171,0|0|0,2:0|1:0|2:0,2:0:0:0:
57,269,114574,5,0,3:0:0:0:
198,191,114708,2,0,L|268:199,2,71.2499999999999,0|0|0,2:0|2:0|2:0,2:0:0:0:
48,159,114976,5,8,2:3:0:0:
234,305,115110,2,0,B|280:300|280:300|294:295|294:295|329:291|329:291|343:293|343:293|406:286|406:286|383:329,1,213.75,8|0,2:0|0:0,2:0:0:0:
322,384,115378,5,0,1:0:0:0:
436,28,115646,6,0,B|466:9|466:9|473:70|473:70|477:82|477:82|475:96|475:96|482:153|482:153|444:144,1,213.75,0|0,3:0|2:0,2:0:0:0:
303,98,115914,6,0,B|334:80|334:80|369:88,1,71.2499999999999,0|0,2:0|2:0,2:0:0:0:
369,102,116048,2,0,B|338:120|338:120|304:111,1,71.2499999999999,8|0,2:3|2:0,2:0:0:0:
219,18,116182,6,0,B|151:10|151:10|142:11|142:11|77:4,1,142.5,8|0,2:0|2:0,2:0:0:0:
193,268,116449,2,0,B|185:199|185:199|188:185|188:185|180:109|180:109|229:151,1,213.75,0|0,1:0|2:0,2:0:0:0:
91,174,116717,6,0,B|39:167|39:167|24:160|24:160|-29:154|-29:154|-23:201,2,171,0|0|0,3:0|2:0|2:0,2:0:0:0:
288,306,117119,5,8,2:3:0:0:
355,155,117253,2,0,B|307:129|307:129|190:149,1,142.5,8|0,2:0|2:0,2:0:0:0:
378,24,117521,2,0,B|426:50|426:50|543:30,1,142.5,0|0,1:0|0:0,2:0:0:0:
262,18,117789,5,0,3:0:0:0:
470,157,117923,2,0,B|464:214|464:214|467:229|467:229|461:243|461:243|454:318|454:318|382:310,1,213.75
292,213,118190,6,0,B|324:209|324:209|331:206|331:206|363:202,1,71.2499999999999,8|0,2:3|2:0,2:0:0:0:
374,210,118324,2,0,B|342:214|342:214|335:217|335:217|303:221,1,71.2499999999999,8|0,2:0|0:0,2:0:0:0:
320,72,118458,1,0,0:0:0:0:
37,208,118592,2,0,B|105:200|105:200|114:201|114:201|179:194,1,142.5,2|2,1:2|2:0,0:0:0:0:
209,338,118860,5,2,3:2:0:0:
320,72,118994,2,0,B|252:64|252:64|243:65|243:65|178:58,1,142.5,0|0,2:0|2:0,2:0:0:0:
432,215,119262,5,8,2:3:0:0:
178,194,119396,2,0,B|194:162|194:162|205:254|205:254|201:268|201:268|211:354,1,213.75,8|0,2:0|2:0,2:0:0:0:
218,349,119664,6,0,B|186:345|186:345|179:342|179:342|147:338,1,71.2499999999999,2|2,1:2|2:0,0:0:0:0:
358,276,119798,2,0,B|326:280|326:280|319:283|319:283|287:286,1,71.2499999999999,2|2,2:0|2:0,0:0:0:0:
60,208,119932,6,0,B|41:178|41:178|102:171|102:171|114:167|114:167|128:169|128:169|185:162|185:162|176:200,1,213.75,0|0,3:0|2:0,2:0:0:0:
98,39,120199,2,0,L|168:47,1,71.2499999999999,0|0,2:0|2:0,2:0:0:0:
178,58,120333,2,0,L|107:49,1,71.2499999999999,8|0,2:3|2:0,2:0:0:0:
309,78,120467,6,0,B|290:108|290:108|351:115|351:115|363:119|363:119|377:117|377:117|434:124|434:124|426:92,1,213.75,8|0,2:0|2:0,2:0:0:0:
377,11,120735,2,0,B|389:113|389:113|387:127|387:127|398:225,1,213.75,0|0,1:0|2:0,2:0:0:0:
315,267,121003,5,0,3:0:0:0:
491,210,121137,2,0,B|483:278|483:278|484:287|484:287|477:352,1,142.5,0|0,1:0|2:0,2:0:0:0:
292,172,121405,5,8,2:3:0:0:
347,384,121539,2,0,B|381:343|381:343|305:351|305:351|291:348|291:348|222:356,1,213.75,8|0,2:0|2:0,2:0:0:0:
217,342,121807,6,0,B|235:311|235:311|227:276,1,71.2499999999999,8|0,2:3|2:0,2:0:0:0:
0,237,121940,2,0,B|-18:268|-18:268|-10:303,1,71.2499999999999,8|0,2:3|2:0,2:0:0:0:
115,299,122074,6,0,B|150:297|150:297|118:281,1,71.2499999999999,0|0,3:0|2:0,2:0:0:0:
103,280,122208,2,0,B|68:282|68:282|100:298,1,71.2499999999999,0|0,2:0|2:0,2:0:0:0:
315,267,122342,1,0,2:0:0:0:
144,177,122476,2,0,B|176:173|176:173|183:170|183:170|215:166,1,71.2499999999999,8|0,2:3|2:0,2:0:0:0:
484,91,122610,6,0,B|401:81|401:81|378:72|378:72|353:77|353:77|271:66,1,213.75,8|0,2:0|2:0,2:0:0:0:
176,59,122878,2,0,B|144:75|144:75|179:77,2,71.2499999999999,0|0|0,1:0|0:0|0:0,2:0:0:0:
379,208,123146,6,0,B|377:243|377:243|361:211,1,71.2499999999999,0|0,3:0|2:0,2:0:0:0:
360,196,123280,2,0,B|362:161|362:161|378:193,1,71.2499999999999,0|0,2:0|2:0,2:0:0:0:
354,327,123414,1,0,2:0:0:0:
133,284,123548,2,0,B|101:300|101:300|136:302,1,71.2499999999999,8|0,2:3|2:0,2:0:0:0:
240,280,123682,6,0,B|245:234|245:234|250:220|250:220|254:185|254:185|252:171|252:171|259:108|259:108|216:131,1,213.75,8|0,2:0|2:0,2:0:0:0:
146,195,123949,2,0,B|81:202|81:202|72:201|72:201|4:209,1,142.5,0|0,1:0|0:0,2:0:0:0:
139,14,124217,6,0,L|130:86,1,71.2499999999999,0|0,3:0|0:0,2:0:0:0:
120,94,124351,2,0,L|129:23,1,71.2499999999999
224,127,124485,1,0,2:0:0:0:
411,15,124619,2,0,B|376:7|376:7|345:25,1,71.2499999999999,8|0,2:3|2:0,2:0:0:0:
364,158,124753,6,0,B|337:134|337:134|428:147|428:147|441:154|441:154|527:167,1,213.75,8|0,2:0|2:0,2:0:0:0:
484,75,125021,2,0,B|454:107|454:107|460:142|460:142|459:158|459:158|465:171|465:171|471:204,1,142.5,0|0,1:0|0:0,2:0:0:0:
379,312,125289,6,0,B|344:273|344:273|351:231|351:231|349:212|349:212|357:196|357:196|364:156,2,171,0|0|0,3:0|2:0|2:0,0:0:0:0:
215,253,125690,5,8,2:3:0:0:
129,370,125824,2,0,B|197:362|197:362|206:363|206:363|271:356,1,142.5,8|0,2:0|0:0,2:0:0:0:
110,189,126092,2,0,B|54:182|54:182|46:183|46:183|-3:178|-3:178|12:238,1,142.5,0|0,1:0|2:0,2:0:0:0:
35,322,126360,5,0,3:0:0:0:
215,253,126494,2,0,B|209:196|209:196|212:181|212:181|206:167|206:167|199:92|199:92|127:100,1,213.75
329,37,126762,6,0,B|338:71|338:71|320:102,1,71.2499999999999,8|0,2:3|2:0,2:0:0:0:
306,102,126896,2,0,B|298:67|298:67|316:36,1,71.2499999999999,8|0,2:0|0:0,2:0:0:0:
347,197,127030,1,0,0:0:0:0:
73,36,127164,2,0,B|134:-2|134:-2|221:24,1,142.5,2|2,1:2|2:0,0:0:0:0:
306,102,127432,5,2,3:2:0:0:
135,239,127565,2,0,B|143:171|143:171|142:162|142:162|149:97,1,142.5,0|0,2:0|2:0,2:0:0:0:
22,201,127833,5,8,2:3:0:0:
238,343,127967,2,0,B|211:329|211:329|284:321|284:321|295:325|295:325|364:316|364:316|328:298,1,213.75,8|0,2:0|2:0,2:0:0:0:
351,298,128235,6,0,B|347:330|347:330|344:337|344:337|340:369,1,71.2499999999999,0|0,1:0|2:0,2:0:0:0:
243,162,128369,2,0,B|247:194|247:194|250:201|250:201|254:233,1,71.2499999999999,0|0,2:0|2:0,2:0:0:0:
475,318,128503,6,0,B|518:269|518:269|510:216|510:216|512:192|512:192|502:172|502:172|493:122,1,213.75,0|0,3:0|2:0,2:0:0:0:
341,187,128771,2,0,L|411:195,1,71.2499999999999,0|0,2:0|2:0,2:0:0:0:
421,206,128905,2,0,L|350:197,1,71.2499999999999,8|0,2:3|2:0,2:0:0:0:
116,129,129039,6,0,B|159:177|159:177|151:230|151:230|153:254|153:254|143:274|143:274|135:322,1,213.75,8|0,2:0|2:0,2:0:0:0:
66,249,129307,2,0,B|123:245|123:245|137:239|137:239|152:242|152:242|227:236|227:236|231:309,1,213.75,0|0,1:0|2:0,2:0:0:0:
211,373,129574,6,0,P|247:378|279:358,1,76,4|2,2:3|2:0,2:0:0:0:
453,137,130646,6,0,P|427:155|380:149,1,76,2|0,2:0|2:0,0:0:0:0:
313,187,131182,2,0,P|284:173|266:129,1,76,0|0,2:0|2:0,0:0:0:0:
199,90,131717,2,0,P|196:58|225:20,2,76,2|0|0,2:0|2:0|2:0,2:0:0:0:
199,90,132521,1,2,2:0:0:0:
80,64,132789,6,0,L|92:142,1,76,0|0,2:0|2:0,0:0:0:0:
159,183,133324,2,0,L|146:261,1,76,0|0,2:0|2:0,0:0:0:0:
74,342,133860,6,0,P|132:296|202:324,2,152,2|2|2,2:0|2:0|2:0,2:0:0:0:
145,380,135199,1,0,2:0:0:0:
199,321,135467,2,0,P|235:315|267:335,1,76,0|0,2:0|2:0,0:0:0:0:
333,290,136003,2,0,P|369:295|401:275,1,76,2|0,2:0|2:0,0:0:0:0:
435,137,136539,6,0,B|362:127|362:127|341:112|341:112|267:103,1,166.25,2|0,2:3|2:0,2:0:0:0:
200,150,137074,5,8,2:3:0:0:
509,91,137208,1,8,2:3:0:0:
45,61,137878,5,8,2:3:0:0:
354,120,138012,1,8,2:3:0:0:
360,328,139083,6,0,L|367:272,2,57,2|2|8,2:3|2:3|2:3,0:0:0:0:
301,19,139351,1,8,2:3:0:0:
78,384,140021,5,8,2:3:0:0:
137,75,140155,1,8,2:3:0:0:
338,312,141360,6,0,B|462:330|462:330|437:292,1,171,4|0,3:0|2:0,2:0:0:0:
189,92,141762,1,8,2:3:0:0:
371,64,141896,2,0,B|495:47|495:47|460:17,1,171,8|0,2:0|2:0,2:0:0:0:
312,0,142164,6,0,P|280:36|285:85,1,99.7499999999999,2|2,1:2|2:0,0:0:0:0:
462,163,142432,6,0,B|419:136|374:151|374:151|347:197|280:189,1,171,0|0,3:0|2:0,2:0:0:0:
14,39,142833,1,8,2:3:0:0:
133,112,142967,2,0,B|172:115|198:73|198:73|243:58|286:85,1,171,8|0,2:0|2:0,2:0:0:0:
113,24,143235,6,0,L|15:39,1,99.7499999999999,0|0,1:0|2:0,2:0:0:0:
64,289,143503,6,0,B|95:204|5:216|42:125,1,171,0|0,3:0|2:0,2:0:0:0:
362,331,143905,1,8,2:3:0:0:
270,358,144039,2,0,B|239:273|329:285|292:194,1,171,8|0,2:0|0:0,2:0:0:0:
133,112,144307,6,0,P|171:144|219:138,1,99.7499999999999,0|0,1:0|2:0,2:0:0:0:
388,1,144574,6,0,P|310:2|300:80,1,171,0|0,3:0|2:0,2:0:0:0:
362,331,144976,1,8,2:3:0:0:
479,263,145110,2,0,P|469:185|391:183,1,171,8|0,2:0|2:0,2:0:0:0:
293,198,145378,6,0,L|236:190,3,57,2|2|2|2,1:2|2:0|2:0|2:0,2:0:0:0:
221,355,145646,6,0,B|267:346|283:302|283:302|320:338|385:328,1,171,0|0,3:0|2:0,2:0:0:0:
0,83,146048,1,8,2:3:0:0:
97,166,146182,2,0,B|138:172|175:137|175:137|191:181|237:190,1,171,8|0,2:0|2:0,2:0:0:0:
143,246,146449,6,0,P|111:284|117:332,1,99.7499999999999,0|0,1:0|2:0,2:0:0:0:
319,255,146717,5,0,3:0:0:0:
201,306,146851,2,0,L|175:137,1,171
191,141,147119,1,8,2:3:0:0:
0,0,147253,2,0,P|55:55|149:24,1,171,8|0,2:0|2:0,2:0:0:0:
244,55,147521,6,0,B|286:60|286:60|298:67|298:67|342:72,1,99.7499999999999,0|0,1:0|2:0,2:0:0:0:
480,111,147789,6,0,B|487:81|520:69|520:69|467:58|416:91|409:153|453:205,1,237.5,0|0,3:0|2:0,2:0:0:0:
481,304,148190,2,0,L|424:296,1,57,8|0,2:3|2:0,2:0:0:0:
252,280,148324,2,0,B|281:272|311:284|327:307|327:307|319:277|332:248|355:232,1,171,8|0,2:0|0:0,2:0:0:0:
257,369,148592,6,0,L|159:384,1,99.7499999999999,0|0,1:0|0:0,0:0:0:0:
56,236,148860,5,0,3:0:0:0:
138,267,148994,2,0,P|83:322|-11:291,1,171,0|0,1:0|0:0,2:0:0:0:
4,319,149262,1,8,2:3:0:0:
252,280,149396,2,0,B|325:289|325:289|346:304|346:304|417:314,1,171,8|0,2:0|2:0,2:0:0:0:
433,309,149664,6,0,B|447:282|447:282|442:255,1,57,8|0,2:3|2:0,2:0:0:0:
381,176,149798,2,0,B|376:149|376:149|390:122,1,57,8|0,2:3|2:0,2:0:0:0:
476,26,149932,6,0,B|359:6|359:6|320:41,1,171,4|0,3:0|2:0,2:0:0:0:
102,188,150333,1,8,2:3:0:0:
225,161,150467,2,0,B|342:141|342:141|381:176,1,171,8|0,2:0|2:0,2:0:0:0:
477,197,150735,6,0,P|482:148|450:111,1,99.7499999999999,2|2,1:2|2:0,0:0:0:0:
314,237,151003,6,0,B|296:361|296:361|334:336,1,171,0|0,3:0|2:0,2:0:0:0:
79,59,151405,1,8,2:3:0:0:
102,188,151539,2,0,B|120:312|120:312|82:287,1,171,8|0,2:0|0:0,2:0:0:0:
8,232,151807,6,0,B|-19:274|-19:274|-1:320,1,99.7499999999999,0|0,1:0|2:0,2:0:0:0:
239,324,152074,6,0,B|145:343|181:263|77:288,1,171,0|0,3:0|2:0,2:0:0:0:
442,152,152476,1,8,2:3:0:0:
328,94,152610,2,0,B|228:69|260:149|170:134,1,171,8|0,2:0|0:0,2:0:0:0:
95,76,152878,6,0,P|132:44|180:49,1,99.7499999999999,2|2,1:2|2:0,0:0:0:0:
305,178,153146,6,0,L|279:347,1,171,0|0,3:0|2:0,2:0:0:0:
512,0,153548,1,8,2:3:0:0:
462,117,153682,2,0,L|488:286,1,171,8|0,2:0|2:0,2:0:0:0:
416,370,153949,6,0,P|444:369|468:383,3,57,2|2|2|2,1:2|2:0|2:0|2:0,2:0:0:0:
488,286,154217,6,0,B|415:275|415:275|390:284|390:284|319:276,1,171,0|0,3:0|2:0,2:0:0:0:
81,66,154619,1,8,2:3:0:0:
208,99,154753,2,0,B|281:88|281:88|306:97|306:97|377:89,1,171,8|0,2:0|2:0,2:0:0:0:
276,190,155021,6,0,L|178:205,1,99.7499999999999,0|0,1:0|2:0,2:0:0:0:
107,138,155289,5,0,3:0:0:0:
34,349,155423,2,0,P|89:294|183:325,1,171
189,309,155690,1,8,2:3:0:0:
87,38,155824,2,0,B|125:13|125:13|107:137,1,171,8|0,2:0|2:0,2:0:0:0:
177,205,156092,6,0,P|209:167|203:119,1,99.7499999999999,0|0,1:0|2:0,2:0:0:0:
336,46,156360,6,0,P|438:46|422:171,1,237.5,0|0,3:0|2:0,2:0:0:0:
328,225,156762,2,0,L|336:169,1,57,8|0,2:3|2:0,2:0:0:0:
504,291,156896,2,0,B|463:297|426:262|426:262|410:306|364:315,1,171,8|0,2:0|2:0,2:0:0:0:
275,367,157164,6,0,B|231:360|231:360|217:364|217:364|175:358,1,99.7499999999999,0|8,1:0|2:0,2:0:0:0:
92,310,157432,5,8,2:0:0:0:
196,186,157565,2,0,P|228:224|222:272,1,99.7499999999999,8|0,2:0|0:0,2:0:0:0:
206,276,157833,1,8,2:0:0:0:
77,43,158101,5,8,2:0:0:0:
77,43,158168,1,8,2:0:0:0:
77,43,158235,2,0,L|133:51,1,33.25,8|0,2:0|2:0,2:0:0:0:
194,91,158369,2,0,L|226:86,1,33.25,8|0,2:0|2:0,2:0:0:0:
392,106,158503,6,0,P|390:27|312:18,1,171,4|0,3:0|2:0,2:0:0:0:
210,319,158905,1,8,2:3:0:0:
89,264,159039,2,0,P|90:185|168:176,1,171,8|0,2:0|2:0,2:0:0:0:
267,221,159307,6,0,L|365:206,1,99.7499999999999,2|2,1:2|2:0,0:0:0:0:
494,379,159574,6,0,B|376:361|376:361|350:316,1,171,0|0,3:0|2:0,2:0:0:0:
26,197,159976,1,8,2:3:0:0:
124,284,160110,2,0,B|241:266|241:266|267:221,1,171,8|0,2:0|2:0,2:0:0:0:
366,206,160378,6,0,L|381:108,1,99.7499999999999,0|0,1:0|2:0,2:0:0:0:
467,9,160646,6,0,P|412:64|318:33,1,171,0|0,3:0|2:0,2:0:0:0:
0,138,161048,1,8,2:3:0:0:
89,56,161182,2,0,P|168:35|227:91,1,171,8|0,2:0|2:0,2:0:0:0:
312,184,161449,6,0,B|268:177|268:177|254:181|254:181|212:175,1,99.7499999999999,0|0,1:0|2:0,2:0:0:0:
137,242,161717,6,0,B|121:149|121:149|147:120,2,133,0|0|0,3:0|2:0|2:0,2:0:0:0:
0,315,162119,6,0,L|8:258,1,57,8|0,2:3|2:0,2:0:0:0:
120,327,162253,2,0,B|214:346|178:266|282:291,1,171,8|0,2:0|2:0,2:0:0:0:
306,384,162521,6,0,P|277:384|252:371,1,57,0|0,1:0|2:0,2:0:0:0:
316,250,162655,2,0,P|301:275|277:290,1,57,0|0,2:0|2:0,2:0:0:0:
230,206,162789,5,0,3:0:0:0:
438,384,162923,2,0,B|429:339|385:323|385:323|420:286|414:245,1,171,0|8,0:0|2:3,0:0:0:0:
173,123,163324,2,0,B|164:167|120:183|120:183|155:220|149:261,1,171,8|0,2:0|2:0,2:0:0:0:
41,353,163592,6,0,L|56:255,1,99.7499999999999,0|0,1:0|2:0,2:0:0:0:
230,206,163860,5,0,3:0:0:0:
12,9,163994,2,0,P|89:18|91:97,1,171
74,93,164262,1,8,2:3:0:0:
217,28,164396,2,0,B|317:3|285:83|375:68,1,171,8|0,2:0|2:0,2:0:0:0:
437,4,164664,6,0,P|468:41|463:90,1,99.7499999999999,0|0,1:0|2:0,2:0:0:0:
341,200,164932,6,0,B|397:236|397:236|383:145|383:145|385:128|385:128|380:114|380:114|373:66,1,237.5,0|0,3:0|2:0,2:0:0:0:
512,203,165333,2,0,L|504:260,1,57,8|0,2:3|2:0,2:0:0:0:
489,384,165467,2,0,P|434:329|340:360,1,171,8|0,2:0|0:0,2:0:0:0:
272,290,165735,6,0,P|223:294|187:262,1,99.7499999999999,0|0,1:0|0:0,0:0:0:0:
254,205,166003,5,0,3:0:0:0:
100,324,166137,2,0,B|89:251|89:251|98:226|98:226|90:155,1,171,0|0,1:0|0:0,2:0:0:0:
95,139,166405,1,8,2:3:0:0:
307,36,166539,2,0,B|273:67|234:72|234:72|196:57|176:8,1,171,8|0,2:0|2:0,2:0:0:0:
162,18,166807,6,0,P|174:43|174:71,1,57,8|0,2:3|2:0,2:0:0:0:
393,94,166940,2,0,P|377:117|352:131,1,57,8|0,2:3|2:0,2:0:0:0:
254,205,167074,6,0,B|261:142|261:142|258:123|258:123|265:105|265:105|273:41,1,166.25,0|0,3:0|2:0,2:0:0:0:
176,8,167476,6,0,B|216:34|216:34|262:22,1,95,0|0,3:0|0:0,2:0:0:0:
150,129,167878,1,0,3:0:0:0:
142,128,167945,1,0,3:0:0:0:
134,127,168012,1,0,3:0:0:0:
342,214,168146,6,0,B|300:187|300:187|254:205,1,99.7499999999999,8|0,2:0|2:0,2:0:0:0:
173,280,168414,2,0,L|271:295,1,99.7499999999999,0|0,3:0|2:0,2:0:0:0:
288,292,168682,6,0,L|296:349,1,57,8|0,1:0|2:0,2:0:0:0:
342,214,168815,2,0,L|350:157,1,57,0|0,3:0|2:0,2:0:0:0:
426,257,168949,2,0,L|434:314,1,57,2|0,2:0|2:0,2:0:0:0:
374,384,169083,5,2,2:0:0:0:
489,122,169217,2,0,P|434:177|340:146,1,171,0|0,3:0|0:0,2:0:0:0:
216,3,169619,1,0,3:0:0:0:
263,90,169753,2,0,L|249:175,1,85.5000000000001,8|0,1:0|0:0,2:0:0:0:
191,361,170021,2,0,P|185:312|216:275,1,99.7499999999999,2|2,3:2|2:0,0:0:0:0:
301,320,170289,6,0,L|386:306,1,85.5000000000001,8|0,2:3|0:0,2:0:0:0:
249,174,170557,2,0,B|176:183|176:183|155:198|155:198|84:208,1,171,0|8,3:0|1:0,2:0:0:0:
215,275,170958,5,0,3:0:0:0:
119,61,171092,2,0,L|111:118,1,57,8|0,2:3|2:0,2:0:0:0:
257,117,171226,2,0,L|249:174,1,57,8|0,2:3|2:0,2:0:0:0:
66,340,171360,6,0,B|104:315|145:329|145:329|169:370|229:363,1,166.25,0|0,3:0|2:0,2:0:0:0:
297,245,171762,6,0,P|262:275|215:275,1,95,0|0,3:0|0:0,2:0:0:0:
123,219,172164,1,0,3:0:0:0:
124,227,172231,1,0,3:0:0:0:
125,235,172298,1,0,3:0:0:0:
399,286,172432,6,0,L|378:153,1,128.25,8|0,2:0|0:0,2:0:0:0:
412,81,172699,6,0,B|446:94|456:126|456:126|484:103|518:109,1,132.525,0|0,3:0|2:0,2:0:0:0:
512,121,172967,1,8,1:0:0:0:
343,234,173101,2,0,B|308:220|298:188|298:188|270:211|236:205,1,133,0|0,3:0|0:0,2:0:0:0:
379,159,173503,6,0,P|377:80|299:71,1,171,0|0,3:0|0:0,2:0:0:0:
276,287,173905,1,0,3:0:0:0:
151,191,174039,2,0,L|236:205,1,85.5000000000001,8|0,1:0|0:0,2:0:0:0:
391,347,174307,2,0,B|336:353|336:353|320:365|320:365|267:372,1,128.25,2|2,3:2|2:0,2:0:0:0:
197,322,174574,6,0,P|155:315|119:336,1,85.5000000000001,8|0,2:3|0:0,2:0:0:0:
12,156,174842,2,0,P|67:211|161:180,1,171,0|8,3:0|1:0,2:0:0:0:
179,88,175244,5,0,3:0:0:0:
261,46,175378,2,0,B|275:73|275:73|270:100,1,57,8|0,2:3|2:0,2:0:0:0:
97,130,175512,2,0,B|83:103|83:103|88:76,1,57,8|0,2:3|2:0,2:0:0:0:
352,206,175646,5,8,2:0:0:0:
353,135,175780,2,0,P|364:157|363:180,2,47.5,0|0|0,2:0|2:0|2:0,2:0:0:0:
267,168,176182,1,8,2:0:0:0:
207,131,176315,2,0,P|232:132|251:144,2,47.5,0|0|0,2:0|2:0|2:0,2:0:0:0:
192,222,176717,5,8,2:0:0:0:
130,256,176851,2,0,P|144:235|164:224,2,47.5,0|0|0,2:0|2:0|2:0,2:0:0:0:
202,313,177253,1,8,2:0:0:0:
200,384,177387,2,0,P|189:362|191:339,2,47.5,0|0|0,2:0|2:0|2:0,2:0:0:0:
284,347,177789,5,8,2:0:0:0:
355,348,177923,2,0,P|333:359|310:358,2,47.5,0|0|0,2:0|2:0|2:0,2:0:0:0:
322,262,178324,1,8,2:0:0:0:
359,202,178458,2,0,P|358:227|346:246,2,47.5,0|0|0,2:0|2:0|2:0,2:0:0:0:
268,187,178860,5,8,2:0:0:0:
234,125,178994,2,0,P|255:139|266:159,2,47.5,0|0|0,2:0|2:0|2:0,2:0:0:0:
177,197,179396,1,8,2:0:0:0:
106,195,179530,2,0,P|128:184|151:186,2,47.5,0|0|0,2:0|2:0|2:0,2:0:0:0:
16,331,179932,6,0,B|19:302|19:302|23:294|23:294|27:266,1,66.4999999999999,8|0,2:0|2:0,2:0:0:0:
9,164,180199,2,0,B|12:135|12:135|16:127|16:127|20:99,1,66.4999999999999,8|0,2:0|2:0,2:0:0:0:
170,364,180467,6,0,B|166:335|166:335|162:327|162:327|158:299,1,66.4999999999999,8|0,2:0|2:0,2:0:0:0:
177,197,180735,2,0,B|173:168|173:168|169:160|169:160|165:132,1,66.4999999999999,8|0,2:0|2:0,2:0:0:0:
321,238,181003,6,0,B|316:274|316:274|310:284|310:284|306:321,1,85.5000000000001,8|0,2:0|2:0,2:0:0:0:
322,54,181271,2,0,B|317:90|317:90|311:100|311:100|307:137,1,85.5000000000001,8|0,2:0|2:0,2:0:0:0:
453,297,181539,6,0,B|457:333|457:333|463:343|463:343|467:380,1,85.5000000000001,8|0,2:0|2:0,2:0:0:0:
452,113,181807,2,0,B|456:149|456:149|462:159|462:159|466:196,1,85.5000000000001,8|0,2:0|2:0,2:0:0:0:
307,137,182074,5,8,2:0:0:0:
309,127,182141,1,8,2:0:0:0:
310,117,182208,1,8,2:0:0:0:
311,106,182275,1,8,2:0:0:0:
312,95,182342,5,8,2:0:0:0:
270,124,182409,1,8,2:0:0:0:
258,173,182476,1,8,2:0:0:0:
281,217,182543,1,8,2:0:0:0:
291,214,182610,5,8,2:0:0:0:
244,206,182677,1,8,2:0:0:0:
198,199,182744,1,8,2:0:0:0:
151,192,182811,1,8,2:0:0:0:
153,202,182878,5,8,2:0:0:0:
112,164,182945,1,8,2:0:0:0:
39,179,183012,2,0,L|46:235,2,57,8|8|8,2:0|2:0|2:0,0:0:0:0:
188,327,183280,6,0,B|134:292|134:292|75:315,1,128.25,8|0,2:0|0:0,0:0:0:0:
126,384,183548,1,8,2:0:0:0:
380,275,183815,5,8,2:0:0:0:
380,275,183882,1,8,2:0:0:0:
380,275,183949,2,0,L|387:219,1,57,8|0,2:0|2:0,2:0:0:0:
301,177,184083,2,0,L|294:233,1,57,8|0,2:0|2:0,2:0:0:0:
459,53,184217,5,4,2:1:0:0:
